osu file format v14

[General]
AudioFilename: audio.mp3
AudioLeadIn: 0
PreviewTime: 141004
Countdown: 0
SampleSet: Soft
StackLeniency: 0.3
Mode: 0
LetterboxInBreaks: 0
WidescreenStoryboard: 0

[Editor]
Bookmarks: 70461,106118,200746,228175,239146,247375,263832,277546
DistanceSpacing: 5.9
BeatDivisor: 4
GridSize: 4
TimelineZoom: 1.7

[Metadata]
Title:Hatenaki Mirai
TitleUnicode:果てなき未来
Artist:Rita
ArtistUnicode:Rita
Creator:Djulus
Version:Ex
Source:果つることなき未来ヨリ
Tags:Hatsuru Koto Naki Mirai Yori vn visual novel Shikibe Mayu kazato asa Shizuku- cami japanese jpop pop Frontwing ayesha altugle eroge videogame video game
BeatmapID:3451618
BeatmapSetID:1689042

[Difficulty]
HPDrainRate:6
CircleSize:4.2
OverallDifficulty:9
ApproachRate:9.3
SliderMultiplier:1.75
SliderTickRate:1

[Events]
//Background and Video events
0,0,"94916209_p0.png",0,0
//Break Periods
2,165289,184764
//Storyboard Layer 0 (Background)
//Storyboard Layer 1 (Fail)
//Storyboard Layer 2 (Pass)
//Storyboard Layer 3 (Foreground)
//Storyboard Layer 4 (Overlay)
//Storyboard Sound Samples

[TimingPoints]
1432,352.941176470588,4,2,1,40,1,0
1432,-133.333333333333,4,2,1,40,0,0
3549,-133.333333333333,4,2,2,40,0,0
3726,-133.333333333333,4,2,1,40,0,0
9196,-133.333333333333,4,2,2,40,0,0
9373,-133.333333333333,4,2,1,40,0,0
12020,-133.333333333333,4,2,2,40,0,0
12108,-133.333333333333,4,2,1,40,0,0
12726,-181.818181818181,4,2,1,40,0,0
13431,-222.222222222221,4,2,1,40,0,0
16968,342.857142857143,4,2,1,60,1,0
17653,-76.9230769230769,4,2,0,60,0,0
17910,-76.9230769230769,4,2,1,60,0,0
19368,-100,4,2,1,60,0,0
26396,-100,4,2,1,52,0,0
26568,-100,4,2,1,60,0,0
27253,-50,4,2,1,60,0,0
27768,-100,4,2,1,60,0,0
33425,-66.6666666666667,4,2,1,60,0,0
34804,342.857142857143,4,2,1,60,1,0
34804,-117.647058823529,4,2,1,50,0,0
39946,-181.818181818181,4,2,1,50,0,0
40204,-181.818181818181,4,2,1,50,0,0
40289,-117.647058823529,4,2,1,50,0,0
51261,-83.3333333333333,4,2,1,60,0,0
54689,-125,4,2,1,60,0,0
56404,-125,4,2,2,60,0,0
56446,-125,4,2,1,60,0,0
56746,-83.3333333333333,4,2,1,60,0,0
57775,-100,4,2,1,50,0,0
61032,-100,4,2,1,60,0,0
69775,-66.6666666666667,4,2,1,60,0,0
70461,-125,4,2,1,70,0,1
70546,-125,4,2,1,70,0,0
70975,-83.3333333333333,4,2,1,70,0,0
71489,-90.9090909090909,4,2,1,70,0,0
72346,-111.111111111111,4,2,1,70,0,0
72861,-76.9230769230769,4,2,1,70,0,0
74918,-90.9090909090909,4,2,1,70,0,0
76975,-125,4,2,1,70,0,0
77318,-83.3333333333333,4,2,1,70,0,0
79204,-43.4782608695652,4,2,1,70,0,0
79546,-100,4,2,1,70,0,0
79889,-83.3333333333333,4,2,1,70,0,0
86232,-100,4,2,1,70,0,0
86918,-83.3333333333333,4,2,1,70,0,0
94118,-133.333333333333,4,2,1,60,0,0
96518,-79.9999999999999,4,2,1,60,0,0
101318,-55.5555555555556,4,2,1,60,0,0
102689,-80,4,2,1,60,0,0
104404,-100,4,2,1,60,0,0
104746,-76.9230769230769,4,2,1,60,0,0
106118,-117.647058823529,4,2,1,50,0,0
122575,-83.3333333333333,4,2,1,60,0,0
127718,-83.3333333333333,4,2,1,80,0,0
128061,-83.3333333333333,4,2,1,60,0,0
129089,-111.111111111111,4,2,1,60,0,0
141432,-111.111111111111,4,2,2,70,0,0
141775,-125,4,2,1,70,0,1
141861,-125,4,2,1,70,0,0
142289,-83.3333333333333,4,2,1,70,0,0
142803,-90.9090909090909,4,2,1,70,0,0
143660,-111.111111111111,4,2,1,70,0,0
144175,-76.9230769230769,4,2,1,70,0,0
144518,-90.9090909090909,4,2,1,70,0,0
146232,-90.9090909090909,4,2,1,70,0,0
146575,-71.4285714285714,4,2,1,70,0,0
147261,-90.9090909090909,4,2,1,70,0,0
148289,-125,4,2,1,70,0,0
148632,-90.9090909090909,4,2,1,70,0,0
150518,-55.5555555555556,4,2,1,70,0,0
150860,-100,4,2,1,70,0,0
151203,-83.3333333333333,4,2,1,70,0,0
157546,-100,4,2,1,70,0,0
158232,-83.3333333333333,4,2,1,70,0,0
163375,-66.6666666666667,4,2,1,70,0,0
163718,-111.111111111111,4,2,1,60,0,0
165432,-133.333333333333,4,2,1,60,0,0
185318,-222.222222222221,4,2,1,60,0,0
185661,-125,4,2,1,36,0,0
187718,-125,4,2,2,36,0,0
187889,-125,4,2,1,36,0,0
190461,-125,4,2,2,36,0,0
190632,-125,4,2,1,36,0,0
196632,-125,4,2,1,45,0,0
201432,-125,4,2,2,45,0,0
201604,-125,4,2,1,45,0,0
203832,-83.3333333333333,4,2,1,45,0,0
206232,-83.3333333333333,4,2,1,52,0,0
207604,-83.3333333333333,4,2,1,60,0,0
208289,-285.714285714284,4,2,1,60,0,0
210346,-66.6666666666667,4,2,1,60,0,0
211032,-285.714285714284,4,2,1,60,0,0
213089,-66.6666666666667,4,2,1,60,0,0
215146,-285.714285714284,4,2,1,60,0,0
215832,-100,4,2,1,60,0,0
217032,-100,4,2,1,40,0,0
217204,-100,4,2,1,60,0,0
219604,-66.6666666666667,4,2,1,60,0,0
219946,-100,4,2,1,60,0,0
220975,-76.9230769230769,4,2,1,60,0,0
225089,-66.6666666666667,4,2,1,60,0,0
225432,-83.3333333333333,4,2,1,60,0,0
226118,-71.4285714285714,4,2,1,60,0,0
226632,-41.6666666666667,4,2,1,60,0,0
226804,-41.6666666666667,4,2,1,30,0,0
227489,-666.666666666658,4,2,1,20,0,0
228175,-133.333333333333,4,2,1,35,0,0
235718,-117.647058823529,4,2,1,35,0,0
236404,-117.647058823529,4,2,1,55,0,0
237775,-83.3333333333333,4,2,1,60,0,0
238546,-55.5555555555556,4,2,1,60,0,0
239146,-55.5555555555556,4,2,1,60,0,1
239318,-55.5555555555556,4,2,1,60,0,1
240346,-76.9230769230769,4,2,1,60,0,1
241032,-100,4,2,1,45,0,1
243432,-71.4285714285714,4,2,1,45,0,1
246689,-71.4285714285714,4,2,1,50,0,1
247375,-71.4285714285714,4,2,1,70,0,1
247461,-71.4285714285714,4,2,1,70,0,0
249089,-90.9090909090909,4,2,1,70,0,0
250118,-71.4285714285714,4,2,1,70,0,0
250632,-90.9090909090909,4,2,1,70,0,0
252518,-71.4285714285714,4,2,1,70,0,0
252861,-90.9090909090909,4,2,1,70,0,0
256118,-55.5555555555556,4,2,1,70,0,0
256461,-71.4285714285714,4,2,1,70,0,0
256804,-90.9090909090909,4,2,1,70,0,0
263832,-90.9090909090909,4,2,1,70,0,0
267089,-43.4782608695652,4,2,1,70,0,0
267432,-100,4,2,1,70,0,0
268975,-71.4285714285714,4,2,1,70,0,0
269318,-90.9090909090909,4,2,1,70,0,0
274804,-133.333333333333,4,2,1,70,0,0
275832,-90.9090909090909,4,2,1,70,0,0
278232,-50,4,2,1,70,0,0
278918,-100,4,2,1,70,0,0
283032,-100,4,2,1,75,0,0
284404,-66.6666666666667,4,2,1,80,0,0
285775,-66.6666666666667,4,2,1,60,0,0
291175,-66.6666666666667,4,2,1,40,0,0
292289,-66.6666666666667,4,2,1,35,0,0
293318,-66.6666666666667,4,2,1,30,0,0
294346,-66.6666666666667,4,2,1,25,0,0
295375,-66.6666666666667,4,2,1,20,0,0
296404,-66.6666666666667,4,2,1,15,0,0
297432,-66.6666666666667,4,2,1,10,0,0
298461,-66.6666666666667,4,2,1,5,0,0

[Colours]
Combo1 : 237,209,175
Combo2 : 100,100,100
Combo3 : 137,78,33
Combo4 : 202,202,202

[HitObjects]
92,300,1432,5,4,3:1:0:0:
90,294,1696,1,2,0:3:0:0:
88,288,1961,1,2,0:3:0:0:
145,351,2137,6,0,B|254:378|245:291|343:324,1,196.875007510185,2|0,0:0|0:0,0:0:0:0:
417,255,2843,2,0,P|443:313|404:375,1,131.25000500679,0|0,3:1|0:0,0:0:0:0:
328,313,3373,1,0,0:0:0:0:
323,304,3549,1,2,0:0:0:0:
290,228,3726,5,0,0:2:0:0:
311,155,3902,1,2,0:2:0:0:
332,82,4079,1,0,0:2:0:0:
256,31,4255,6,0,B|144:18|144:18|129:62|81:69,1,196.875007510185,2|0,3:2|0:0,0:0:0:0:
11,146,4961,6,0,P|68:107|192:131,1,196.875007510185,2|0,0:0|0:0,0:0:0:0:
208,286,5667,6,0,P|151:325|27:301,1,196.875007510185,2|0,3:2|0:0,0:0:0:0:
241,209,6373,6,0,P|297:222|335:224,1,65.6250025033952,2|0,0:0|3:0,0:0:0:0:
441,304,6726,2,0,P|392:299|365:309,1,65.6250025033952,2|0,0:0|0:0,0:0:0:0:
405,223,6990,1,0,0:0:0:0:
391,212,7079,6,0,L|417:9,2,196.875007510185,4|2|0,3:2|0:0|0:0,0:0:0:0:
88,366,8490,2,0,P|64:315|99:248,1,131.25000500679,2|0,0:0|3:0,0:0:0:0:
188,207,9020,2,0,P|177:251|175:283,1,65.6250025033952,2|2,0:0|0:0,0:0:0:0:
115,170,9373,1,0,0:0:0:0:
120,165,9549,1,2,0:0:0:0:
170,97,9726,1,0,0:0:0:0:
58,26,9902,6,0,B|71:56|71:56|45:141,2,98.4375037550927,2|0|0,3:2|0:0|0:0,0:0:0:0:
4,210,10608,6,0,P|63:164|191:187,1,196.875007510185,2|0,0:0|0:0,0:0:0:0:
487,352,11314,6,0,B|451:298|383:314|383:314|358:363|271:363,1,229.687508761883,4|0,3:1|0:0,0:0:0:0:
222,322,12020,2,0,B|178:306,2,32.8125012516976,2|0|0,0:0|0:0|0:0,0:0:0:0:
408,78,12549,5,2,0:0:0:0:
350,30,12726,2,0,L|360:129,1,96.250002937317,2|0,3:2|0:0,0:0:0:0:
184,255,13255,5,2,0:0:0:0:
228,320,13431,2,0,L|240:232,1,78.7499975967408,2|0,0:0|0:0,0:0:0:0:
74,43,13961,5,2,0:0:0:0:
102,173,14137,1,4,3:3:0:0:
256,192,14226,12,0,16784,0:0:0:0:
251,352,16968,5,4,1:2:0:0:
264,235,17139,1,0,3:0:0:0:
151,112,17310,5,4,1:2:0:0:
169,236,17482,1,0,3:0:0:0:
416,87,17653,5,4,0:3:0:0:
385,61,17738,1,8,0:3:0:0:
347,56,17824,1,8,0:3:0:0:
310,71,17910,1,8,1:3:0:0:
288,103,17995,1,0,1:0:0:0:
0,277,18168,2,0,L|66:291,1,56.8749973964692,0|0,1:0|1:0,0:0:0:0:
127,367,18339,6,0,B|151:328|151:328|122:168,1,170.624992189408,6|0,3:2|0:0,0:0:0:0:
66,285,18682,1,0,1:0:0:0:
249,9,18853,6,0,B|226:126|226:126|268:81,1,170.624992189408,6|0,3:2|0:0,0:0:0:0:
261,88,19196,1,0,1:0:0:0:
512,315,19368,6,0,P|471:267|345:281,1,175,6|0,3:2|0:0,0:0:0:0:
106,64,19882,1,0,1:0:0:0:
35,169,20053,6,0,B|121:177|120:120|236:151,1,175,6|0,0:0|0:0,0:0:0:0:
336,34,20568,5,0,1:0:0:0:
300,220,20739,1,0,3:0:0:0:
336,34,20910,1,0,1:0:0:0:
423,209,21082,6,0,P|415:153|423:113,1,87.5,6|0,3:2|0:0,0:0:0:0:
178,317,21425,2,0,P|186:262|178:223,1,87.5,2|0,1:2|3:0,0:0:0:0:
308,360,21768,6,0,B|290:282|340:284|321:181,1,175,2|2,0:0|3:2,0:0:0:0:
252,85,22282,1,0,0:0:0:0:
84,217,22453,5,6,3:2:0:0:
10,125,22625,2,0,L|190:144,1,175,0|0,3:0|3:0,0:0:0:0:
252,85,23053,5,0,3:0:0:0:
257,90,23139,2,0,L|250:39,1,43.75,6|0,1:2|0:0,0:0:0:0:
333,150,23310,6,0,L|320:200,1,43.75,0|0,3:0|0:0,0:0:0:0:
263,265,23482,1,0,3:2:0:0:
438,384,23653,5,0,1:0:0:0:
442,380,23739,1,0,1:0:0:0:
444,375,23825,2,0,P|479:320|417:210,1,175,6|0,3:2|0:0,0:0:0:0:
317,37,24339,6,0,L|336:212,1,175,6|0,3:2|0:0,0:0:0:0:
285,368,24853,5,6,3:2:0:0:
210,324,25025,2,0,B|128:329|139:262|14:296,1,175,0|0,3:0|3:0,0:0:0:0:
2,191,25539,6,0,P|45:153|165:177,1,175,6|0,0:2|1:0,0:0:0:0:
289,376,26053,5,0,3:0:0:0:
266,243,26225,1,0,1:0:0:0:
471,30,26396,5,0,1:0:0:0:
490,49,26482,1,0,1:0:0:0:
476,76,26568,1,6,3:2:0:0:
321,167,26739,5,0,1:0:0:0:
314,155,26825,1,0,1:0:0:0:
488,261,26996,5,0,3:0:0:0:
486,250,27082,1,0,3:0:0:0:
333,383,27253,6,0,B|283:282|336:234|358:197|469:166|509:331|385:316,1,350,4|0,3:2|1:0,0:0:0:0:
240,351,27768,6,0,P|196:340|152:361,1,87.5,0|2,3:0|0:0,0:0:0:0:
6,217,28110,5,0,3:0:0:0:
71,181,28282,1,2,0:3:0:0:
145,203,28453,1,0,3:0:0:0:
282,244,28625,5,6,3:2:0:0:
372,307,28796,1,0,3:0:0:0:
459,262,28968,1,0,1:2:0:0:
468,247,29053,1,0,1:0:0:0:
466,225,29139,1,0,3:0:0:0:
275,5,29310,5,6,3:2:0:0:
107,158,29482,1,0,1:0:0:0:
81,149,29568,1,0,1:0:0:0:
405,275,29739,1,0,3:0:0:0:
422,270,29825,1,0,3:0:0:0:
241,376,29996,6,0,L|257:181,1,175,4|0,3:2|3:0,0:0:0:0:
117,71,30510,2,0,L|11:92,1,87.5,4|0,1:2|0:0,0:0:0:0:
377,57,30853,5,0,3:0:0:0:
394,62,30939,1,0,3:0:0:0:
414,67,31025,1,0,3:0:0:0:
479,179,31196,1,0,3:0:0:0:
374,245,31368,1,4,1:2:0:0:
297,143,31539,1,2,3:2:0:0:
13,315,31710,5,6,1:2:0:0:
46,288,31795,1,0,1:0:0:0:
89,285,31882,1,0,1:0:0:0:
127,306,31967,1,0,1:0:0:0:
146,345,32052,5,6,3:2:0:0:
377,282,32225,1,0,1:0:0:0:
386,282,32396,1,0,3:0:0:0:
432,217,32568,5,4,1:2:0:0:
118,163,32739,1,0,3:0:0:0:
107,157,32910,1,0,3:0:0:0:
282,30,33082,5,4,1:2:0:0:
256,221,33253,1,0,3:0:0:0:
419,384,33425,6,0,P|445:336|399:252,1,131.25000500679,6|0,1:2|0:0,0:0:0:0:
85,6,33768,6,0,L|102:140,1,131.25000500679,2|0,1:2|0:0,0:0:0:0:
512,204,34110,6,0,P|442:195|438:61,1,196.875007510186,2|0,1:2|0:0,0:0:0:0:
345,43,34453,5,0,1:0:0:0:
298,42,34538,1,0,1:0:0:0:
265,76,34624,1,0,1:0:0:0:
266,122,34710,1,0,1:0:0:0:
300,154,34804,2,0,L|320:-23,2,148.750002837181,6|0|0,3:2|1:0|3:0,0:0:0:0:
171,344,35832,6,0,P|122:303|29:324,1,148.750002837181,0|2,1:0|3:2,0:0:0:0:
323,268,36518,5,0,1:0:0:0:
330,275,36689,2,0,L|492:296,1,148.750002837181,2|0,0:0|0:0,0:0:0:0:
449,202,37204,2,0,P|449:164|463:116,1,74.3750014185906,0|0,1:0|0:0,0:0:0:0:
383,50,37546,6,0,P|319:78|243:29,1,148.750002837181,2|0,3:2|1:0,0:0:0:0:
33,148,38061,2,0,L|205:164,1,148.750002837181,2|0,0:0|0:0,0:0:0:0:
293,247,38575,6,0,B|374:247|364:207|462:226,2,148.750002837181,2|0|0,1:2|3:0|1:0,0:0:0:0:
196,384,39432,2,0,P|207:322|209:291,1,74.3750014185906,2|0,0:0|3:0,0:0:0:0:
84,9,39946,6,0,L|97:99,1,72.1875022029877,2|0,1:2|0:0,0:0:0:0:
34,162,40289,6,0,B|112:170|108:120|207:141,1,148.750002837181,6|0,3:2|1:0,0:0:0:0:
291,200,40804,2,0,P|322:149|274:55,1,148.750002837181,2|0,0:0|0:0,0:0:0:0:
193,153,41318,2,0,P|202:212|201:253,1,74.3750014185906,0|0,1:2|0:0,0:0:0:0:
268,314,41661,6,0,L|425:298,1,148.750002837181,2|0,3:2|1:0,0:0:0:0:
511,220,42175,2,0,P|448:229|405:147,1,148.750002837181,2|2,0:0|0:0,0:0:0:0:
346,69,42689,2,0,L|438:81,1,74.3750014185906,0|0,1:0|0:0,0:0:0:0:
296,161,43032,6,0,B|232:165|225:131|131:145,1,148.750002837181,2|0,3:2|1:0,0:0:0:0:
48,72,43546,2,0,P|61:122|57:163,1,74.3750014185906,2|0,0:0|3:0,0:0:0:0:
135,261,43889,2,0,P|140:210|152:176,1,74.3750014185906,2|0,0:0|1:0,0:0:0:0:
41,294,44232,1,2,0:0:0:0:
114,361,44404,5,0,3:0:0:0:
122,357,44575,1,2,0:0:0:0:
207,332,44746,5,0,1:0:0:0:
286,345,44918,1,2,0:0:0:0:
365,356,45089,1,2,3:2:0:0:
478,288,45261,5,2,0:0:0:0:
422,220,45432,2,0,L|436:307,1,74.3750014185906,2|0,1:2|0:0,0:0:0:0:
365,356,45775,6,0,P|311:313|213:334,1,148.750002837181,4|0,3:2|1:0,0:0:0:0:
31,267,46289,2,0,P|101:283|168:231,1,148.750002837181,2|0,0:0|0:0,0:0:0:0:
221,173,46804,2,0,P|216:121|223:79,1,74.3750014185906,0|0,1:0|0:0,0:0:0:0:
307,230,47146,6,0,L|291:396,2,148.750002837181,2|0|0,3:2|1:0|3:0,0:0:0:0:
381,182,48004,5,2,0:0:0:0:
388,187,48175,2,0,L|473:200,1,74.3750014185906,0|0,1:0|0:0,0:0:0:0:
498,93,48518,6,0,P|458:60|344:71,1,148.750002837181,2|0,3:2|1:0,0:0:0:0:
254,161,49032,2,0,L|421:142,1,148.750002837181,2|0,0:0|0:0,0:0:0:0:
189,248,49546,6,0,L|108:237,1,74.3750014185906,0|0,1:0|0:0,0:0:0:0:
32,300,49889,2,0,B|15:264|15:264|50:155,2,148.750002837181,2|2|0,3:2|1:2|3:0,0:0:0:0:
245,93,50918,1,0,1:0:0:0:
450,316,51261,6,0,B|398:270|337:292|337:292|363:294|391:325,1,157.499995193482,6|0,3:2|0:0,0:0:0:0:
303,361,51604,2,0,P|309:376|301:361,1,52.4999983978272,2|0,1:2|0:0,0:0:0:0:
23,237,51775,6,0,B|104:239|100:188|190:209,1,157.499995193482,6|0,3:2|0:0,0:0:0:0:
245,260,52118,1,2,3:2:0:0:
433,151,52289,1,0,1:0:0:0:
294,0,52461,5,6,3:2:0:0:
348,163,52632,1,0,3:0:0:0:
346,172,52804,1,0,3:0:0:0:
196,349,52975,5,2,1:2:0:0:
214,261,53146,1,0,3:0:0:0:
227,179,53318,1,2,1:2:0:0:
103,30,53489,1,0,1:0:0:0:
21,151,53661,6,0,P|58:158|92:171,1,52.4999983978272,2|0,3:2|3:0,0:0:0:0:
251,42,53832,2,0,P|219:55|178:62,1,52.4999983978272,0|0,1:0|1:0,0:0:0:0:
155,172,54004,6,0,L|136:345,1,157.499995193482,6|0,3:2|0:0,0:0:0:0:
127,337,54346,1,4,1:2:0:0:
31,246,54518,1,0,3:0:0:0:
247,353,54689,6,0,L|340:346,1,70,2|0,0:0|1:0,0:0:0:0:
507,152,55032,1,0,3:0:0:0:
345,20,55204,5,0,1:0:0:0:
352,68,55289,1,0,1:0:0:0:
359,116,55375,1,6,3:2:0:0:
221,229,55546,1,0,1:0:0:0:
425,312,55718,1,0,1:0:0:0:
229,232,55889,1,0,3:0:0:0:
48,197,56061,6,0,L|23:202,1,17.5,6|0,3:2|0:0,0:0:0:0:
200,313,56232,6,0,L|171:322,1,17.5,8|0,3:0|0:0,0:0:0:0:
295,152,56404,6,0,L|275:158,1,17.5,4|0,1:3|0:0,0:0:0:0:
417,276,56575,5,0,1:0:0:0:
423,272,56661,1,0,1:0:0:0:
430,287,56746,6,0,L|455:85,1,157.499995193482,4|0,3:1|0:0,0:0:0:0:
449,130,57089,1,0,1:0:0:0:
238,5,57261,6,0,B|204:33|202:63|202:63|245:106|220:174,1,157.499995193482,6|0,3:2|0:0,0:0:0:0:
228,142,57604,1,0,1:0:0:0:
13,353,57775,6,0,P|74:292|184:326,1,175,6|0,3:2|0:0,0:0:0:0:
269,384,58289,2,0,P|286:333|272:291,1,87.5,2|0,3:2|1:0,0:0:0:0:
390,212,58632,2,0,L|500:230,1,87.5,2|0,3:2|0:0,0:0:0:0:
290,67,58975,1,2,3:2:0:0:
311,211,59146,1,0,1:0:0:0:
41,295,59318,5,2,1:2:0:0:
63,196,59489,1,4,3:2:0:0:
157,218,59661,1,0,1:0:0:0:
141,313,59832,1,0,1:0:0:0:
97,254,60004,6,0,L|77:66,1,175,6|0,3:2|3:0,0:0:0:0:
217,267,60518,2,0,L|311:280,1,87.5,2|0,1:2|0:0,0:0:0:0:
472,126,60861,1,0,3:0:0:0:
497,225,61032,6,0,P|431:232|376:169,1,131.25,2|0,3:2|0:0,0:0:0:0:
377,186,61375,2,0,L|392:86,1,87.5,2|0,3:2|0:0,0:0:0:0:
258,286,61718,2,0,L|278:381,1,87.5,2|0,3:2|1:0,0:0:0:0:
35,243,62061,5,2,3:2:0:0:
35,243,62146,1,2,0:0:0:0:
35,243,62232,2,0,B|130:254|123:188|224:214,1,175,4|0,0:0|1:0,0:0:0:0:
381,80,62746,1,2,3:2:0:0:
302,2,62918,6,0,L|287:186,1,175,2|0,0:0|1:0,0:0:0:0:
388,271,63432,2,0,P|451:277|479:256,1,87.5,6|0,0:0|0:0,0:0:0:0:
200,374,63775,2,0,P|155:358|101:383,1,87.5,2|0,3:2|1:0,0:0:0:0:
299,384,64118,6,0,L|311:297,1,87.5,2|0,0:0|0:0,0:0:0:0:
147,46,64461,2,0,L|155:140,1,87.5,2|0,3:2|1:0,0:0:0:0:
433,127,64804,5,2,3:2:0:0:
433,127,64889,1,2,0:2:0:0:
433,127,64975,2,0,P|364:131|302:49,1,175,6|0,3:2|1:0,0:0:0:0:
17,253,65489,2,0,L|189:230,1,131.25,2|0,3:2|0:0,0:0:0:0:
157,240,65832,1,0,3:0:0:0:
334,343,66004,1,0,1:0:0:0:
223,382,66175,5,2,0:3:0:0:
232,339,66260,1,2,0:3:0:0:
242,296,66346,1,6,3:2:0:0:
380,237,66518,1,0,3:0:0:0:
220,38,66689,6,0,L|232:113,2,43.75,2|0|0,1:2|3:0|3:0,0:0:0:0:
383,219,67032,6,0,P|443:228|486:196,1,87.5,2|0,3:2|3:0,0:0:0:0:
124,339,67375,6,0,L|29:351,1,87.5,2|0,1:2|0:0,0:0:0:0:
307,111,67718,5,6,3:2:0:0:
229,330,67889,1,0,3:0:0:0:
248,48,68061,1,0,1:2:0:0:
286,274,68232,1,2,0:0:0:0:
52,211,68404,5,4,1:2:0:0:
205,187,68575,1,0,3:0:0:0:
461,353,68746,5,2,1:2:0:0:
287,311,68918,1,0,3:0:0:0:
422,174,69089,5,6,1:2:0:0:
423,184,69261,1,0,3:0:0:0:
117,379,69432,5,0,1:0:0:0:
81,355,69517,1,0,1:0:0:0:
67,314,69603,1,0,1:0:0:0:
81,274,69689,1,0,1:0:0:0:
117,250,69775,6,0,P|148:252|199:273,1,65.6250025033952,2|0,1:2|1:0,0:0:0:0:
423,164,69946,2,0,P|383:174|326:177,1,65.6250025033952,0|0,1:0|1:0,0:0:0:0:
243,24,70118,5,2,1:2:0:0:
246,56,70203,1,0,1:0:0:0:
249,89,70289,1,0,1:0:0:0:
252,121,70375,1,0,1:0:0:0:
255,154,70461,6,0,L|269:29,1,105,4|0,3:1|0:0,0:0:0:0:
266,49,70804,1,0,1:0:0:0:
511,356,70975,6,0,B|417:370|427:283|295:320,1,209.999993591309,2|0,0:0|0:0,0:0:0:0:
125,149,71489,1,2,1:2:0:0:
8,259,71661,6,0,B|139:221|139:221|115:255|116:297,1,192.500005874634,2|0,0:0|0:0,0:0:0:0:
337,134,72175,1,2,1:2:0:0:
223,20,72346,6,0,L|238:167,1,118.124996395111,2|0,0:0|0:0,0:0:0:0:
235,151,72689,1,2,0:3:0:0:
424,378,72861,5,2,1:2:0:0:
406,346,72946,1,2,0:0:0:0:
433,309,73032,1,2,0:0:0:0:
421,271,73118,1,2,0:0:0:0:
454,256,73204,6,0,B|385:280|333:228|333:228|347:290|258:318,1,227.499989585877,6|0,3:2|1:0,0:0:0:0:
15,50,73718,6,0,B|58:77|108:71|108:71|71:91|65:138,1,170.624992189408,2|0,0:0|0:0,0:0:0:0:
66,128,74061,1,2,0:3:0:0:
126,384,74232,6,0,B|141:312|141:312|94:369,1,113.749994792938,2|0,1:2|0:0,0:0:0:0:
35,276,74575,6,0,L|227:246,1,170.624992189408,2|0,3:2|0:0,0:0:0:0:
215,254,74918,5,0,1:0:0:0:
365,313,75089,1,0,3:0:0:0:
491,164,75261,5,2,0:0:0:0:
342,230,75432,1,0,0:0:0:0:
126,63,75604,5,2,1:2:0:0:
162,99,75689,1,2,0:3:0:0:
213,84,75775,1,2,0:3:0:0:
442,20,75946,6,0,B|390:27|371:73|371:73|421:113|397:171,1,192.500005874634,6|0,3:2|1:0,0:0:0:0:
251,384,76461,2,0,L|267:228,1,144.375004405975,2|0,0:0|0:0,0:0:0:0:
265,240,76804,1,2,0:3:0:0:
85,14,76975,6,0,L|96:112,1,70,2|2,1:2|0:3,0:0:0:0:
169,224,77232,5,2,0:3:0:0:
177,223,77318,2,0,P|197:164|152:112,1,104.999996795654,2|0,3:2|0:0,0:0:0:0:
30,232,77661,1,2,1:2:0:0:
161,346,77832,6,0,L|333:358,1,157.499995193482,2|0,0:0|0:0,0:0:0:0:
323,353,78175,1,2,0:2:0:0:
512,163,78346,5,2,1:2:0:0:
500,165,78431,1,2,0:0:0:0:
490,167,78517,1,2,0:0:0:0:
479,168,78603,1,2,0:0:0:0:
446,152,78689,5,6,3:2:0:0:
207,83,78861,1,0,3:0:0:0:
438,0,79032,1,2,1:2:0:0:
308,285,79204,6,0,B|210:173|307:42|438:132|355:200,1,301.875005757809,2|0,3:2|0:0,0:0:0:0:
370,183,79546,6,0,P|338:192|288:146,1,87.5,2|0,1:2|0:0,0:0:0:0:
40,18,79889,6,0,L|60:199,1,157.499995193482,6|0,0:0|0:0,0:0:0:0:
49,191,80232,1,0,1:0:0:0:
120,377,80404,5,2,0:0:0:0:
141,239,80575,1,4,3:2:0:0:
234,111,80746,5,6,1:2:0:0:
263,313,80918,1,0,3:0:0:0:
493,215,81089,5,6,1:2:0:0:
456,192,81175,1,0,1:0:0:0:
411,210,81260,1,0,1:0:0:0:
367,189,81346,1,0,1:0:0:0:
360,183,81432,6,0,L|376:94,2,52.4999983978272,4|2|2,3:1|0:0|0:0,0:0:0:0:
211,260,81775,1,2,1:2:0:0:
418,374,81946,2,0,B|347:371|353:341|239:348,1,157.499995193482,2|0,0:0|0:0,0:0:0:0:
263,347,82289,1,0,0:0:0:0:
12,198,82461,1,2,1:2:0:0:
37,203,82546,1,2,0:3:0:0:
63,209,82632,1,2,0:3:0:0:
168,372,82804,6,0,L|158:172,1,157.499995193482,2|0,3:2|0:0,0:0:0:0:
162,204,83146,1,0,1:0:0:0:
364,19,83318,6,0,L|341:203,1,157.499995193482,2|0,0:0|0:0,0:0:0:0:
344,175,83661,1,2,0:0:0:0:
458,357,83832,1,2,1:2:0:0:
470,335,83918,1,2,0:3:0:0:
466,311,84004,1,2,0:3:0:0:
265,238,84175,6,0,B|191:243|200:217|81:235,1,157.499995193482,2|0,3:2|0:0,0:0:0:0:
17,211,84518,2,0,P|29:248|30:287,1,52.4999983978272,2|0,1:2|0:0,0:0:0:0:
225,352,84689,6,0,P|258:322|374:346,1,157.499995193482,2|0,0:0|0:0,0:0:0:0:
369,353,85032,1,2,0:3:0:0:
512,162,85204,5,2,1:2:0:0:
368,196,85375,1,2,0:0:0:0:
248,53,85546,5,2,3:1:0:0:
421,115,85718,1,0,0:0:0:0:
242,54,85889,6,0,L|73:76,1,157.499995193482,4|0,1:2|0:0,0:0:0:0:
19,129,86232,2,0,P|2:69|16:37,1,87.5,2|0,3:2|3:0,0:0:0:0:
271,264,86575,1,2,1:2:0:0:
138,348,86746,5,0,1:0:0:0:
138,348,86832,1,0,1:0:0:0:
138,348,86918,2,0,B|117:317|117:317|158:184,1,157.499995193482,6|0,3:2|0:0,0:0:0:0:
160,189,87261,1,0,1:0:0:0:
361,11,87432,2,0,B|397:42|397:42|364:113|373:182,1,157.499995193482,2|0,0:0|0:0,0:0:0:0:
330,226,87775,1,2,0:3:0:0:
409,325,87946,1,2,1:3:0:0:
460,317,88031,1,2,0:3:0:0:
512,309,88117,1,2,0:3:0:0:
306,384,88289,6,0,P|243:309|131:333,1,209.999993591309,2|0,3:2|1:0,0:0:0:0:
6,209,88804,2,0,P|83:224|111:198,1,104.999996795654,2|0,0:0|3:0,0:0:0:0:
327,85,89146,1,2,0:2:0:0:
205,0,89318,6,0,L|220:181,1,157.499995193482,2|0,1:2|0:0,0:0:0:0:
258,253,89661,5,6,3:2:0:0:
73,129,89832,1,0,3:0:0:0:
305,190,90004,5,2,1:2:0:0:
56,118,90175,1,2,3:2:0:0:
345,128,90346,5,0,1:2:0:0:
36,119,90518,1,2,3:2:0:0:
382,65,90689,5,0,1:2:0:0:
22,131,90861,1,2,3:2:0:0:
225,336,91032,5,4,1:2:0:0:
171,68,91204,1,0,3:0:0:0:
0,358,91375,6,0,P|27:340|113:350,1,104.999996795654,2|0,1:2|0:0,0:0:0:0:
501,110,91718,6,0,P|421:95|406:65,1,104.999996795654,6|0,1:2|3:0,0:0:0:0:
292,153,91975,1,0,3:2:0:0:
276,142,92061,5,2,1:2:0:0:
227,154,92146,1,2,1:2:0:0:
200,198,92232,1,2,1:2:0:0:
209,248,92318,1,2,1:2:0:0:
251,278,92404,6,0,B|324:267|324:267|363:318|420:311,1,157.499995193482,6|0,3:2|0:0,0:0:0:0:
401,229,92746,1,0,1:0:0:0:
91,0,92918,6,0,L|116:191,1,157.499995193482,6|0,3:2|0:0,0:0:0:0:
120,234,93261,1,0,1:0:0:0:
508,114,93432,6,0,B|403:122|426:22|278:66,1,209.999993591309,6|0,3:2|0:0,0:0:0:0:
313,57,93946,1,0,1:0:0:0:
238,378,94118,6,0,L|252:223,1,131.25000500679,4|0,3:2|0:0,0:0:0:0:
342,322,94632,1,0,1:0:0:0:
152,297,94804,1,0,3:0:0:0:
342,322,94975,1,0,1:0:0:0:
149,288,95146,6,0,P|97:273|51:292,1,98.4375037550928,6|0,3:2|0:0,0:0:0:0:
10,339,95489,2,0,L|0:274,1,65.6250025033952,0|0,1:0|0:0,0:0:0:0:
249,227,95832,6,0,L|335:243,1,65.6250025033952,2|4,0:0|3:2,0:0:0:0:
448,141,96175,2,0,L|366:155,1,65.6250025033952,2|0,3:2|0:0,0:0:0:0:
78,21,96518,5,6,3:2:0:0:
198,154,96689,2,0,P|187:82|209:152,1,218.75,0|0,3:0|3:0,0:0:0:0:
248,226,97204,5,6,3:2:0:0:
0,345,97375,2,0,B|53:294|146:298|146:298|109:346|135:365,1,218.75,0|0,3:0|1:0,0:0:0:0:
206,360,97804,1,0,1:0:0:0:
215,368,97889,5,6,3:2:0:0:
512,297,98061,2,0,P|447:292|416:247,1,109.375,2|0,0:0|0:0,0:0:0:0:
182,30,98404,5,2,3:2:0:0:
188,19,98489,1,0,3:0:0:0:
208,51,98575,6,0,B|212:102|212:102|220:116|220:116|228:173,1,109.375,4|0,1:2|0:0,0:0:0:0:
336,27,98918,5,2,3:2:0:0:
285,381,99089,2,0,B|304:323|304:323|302:278|302:278|320:196,1,164.0625,4|0,3:2|0:0,0:0:0:0:
317,213,99432,1,0,3:0:0:0:
49,329,99604,6,0,B|102:312|102:312|150:363,1,109.375,6|0,3:2|0:0,0:0:0:0:
512,185,99946,6,0,P|437:190|385:119,1,164.0625,0|0,1:2|0:0,0:0:0:0:
471,110,100289,1,0,1:0:0:0:
249,6,100461,5,2,0:0:0:0:
255,9,100546,1,2,0:0:0:0:
261,12,100632,2,0,L|251:152,1,109.375,6|0,3:2|0:0,0:0:0:0:
292,186,100889,6,0,L|299:318,1,109.375,0|0,3:0|0:0,0:0:0:0:
252,358,101146,5,0,3:0:0:0:
71,162,101318,6,0,B|14:75|169:49|189:154|157:228|111:263|37:253,2,314.999990386963,6|4|2,1:2|1:2|0:0,0:0:0:0:
277,272,102175,5,0,3:0:0:0:
292,266,102261,1,0,3:0:0:0:
473,179,102432,5,0,3:0:0:0:
496,186,102518,1,2,3:2:0:0:
266,2,102689,6,0,P|224:58|246:108,1,109.375,4|0,1:2|0:0,0:0:0:0:
375,351,103032,1,6,1:2:0:0:
423,373,103117,1,0,1:0:0:0:
472,352,103203,1,0,1:0:0:0:
490,303,103289,1,0,1:0:0:0:
466,255,103374,5,4,1:3:0:0:
185,203,103546,1,0,3:0:0:0:
460,80,103718,1,0,3:0:0:0:
213,42,103889,5,4,1:2:0:0:
425,175,104061,1,0,3:0:0:0:
208,295,104232,1,0,3:0:0:0:
334,21,104404,6,0,L|318:161,1,131.25,6|0,1:2|0:0,0:0:0:0:
389,266,104746,6,0,P|462:287|506:254,1,113.749994792938,6|0,3:2|0:0,0:0:0:0:
137,88,105089,6,0,L|0:112,1,113.749994792938,4|0,1:2|3:0,0:0:0:0:
217,309,105432,5,6,1:2:0:0:
266,42,105604,1,0,3:0:0:0:
32,284,105775,1,2,1:2:0:0:
67,268,105860,1,0,1:0:0:0:
104,281,105946,1,0,1:0:0:0:
123,316,106032,1,0,1:0:0:0:
111,351,106118,6,0,B|97:190,2,148.750002837181,6|0|0,3:2|1:0|3:0,0:0:0:0:
506,233,107146,6,0,P|434:243|386:160,1,148.750002837181,0|2,1:0|3:2,0:0:0:0:
158,75,107832,5,2,1:2:0:0:
255,16,108004,2,0,L|232:187,1,148.750002837181,2|0,0:0|0:0,0:0:0:0:
277,232,108518,2,0,L|270:142,1,74.3750014185906,0|0,1:0|0:0,0:0:0:0:
197,282,108861,6,0,P|147:305|61:257,1,148.750002837181,2|0,3:2|1:0,0:0:0:0:
259,361,109375,2,0,P|314:323|405:350,1,148.750002837181,2|0,0:0|0:0,0:0:0:0:
512,244,109889,2,0,L|407:258,1,74.3750014185906,2|0,1:2|0:0,0:0:0:0:
349,212,110232,6,0,L|370:68,1,111.562502127886,0|0,3:0|0:0,0:0:0:0:
326,45,110575,2,0,L|337:136,1,74.3750014185906,0|0,1:0|0:0,0:0:0:0:
201,188,110918,6,0,L|22:168,1,148.750002837181,0|2,3:0|1:2,0:0:0:0:
53,171,111604,6,0,P|139:188|137:249,1,148.750002837181,6|0,3:2|1:0,0:0:0:0:
198,326,112118,2,0,L|32:343,1,148.750002837181,2|0,0:0|0:0,0:0:0:0:
237,247,112632,2,0,L|336:263,1,74.3750014185906,0|0,1:0|0:0,0:0:0:0:
474,345,112975,6,0,P|428:323|437:221,1,148.750002837181,2|0,3:2|1:0,0:0:0:0:
500,137,113489,2,0,P|495:172|500:229,1,74.3750014185906,2|0,0:0|3:0,0:0:0:0:
322,76,113832,2,0,P|358:97|438:28,1,148.750002837181,2|0,0:0|0:0,0:0:0:0:
235,155,114346,6,0,B|166:157|173:113|67:138,1,148.750002837181,2|0,3:2|1:0,0:0:0:0:
12,74,114861,2,0,L|30:228,1,148.750002837181,2|0,0:0|0:0,0:0:0:0:
77,310,115375,2,0,P|28:325|-7:313,1,74.3750014185906,0|0,1:0|0:0,0:0:0:0:
144,220,115718,5,2,3:2:0:0:
221,258,115889,1,2,0:0:0:0:
233,252,116061,1,0,1:0:0:0:
211,164,116232,1,0,0:0:0:0:
312,139,116404,5,2,3:2:0:0:
130,251,116575,1,2,0:0:0:0:
326,338,116746,1,0,1:0:0:0:
218,376,116918,5,2,0:0:0:0:
218,376,117004,1,2,0:0:0:0:
218,376,117089,2,0,L|246:212,1,148.750002837181,4|0,3:2|1:0,0:0:0:0:
184,83,117604,2,0,P|139:130|154:212,1,148.750002837181,2|0,0:0|0:0,0:0:0:0:
341,151,118118,2,0,P|277:142|263:129,1,74.3750014185906,2|0,1:2|0:0,0:0:0:0:
358,243,118461,6,0,B|423:255|445:212|532:246,2,148.750002837181,2|0|0,3:2|1:0|3:0,0:0:0:0:
266,96,119318,1,2,0:0:0:0:
352,37,119489,2,0,L|338:118,1,74.3750014185906,0|0,1:0|0:0,0:0:0:0:
258,187,119832,6,0,P|193:152|107:186,1,148.750002837181,2|0,3:2|1:0,0:0:0:0:
19,266,120346,2,0,L|181:248,1,148.750002837181,2|0,0:0|0:0,0:0:0:0:
258,280,120861,1,0,1:0:0:0:
236,363,121032,1,2,0:0:0:0:
428,355,121204,6,0,P|457:305|417:236,1,111.562502127886,2|0,3:2|0:0,0:0:0:0:
356,204,121546,2,0,L|366:299,1,74.3750014185906,0|0,1:0|0:0,0:0:0:0:
0,238,121889,6,0,B|65:243|56:207|135:227,1,111.562502127886,2|0,3:2|0:0,0:0:0:0:
191,248,122232,2,0,L|181:153,1,74.3750014185906,0|0,1:0|0:0,0:0:0:0:
360,0,122575,6,0,L|341:170,1,157.499995193482,6|0,3:2|0:0,0:0:0:0:
416,253,122918,2,0,P|411:212|416:177,1,52.4999983978272,2|0,1:2|0:0,0:0:0:0:
294,218,123089,6,0,B|331:258|331:258|302:357,1,157.499995193482,6|0,3:2|0:0,0:0:0:0:
221,329,123432,6,0,P|206:328|222:331,1,52.4999983978272,2|0,3:2|0:0,0:0:0:0:
297,360,123604,1,0,1:0:0:0:
512,114,123775,6,0,P|431:118|394:54,1,157.499995193482,6|0,3:2|0:0,0:0:0:0:
306,11,124118,2,0,L|321:108,1,52.4999983978272,0|0,3:0|0:0,0:0:0:0:
273,139,124289,2,0,L|285:54,1,52.4999983978272,6|0,1:2|0:0,0:0:0:0:
190,32,124461,5,0,3:0:0:0:
380,185,124632,1,2,0:0:0:0:
150,236,124804,1,0,1:0:0:0:
279,358,124975,5,2,3:2:0:0:
294,338,125061,1,0,3:0:0:0:
285,318,125146,1,0,1:0:0:0:
295,298,125232,1,0,1:0:0:0:
295,298,125318,6,0,P|213:323|189:299,1,104.999996795654,6|0,3:2|0:0,0:0:0:0:
110,104,125661,1,0,1:0:0:0:
27,223,125832,2,0,B|102:157|171:188|171:188|152:209|146:253,1,209.999993591309,2|0,3:2|1:0,0:0:0:0:
253,329,126261,1,0,1:0:0:0:
261,327,126346,6,0,L|253:253,1,52.4999983978272,2|0,3:2|0:0,0:0:0:0:
396,125,126518,2,0,L|385:203,1,52.4999983978272,0|0,1:0|0:0,0:0:0:0:
439,384,126689,5,6,3:2:0:0:
471,352,126775,1,0,3:0:0:0:
449,314,126861,1,0,1:0:0:0:
292,183,127032,2,0,B|217:188|222:149|118:169,1,157.499995193482,2|0,1:2|0:0,0:0:0:0:
91,71,127375,5,6,1:2:0:0:
82,82,127461,1,0,3:0:0:0:
88,92,127546,1,0,3:0:0:0:
102,89,127632,1,0,3:0:0:0:
131,63,127718,5,0,3:0:0:0:
89,32,127803,1,0,3:0:0:0:
38,37,127889,1,0,3:0:0:0:
5,76,127975,1,0,3:0:0:0:
6,127,128060,5,6,3:2:0:0:
195,287,128232,1,2,0:3:0:0:
200,294,128318,2,0,P|150:331|96:301,1,104.999996795654,2|0,0:3|0:0,0:0:0:0:
25,279,128575,6,0,L|38:355,2,52.4999983978272,6|2|0,3:2|0:3|3:0,0:0:0:0:
318,98,128918,5,0,1:0:0:0:
271,174,129089,2,0,L|294:363,1,157.499995193482,6|0,3:2|0:0,0:0:0:0:
430,297,129604,5,2,0:0:0:0:
485,374,129775,1,2,1:2:0:0:
430,297,129946,2,0,L|443:210,1,78.7499975967408,6|0,3:2|0:0,0:0:0:0:
384,50,130289,1,2,0:0:0:0:
493,119,130461,1,6,1:2:0:0:
345,156,130632,5,2,3:2:0:0:
345,156,130718,1,2,3:3:0:0:
345,156,130804,2,0,L|300:149,1,39.3749987983704,4|2,1:2|0:3,0:0:0:0:
144,77,130975,2,0,L|200:71,1,39.3749987983704,2|2,3:2|0:3,0:0:0:0:
286,9,131146,1,4,1:2:0:0:
229,221,131318,6,0,L|219:133,1,78.7499975967408,2|0,0:0|0:3,0:0:0:0:
349,318,131661,2,0,L|362:228,1,78.7499975967408,2|0,0:0|1:0,0:0:0:0:
196,354,132004,5,2,0:3:0:0:
196,354,132089,1,2,0:3:0:0:
196,354,132175,2,0,B|118:357|122:318|27:339,1,157.499995193482,2|0,3:2|1:0,0:0:0:0:
0,251,132689,2,0,P|37:240|93:264,1,78.7499975967408,2|0,0:0|0:0,0:0:0:0:
273,149,133032,2,0,P|224:161|189:148,1,78.7499975967408,2|0,3:2|1:0,0:0:0:0:
101,26,133375,5,2,0:0:0:0:
101,26,133461,1,2,0:0:0:0:
101,26,133546,2,0,L|123:203,1,157.499995193482,4|0,3:3|1:0,0:0:0:0:
336,323,134061,1,2,0:0:0:0:
243,368,134232,6,0,P|230:286|290:227,1,157.499995193482,2|0,3:2|1:0,0:0:0:0:
378,192,134746,2,0,L|475:209,1,78.7499975967408,2|0,0:0|0:0,0:0:0:0:
289,27,135089,2,0,L|305:137,1,78.7499975967408,2|0,3:2|1:0,0:0:0:0:
275,233,135432,6,0,L|137:219,1,118.124996395111,2|0,0:0|0:0,0:0:0:0:
103,138,135775,2,0,L|166:129,1,39.3749987983704,2|0,3:2|0:3,0:0:0:0:
221,89,135946,1,0,1:0:0:0:
43,352,136118,5,2,1:2:0:0:
43,352,136204,1,0,1:0:0:0:
43,352,136289,2,0,P|24:299|82:216,1,157.499995193482,4|0,3:2|1:0,0:0:0:0:
200,152,136804,1,0,3:0:0:0:
373,243,136975,6,0,L|278:228,1,78.7499975967408,2|0,0:0|3:0,0:0:0:0:
72,62,137318,2,0,L|158:72,1,78.7499975967408,2|0,1:2|0:0,0:0:0:0:
130,332,137661,5,2,0:1:0:0:
304,84,137918,1,0,3:0:0:0:
300,78,138004,2,0,L|295:18,2,39.3749987983704,2|2|4,1:2|0:0|3:2,0:0:0:0:
374,151,138346,5,2,0:0:0:0:
475,134,138518,1,0,3:0:0:0:
283,260,138689,5,2,1:2:0:0:
189,236,138861,1,2,0:0:0:0:
58,60,139032,5,4,1:2:0:0:
98,272,139204,1,0,3:0:0:0:
58,60,139375,1,0,3:0:0:0:
189,359,139546,5,6,1:2:0:0:
238,146,139717,1,0,3:0:0:0:
189,359,139889,1,0,3:0:0:0:
450,254,140061,5,6,1:2:0:0:
322,285,140232,1,2,3:2:0:0:
348,54,140404,5,6,1:2:0:0:
377,90,140489,1,0,1:0:0:0:
360,130,140575,1,0,1:0:0:0:
105,354,140746,1,0,1:0:0:0:
81,317,140832,1,0,1:0:0:0:
106,279,140917,1,0,3:0:0:0:
243,187,141089,5,6,1:2:0:0:
243,187,141261,1,0,3:2:0:0:
62,56,141432,5,8,0:3:0:0:
104,49,141517,1,8,0:3:0:0:
140,72,141603,1,4,0:3:0:0:
150,113,141689,1,4,0:3:0:0:
130,150,141775,6,0,L|20:134,1,105,4|0,3:1|0:0,0:0:0:0:
12,129,142118,1,2,1:2:0:0:
258,24,142289,1,2,0:3:0:0:
258,24,142375,1,2,0:3:0:0:
258,24,142461,2,0,L|243:149,1,104.999996795654,2|0,3:2|0:0,0:0:0:0:
432,259,142804,1,2,1:2:0:0:
289,384,142975,2,0,L|282:320,1,48.1250014686585,2|0,0:0|0:0,0:0:0:0:
259,315,143146,6,0,B|339:320|335:269|426:298,1,144.375004405975,0|0,3:0|0:0,0:0:0:0:
504,221,143489,2,0,L|432:233,1,48.1250014686585,2|0,1:2|0:0,0:0:0:0:
385,159,143661,5,2,0:0:0:0:
275,91,143832,5,0,3:0:0:0:
163,134,144004,5,2,0:0:0:0:
142,243,144175,5,2,1:2:0:0:
15,41,144346,6,0,P|5:47|19:42,1,56.8749973964692,2|2,0:0|0:0,0:0:0:0:
32,41,144518,6,0,L|167:65,1,96.250002937317,6|0,3:2|0:0,0:0:0:0:
347,278,144861,1,0,1:0:0:0:
225,374,145032,6,0,B|204:276|277:291|253:156,1,192.500005874634,2|0,0:0|0:0,0:0:0:0:
367,17,145546,6,0,L|354:85,1,48.1250014686585,6|2,1:2|0:3,0:0:0:0:
426,180,145718,2,0,L|413:103,1,48.1250014686585,2|2,0:3|0:3,0:0:0:0:
486,43,145889,1,2,3:1:0:0:
284,157,146061,5,2,0:3:0:0:
284,157,146147,1,2,0:3:0:0:
284,157,146232,2,0,L|168:145,1,96.250002937317,2|0,1:2|0:0,0:0:0:0:
98,352,146575,6,0,B|195:375|189:305|278:330,1,183.749994392395,2|0,3:2|0:0,0:0:0:0:
488,304,146918,6,0,P|420:249|318:288,1,183.749994392395,6|0,1:2|0:0,0:0:0:0:
266,332,147261,6,0,L|251:215,1,96.250002937317,4|0,3:3|0:0,0:0:0:0:
85,49,147604,1,0,1:0:0:0:
0,169,147775,2,0,B|39:142|96:168|96:168|134:119|213:135,1,192.500005874634,2|0,0:0|0:0,0:0:0:0:
402,41,148289,1,2,1:3:0:0:
365,65,148375,1,2,0:3:0:0:
326,47,148461,1,2,0:3:0:0:
269,253,148632,6,0,L|253:151,1,96.250002937317,2|0,3:2|0:0,0:0:0:0:
197,360,148975,1,2,1:2:0:0:
468,303,149146,2,0,P|404:308|372:274,1,96.250002937317,2|0,0:0|3:0,0:0:0:0:
185,66,149489,2,0,L|304:81,1,96.250002937317,2|0,0:0|1:0,0:0:0:0:
347,37,149746,1,2,0:0:0:0:
393,41,149831,1,2,0:0:0:0:
419,80,149917,1,2,0:0:0:0:
405,124,150003,5,6,3:2:0:0:
179,228,150175,1,0,3:0:0:0:
399,347,150346,1,2,1:2:0:0:
346,185,150518,6,0,B|259:167|259:167|308:332,1,236.249992790222,6|0,3:2|0:0,0:0:0:0:
376,328,150861,2,0,P|390:324|377:329,1,43.75,2|0,1:2|0:0,0:0:0:0:
301,309,151032,1,0,3:0:0:0:
0,219,151204,6,0,B|36:171|105:159|139:179|139:179|83:194|72:232,1,209.999993591309,6|0,3:2|1:0,0:0:0:0:
217,128,151718,5,2,0:0:0:0:
382,116,151889,1,0,3:0:0:0:
460,306,152061,5,6,1:2:0:0:
291,264,152232,1,0,3:0:0:0:
57,356,152404,5,2,1:2:0:0:
82,330,152489,1,0,1:0:0:0:
118,354,152575,1,0,1:0:0:0:
152,336,152661,1,0,1:0:0:0:
152,336,152746,2,0,L|211:325,2,52.4999983978272,4|2|2,3:1|0:0|0:0,0:0:0:0:
354,231,153089,1,2,1:2:0:0:
233,65,153261,6,0,L|260:266,1,157.499995193482,2|0,0:0|0:0,0:0:0:0:
254,222,153604,1,2,0:3:0:0:
123,133,153775,1,2,1:2:0:0:
355,62,153946,5,2,0:3:0:0:
355,62,154032,1,2,0:3:0:0:
355,62,154118,2,0,B|422:66|457:115|457:115|525:86|488:9,1,209.999993591309,2|0,3:2|1:0,0:0:0:0:
174,195,154632,6,0,P|118:150|23:185,1,157.499995193482,2|0,0:0|0:0,0:0:0:0:
0,105,154975,2,0,P|11:62|7:34,1,52.4999983978272,2|0,0:0|0:0,0:0:0:0:
91,241,155146,1,2,1:2:0:0:
139,259,155231,1,2,0:0:0:0:
154,307,155317,1,2,0:0:0:0:
122,346,155403,1,2,0:0:0:0:
58,349,155489,6,0,B|100:335|100:335|138:384|226:366,1,157.499995193482,6|0,3:2|0:0,0:0:0:0:
313,333,155832,2,0,P|302:362|296:395,1,52.4999983978272,2|0,1:2|0:0,0:0:0:0:
214,246,156004,6,0,B|241:251|262:267|262:267|230:89,1,209.999993591309,2|0,0:0|0:0,0:0:0:0:
409,26,156518,6,0,L|395:95,1,52.4999983978272,2|0,1:2|3:0,0:0:0:0:
475,201,156689,2,0,L|466:135,1,52.4999983978272,2|0,3:2|1:0,0:0:0:0:
234,112,156861,6,0,P|180:129|102:66,1,157.499995193482,4|0,3:2|0:0,0:0:0:0:
31,10,157204,2,0,P|7:66|39:114,1,104.999996795654,0|0,1:0|0:0,0:0:0:0:
324,358,157546,6,0,B|304:336|304:336|327:218,1,131.25,2|0,3:2|0:0,0:0:0:0:
233,110,157889,6,0,L|248:213,1,87.5,2|0,1:2|1:0,0:0:0:0:
216,265,158146,1,0,1:0:0:0:
190,282,158232,6,0,B|92:291|115:175|-36:230,1,209.999993591309,6|0,3:2|1:0,0:0:0:0:
322,164,158746,6,0,L|496:209,1,157.499995193482,2|0,0:0|0:0,0:0:0:0:
512,113,159089,2,0,L|441:120,1,52.4999983978272,2|0,0:0|0:0,0:0:0:0:
316,141,159261,5,2,1:3:0:0:
310,89,159346,1,2,0:3:0:0:
303,37,159432,1,2,0:3:0:0:
121,255,159604,6,0,P|54:248|36:207,1,104.999996795654,2|0,3:2|0:0,0:0:0:0:
192,362,159946,1,2,1:2:0:0:
309,296,160118,6,0,B|381:311|381:311|389:316|389:316|501:342,1,157.499995193482,2|0,0:0|0:0,0:0:0:0:
512,250,160461,2,0,L|450:253,1,52.4999983978272,2|0,3:2|0:0,0:0:0:0:
346,159,160632,6,0,B|348:152|348:152|358:94,1,52.4999983978272,2|2,1:2|0:3,0:0:0:0:
298,48,160804,2,0,B|299:52|299:52|303:100,1,52.4999983978272,2|2,0:3|0:3,0:0:0:0:
287,269,160975,5,6,3:2:0:0:
399,32,161146,1,0,3:0:0:0:
287,269,161318,1,2,1:2:0:0:
399,32,161489,1,2,3:2:0:0:
153,151,161661,5,0,1:1:0:0:
437,308,161832,1,2,3:2:0:0:
345,180,162004,6,0,L|224:203,1,104.999996795654,0|0,1:2|3:0,0:0:0:0:
52,65,162261,1,0,3:0:0:0:
55,73,162346,6,0,P|109:89|161:55,1,104.999996795654,4|0,3:3|0:0,0:0:0:0:
342,297,162689,5,2,1:2:0:0:
76,191,162861,1,0,3:0:0:0:
313,44,163032,5,2,1:2:0:0:
309,51,163118,1,0,1:0:0:0:
294,59,163204,2,0,P|288:46|295:-13,1,52.4999983978272,0|0,3:0|3:0,0:0:0:0:
164,219,163375,6,0,P|179:179|174:111,1,65.6250025033952,6|2,1:2|0:0,0:0:0:0:
391,367,163546,6,0,P|378:326|382:284,1,65.6250025033952,2|2,1:2|0:0,0:0:0:0:
341,212,163718,6,0,B|375:254|458:256|523:198|490:115|490:115|466:157|418:166,2,314.999990386963,4|2|0,3:1|0:0|0:0,0:0:0:0:
441,56,185318,6,0,B|469:75|460:98|460:98|459:87|450:74,1,59.0624981975556,0|0,0:0|0:0,0:0:0:0:
458,89,185661,6,0,L|371:98,1,70,4|0,3:1|0:0,0:0:0:0:
311,138,186004,2,0,L|330:-5,2,140,0|0|0,3:0|3:0|3:0,0:0:0:0:
17,138,187032,5,0,3:0:0:0:
17,138,187375,2,0,P|81:181|161:149,1,140,0|2,3:0|3:2,0:0:0:0:
198,95,187889,1,0,0:0:0:0:
198,95,188061,2,0,L|112:78,1,70,0|0,3:0|0:0,0:0:0:0:
226,202,188404,6,0,L|310:192,1,70,0|0,3:0|0:0,0:0:0:0:
380,145,188746,2,0,L|356:290,1,140,0|0,3:0|3:0,0:0:0:0:
357,283,189432,1,0,3:0:0:0:
357,283,189775,6,0,B|393:265|434:299|434:299|472:297|487:246,2,140,2|0|2,3:2|3:0|3:2,0:0:0:0:
272,349,190632,1,0,0:0:0:0:
272,349,190804,2,0,P|262:270|259:258,1,70,0|0,3:0|0:0,0:0:0:0:
192,219,191146,6,0,P|146:188|57:207,1,140,4|0,3:1|3:0,0:0:0:0:
368,101,191832,2,0,P|430:124|494:77,1,140,0|0,3:0|3:0,0:0:0:0:
219,20,192346,5,0,0:0:0:0:
259,103,192518,2,0,L|273:257,1,140,2|0,3:2|3:0,0:0:0:0:
357,380,193032,2,0,P|391:316|346:246,1,140,2|0,0:0|0:0,0:0:0:0:
276,216,193546,2,0,L|189:230,1,70,0|0,3:0|0:0,0:0:0:0:
137,337,193804,1,0,0:0:0:0:
131,330,193889,6,0,B|116:329|99:346|99:346|128:227,1,140,6|0,3:2|3:0,0:0:0:0:
35,82,194404,2,0,L|53:239,1,140,2|0,0:0|0:0,0:0:0:0:
204,135,194918,2,0,P|133:133|122:119,1,70,0|0,3:0|0:0,0:0:0:0:
310,55,195261,5,2,3:2:0:0:
310,55,195604,1,0,3:0:0:0:
310,55,195946,2,4,P|377:55|392:188,1,210,2|0,1:2|0:0,0:0:0:0:
313,253,196632,6,0,P|321:210|319:179,1,70,2|0,3:1|0:0,0:0:0:0:
212,301,196975,1,2,3:2:0:0:
296,351,197146,2,0,P|336:326|432:346,1,140,2|0,0:0|0:0,0:0:0:0:
214,290,197661,2,0,P|148:300|122:283,1,70,0|0,1:0|0:0,0:0:0:0:
70,219,198004,5,2,3:1:0:0:
33,296,198346,5,2,3:2:0:0:
90,223,198518,2,0,L|77:131,1,70,2|0,0:0|1:0,0:0:0:0:
220,7,198861,2,0,L|200:162,1,140,0|0,0:0|0:0,0:0:0:0:
265,212,199375,6,0,B|335:223|338:178|416:196,1,140,2|0,3:1|3:0,0:0:0:0:
496,351,199889,2,0,P|459:308|370:320,1,140,2|0,0:0|0:0,0:0:0:0:
312,359,200404,2,0,L|238:348,1,70,0|0,1:0|0:0,0:0:0:0:
29,290,200746,5,2,3:2:0:0:
71,222,200918,1,0,0:3:0:0:
150,203,201089,1,0,1:0:0:0:
231,242,201261,1,0,0:0:0:0:
471,155,201432,5,2,1:2:0:0:
382,103,201604,1,0,0:0:0:0:
467,58,201775,1,0,1:0:0:0:
471,155,201946,1,0,0:0:0:0:
254,373,202118,6,0,P|254:335|243:288,1,70,6|0,3:2|0:0,0:0:0:0:
382,103,202461,1,0,1:0:0:0:
301,25,202632,2,0,B|270:55|270:55|295:172,1,140,2|0,0:0|0:0,0:0:0:0:
161,218,203146,2,0,P|112:223|75:207,1,70,0|0,1:0|0:0,0:0:0:0:
433,343,203489,5,0,3:2:0:0:
433,343,203832,2,0,B|473:292|421:232|421:232|429:266|413:280,1,157.499995193482,0|0,1:0|0:0,0:0:0:0:
338,345,204175,6,0,P|277:295|200:299,1,157.499995193482,2|0,3:2|0:0,0:0:0:0:
75,277,204518,6,0,P|90:245|91:198,1,52.4999983978272,2|0,1:2|0:0,0:0:0:0:
186,182,204689,6,0,P|171:147|174:109,1,52.4999983978272,2|0,0:3|0:0,0:0:0:0:
194,50,204861,6,0,B|133:41|76:95|76:95|20:64|41:6,1,209.999993591309,6|0,3:2|1:0,0:0:0:0:
343,282,205546,2,0,P|371:256|448:267,1,104.999996795654,0|0,3:0|3:0,0:0:0:0:
498,197,205804,5,0,3:0:0:0:
489,187,205889,2,0,P|479:156|484:106,1,52.4999983978272,2|0,1:2|0:0,0:0:0:0:
376,39,206061,6,0,L|450:58,1,52.4999983978272,2|0,0:0|0:0,0:0:0:0:
171,133,206232,5,4,3:1:0:0:
246,15,206404,1,2,0:3:0:0:
246,15,206489,1,2,0:3:0:0:
246,15,206575,2,0,L|267:196,1,157.499995193482,0|0,1:0|0:0,0:0:0:0:
97,375,206918,6,0,B|72:339|73:291|122:265|122:265|107:305|143:310,1,157.499995193482,2|0,3:2|0:0,0:0:0:0:
202,332,207261,5,8,1:3:0:0:
249,353,207346,1,8,0:3:0:0:
298,338,207432,1,8,0:3:0:0:
325,294,207518,1,0,1:2:0:0:
316,243,207604,6,0,B|235:250|251:198|143:214,1,157.499995193482,4|0,3:3|0:0,0:0:0:0:
80,189,207946,1,0,3:0:0:0:
460,56,208118,5,2,0:0:0:0:
381,26,208289,2,4,L|390:87,1,61.2499981307984,6|0,3:2|0:0,0:0:0:0:
117,317,208804,5,0,3:0:0:0:
59,242,208975,1,2,3:2:0:0:
14,261,209061,1,0,3:0:0:0:
203,354,209232,1,0,3:0:0:0:
251,336,209318,1,0,3:0:0:0:
64,70,209489,5,0,0:0:0:0:
149,12,209661,2,0,L|139:76,1,61.2499981307984,2|0,1:2|3:0,0:0:0:0:
139,72,210346,6,0,B|184:96|217:57|217:57|271:77|271:77|293:53|332:57,1,196.875007510186,2|0,3:2|0:0,0:0:0:0:
409,105,210689,6,0,P|398:58|410:27,1,65.6250025033952,2|0,0:3|0:0,0:0:0:0:
266,229,210861,6,0,P|273:197|268:165,1,65.6250025033952,2|0,3:3|0:0,0:0:0:0:
428,362,211032,6,4,P|451:362|428:357,1,61.2499981307984,6|0,1:2|0:0,0:0:0:0:
81,255,211546,5,0,3:0:0:0:
33,340,211718,2,0,L|102:334,1,61.2499981307984,2|0,3:2|0:0,0:0:0:0:
319,133,212232,5,0,3:0:0:0:
230,87,212404,1,6,1:2:0:0:
310,36,212575,1,0,3:0:0:0:
261,351,212746,6,0,L|268:313,1,30.6249990653992,2|0,0:3|3:0,0:0:0:0:
106,17,213089,6,0,B|15:37|15:37|76:213,1,262.500010013581,4|0,3:1|0:0,0:0:0:0:
349,262,213604,6,0,P|362:243|346:257,1,65.6250025033952,2|0,0:3|0:0,0:0:0:0:
266,320,213775,6,0,B|243:320|216:338|216:338|257:164,1,196.875007510186,2|0,1:2|0:0,0:0:0:0:
248,198,214118,1,10,0:3:0:0:
194,115,214289,1,0,3:0:0:0:
489,28,214461,5,2,3:2:0:0:
347,92,214632,1,0,3:0:0:0:
324,85,214718,1,0,3:0:0:0:
487,218,214889,1,0,3:0:0:0:
505,211,214975,1,0,3:0:0:0:
173,345,215146,5,6,1:2:0:0:
376,261,215318,1,2,1:3:0:0:
230,167,215489,1,2,1:3:0:0:
235,191,215575,1,2,3:0:0:0:
240,217,215661,1,2,3:0:0:0:
383,353,215832,5,4,3:3:0:0:
383,353,216004,1,0,0:0:0:0:
271,303,216175,5,0,3:0:0:0:
266,293,216346,1,0,0:0:0:0:
121,208,216518,5,0,1:0:0:0:
42,315,216689,5,0,0:3:0:0:
33,272,216774,1,0,1:0:0:0:
25,229,216860,1,0,3:0:0:0:
222,38,217032,5,0,1:3:0:0:
215,81,217117,1,0,1:3:0:0:
208,124,217203,1,2,3:3:0:0:
168,358,217375,5,0,1:0:0:0:
319,208,217546,1,0,3:0:0:0:
456,370,217718,1,2,1:3:0:0:
401,319,217804,1,2,0:3:0:0:
459,274,217889,6,0,L|481:167,1,87.5,4|0,1:2|0:0,0:0:0:0:
168,358,218232,1,2,3:2:0:0:
231,259,218404,2,0,L|239:308,1,43.75,0|0,1:0|0:0,0:0:0:0:
59,198,218575,5,6,1:2:0:0:
40,113,218746,1,2,0:3:0:0:
213,16,218918,5,0,3:0:0:0:
187,123,219089,1,2,0:3:0:0:
355,362,219261,5,0,1:0:0:0:
261,317,219432,1,2,0:3:0:0:
265,311,219518,1,0,1:3:0:0:
268,304,219604,2,0,P|273:261|263:214,1,65.6250025033952,0|0,3:2|0:0,0:0:0:0:
421,155,219775,6,0,L|515:173,1,65.6250025033952,6|0,3:2|0:0,0:0:0:0:
279,1,219946,5,0,3:0:0:0:
176,25,220118,1,2,0:3:0:0:
200,125,220289,1,0,1:0:0:0:
303,102,220461,1,2,1:3:0:0:
460,352,220632,6,0,B|396:348|405:307|309:321,1,131.25,4|0,3:2|0:0,0:0:0:0:
269,240,220975,6,0,P|219:313|266:391,1,170.624992189408,4|0,1:3|0:0,0:0:0:0:
336,319,221318,5,4,1:1:0:0:
444,244,221489,1,0,3:0:0:0:
339,151,221661,1,0,3:0:0:0:
465,26,221832,5,4,1:2:0:0:
236,135,222004,1,0,3:0:0:0:
472,242,222175,1,0,3:0:0:0:
372,141,222346,5,4,1:2:0:0:
377,130,222518,1,0,3:0:0:0:
343,36,222689,1,0,3:0:0:0:
486,159,222861,5,4,1:2:0:0:
235,274,223032,1,0,3:0:0:0:
141,174,223204,1,0,3:0:0:0:
46,269,223375,5,4,1:2:0:0:
304,181,223546,1,0,3:0:0:0:
408,267,223718,1,0,3:0:0:0:
315,348,223889,1,0,3:0:0:0:
141,174,224061,6,0,L|151:113,1,56.8749973964692,6|0,1:2|0:0,0:0:0:0:
71,9,224232,2,0,L|85:85,1,56.8749973964692,0|0,3:0|0:0,0:0:0:0:
231,98,224404,1,0,3:0:0:0:
90,264,224575,6,0,L|8:245,1,56.8749973964692,6|0,1:2|0:0,0:0:0:0:
180,361,224746,2,0,L|236:352,1,56.8749973964692,0|0,3:0|0:0,0:0:0:0:
304,279,224918,1,0,3:0:0:0:
481,339,225089,6,4,B|447:335|420:358|420:358|463:199,1,196.875007510186,6|0,1:2|0:0,0:0:0:0:
415,106,225432,6,0,P|472:125|522:94,1,104.999996795654,4|0,1:1|3:0,0:0:0:0:
95,347,225775,2,0,P|33:315|-10:334,1,104.999996795654,0|0,1:2|3:0,0:0:0:0:
221,10,226118,6,0,L|201:90,1,61.2499981307984,0|0,1:0|0:0,0:0:0:0:
344,233,226289,2,0,B|346:218|346:218|330:144,1,61.2499981307984,0|0,1:0|0:0,0:0:0:0:
179,289,226461,2,0,L|195:378,1,61.2499981307984,0|0,1:0|0:0,0:0:0:0:
491,121,226632,6,0,B|454:134|421:119|421:119|430:147|465:134,1,104.999996795654,2|0,3:0|0:0,0:0:0:0:
491,121,227489,6,0,L|495:92,1,26.2499991989136,0|0,0:0|0:0,0:0:0:0:
439,46,228175,6,0,B|393:43|366:61|366:61|331:55|327:17,1,131.25000500679,4|2,0:1|0:2,0:0:0:0:
234,122,228689,2,0,L|316:133,1,65.6250025033952,2|0,0:2|0:0,0:0:0:0:
299,130,229204,1,2,0:0:0:0:
155,33,229375,2,0,P|163:98|172:183,1,131.25000500679,2|0,0:2|0:0,0:0:0:0:
255,217,229889,1,2,0:0:0:0:
189,264,230061,5,2,0:0:0:0:
184,272,230232,1,2,0:3:0:0:
274,319,230404,1,2,0:3:0:0:
274,313,230575,1,2,0:3:0:0:
186,363,230746,1,2,0:3:0:0:
290,309,230918,6,0,L|375:321,1,65.6250025033952,2|0,0:0|0:0,0:0:0:0:
167,252,231261,1,2,0:0:0:0:
90,305,231432,1,2,0:0:0:0:
90,305,231604,2,0,L|70:165,1,131.25000500679,2|2,0:3|0:0,0:0:0:0:
257,70,232118,1,2,0:0:0:0:
188,0,232289,6,0,L|173:152,1,131.25000500679,2|0,0:3|0:0,0:0:0:0:
175,130,232975,2,0,L|163:57,1,65.6250025033952,2|0,0:0|0:0,0:0:0:0:
281,222,233318,2,0,L|293:146,1,65.6250025033952,2|0,0:0|0:0,0:0:0:0:
171,351,233661,6,0,B|201:313|256:329|256:329|284:380|359:379,1,196.875007510186,2|2,0:0|0:0,0:0:0:0:
342,289,234346,1,2,0:3:0:0:
342,289,234689,1,2,0:3:0:0:
342,289,235032,6,0,L|324:166,2,98.4375037550928,2|2|2,0:3|0:3|0:3,0:0:0:0:
464,357,235718,6,0,B|543:258|483:176|439:191|402:246|473:288,1,260.312504965067
463,281,236404,5,4,1:3:0:0:
407,211,236575,1,0,3:0:0:0:
297,190,236746,1,0,1:0:0:0:
210,265,236918,1,0,3:0:0:0:
6,198,237089,5,0,1:0:0:0:
121,292,237261,5,0,1:0:0:0:
327,279,237432,5,0,1:0:0:0:
417,119,237604,5,0,1:0:0:0:
343,46,237775,6,0,L|163:72,1,157.499995193482,4|0,3:2|0:0,0:0:0:0:
112,47,238118,5,0,3:0:0:0:
241,155,238289,1,0,3:0:0:0:
46,336,238461,1,4,1:2:0:0:
46,336,238546,2,0,B|12:279|73:234|73:234|85:260|56:289,1,157.499995193482,0|0,1:2|1:2,0:2:0:0:
70,270,238804,5,4,1:2:0:0:
183,348,238975,1,2,0:3:0:0:
220,354,239060,1,2,0:3:0:0:
255,331,239146,5,4,1:1:0:0:
476,184,239318,1,0,1:3:0:0:
446,146,239404,1,0,1:3:0:0:
480,116,239489,1,0,1:0:0:0:
226,4,239661,5,0,1:3:0:0:
233,50,239746,1,0,1:3:0:0:
240,92,239832,1,0,1:2:0:0:
407,231,240004,1,0,1:3:0:0:
259,334,240175,5,0,1:0:0:0:
255,341,240261,1,0,1:0:0:0:
252,347,240346,2,0,B|164:346|185:294|58:322,1,170.624992189408,2|0,3:2|1:0,0:0:0:0:
21,278,240689,6,0,P|12:256|29:267,1,56.8749973964692,2|0,1:2|0:0,0:0:0:0:
136,142,240861,5,0,3:0:0:0:
136,142,240946,1,0,1:0:0:0:
136,142,241032,2,0,L|125:43,1,87.5,2|0,1:2|1:0,0:0:0:0:
202,16,241289,1,0,1:0:0:0:
207,25,241375,2,0,L|273:36,1,43.75,0|0,1:0|0:0,0:0:0:0:
445,204,241546,5,2,3:3:0:0:
490,194,241632,1,2,0:3:0:0:
512,154,241717,1,0,1:0:0:0:
493,108,241803,1,0,1:0:0:0:
451,86,241889,6,0,L|474:257,1,131.25,6|0,3:2|0:0,0:0:0:0:
362,266,242232,2,0,L|371:202,1,43.75,2|0,3:2|0:0,0:0:0:0:
496,359,242404,5,2,1:2:0:0:
450,336,242489,1,0,1:0:0:0:
402,347,242575,1,0,1:0:0:0:
26,122,242746,1,0,1:0:0:0:
70,155,242831,1,0,1:0:0:0:
125,146,242918,1,2,3:2:0:0:
455,54,243089,5,2,1:2:0:0:
412,34,243174,1,0,1:0:0:0:
370,53,243260,1,0,1:0:0:0:
357,98,243346,1,0,1:0:0:0:
383,136,243432,2,0,L|398:65,1,61.2499981307984,0|0,1:0|1:0,0:0:0:0:
256,209,243604,2,0,P|262:251|269:300,1,61.2499981307984,0|0,3:0|0:0,0:0:0:0:
27,358,243775,5,0,1:0:0:0:
27,358,243861,1,0,1:0:0:0:
27,358,243946,2,0,P|62:313|138:357,1,122.499996261597,2|0,1:2|1:0,0:0:0:0:
247,196,244204,1,0,1:0:0:0:
256,209,244289,2,0,P|174:215|139:182,1,122.499996261597,2|0,3:2|1:0,0:0:0:0:
24,60,244546,1,0,1:0:0:0:
93,9,244632,2,0,B|117:45|117:45|82:155,1,122.499996261597,6|0,1:2|1:0,0:0:0:0:
472,270,244975,5,0,3:0:0:0:
438,233,245061,1,0,3:0:0:0:
478,196,245146,2,0,L|495:124,1,61.2499981307984,2|0,1:2|1:0,0:0:0:0:
285,294,245318,5,0,1:0:0:0:
288,300,245404,1,0,1:0:0:0:
292,307,245489,2,0,P|286:340|283:382,1,61.2499981307984,0|2,1:0|1:3,0:0:0:0:
33,232,245661,5,2,3:0:0:0:
56,261,245746,2,0,B|119:274|121:232|218:275,1,122.499996261597,0|0,1:0|1:0,0:0:0:0:
234,204,246004,5,0,1:0:0:0:
263,174,246089,1,0,1:0:0:0:
266,132,246175,1,0,1:0:0:0:
242,98,246261,1,0,1:0:0:0:
201,87,246346,1,0,1:0:0:0:
173,118,246431,1,0,1:0:0:0:
133,132,246518,1,0,1:0:0:0:
91,125,246604,1,0,1:0:0:0:
59,97,246689,5,0,1:0:0:0:
117,81,246774,1,0,1:0:0:0:
173,101,246860,1,0,1:0:0:0:
195,167,246946,1,0,1:0:0:0:
149,227,247032,5,2,1:2:0:0:
159,297,247117,1,2,0:2:0:0:
221,331,247203,1,2,1:2:0:0:
286,302,247289,1,2,1:2:0:0:
347,335,247375,6,0,B|392:287|470:319|470:319|407:350|417:389,1,183.749994392395,4|0,3:1|0:0,0:0:0:0:
429,348,247718,1,2,1:2:0:0:
290,167,247889,1,2,0:3:0:0:
263,118,247974,1,2,0:3:0:0:
290,71,248060,1,2,3:2:0:0:
186,238,248232,1,0,0:0:0:0:
405,175,248404,1,2,1:2:0:0:
186,238,248575,6,0,L|124:219,1,61.2499981307984,2|0,0:0|0:0,0:0:0:0:
30,171,248746,6,0,B|96:155|96:155|141:182|141:182|220:163,1,183.749994392395,0|0,3:0|0:0,0:0:0:0:
290,71,249089,2,0,L|278:117,1,48.1250014686585,2|0,1:2|0:0,0:0:0:0:
469,356,249261,5,2,0:0:0:0:
406,264,249433,5,0,3:0:0:0:
298,245,249604,5,2,0:0:0:0:
193,318,249775,5,2,1:2:0:0:
90,46,249946,5,2,0:0:0:0:
90,46,250032,1,2,0:0:0:0:
90,46,250118,2,0,B|110:85|160:104|160:104|116:161|123:221,1,183.749994392395,6|0,3:2|0:0,0:0:0:0:
16,242,250461,6,0,P|32:189|29:143,1,61.2499981307984,2|0,1:3|0:0,0:0:0:0:
194,346,250632,6,0,P|140:307|60:321,1,144.375004405975,2|0,0:0|0:0,0:0:0:0:
66,316,250975,1,0,0:0:0:0:
342,125,251146,6,0,L|330:191,1,48.1250014686585,2|2,1:2|0:3,0:0:0:0:
411,296,251318,2,0,L|401:232,1,48.1250014686585,2|2,0:3|0:3,0:0:0:0:
482,170,251489,1,2,3:1:0:0:
226,263,251661,5,2,0:3:0:0:
180,230,251746,1,2,0:3:0:0:
128,258,251832,1,2,1:2:0:0:
1,70,252004,1,0,0:0:0:0:
103,144,252175,6,0,B|191:143|163:112|285:120,1,144.375004405975,2|0,3:2|0:0,0:0:0:0:
372,65,252518,2,0,P|324:59|293:35,1,61.2499981307984,2|0,1:2|0:0,0:0:0:0:
397,197,252689,5,0,1:0:0:0:
453,149,252775,5,0,1:0:0:0:
491,215,252861,5,4,3:2:0:0:
382,303,253032,1,0,0:0:0:0:
509,372,253204,1,0,1:0:0:0:
37,262,253375,6,0,B|90:253|137:289|137:289|197:278|185:201,1,192.500005874634,2|0,0:0|0:0,0:0:0:0:
325,11,253889,2,0,P|290:56|310:108,1,96.250002937317,2|2,1:3|0:3,0:0:0:0:
381,174,254146,1,0,0:0:0:0:
390,178,254232,6,0,L|487:169,1,96.250002937317,2|0,3:2|0:0,0:0:0:0:
193,119,254575,1,2,1:2:0:0:
290,377,254746,2,0,P|311:336|273:262,1,96.250002937317,2|0,0:0|3:0,0:0:0:0:
87,33,255089,6,0,L|101:137,1,96.250002937317,2|0,0:0|1:0,0:0:0:0:
157,186,255346,1,2,0:0:0:0:
203,201,255431,1,2,0:0:0:0:
250,184,255517,1,2,0:0:0:0:
269,140,255604,5,6,3:2:0:0:
453,73,255775,1,0,3:0:0:0:
273,7,255946,1,2,1:2:0:0:
437,371,256118,6,0,B|508:284|421:231|421:231|376:272|382:317|423:328,1,236.249992790222,6|0,3:2|0:0,0:0:0:0:
343,348,256461,6,0,B|281:351|288:314|199:334,1,122.499996261597,2|0,1:2|3:0,0:0:0:0:
84,188,256804,6,0,B|88:169|88:169|88:154|88:154|98:131,1,48.1250014686585,6|0,3:2|0:0,0:0:0:0:
8,40,256975,5,2,1:2:0:0:
28,277,257146,1,0,1:0:0:0:
191,64,257318,5,2,1:2:0:0:
103,301,257489,1,0,1:0:0:0:
335,144,257661,5,6,1:2:0:0:
159,357,257832,1,0,1:0:0:0:
480,282,258004,5,2,1:2:0:0:
432,266,258089,1,0,1:0:0:0:
384,279,258175,1,0,1:0:0:0:
341,261,258261,1,0,1:0:0:0:
341,261,258346,6,0,L|355:192,1,48.1250014686585,4|2,3:1|0:0,0:0:0:0:
224,124,258518,2,0,L|235:202,1,48.1250014686585,2|0,0:0|0:0,0:0:0:0:
367,66,258689,1,2,1:2:0:0:
176,269,258861,6,0,B|107:278|107:278|79:312|79:312|-10:322,1,192.500005874634,2|2,0:0|0:3,0:0:0:0:
259,352,259375,5,2,1:2:0:0:
265,355,259461,1,2,0:3:0:0:
270,358,259546,2,0,P|318:323|425:349,1,144.375004405975,2|0,0:3|0:0,0:0:0:0:
421,350,259889,1,2,0:3:0:0:
272,46,260061,6,0,P|277:80|281:119,1,48.1250014686585,2|0,1:3|0:0,0:0:0:0:
367,138,260232,6,0,B|332:139|315:159|315:159|346:8,1,192.500005874634,2|2,0:0|0:0,0:0:0:0:
177,159,260746,1,2,1:2:0:0:
360,241,260918,1,2,0:3:0:0:
147,365,261089,5,6,3:2:0:0:
124,213,261260,1,0,3:0:0:0:
98,61,261432,1,0,1:0:0:0:
360,241,261604,6,0,B|416:223|416:223|446:228|446:228|499:214,1,144.375004405975,6|0,3:2|0:0,0:0:0:0:
499,214,261946,1,0,3:0:0:0:
176,363,262118,5,6,1:2:0:0:
341,327,262289,1,0,3:0:0:0:
491,293,262461,1,0,3:0:0:0:
256,376,262632,6,0,L|286:142,1,192.500005874634,6|0,3:2|1:0,0:0:0:0:
227,6,263146,2,0,B|203:47|203:47|218:113,1,96.250002937317,6|0,3:2|0:0,0:0:0:0:
366,256,263404,1,0,1:0:0:0:
375,251,263489,2,0,B|393:205|393:205|383:156,1,96.250002937317,2|0,1:2|1:0,0:0:0:0:
192,189,263746,5,0,1:0:0:0:
174,193,263832,2,0,P|107:157|38:182,1,144.375004405975,6|0,3:2|0:0,0:0:0:0:
102,244,264175,1,0,1:0:0:0:
322,365,264346,6,0,B|358:305|428:329|428:329|445:373|517:376,1,192.500005874634,2|2,0:0|0:3,0:0:0:0:
268,23,264861,6,0,L|285:135,1,96.250002937317,0|2,1:3|0:3,0:0:0:0:
218,250,265118,1,0,1:0:0:0:
204,253,265204,2,0,P|189:201|210:159,1,96.250002937317,2|2,3:2|0:3,0:0:0:0:
390,255,265546,1,2,1:2:0:0:
191,354,265718,2,0,L|77:342,1,96.250002937317,2|0,0:3|3:0,0:0:0:0:
380,175,266061,1,2,3:3:0:0:
289,358,266232,2,0,L|310:173,1,144.375004405975,2|2,1:2|0:3,0:0:0:0:
252,126,266575,5,6,3:2:0:0:
406,267,266746,1,0,3:0:0:0:
207,317,266918,1,2,1:2:0:0:
9,117,267089,6,0,B|121:19|252:116|162:247|94:164,1,301.875005757809,2|0,3:2|0:0,0:0:0:0:
110,179,267432,5,2,3:2:0:0:
230,52,267604,1,0,1:2:0:0:
395,70,267775,1,0,3:0:0:0:
478,224,267946,1,4,3:3:0:0:
478,224,268289,5,2,1:2:0:0:
311,310,268461,1,0,3:0:0:0:
492,370,268632,1,2,1:2:0:0:
256,252,268804,1,0,3:0:0:0:
252,248,268889,1,0,3:0:0:0:
235,253,268975,6,0,L|169:266,1,61.2499981307984,6|2,1:2|0:0,0:0:0:0:
78,181,269146,6,0,L|17:171,1,61.2499981307984,2|2,1:2|0:0,0:0:0:0:
251,31,269318,6,0,B|220:76|253:121|253:121|234:158|192:153,1,144.375004405975,6|0,3:2|0:0,0:0:0:0:
152,86,269661,1,0,1:0:0:0:
34,337,269832,6,0,B|89:348|123:309|123:309|185:306|206:359,1,192.500005874634,6|0,3:2|1:0,0:0:0:0:
435,135,270346,6,0,B|400:254|400:254|432:275|446:305,1,192.500005874634,6|0,3:2|0:0,0:0:0:0:
344,347,270861,1,0,1:0:0:0:
27,177,271032,6,0,P|100:187|169:91,1,192.500005874634,6|0,0:0|0:0,0:0:0:0:
326,23,271546,5,0,1:0:0:0:
293,236,271718,1,0,3:0:0:0:
326,23,271889,1,0,1:0:0:0:
504,157,272061,6,0,P|446:153|416:110,1,96.250002937317,6|0,3:2|0:0,0:0:0:0:
135,357,272404,2,0,P|185:328|192:267,1,96.250002937317,2|0,1:2|3:0,0:0:0:0:
464,248,272746,5,2,0:0:0:0:
277,298,272918,1,0,0:0:0:0:
375,379,273089,2,0,P|373:323|389:267,1,96.250002937317,2|0,3:2|0:0,0:0:0:0:
280,55,273432,5,6,3:2:0:0:
181,79,273604,2,0,B|162:44|120:30|55:39|55:39|104:71|85:108,1,192.500005874634,0|0,3:0|3:0,0:0:0:0:
37,130,274032,1,0,3:0:0:0:
27,135,274118,5,6,1:2:0:0:
144,265,274289,5,0,3:0:0:0:
322,276,274461,5,0,3:2:0:0:
481,136,274632,5,0,1:0:0:0:
485,127,274718,1,0,1:0:0:0:
474,105,274804,5,6,3:2:0:0:
384,39,274975,2,0,L|317:52,1,65.6250025033952,0|0,0:0|0:0,0:0:0:0:
147,316,275318,5,6,3:2:0:0:
10,191,275489,2,0,P|61:212|120:191,1,98.4375037550928,0|0,0:0|0:0,0:0:0:0:
62,123,275832,1,6,3:2:0:0:
485,356,276004,6,0,P|423:297|297:327,1,192.500005874634,0|0,3:0|3:0,0:0:0:0:
232,371,276518,5,6,3:2:0:0:
237,361,276689,1,0,3:0:0:0:
152,240,276861,1,0,1:0:0:0:
339,200,277032,1,0,3:0:0:0:
103,116,277204,1,0,1:0:0:0:
364,57,277375,1,0,1:0:0:0:
319,304,277546,5,6,3:2:0:0:
160,223,277718,1,0,1:0:0:0:
142,214,277804,2,0,L|-15:237,1,144.375004405975,0|0,1:0|3:0,0:0:0:0:
264,17,278232,6,0,B|374:37|381:109|397:148|355:256|199:188|286:98,2,350,4|0|2,3:2|1:0|3:2,0:0:0:0:
101,91,279089,5,0,3:0:0:0:
51,160,279261,1,2,0:3:0:0:
94,230,279432,1,2,3:2:0:0:
257,358,279604,5,4,3:2:0:0:
243,271,279775,1,0,3:0:0:0:
332,257,279946,1,0,1:2:0:0:
348,349,280118,1,0,3:0:0:0:
348,349,280204,1,0,1:0:0:0:
348,349,280289,1,6,3:2:0:0:
204,193,280461,5,0,1:0:0:0:
199,152,280546,1,0,1:0:0:0:
354,44,280718,5,0,3:0:0:0:
343,83,280804,1,0,3:0:0:0:
76,222,280975,5,4,3:2:0:0:
4,297,281146,1,0,0:3:0:0:
84,355,281318,1,0,3:0:0:0:
210,165,281489,6,0,L|200:92,1,43.75,4|0,1:2|0:0,0:0:0:0:
343,83,281661,6,0,L|430:102,1,87.5,2|0,0:2|3:0,0:0:0:0:
481,58,281918,1,0,3:0:0:0:
474,43,282004,1,0,3:0:0:0:
326,197,282175,5,0,3:0:0:0:
393,263,282346,1,4,1:2:0:0:
336,327,282518,1,2,3:2:0:0:
40,263,282689,5,6,1:2:0:0:
75,287,282774,1,0,1:0:0:0:
118,288,282860,1,0,1:0:0:0:
155,265,282946,1,0,1:0:0:0:
175,227,283031,5,6,3:2:0:0:
47,74,283204,1,0,1:0:0:0:
36,76,283375,1,0,3:0:0:0:
268,268,283546,5,4,1:2:0:0:
14,158,283718,1,0,3:0:0:0:
0,169,283889,1,0,3:0:0:0:
351,0,284061,6,0,L|333:131,1,131.25,4|0,1:2|0:0,0:0:0:0:
432,224,284404,6,0,B|428:201|412:189|412:189|447:95,1,131.25000500679,4|0,1:1|0:0,0:0:0:0:
135,369,284746,2,0,P|185:338|263:357,1,131.25000500679,2|0,1:2|0:0,0:0:0:0:
17,144,285089,5,2,1:2:0:0:
24,169,285175,1,0,1:0:0:0:
49,190,285260,1,0,1:0:0:0:
92,206,285346,1,0,1:0:0:0:
138,189,285432,1,0,1:0:0:0:
207,152,285517,5,0,1:0:0:0:
279,137,285603,5,0,1:0:0:0:
357,151,285689,5,0,1:0:0:0:
422,198,285774,5,4,3:3:0:0:
256,192,285861,12,4,291089,0:1:0:0:
256,192,291175,12,0,298461,0:0:0:0:
