osu file format v14

[General]
AudioFilename: audio.mp3
AudioLeadIn: 0
PreviewTime: 221656
Countdown: 0
SampleSet: Soft
StackLeniency: 0.2
Mode: 0
LetterboxInBreaks: 0
WidescreenStoryboard: 0

[Editor]
DistanceSpacing: 1
BeatDivisor: 4
GridSize: 4
TimelineZoom: 2.1

[Metadata]
Title:Dream Walker
TitleUnicode:Dream Walker
Artist:Rita
ArtistUnicode:Rita
Creator:Ayakura Mei
Version:DREAMY
Source:GWAVE
Tags:taishi drum'n'bass
BeatmapID:1828066
BeatmapSetID:874700

[Difficulty]
HPDrainRate:5
CircleSize:4.1
OverallDifficulty:8.7
ApproachRate:9.6
SliderMultiplier:1.8
SliderTickRate:1

[Events]
//Background and Video events
0,0,"bg.jpg",0,0
//Break Periods
2,77342,82118
//Storyboard Layer 0 (Background)
//Storyboard Layer 1 (Fail)
//Storyboard Layer 2 (Pass)
//Storyboard Layer 3 (Foreground)
//Storyboard Sound Samples

[TimingPoints]
342,342.857142857143,4,2,1,100,1,0
22113,-133.333333333333,4,2,1,50,0,0
44227,-100,4,2,1,60,0,0
55113,-100,4,2,1,60,0,0
65313,-166.666666666667,4,2,1,50,0,0
65656,-100,4,2,1,50,0,0
75770,-100,4,2,1,30,0,0
75856,-100,4,2,1,50,0,0
77142,-200,4,2,1,20,0,0
82542,-100,4,2,2,40,0,0
83999,-100,4,2,2,55,0,0
85370,-100,4,2,2,70,0,0
86227,-100,4,2,2,80,0,0
87256,-100,4,2,1,80,0,0
88113,-100,4,2,1,80,0,1
110056,-166.666666666667,4,2,2,40,0,0
112799,-166.666666666667,4,2,2,50,0,0
115542,-166.666666666667,4,2,2,60,0,0
121027,-100,4,2,2,80,0,0
123256,-166.666666666667,4,2,2,60,0,0
124113,-100,4,2,2,60,0,0
128742,-166.666666666667,4,2,2,60,0,0
129256,-100,4,2,2,60,0,0
131999,-250,4,2,2,40,0,0
133884,-250,4,2,1,15,0,0
133970,-250,4,2,2,40,0,0
134313,-250,4,2,2,30,0,0
134484,-250,4,2,2,20,0,0
134656,-250,4,2,2,10,0,0
136627,-250,4,2,2,5,0,0
136713,-250,4,2,2,20,0,0
137056,-250,4,2,2,35,0,0
137227,-250,4,2,2,40,0,0
139370,-250,4,2,2,5,0,0
139456,-250,4,2,2,40,0,0
139799,-250,4,2,2,30,0,0
139970,-250,4,2,2,20,0,0
140142,-250,4,2,2,10,0,0
142113,-250,4,2,2,5,0,0
142199,-250,4,2,2,20,0,0
142542,-250,4,2,2,30,0,0
142713,-250,4,2,2,45,0,0
142970,-100,4,2,2,60,0,0
148027,-100,4,2,2,5,0,0
148113,-100,4,2,2,60,0,0
148199,-100,4,2,2,5,0,0
148284,-100,4,2,2,60,0,0
148370,-100,4,2,2,5,0,0
148456,-100,4,2,2,60,0,0
151199,-43.4782608695652,4,2,2,60,0,0
152570,-100,4,2,2,60,0,0
153942,-100,4,2,1,40,0,0
154027,-100,4,2,1,60,0,0
159342,-100,4,2,1,40,0,0
159513,-100,4,2,1,60,0,0
164056,-100,4,2,2,40,0,0
165084,-166.666666666667,4,2,2,50,0,0
165256,-100,4,2,1,80,0,0
165599,-100,4,2,1,80,0,1
175884,-142.857142857143,4,2,2,60,0,0
180684,-142.857142857143,4,2,1,60,0,0
180856,-142.857142857143,4,2,1,45,0,0
181027,-142.857142857143,4,2,1,30,0,0
181199,-142.857142857143,4,2,1,15,0,0
181370,-142.857142857143,4,2,2,60,0,0
185742,-142.857142857143,4,2,1,60,0,0
186084,-142.857142857143,4,2,1,60,0,0
186342,-142.857142857143,4,2,1,45,0,0
186513,-142.857142857143,4,2,1,30,0,0
186684,-142.857142857143,4,2,1,15,0,0
186856,-250,4,2,1,40,0,0
209827,-166.666666666667,4,2,2,30,0,0
211713,-166.666666666667,4,2,2,40,0,0
214113,-166.666666666667,4,2,2,45,0,0
214884,-166.666666666667,4,2,2,50,0,0
215999,-166.666666666667,4,2,2,60,0,0
220284,-100,4,2,2,60,0,0
220456,-166.666666666667,4,2,2,60,0,0
220970,-100,4,2,2,60,0,0
221142,-166.666666666667,4,2,2,60,0,0
221999,-100,4,2,2,60,0,0
222513,-100,4,2,1,80,0,1
238970,-50,4,2,1,40,0,1
239227,-100,4,2,1,80,0,1
244113,-100,4,2,2,80,0,0
244456,-55.5555555555556,4,2,2,40,0,1
245827,-55.5555555555556,4,2,1,80,0,1
247199,-55.5555555555556,4,2,2,40,0,1
248570,-55.5555555555556,4,2,1,80,0,1
249942,-55.5555555555556,4,2,2,40,0,1
251313,-55.5555555555556,4,2,1,80,0,1
255427,-55.5555555555556,4,2,1,40,0,1
255513,-55.5555555555556,4,2,2,40,0,1
256799,-55.5555555555556,4,2,1,80,0,1
258170,-55.5555555555556,4,2,2,40,0,1
259542,-55.5555555555556,4,2,1,80,0,1
260999,-55.5555555555556,4,2,2,40,0,1
262284,-55.5555555555556,4,2,1,80,0,1
263742,-55.5555555555556,4,2,2,40,0,1
265027,-55.5555555555556,4,2,1,80,0,1
266056,-55.5555555555556,4,2,2,80,0,1
266399,-55.5555555555556,4,2,2,40,0,0

[HitObjects]
304,240,22284,5,0,0:0:0:0:
384,176,22627,2,0,P|388:142|376:108,1,67.5000025749208,8|0,0:0|0:0,0:0:0:0:
304,240,23142,1,0,0:0:0:0:
377,110,23313,2,0,P|388:142|384:176,1,67.5000025749208,8|0,0:0|0:0,0:0:0:0:
304,240,23656,2,0,L|160:224,1,135.000005149842,0|8,0:0|0:0,0:0:0:0:
104,152,24170,2,0,P|128:120|160:112,1,67.5000025749208
80,248,24513,2,0,P|40:232|24:208,1,67.5000025749208,0|8,0:0|0:0,0:0:0:0:
24,120,24856,1,0,0:0:0:0:
104,56,25027,5,0,0:0:0:0:
192,104,25370,2,0,L|264:96,1,67.5000025749208,8|0,0:0|0:0,0:0:0:0:
104,56,25884,1,0,0:0:0:0:
259,96,26056,2,0,L|192:104,1,67.5000025749208,8|0,0:0|0:0,0:0:0:0:
120,168,26399,2,0,P|136:224|128:304,1,135.000005149842,0|8,0:0|0:0,0:0:0:0:
224,344,26913,2,0,L|232:296,1,33.7500012874604
216,272,27084,2,0,B|256:280|256:280|296:264,1,67.5000025749208
392,312,27427,2,0,B|408:280|408:280|408:240,1,67.5000025749208,8|0,0:0|0:0,0:0:0:0:
368,160,27770,5,0,0:0:0:0:
256,120,28113,2,0,L|248:200,1,67.5000025749208,8|0,0:0|0:0,0:0:0:0:
368,160,28627,1,0,0:0:0:0:
249,187,28799,2,0,L|256:120,1,67.5000025749208,8|0,0:0|0:0,0:0:0:0:
368,160,29142,5,0,0:0:0:0:
368,160,29484,1,8,0:0:0:0:
280,240,29656,2,0,L|240:232,1,33.7500012874604
208,256,29828,2,0,L|112:264,1,67.5000025749208
40,232,30170,2,0,L|32:192,3,33.7500012874604,8|0|0|0,0:0|0:0|0:0|0:0,0:0:0:0:
64,120,30513,6,0,B|112:104|152:128|152:128|168:104|200:104,1,135.000005149842,0|8,0:0|0:0,0:0:0:0:
296,120,31027,2,0,P|256:128|304:160,1,135.000005149842
400,112,31542,2,0,B|408:72|408:72|392:40,1,67.5000025749208,8|0,0:0|0:0,0:0:0:0:
336,176,31884,2,0,B|336:224|352:248|352:248|368:224|376:176,1,135.000005149842,0|8,0:0|0:0,0:0:0:0:
304,96,32399,1,0,0:0:0:0:
232,160,32570,2,0,L|240:232,1,67.5000025749208,0|8,0:0|0:0,0:0:0:0:
160,272,32913,2,0,L|168:348,1,67.5000025749208
72,224,33256,5,0,0:0:0:0:
40,128,33427,2,0,P|64:104|104:96,1,67.5000025749208,2|8,0:0|0:0,0:0:0:0:
192,120,33770,1,0,0:0:0:0:
192,120,33856,1,0,0:0:0:0:
192,120,33942,2,0,L|272:112,1,67.5000025749208,0|2,0:0|0:0,0:0:0:0:
312,224,34284,2,0,L|240:216,1,67.5000025749208,8|2,0:0|0:0,0:0:0:0:
160,272,34627,5,0,0:0:0:0:
224,352,34799,2,0,L|320:344,1,67.5000025749208,2|8,0:0|0:0,0:0:0:0:
408,352,35142,1,2,0:0:0:0:
408,352,35227,1,2,0:0:0:0:
408,352,35313,2,0,L|392:256,1,67.5000025749208,0|2,0:0|0:0,0:0:0:0:
448,200,35656,1,8,0:0:0:0:
448,200,35742,2,0,L|440:120,1,67.5000025749208
441,132,35999,5,0,0:0:0:0:
368,56,36170,1,2,0:0:0:0:
384,176,36342,1,8,0:0:0:0:
272,136,36513,1,2,0:0:0:0:
268,144,36599,1,0,0:0:0:0:
264,152,36684,1,0,0:0:0:0:
260,160,36770,1,0,0:0:0:0:
256,168,36856,2,0,L|268:260,1,67.5000025749208,2|8,0:0|0:0,0:0:0:0:
192,312,37199,1,0,0:0:0:0:
88,276,37370,5,0,0:0:0:0:
88,276,37456,1,0,0:0:0:0:
88,276,37542,2,0,L|80:224,1,33.7500012874604,2|0,0:0|0:0,0:0:0:0:
140,192,37713,2,0,L|128:120,1,67.5000025749208,8|2,0:0|0:0,0:0:0:0:
136,76,37970,1,0,0:0:0:0:
144,80,38056,1,0,0:0:0:0:
152,84,38142,1,0,0:0:0:0:
160,88,38227,1,2,0:0:0:0:
232,172,38399,1,8,0:0:0:0:
296,96,38570,1,2,0:0:0:0:
300,92,38656,1,0,0:0:0:0:
304,88,38742,5,0,0:0:0:0:
396,120,38913,2,0,L|472:112,1,67.5000025749208,2|8,0:0|0:0,0:0:0:0:
372,224,39256,1,2,0:0:0:0:
372,224,39342,1,0,0:0:0:0:
372,224,39427,2,0,L|448:216,1,67.5000025749208,0|2,0:0|0:0,0:0:0:0:
344,320,39770,2,0,P|308:300|292:280,1,67.5000025749208,8|2,0:0|0:0,0:0:0:0:
332,136,40113,6,0,P|364:124|404:132,1,67.5000025749208,0|2,0:0|0:0,0:0:0:0:
292,216,40456,1,8,0:0:0:0:
248,96,40627,1,2,0:0:0:0:
244,100,40713,1,2,0:0:0:0:
240,104,40799,2,0,L|160:96,1,67.5000025749208,0|2,0:0|0:0,0:0:0:0:
88,160,41142,1,8,0:0:0:0:
92,164,41227,2,0,L|88:236,1,67.5000025749208
88,231,41484,5,0,0:0:0:0:
156,320,41656,1,2,0:0:0:0:
192,224,41827,1,8,0:0:0:0:
276,180,41999,1,2,0:0:0:0:
276,180,42084,1,0,0:0:0:0:
276,180,42170,1,0,0:0:0:0:
276,180,42256,1,0,0:0:0:0:
276,180,42342,2,0,L|344:176,1,67.5000025749208,2|8,0:0|0:0,0:0:0:0:
416,120,42684,1,2,0:0:0:0:
360,40,42856,6,0,L|288:52,1,67.5000025749208
236,128,43199,1,8,0:0:0:0:
168,64,43370,1,2,0:0:0:0:
164,60,43456,1,0,0:0:0:0:
160,56,43542,1,0,0:0:0:0:
156,52,43627,1,0,0:0:0:0:
152,48,43713,6,0,P|200:96|192:12,1,202.500007724762,8|0,0:0|0:0,0:0:0:0:
64,112,44399,5,2,0:0:0:0:
84,288,44570,1,8,0:0:0:0:
4,192,44742,2,0,L|48:184,1,45,2|0,0:0|0:0,0:0:0:0:
124,168,44913,1,0,0:0:0:0:
268,52,45084,2,0,L|168:44,1,90,2|8,0:0|0:0,0:0:0:0:
336,148,45427,1,2,0:0:0:0:
224,248,45599,6,0,L|272:244,1,45
244,320,45770,2,0,L|292:316,1,45,2|0,0:0|0:0,0:0:0:0:
356,272,45942,1,8,0:0:0:0:
224,56,46113,2,0,L|272:64,1,45,2|0,0:0|0:0,0:0:0:0:
200,128,46284,2,0,L|248:136,1,45
376,136,46456,2,0,B|328:132|328:132|296:160,1,90,2|8,0:0|0:0,0:0:0:0:
256,244,46799,1,2,0:0:0:0:
120,172,46970,6,0,B|112:100|112:100|132:112,1,90,0|2,0:0|0:0,0:0:0:0:
264,56,47313,1,8,0:0:0:0:
436,112,47484,2,0,L|432:160,1,45,2|0,0:0|0:0,0:0:0:0:
356,136,47656,2,0,L|352:184,1,45
308,252,47827,2,0,B|264:236|264:236|220:248,1,90,2|8,0:0|0:0,0:0:0:0:
164,328,48170,1,2,0:0:0:0:
56,256,48342,5,0,0:0:0:0:
72,258,48427,1,0,0:0:0:0:
56,265,48513,1,2,0:0:0:0:
64,250,48599,1,0,0:0:0:0:
67,267,48684,2,0,L|59:167,1,90,8|2,0:0|0:0,0:0:0:0:
20,80,48942,1,0,0:0:0:0:
24,84,49027,1,0,0:0:0:0:
28,88,49113,1,0,0:0:0:0:
32,92,49199,2,0,L|132:84,1,90,2|8,0:0|0:0,0:0:0:0:
332,36,49542,1,2,0:0:0:0:
332,36,49627,1,0,0:0:0:0:
336,40,49713,6,0,L|240:48,1,90,0|2,0:0|0:0,0:0:0:0:
188,156,50056,1,8,0:0:0:0:
276,256,50227,2,0,L|320:252,1,45,2|0,0:0|0:0,0:0:0:0:
460,220,50399,1,0,0:0:0:0:
356,304,50570,2,0,B|340:260|340:260|344:208,1,90,2|8,0:0|0:0,0:0:0:0:
384,104,50913,1,2,0:0:0:0:
272,200,51084,6,0,P|220:192|200:156,1,90,0|2,0:0|0:0,0:0:0:0:
232,68,51427,1,8,0:0:0:0:
88,120,51599,1,2,0:0:0:0:
96,136,51684,1,0,0:0:0:0:
104,152,51770,1,0,0:0:0:0:
100,172,51856,1,0,0:0:0:0:
96,192,51942,1,2,0:0:0:0:
68,324,52113,2,0,B|108:304|108:304|156:312,1,90,8|2,0:0|0:0,0:0:0:0:
272,364,52456,5,0,0:0:0:0:
344,256,52627,2,0,L|328:168,1,90,2|8,0:0|0:0,0:0:0:0:
280,56,52970,1,2,0:0:0:0:
268,60,53056,1,0,0:0:0:0:
256,64,53142,1,0,0:0:0:0:
244,68,53227,1,0,0:0:0:0:
232,72,53313,2,0,P|212:112|232:152,1,90,2|8,0:0|0:0,0:0:0:0:
392,120,53656,2,0,P|360:92|312:96,1,90,2|0,0:0|0:0,0:0:0:0:
314,94,53999,1,2,0:0:0:0:
268,224,54170,6,0,L|284:312,1,90,8|0,0:0|0:0,0:0:0:0:
284,312,54684,1,0,0:0:0:0:
96,72,55199,5,0,0:0:0:0:
180,184,55370,1,0,0:0:0:0:
208,48,55542,2,0,B|252:32|252:32|300:40,1,90,0|2,0:0|0:0,0:0:0:0:
336,68,55799,1,0,0:0:0:0:
332,80,55884,1,0,0:0:0:0:
328,92,55970,1,0,0:0:0:0:
324,104,56056,1,2,0:0:0:0:
256,336,56227,2,0,L|248:244,1,90,8|2,0:0|0:0,0:0:0:0:
184,72,56570,6,0,P|132:64|96:84,1,90,0|2,0:0|0:0,0:0:0:0:
56,196,56913,1,8,0:0:0:0:
256,224,57084,1,2,0:0:0:0:
252,208,57170,1,0,0:0:0:0:
248,192,57256,1,0,0:0:0:0:
140,136,57427,1,2,0:0:0:0:
176,296,57599,1,8,0:0:0:0:
336,108,57770,1,2,0:0:0:0:
316,304,57942,6,0,P|336:264|320:216,1,90,0|2,0:0|0:0,0:0:0:0:
208,156,58284,1,8,0:0:0:0:
92,248,58456,5,2,0:0:0:0:
96,268,58542,1,0,0:0:0:0:
100,288,58627,1,0,0:0:0:0:
104,308,58713,1,0,0:0:0:0:
108,328,58799,1,2,0:0:0:0:
256,368,58970,2,0,L|264:276,1,90,8|2,0:0|0:0,0:0:0:0:
332,140,59313,5,0,0:0:0:0:
352,152,59399,1,0,0:0:0:0:
368,168,59484,1,2,0:0:0:0:
376,188,59570,1,0,0:0:0:0:
380,208,59656,2,0,L|376:260,1,45,8|0,0:0|0:0,0:0:0:0:
260,280,59827,1,2,0:0:0:0:
264,256,59913,1,0,0:0:0:0:
268,232,59999,1,0,0:0:0:0:
272,208,60084,1,0,0:0:0:0:
276,184,60170,1,2,0:0:0:0:
200,76,60342,1,8,0:0:0:0:
88,140,60513,1,2,0:0:0:0:
92,176,60599,1,0,0:0:0:0:
96,212,60684,5,0,0:0:0:0:
200,348,60856,2,0,P|208:300|188:252,1,90,2|8,0:0|0:0,0:0:0:0:
24,248,61199,1,2,0:0:0:0:
32,264,61284,1,0,0:0:0:0:
40,280,61370,2,0,L|92:276,1,45
172,264,61542,5,2,0:0:0:0:
320,316,61713,1,8,0:0:0:0:
456,248,61884,2,0,P|460:200|436:160,1,90,2|0,0:0|0:0,0:0:0:0:
252,232,62227,5,2,0:0:0:0:
116,308,62399,1,8,0:0:0:0:
20,164,62570,1,2,0:0:0:0:
24,144,62656,1,0,0:0:0:0:
28,120,62742,1,0,0:0:0:0:
188,36,62913,6,0,P|228:56|240:104,1,90,2|8,0:0|0:0,0:0:0:0:
128,292,63256,2,0,B|88:256|108:208,1,90,2|0,0:0|0:0,0:0:0:0:
236,140,63599,1,2,0:0:0:0:
384,228,63770,1,8,0:0:0:0:
260,368,63942,1,2,0:0:0:0:
240,360,64027,1,0,0:0:0:0:
220,352,64113,1,0,0:0:0:0:
200,344,64199,1,0,0:0:0:0:
180,336,64284,1,2,0:0:0:0:
104,160,64456,2,0,P|76:192|72:244,1,90,8|2,0:0|0:0,0:0:0:0:
136,328,64799,5,0,0:0:0:0:
392,268,64970,1,2,0:0:0:0:
176,164,65142,1,8,0:0:0:0:
292,344,65313,2,0,L|304:232,1,107.999996704102,2|10,0:0|0:0,0:0:0:0:
304,160,65742,1,8,0:0:0:0:
264,148,65827,1,8,0:0:0:0:
224,160,65913,1,8,0:0:0:0:
192,188,65999,1,2,0:0:0:0:
152,200,66084,1,0,0:0:0:0:
108,188,66170,6,0,P|92:144|100:100,1,90,0|2,0:0|0:0,0:0:0:0:
216,40,66513,1,8,0:0:0:0:
400,88,66684,1,2,0:0:0:0:
376,84,66770,1,0,0:0:0:0:
352,92,66856,1,0,0:0:0:0:
332,112,66942,1,0,0:0:0:0:
324,136,67027,1,2,0:0:0:0:
400,320,67199,6,0,L|404:224,1,90,8|2,0:0|0:0,0:0:0:0:
200,284,67542,2,0,L|208:380,1,90,0|2,0:0|0:0,0:0:0:0:
272,172,67884,1,8,0:0:0:0:
208,68,68056,1,2,0:0:0:0:
208,68,68142,1,0,0:0:0:0:
212,72,68227,2,0,P|168:88|124:76,1,90,0|2,0:0|0:0,0:0:0:0:
336,48,68570,2,0,P|380:40|424:56,1,90,8|2,0:0|0:0,0:0:0:0:
364,320,68913,5,0,0:0:0:0:
288,200,69084,1,2,0:0:0:0:
376,112,69256,1,8,0:0:0:0:
456,256,69427,1,2,0:0:0:0:
440,252,69513,1,0,0:0:0:0:
424,248,69599,1,0,0:0:0:0:
408,252,69684,1,0,0:0:0:0:
392,256,69770,1,2,0:0:0:0:
208,320,69942,1,8,0:0:0:0:
348,368,70113,1,2,0:0:0:0:
308,208,70284,5,0,0:0:0:0:
312,188,70370,1,0,0:0:0:0:
316,168,70456,1,2,0:0:0:0:
320,148,70542,1,0,0:0:0:0:
324,128,70627,2,0,L|352:84,1,45,8|0,0:0|0:0,0:0:0:0:
224,156,70799,1,0,0:0:0:0:
204,164,70884,1,0,0:0:0:0:
180,168,70970,1,0,0:0:0:0:
152,164,71056,1,0,0:0:0:0:
128,156,71142,2,0,P|108:112|120:72,1,90,2|8,0:0|0:0,0:0:0:0:
36,276,71484,5,2,0:0:0:0:
40,296,71570,1,0,0:0:0:0:
44,316,71656,1,0,0:0:0:0:
232,356,71827,1,2,0:0:0:0:
236,316,71913,1,0,0:0:0:0:
240,276,71999,1,8,0:0:0:0:
136,100,72170,2,0,L|144:148,1,45,2|0,0:0|0:0,0:0:0:0:
212,68,72342,2,0,L|240:108,1,45
264,4,72513,5,2,0:0:0:0:
176,136,72684,1,8,0:0:0:0:
220,288,72856,2,0,P|252:320|252:364,1,90,2|0,0:0|0:0,0:0:0:0:
360,128,73199,5,2,0:0:0:0:
168,224,73370,1,8,0:0:0:0:
32,100,73542,1,2,0:0:0:0:
36,76,73627,1,0,0:0:0:0:
40,52,73713,1,0,0:0:0:0:
204,4,73884,1,2,0:0:0:0:
392,120,74056,2,0,P|344:112|308:132,1,90,8|2,0:0|0:0,0:0:0:0:
296,280,74399,5,0,0:0:0:0:
320,276,74484,1,0,0:0:0:0:
344,272,74570,1,2,0:0:0:0:
368,268,74656,1,0,0:0:0:0:
392,264,74742,2,0,L|388:324,1,45,8|0,0:0|0:0,0:0:0:0:
292,368,74913,1,2,0:0:0:0:
256,360,74999,1,0,0:0:0:0:
224,340,75084,1,0,0:0:0:0:
200,308,75170,1,0,0:0:0:0:
192,268,75256,1,2,0:0:0:0:
256,120,75427,2,0,L|344:104,1,90,8|2,0:0|0:0,0:0:0:0:
96,100,75770,6,0,L|44:92,1,45,4|0,0:0|0:0,0:0:0:0:
160,44,75942,1,2,0:0:0:0:
180,88,76027,1,0,0:0:0:0:
180,136,76113,1,8,0:0:0:0:
164,184,76199,1,0,0:0:0:0:
136,216,76284,1,2,0:0:0:0:
128,260,76370,1,0,0:0:0:0:
140,304,76456,1,8,0:0:0:0:
236,340,76627,1,0,0:0:0:0:
224,240,76799,1,0,0:0:0:0:
140,304,76970,1,0,0:0:0:0:
236,340,77142,5,0,0:0:0:0:
96,232,82627,6,0,L|96:184,3,45,8|0|0|0,0:0|0:0|0:0|0:0,0:0:0:0:
200,88,82970,2,0,L|200:144,1,45,8|0,0:0|0:0,0:0:0:0:
56,88,83142,2,0,L|56:40,3,45,8|0|0|0,0:0|0:0|0:0|0:0,0:0:0:0:
16,232,83484,2,0,L|16:288,1,45,8|0,0:0|0:0,0:0:0:0:
136,144,83656,2,0,L|136:96,1,45,8|0,0:0|0:0,0:0:0:0:
252,256,83827,2,0,L|252:304,1,45,8|0,0:0|0:0,0:0:0:0:
360,96,83999,6,0,L|312:96,3,45,8|0|0|0,0:0|0:0|0:0|0:0,0:0:0:0:
448,200,84342,2,0,L|496:200,1,45,8|0,0:0|0:0,0:0:0:0:
336,312,84513,2,0,L|280:312,3,45,8|0|0|0,0:0|0:0|0:0|0:0,0:0:0:0:
182,231,84856,2,0,P|190:199|206:175,1,45,8|0,0:0|0:0,0:0:0:0:
360,96,85027,2,0,P|383:118|396:144,1,45,8|0,0:0|0:0,0:0:0:0:
387,317,85199,2,0,P|355:326|326:324,1,45,8|0,0:0|0:0,0:0:0:0:
272,176,85370,6,0,L|280:128,3,45,8|0|0|0,0:0|0:0|0:0|0:0,0:0:0:0:
160,80,85713,2,0,L|168:136,1,45,8|0,0:0|0:0,0:0:0:0:
96,264,85884,2,0,L|88:216,3,45,8|0|0|0,0:0|0:0|0:0|0:0,0:0:0:0:
80,168,86227,5,8,0:0:0:0:
116,208,86313,1,0,0:0:0:0:
168,224,86399,1,0,0:0:0:0:
220,216,86484,1,0,0:0:0:0:
264,184,86570,1,8,0:0:0:0:
312,168,86656,1,0,0:0:0:0:
360,172,86742,2,0,P|384:188|400:212,1,45,8|0,0:0|0:0,0:0:0:0:
424,328,86913,1,0,0:0:0:0:
420,340,86999,1,0,0:0:0:0:
416,352,87084,2,0,L|404:300,1,45
360,172,87256,6,0,B|332:104|316:64|360:36|400:24|436:44|456:96|440:136|400:160|344:144|316:100|316:100|268:72|212:84,1,450
104,132,88284,5,2,0:3:0:0:
144,324,88456,1,8,0:0:0:0:
252,172,88627,1,2,0:0:0:0:
296,152,88713,1,0,0:0:0:0:
344,156,88799,1,0,0:0:0:0:
384,180,88884,1,0,0:0:0:0:
404,224,88970,1,2,0:0:0:0:
208,304,89142,1,8,0:0:0:0:
428,344,89313,1,2,0:0:0:0:
260,200,89484,5,0,0:0:0:0:
96,320,89656,1,2,0:0:0:0:
92,336,89742,1,0,0:0:0:0:
88,352,89827,2,0,L|76:304,1,45,8|0,0:0|0:0,0:0:0:0:
56,224,89999,1,2,0:0:0:0:
248,192,90170,1,0,0:0:0:0:
368,56,90342,1,2,0:0:0:0:
428,216,90513,1,8,0:0:0:0:
360,88,90684,6,0,P|316:72|272:76,1,90,2|0,0:0|0:0,0:0:0:0:
139,118,91027,1,2,0:0:0:0:
312,208,91199,1,8,0:0:0:0:
160,300,91370,1,2,0:0:0:0:
208,276,91456,1,0,0:0:0:0:
260,292,91542,1,0,0:0:0:0:
308,312,91627,1,0,0:0:0:0:
360,292,91713,5,2,0:0:0:0:
436,156,91884,1,8,0:0:0:0:
416,344,92056,1,2,0:0:0:0:
332,216,92227,1,0,0:0:0:0:
388,40,92399,5,2,0:0:0:0:
384,52,92484,1,0,0:0:0:0:
380,64,92570,2,0,L|360:128,1,45,8|0,0:0|0:0,0:0:0:0:
264,184,92742,1,2,0:0:0:0:
260,168,92827,1,0,0:0:0:0:
256,152,92913,2,0,L|264:96,1,45
412,168,93084,5,2,0:0:0:0:
420,196,93170,1,0,0:0:0:0:
428,224,93256,1,8,0:0:0:0:
380,208,93342,1,0,0:0:0:0:
332,216,93427,1,2,0:0:0:0:
292,248,93513,1,0,0:0:0:0:
276,304,93599,6,0,L|180:288,1,90,0|2,0:0|0:0,0:0:0:0:
60,316,93942,1,8,0:0:0:0:
16,132,94113,1,2,0:0:0:0:
60,112,94199,1,0,0:0:0:0:
108,112,94284,1,0,0:0:0:0:
152,132,94370,1,0,0:0:0:0:
176,176,94456,1,2,0:0:0:0:
148,280,94627,5,8,0:0:0:0:
96,52,94799,1,2,0:0:0:0:
304,112,94970,1,0,0:0:0:0:
240,276,95142,1,2,0:0:0:0:
236,264,95227,1,0,0:0:0:0:
232,248,95313,1,8,0:0:0:0:
416,176,95484,1,2,0:0:0:0:
412,204,95570,1,0,0:0:0:0:
408,232,95656,1,0,0:0:0:0:
312,356,95827,5,2,0:0:0:0:
236,176,95999,2,0,P|232:128|256:88,1,90,8|2,0:0|0:0,0:0:0:0:
344,40,96342,1,0,0:0:0:0:
120,84,96513,1,2,0:0:0:0:
320,200,96684,1,8,0:0:0:0:
200,32,96856,1,2,0:0:0:0:
194,49,96942,1,0,0:0:0:0:
189,66,97027,1,0,0:0:0:0:
184,83,97113,1,0,0:0:0:0:
179,100,97199,1,2,0:0:0:0:
56,136,97370,5,8,0:0:0:0:
144,328,97542,1,2,0:0:0:0:
272,160,97713,2,0,L|256:104,2,45,0|0|2,0:0|0:0|0:0,0:0:0:0:
304,288,97970,2,0,L|320:344,1,45,0|8,0:0|0:0,0:0:0:0:
472,184,98227,5,2,0:0:0:0:
424,160,98313,1,0,0:0:0:0:
368,168,98399,1,0,0:0:0:0:
328,208,98484,1,0,0:0:0:0:
320,272,98570,6,0,L|328:336,1,45,2|8,0:0|0:0,0:0:0:0:
352,64,98742,2,0,L|344:8,1,45,8|8,0:0|0:0,0:0:0:0:
352,304,98913,2,0,L|360:360,1,45,10|0,0:0|0:0,0:0:0:0:
392,144,99084,5,0,0:0:0:0:
272,248,99256,1,2,0:0:0:0:
216,72,99427,1,8,0:0:0:0:
48,40,99599,1,2,0:0:0:0:
16,72,99684,1,0,0:0:0:0:
0,120,99770,1,0,0:0:0:0:
8,168,99856,1,0,0:0:0:0:
40,200,99942,1,2,0:0:0:0:
264,168,100113,5,8,0:0:0:0:
72,120,100284,1,2,0:0:0:0:
136,328,100456,1,0,0:0:0:0:
208,112,100627,1,2,0:0:0:0:
204,96,100713,1,0,0:0:0:0:
200,80,100799,1,8,0:0:0:0:
196,64,100884,1,0,0:0:0:0:
192,48,100970,1,2,0:0:0:0:
32,148,101142,5,0,0:0:0:0:
144,256,101313,1,2,0:0:0:0:
176,264,101399,1,0,0:0:0:0:
208,272,101484,1,8,0:0:0:0:
288,104,101656,1,2,0:0:0:0:
464,152,101827,2,0,P|488:200|488:240,1,90,0|2,0:0|0:0,0:0:0:0:
432,352,102170,5,8,0:0:0:0:
328,176,102342,1,2,0:0:0:0:
304,136,102427,1,0,0:0:0:0:
336,96,102513,1,0,0:0:0:0:
384,120,102599,1,0,0:0:0:0:
376,168,102684,1,2,0:0:0:0:
216,240,102856,1,8,0:0:0:0:
96,128,103027,1,2,0:0:0:0:
152,344,103199,1,0,0:0:0:0:
240,152,103370,5,2,0:0:0:0:
288,144,103456,1,0,0:0:0:0:
336,136,103542,2,0,B|352:128|384:128|384:128|360:136|344:144,1,90,8|2,0:0|0:0,0:0:0:0:
192,240,103884,1,0,0:0:0:0:
144,264,103970,1,0,0:0:0:0:
96,264,104056,1,2,0:0:0:0:
56,240,104142,1,0,0:0:0:0:
32,200,104227,2,0,L|40:144,1,45,8|0,0:0|0:0,0:0:0:0:
248,128,104399,2,0,L|256:192,1,45,2|0,0:0|0:0,0:0:0:0:
192,368,104570,5,0,0:0:0:0:
176,104,104742,1,2,0:0:0:0:
384,176,104913,1,8,0:0:0:0:
128,272,105084,5,2,0:0:0:0:
128,272,105170,1,0,0:0:0:0:
128,272,105256,1,0,0:0:0:0:
232,48,105427,1,2,0:0:0:0:
368,320,105599,1,8,0:0:0:0:
96,232,105770,5,2,0:0:0:0:
336,96,105942,1,0,0:0:0:0:
224,312,106113,1,2,0:0:0:0:
208,288,106199,1,0,0:0:0:0:
192,264,106284,1,8,0:0:0:0:
240,272,106370,1,0,0:0:0:0:
288,280,106456,1,2,0:0:0:0:
416,208,106627,5,0,0:0:0:0:
112,232,106799,1,2,0:0:0:0:
440,120,106970,1,8,0:0:0:0:
80,112,107142,1,2,0:0:0:0:
216,288,107313,5,0,0:0:0:0:
296,144,107484,1,2,0:0:0:0:
312,112,107570,1,0,0:0:0:0:
328,80,107656,1,8,0:0:0:0:
144,168,107827,1,2,0:0:0:0:
138,169,107913,1,0,0:0:0:0:
136,164,107999,1,0,0:0:0:0:
139,161,108084,1,0,0:0:0:0:
144,162,108170,2,0,L|138:258,1,90,2|8,0:0|0:0,0:0:0:0:
40,56,108513,5,2,0:0:0:0:
184,112,108684,1,0,0:0:0:0:
320,56,108856,1,2,0:0:0:0:
464,128,109027,6,0,L|448:224,1,90,8|2,0:0|0:0,0:0:0:0:
384,168,109284,1,0,0:0:0:0:
368,152,109370,2,0,L|352:248,1,90,8|2,0:0|0:0,0:0:0:0:
232,304,109713,1,0,0:0:0:0:
184,312,109799,1,0,0:0:0:0:
136,320,109884,1,0,0:0:0:0:
88,328,109970,1,0,0:0:0:0:
112,248,110056,5,4,0:0:0:0:
232,304,110399,1,0,0:0:0:0:
352,360,110742,1,8,0:0:0:0:
504,152,111256,5,0,0:0:0:0:
376,192,111599,2,0,L|383:138,1,53.9999983520508
248,232,112113,1,8,0:0:0:0:
168,144,112284,6,0,L|160:80,1,53.9999983520508
80,88,112542,2,0,L|88:32,1,53.9999983520508
208,16,112799,5,0,0:0:0:0:
168,144,113142,1,0,0:0:0:0:
128,272,113484,1,8,0:0:0:0:
360,344,113999,5,0,0:0:0:0:
320,216,114342,2,0,L|312:269,1,53.9999983520508
280,88,114856,1,8,0:0:0:0:
168,304,115542,5,0,0:0:0:0:
33,338,115884,1,0,0:0:0:0:
69,203,116227,1,8,0:0:0:0:
344,304,116742,5,0,0:0:0:0:
479,338,117084,2,0,L|416:320,1,53.9999983520508
443,203,117599,1,8,0:0:0:0:
368,128,117770,6,0,L|376:72,1,53.9999983520508
288,80,118027,2,0,L|280:24,1,53.9999983520508
200,144,118284,1,0,0:0:0:0:
0,192,118627,5,0,0:0:0:0:
112,120,118798,1,0,0:0:0:0:
104,256,118970,1,8,0:0:0:0:
336,328,119484,5,0,0:0:0:0:
408,232,119656,2,0,L|400:176,1,53.9999983520508
344,80,119999,1,0,0:0:0:0:
320,192,120170,1,2,0:0:0:0:
314,193,120256,1,0,0:0:0:0:
312,188,120342,1,0,0:0:0:0:
315,185,120427,1,0,0:0:0:0:
320,184,120513,1,0,0:0:0:0:
288,296,120684,6,0,P|256:296|232:288,1,53.9999983520508
176,168,121027,5,0,0:0:0:0:
96,184,121199,1,0,0:0:0:0:
16,200,121370,1,0,0:0:0:0:
96,176,121542,1,0,0:0:0:0:
176,152,121713,6,0,L|162:241,1,90,8|0,0:0|0:0,0:0:0:0:
96,168,122056,1,0,0:0:0:0:
16,184,122227,6,0,L|32:80,1,90,8|0,0:0|0:0,0:0:0:0:
96,160,122570,6,0,L|109:71,1,90,8|0,0:0|0:0,0:0:0:0:
176,136,122913,1,0,0:0:0:0:
248,176,123084,1,8,0:0:0:0:
248,176,123170,1,0,0:0:0:0:
248,176,123256,6,0,L|256:120,1,53.9999983520508
320,224,123513,2,0,L|328:160,1,53.9999983520508
392,104,123770,6,0,L|472:112,1,80.9999975280763
464,200,124113,1,0,0:0:0:0:
456,288,124284,1,0,0:0:0:0:
448,200,124456,6,0,L|358:192,1,90,8|0,0:0|0:0,0:0:0:0:
440,112,124799,1,0,0:0:0:0:
432,200,124970,6,0,L|336:192,1,90,8|0,0:0|0:0,0:0:0:0:
424,288,125313,6,8,L|328:280,1,90,0|0,0:0|0:0,0:0:0:0:
416,200,125656,1,0,0:0:0:0:
408,112,125827,2,0,L|344:104,1,45,0|8,0:0|0:0,0:0:0:0:
280,96,125999,1,0,0:0:0:0:
400,200,126170,2,0,L|304:192,1,90,8|0,0:0|0:0,0:0:0:0:
176,216,126513,5,0,0:0:0:0:
64,256,126684,1,0,0:0:0:0:
168,305,126856,1,0,0:0:0:0:
176,216,127027,6,0,L|168:312,1,90,0|8,0:0|0:0,0:0:0:0:
272,264,127370,1,0,0:0:0:0:
176,216,127542,1,0,0:0:0:0:
168,305,127713,6,0,L|176:216,1,90,8|0,0:0|0:0,0:0:0:0:
183,126,128056,6,0,L|175:215,1,90,8|0,0:0|0:0,0:0:0:0:
168,304,128399,1,0,0:0:0:0:
184,128,128570,5,8,0:0:0:0:
184,128,128656,1,0,0:0:0:0:
184,128,128742,2,0,L|192:56,1,53.9999983520508
272,104,128999,2,0,L|280:32,1,53.9999983520508
320,184,129256,5,0,0:0:0:0:
360,268,129427,1,0,0:0:0:0:
360,364,129599,1,0,0:0:0:0:
368,252,129770,6,0,L|376:160,1,90,0|8,0:0|0:0,0:0:0:0:
360,364,130113,1,0,0:0:0:0:
344,268,130284,1,0,0:0:0:0:
375,162,130456,6,0,L|368:252,1,90,8|0,0:0|0:0,0:0:0:0:
296,144,130799,6,0,L|289:234,1,90,8|0,0:0|0:0,0:0:0:0:
280,320,131056,1,0,0:0:0:0:
280,320,131142,6,0,L|224:328,1,45,8|8,0:0|0:0,0:0:0:0:
168,256,131313,2,0,L|212:249,1,45,8|8,0:0|0:0,0:0:0:0:
176,336,131484,2,0,L|120:344,1,45
72,256,131656,1,0,0:0:0:0:
72,256,131827,1,0,0:0:0:0:
120,152,131999,6,0,B|155:105|147:41|147:41|219:65|219:65|235:169|163:257,1,396,0|4,0:0|0:0,0:0:0:0:
160,256,134227,1,0,0:0:0:0:
144,176,134399,1,0,0:0:0:0:
232,216,134570,1,0,0:0:0:0:
216,136,134742,6,0,B|264:88|272:48|272:48|264:112|288:176|288:176|264:232|264:232|288:288|272:336,1,396
200,320,136970,1,0,0:0:0:0:
264,264,137142,1,0,0:0:0:0:
280,344,137313,1,0,0:0:0:0:
200,320,137484,6,0,B|152:296|96:320|96:320|152:336|152:336|224:312|280:344|280:344|312:304|376:304,1,396
472,304,139713,1,0,0:0:0:0:
392,280,139884,1,0,0:0:0:0:
320,320,140056,1,0,0:0:0:0:
400,360,140227,6,0,B|384:280|432:224|432:224|352:184|368:80|368:80|440:136,1,396
488,184,142456,1,0,0:0:0:0:
424,224,142627,1,0,0:0:0:0:
456,112,142799,1,0,0:0:0:0:
304,88,142970,5,0,0:0:0:0:
304,88,143313,2,0,L|320:176,1,90
224,176,143656,2,0,L|240:264,1,90,8|2,0:0|0:0,0:0:0:0:
120,136,143999,2,0,L|136:232,1,90
156,308,144256,1,0,0:0:0:0:
152,312,144342,2,0,L|64:336,1,90,0|8,0:0|0:0,0:0:0:0:
16,176,144684,2,0,L|112:192,1,90
424,200,145027,2,0,P|352:144|264:152,1,180,8|0,0:0|0:0,0:0:0:0:
256,160,145713,5,0,0:0:0:0:
248,168,146056,2,0,L|264:256,1,90
288,360,146399,1,8,0:0:0:0:
344,144,146570,2,0,P|384:112|384:192,1,180
276,200,146999,1,0,0:0:0:0:
272,192,147084,2,0,L|288:88,1,90,0|8,0:0|0:0,0:0:0:0:
464,168,147427,2,0,L|472:264,1,90
400,352,147770,1,8,0:0:0:0:
192,248,147942,2,0,L|200:192,1,45
272,240,148113,2,0,L|280:192,1,45
352,232,148284,2,0,L|360:176,1,45
376,104,148456,6,0,B|384:64|384:64|272:72|272:72|296:112,1,180
344,296,148970,2,0,B|352:224|352:224|312:168,1,135
272,152,149313,1,0,0:0:0:0:
312,368,149484,1,0,0:0:0:0:
464,224,149656,2,0,B|392:208|392:208|328:232,1,135
296,248,149999,1,0,0:0:0:0:
504,336,150170,1,0,0:0:0:0:
464,80,150342,2,0,B|424:160|424:160|440:256,1,180
304,304,150856,2,0,L|288:208,1,90
208,72,151199,6,0,P|128:48|32:120,1,207.000003948212,8|0,0:0|0:0,0:0:0:0:
16,160,151456,1,0,0:0:0:0:
24,176,151542,1,0,0:0:0:0:
296,120,151713,2,0,P|392:88|480:144,1,207.000003948212,8|0,0:0|0:0,0:0:0:0:
488,184,151970,1,0,0:0:0:0:
480,200,152056,1,0,0:0:0:0:
288,340,152227,5,0,0:0:0:0:
288,340,152399,2,0,L|288:132,1,207.000003948212,8|0,0:0|0:0,0:0:0:0:
296,128,152656,1,0,0:0:0:0:
308,124,152741,1,0,0:0:0:0:
320,120,152827,1,0,0:0:0:0:
332,116,152913,1,0,0:0:0:0:
344,112,152998,1,0,0:0:0:0:
356,108,153084,1,0,0:0:0:0:
368,104,153170,1,0,0:0:0:0:
352,156,153255,5,0,0:0:0:0:
304,172,153341,1,0,0:0:0:0:
252,160,153426,1,0,0:0:0:0:
212,128,153512,1,0,0:0:0:0:
192,80,153598,1,0,0:0:0:0:
156,44,153683,1,0,0:0:0:0:
104,36,153769,1,0,0:0:0:0:
56,52,153855,1,0,0:0:0:0:
24,96,153941,6,0,L|28:152,1,45,4|0,0:0|0:0,0:0:0:0:
136,124,154113,2,0,L|140:180,1,45,2|0,0:0|0:0,0:0:0:0:
244,80,154284,2,0,L|248:144,1,45,8|0,0:0|0:0,0:0:0:0:
360,120,154456,2,0,L|363:164,3,45,2|0|0|0,0:0|0:0|0:0|0:0,0:0:0:0:
412,284,154799,6,0,L|460:292,1,45,2|0,0:0|0:0,0:0:0:0:
304,356,154970,2,0,L|248:348,1,45,10|0,0:0|0:0,0:0:0:0:
196,212,155142,2,0,L|248:220,1,45,2|0,0:0|0:0,0:0:0:0:
80,344,155313,2,0,L|72:296,3,45,0|0|2|0,0:0|0:0|0:0|0:0,0:0:0:0:
196,184,155656,6,0,L|188:248,1,45,8|0,0:0|0:0,0:0:0:0:
324,352,155827,2,0,L|332:300,3,45,2|0|0|0,0:0|0:0|0:0|0:0,0:0:0:0:
248,112,156170,6,0,L|204:152,1,45,2|0,0:0|0:0,0:0:0:0:
235,313,156342,2,0,L|291:331,1,45,10|0,0:0|0:0,0:0:0:0:
416,222,156513,2,0,L|403:163,1,45,2|0,0:0|0:0,0:0:0:0:
308,280,156684,2,0,L|272:244,3,45,0|0|2|0,0:0|0:0|0:0|0:0,0:0:0:0:
248,376,157027,6,0,L|200:364,1,45,8|0,0:0|0:0,0:0:0:0:
60,296,157199,2,0,L|64:348,3,45,2|0|0|0,0:0|0:0|0:0|0:0,0:0:0:0:
196,240,157542,6,0,L|200:188,1,45,2|0,0:0|0:0,0:0:0:0:
44,160,157713,2,0,L|48:208,1,45,10|0,0:0|0:0,0:0:0:0:
212,96,157884,2,0,L|216:52,1,45,2|0,0:0|0:0,0:0:0:0:
248,220,158056,1,0,0:0:0:0:
288,248,158142,1,0,0:0:0:0:
336,248,158227,1,2,0:0:0:0:
380,232,158313,1,0,0:0:0:0:
408,192,158399,5,8,0:0:0:0:
336,112,158570,1,2,0:0:0:0:
392,316,158742,1,0,0:0:0:0:
452,28,158913,1,2,0:0:0:0:
120,132,159084,1,8,0:0:0:0:
476,240,159256,1,2,0:0:0:0:
248,320,159427,5,4,0:0:0:0:
240,316,159513,1,0,0:0:0:0:
232,312,159599,1,2,0:0:0:0:
224,308,159684,1,0,0:0:0:0:
216,304,159770,2,0,L|212:252,1,45,8|0,0:0|0:0,0:0:0:0:
196,120,159942,1,2,0:0:0:0:
188,124,160027,1,0,0:0:0:0:
180,128,160113,1,0,0:0:0:0:
172,132,160199,1,0,0:0:0:0:
164,136,160284,6,0,L|160:192,1,45,2|0,0:0|0:0,0:0:0:0:
304,340,160456,2,0,L|308:292,1,45,10|0,0:0|0:0,0:0:0:0:
404,64,160627,2,0,L|412:120,1,45,2|0,0:0|0:0,0:0:0:0:
456,348,160799,5,0,0:0:0:0:
460,340,160884,1,0,0:0:0:0:
464,332,160970,1,2,0:0:0:0:
468,324,161056,1,0,0:0:0:0:
472,316,161142,2,0,L|420:324,1,45,8|0,0:0|0:0,0:0:0:0:
200,340,161313,1,2,0:0:0:0:
196,332,161399,1,0,0:0:0:0:
192,324,161485,1,0,0:0:0:0:
188,316,161570,1,0,0:0:0:0:
184,308,161656,6,0,L|240:316,1,45,2|0,0:0|0:0,0:0:0:0:
184,164,161827,2,0,L|244:144,1,45,10|0,0:0|0:0,0:0:0:0:
88,72,161999,2,0,L|112:24,1,45,2|0,0:0|0:0,0:0:0:0:
20,216,162170,5,0,0:0:0:0:
28,220,162256,1,0,0:0:0:0:
36,224,162342,1,2,0:0:0:0:
44,228,162427,1,0,0:0:0:0:
52,232,162513,2,0,L|104:224,1,45,8|0,0:0|0:0,0:0:0:0:
248,204,162684,1,2,0:0:0:0:
244,216,162770,1,0,0:0:0:0:
240,228,162856,1,0,0:0:0:0:
236,240,162942,1,0,0:0:0:0:
232,248,163027,5,2,0:0:0:0:
256,296,163113,1,0,0:0:0:0:
304,316,163199,1,10,0:0:0:0:
356,308,163284,1,0,0:0:0:0:
396,276,163370,1,2,0:0:0:0:
408,228,163456,1,0,0:0:0:0:
396,176,163542,2,0,L|372:128,1,45
312,8,163713,1,2,0:0:0:0:
304,28,163799,1,0,0:0:0:0:
296,48,163884,2,0,L|344:40,1,45,8|0,0:0|0:0,0:0:0:0:
452,80,164056,6,0,B|516:124|498:223|418:255|330:212|332:136|365:93|365:93|328:140|256:120,1,450,4|0,0:0|0:0,0:0:0:0:
192,72,165084,6,0,P|164:72|124:84,1,53.9999983520508,0|2,0:0|0:0,0:0:0:0:
80,136,165342,1,2,0:0:0:0:
88,160,165427,1,2,0:0:0:0:
96,184,165513,1,0,0:0:0:0:
104,208,165599,1,0,0:0:0:0:
240,320,165770,5,2,0:0:0:0:
320,136,165942,1,8,0:0:0:0:
152,112,166113,1,2,0:0:0:0:
328,256,166284,1,0,0:0:0:0:
448,56,166456,1,2,0:0:0:0:
488,88,166542,1,0,0:0:0:0:
512,128,166628,1,8,0:0:0:0:
512,176,166714,1,0,0:0:0:0:
496,224,166799,1,2,0:0:0:0:
312,320,166970,5,0,0:0:0:0:
352,104,167142,1,2,0:0:0:0:
152,128,167313,1,8,0:0:0:0:
200,320,167484,1,2,0:0:0:0:
256,128,167656,6,0,P|256:80|232:40,1,90,0|2,0:0|0:0,0:0:0:0:
64,128,167999,1,8,0:0:0:0:
152,304,168170,1,2,0:0:0:0:
176,264,168256,1,0,0:0:0:0:
216,240,168342,1,0,0:0:0:0:
264,232,168427,1,0,0:0:0:0:
312,248,168513,1,2,0:0:0:0:
456,328,168684,1,8,0:0:0:0:
256,368,168856,1,2,0:0:0:0:
400,224,169027,5,0,0:0:0:0:
360,200,169113,1,0,0:0:0:0:
336,160,169199,1,2,0:0:0:0:
328,112,169284,1,2,0:0:0:0:
344,64,169370,2,0,L|392:48,1,45,8|0,0:0|0:0,0:0:0:0:
192,168,169542,2,0,L|240:192,1,45,2|0,0:0|0:0,0:0:0:0:
16,160,169713,2,0,L|24:208,1,45,2|0,0:0|0:0,0:0:0:0:
80,336,169884,5,2,0:0:0:0:
128,344,169970,1,0,0:0:0:0:
176,328,170056,1,10,0:0:0:0:
208,288,170142,1,0,0:0:0:0:
232,248,170227,1,2,0:0:0:0:
272,216,170313,1,0,0:0:0:0:
320,208,170399,5,0,0:0:0:0:
464,360,170570,1,2,0:0:0:0:
272,304,170742,1,8,0:0:0:0:
416,144,170913,1,2,0:0:0:0:
448,184,170999,1,2,0:0:0:0:
456,232,171084,1,0,0:0:0:0:
440,280,171170,1,0,0:0:0:0:
400,312,171256,1,2,0:0:0:0:
152,336,171427,1,8,0:0:0:0:
336,240,171599,1,2,0:0:0:0:
252,372,171770,5,0,0:0:0:0:
176,216,171942,1,2,0:0:0:0:
172,200,172028,1,0,0:0:0:0:
168,184,172114,1,8,0:0:0:0:
396,164,172285,1,2,0:0:0:0:
392,192,172371,1,0,0:0:0:0:
388,220,172456,1,0,0:0:0:0:
252,320,172627,1,2,0:0:0:0:
96,224,172799,2,0,L|80:128,1,90,8|2,0:0|0:0,0:0:0:0:
208,40,173142,5,0,0:0:0:0:
272,232,173313,1,2,0:0:0:0:
144,136,173484,1,8,0:0:0:0:
400,64,173656,1,2,0:0:0:0:
360,96,173742,1,0,0:0:0:0:
344,144,173827,1,0,0:0:0:0:
344,192,173913,1,0,0:0:0:0:
376,232,173999,1,2,0:0:0:0:
496,112,174170,5,8,0:0:0:0:
280,32,174342,1,2,0:0:0:0:
192,208,174513,1,0,0:0:0:0:
176,160,174599,1,0,0:0:0:0:
136,136,174684,1,2,0:0:0:0:
96,128,174770,1,2,0:0:0:0:
48,144,174856,2,0,L|24:192,1,45,8|0,0:0|0:0,0:0:0:0:
56,304,175027,5,2,0:0:0:0:
104,328,175113,1,2,0:0:0:0:
160,328,175199,1,0,0:0:0:0:
208,304,175284,1,0,0:0:0:0:
232,256,175370,1,2,0:0:0:0:
280,232,175456,1,8,0:0:0:0:
336,232,175542,1,8,0:0:0:0:
392,248,175627,1,8,0:0:0:0:
432,288,175713,1,8,0:0:0:0:
440,344,175799,1,0,0:0:0:0:
344,368,175884,6,0,P|336:304|384:256,1,125.999996154785
456,224,176399,1,0,0:0:0:0:
456,224,176570,2,0,L|448:160,1,62.9999980773926,8|0,0:0|0:0,0:0:0:0:
360,200,176913,1,0,0:0:0:0:
360,200,177084,2,0,L|352:128,1,62.9999980773926,8|0,0:0|0:0,0:0:0:0:
272,248,177427,5,0,0:0:0:0:
264,240,177513,1,0,0:0:0:0:
256,232,177599,2,0,L|264:304,1,62.9999980773926
184,352,177942,1,8,0:0:0:0:
92,316,178113,2,0,L|104:248,1,62.9999980773926
116,172,178456,1,0,0:0:0:0:
80,96,178627,5,0,0:0:0:0:
80,96,178970,1,0,0:0:0:0:
176,72,179142,1,0,0:0:0:0:
80,96,179313,1,8,0:0:0:0:
176,72,179484,1,0,0:0:0:0:
176,72,179827,1,8,0:0:0:0:
176,72,180170,1,8,0:0:0:0:
248,144,180342,1,0,0:0:0:0:
272,48,180513,1,0,0:0:0:0:
368,40,180684,5,8,0:0:0:0:
372,48,180770,1,8,0:0:0:0:
376,56,180856,1,8,0:0:0:0:
380,64,180942,1,8,0:0:0:0:
384,72,181027,1,8,0:0:0:0:
388,80,181113,1,8,0:0:0:0:
392,88,181199,1,8,0:0:0:0:
396,96,181284,1,8,0:0:0:0:
400,104,181370,6,0,L|396:168,1,62.9999980773926
396,166,181713,1,0,0:0:0:0:
288,216,181884,1,0,0:0:0:0:
288,216,182056,2,0,L|276:144,1,62.9999980773926,8|0,0:0|0:0,0:0:0:0:
172,172,182399,2,0,L|180:100,1,62.9999980773926,0|8,0:0|0:0,0:0:0:0:
178,109,182913,6,0,L|172:172,1,62.9999980773926,8|0,0:0|0:0,0:0:0:0:
80,224,183256,2,0,L|92:288,1,62.9999980773926,0|8,0:0|0:0,0:0:0:0:
152,356,183599,1,0,0:0:0:0:
152,356,183770,2,0,P|212:336|276:340,1,125.999996154785
448,316,184627,1,0,0:0:0:0:
372,356,184799,1,8,0:0:0:0:
312,296,184970,2,0,P|312:244|360:184,1,125.999996154785,0|8,0:0|0:0,0:0:0:0:
476,96,185656,1,0,0:0:0:0:
400,136,185827,2,0,L|336:120,1,62.9999980773926,0|8,0:0|0:0,0:0:0:0:
272,60,186170,5,8,0:0:0:0:
264,64,186256,1,8,0:0:0:0:
256,68,186342,1,8,0:0:0:0:
248,72,186427,1,8,0:0:0:0:
240,76,186513,1,8,0:0:0:0:
232,76,186599,1,8,0:0:0:0:
224,76,186684,1,8,0:0:0:0:
216,76,186770,1,8,0:0:0:0:
208,76,186856,6,0,B|200:48|200:48|128:48|128:48|120:76|120:76|128:108|128:108|200:108|200:108|208:140|208:140|200:168|200:168|128:168|128:168|120:140,1,396
92,256,189770,2,0,B|80:296|80:296|212:296|212:296|232:248,1,216
476,168,192513,6,0,B|468:108|468:108|404:108|404:108|416:204|416:204|352:204|352:204|340:116,1,360
232,48,195256,6,0,B|200:28|200:28|200:180|200:180|236:160,1,216
440,96,197999,6,0,L|72:152,1,360
216,240,200742,2,0,B|371:264|371:264|336:216,1,216
312,184,203484,6,0,B|168:208|168:208|112:304|112:304|52:216,1,360
176,88,206227,2,0,L|400:136,1,216
400,112,210170,5,0,0:0:0:0:
400,112,210684,1,0,0:0:0:0:
488,160,210856,1,0,0:0:0:0:
336,192,211027,1,0,0:0:0:0:
96,320,211884,5,0,0:0:0:0:
56,216,212227,1,0,0:0:0:0:
200,320,212570,1,0,0:0:0:0:
320,288,212913,1,0,0:0:0:0:
352,64,213427,5,0,0:0:0:0:
336,160,213770,1,0,0:0:0:0:
160,64,214284,1,0,0:0:0:0:
184,160,214456,1,0,0:0:0:0:
256,88,214627,1,0,0:0:0:0:
256,264,214970,5,0,0:0:0:0:
256,240,215056,1,0,0:0:0:0:
256,216,215142,2,0,L|256:152,1,53.9999983520508
104,280,215656,5,0,0:0:0:0:
440,256,216170,1,0,0:0:0:0:
352,184,216342,1,0,0:0:0:0:
352,296,216513,1,0,0:0:0:0:
440,152,216856,6,0,P|448:96|424:48,1,107.999996704102
288,224,217370,2,0,B|272:280|272:280|288:336,1,107.999996704102
216,176,217884,6,0,L|240:104,1,53.9999983520508
168,48,218142,2,0,L|128:144,1,80.9999975280763
336,264,218742,5,0,0:0:0:0:
432,280,218913,1,0,0:0:0:0:
480,200,219084,1,0,0:0:0:0:
336,264,219256,1,0,0:0:0:0:
80,200,219599,1,0,0:0:0:0:
368,64,219942,5,0,0:0:0:0:
360,176,220113,1,0,0:0:0:0:
352,296,220284,2,0,L|348:344,3,30
220,164,220627,5,0,0:0:0:0:
256,300,220799,1,0,0:0:0:0:
328,168,220970,2,0,L|348:128,2,30
288,232,221142,2,0,P|240:224|320:168,1,215.999993408203
144,264,221999,6,0,P|120:176|152:96,1,180
280,32,222513,5,0,0:0:0:0:
440,144,222684,1,2,0:0:0:0:
192,168,222856,1,8,0:0:0:0:
408,280,223027,1,2,0:0:0:0:
360,256,223113,1,0,0:0:0:0:
304,256,223199,1,0,0:0:0:0:
256,288,223284,1,0,0:0:0:0:
240,336,223370,1,2,0:0:0:0:
48,256,223542,5,8,0:0:0:0:
136,72,223713,1,2,0:0:0:0:
152,80,223799,1,0,0:0:0:0:
168,88,223884,2,0,P|192:88|216:80,1,45
296,24,224056,1,2,0:0:0:0:
136,72,224227,1,8,0:0:0:0:
240,272,224399,1,2,0:0:0:0:
264,232,224485,1,0,0:0:0:0:
272,184,224571,1,0,0:0:0:0:
264,136,224657,1,0,0:0:0:0:
240,96,224742,1,2,0:0:0:0:
56,200,224913,6,0,P|104:216|152:208,1,90,8|2,0:0|0:0,0:0:0:0:
280,120,225256,1,0,0:0:0:0:
392,256,225427,1,2,0:0:0:0:
388,280,225513,1,0,0:0:0:0:
384,304,225599,1,8,0:0:0:0:
208,336,225770,1,2,0:0:0:0:
200,312,225856,1,0,0:0:0:0:
192,288,225942,1,0,0:0:0:0:
184,264,226027,1,0,0:0:0:0:
176,240,226113,1,2,0:0:0:0:
208,64,226284,5,8,0:0:0:0:
456,104,226456,1,2,0:0:0:0:
288,16,226627,1,0,0:0:0:0:
416,216,226799,1,2,0:0:0:0:
312,344,226970,1,8,0:0:0:0:
288,336,227056,1,0,0:0:0:0:
264,328,227142,2,0,P|240:328|208:336,1,45,2|0,0:0|0:0,0:0:0:0:
136,368,227313,5,0,0:0:0:0:
112,320,227399,1,0,0:0:0:0:
120,264,227484,1,2,0:0:0:0:
152,216,227570,1,0,0:0:0:0:
168,160,227656,1,8,0:0:0:0:
152,112,227742,1,0,0:0:0:0:
112,80,227827,1,2,0:0:0:0:
56,80,227913,1,0,0:0:0:0:
16,120,227999,6,0,P|0:168|0:208,1,90,0|2,0:0|0:0,0:0:0:0:
200,344,228342,1,8,0:0:0:0:
320,168,228513,1,2,0:0:0:0:
272,136,228599,1,0,0:0:0:0:
216,136,228684,1,0,0:0:0:0:
168,160,228770,1,0,0:0:0:0:
144,208,228856,1,2,0:0:0:0:
328,272,229027,5,8,0:0:0:0:
376,48,229199,1,2,0:0:0:0:
168,64,229370,1,0,0:0:0:0:
248,208,229542,1,2,0:0:0:0:
252,184,229627,1,0,0:0:0:0:
256,160,229713,1,8,0:0:0:0:
40,124,229884,1,2,0:0:0:0:
44,168,229970,1,0,0:0:0:0:
48,216,230055,1,0,0:0:0:0:
220,312,230227,1,2,0:0:0:0:
296,104,230399,2,0,P|336:88|388:92,1,90,8|2,0:0|0:0,0:0:0:0:
492,164,230742,5,0,0:0:0:0:
376,312,230913,1,2,0:0:0:0:
368,304,230999,1,0,0:0:0:0:
360,296,231084,1,8,0:0:0:0:
192,336,231256,1,2,0:0:0:0:
144,344,231342,1,0,0:0:0:0:
96,336,231427,1,0,0:0:0:0:
64,296,231513,1,0,0:0:0:0:
56,248,231599,1,2,0:0:0:0:
160,48,231770,1,8,0:0:0:0:
152,248,231942,1,2,0:0:0:0:
72,144,232113,5,0,0:0:0:0:
120,128,232199,1,0,0:0:0:0:
168,136,232284,1,2,0:0:0:0:
208,168,232370,1,0,0:0:0:0:
224,216,232456,2,0,P|248:232|280:240,1,45,8|0,0:0|0:0,0:0:0:0:
464,144,232627,1,2,0:0:0:0:
424,112,232713,1,0,0:0:0:0:
376,104,232799,1,0,0:0:0:0:
328,128,232884,1,0,0:0:0:0:
288,96,232970,6,0,P|263:91|240:92,1,45,2|8,0:0|0:0,0:0:0:0:
24,184,233142,2,0,P|51:181|80:172,1,45,8|8,0:0|0:0,0:0:0:0:
312,264,233313,2,0,P|280:268|256:276,1,45,10|0,0:0|0:0,0:0:0:0:
204,352,233484,5,0,0:0:0:0:
424,288,233656,1,2,0:0:0:0:
196,192,233827,1,8,0:0:0:0:
328,344,233999,1,2,0:0:0:0:
336,300,234084,1,0,0:0:0:0:
344,260,234170,1,0,0:0:0:0:
352,216,234256,1,0,0:0:0:0:
360,172,234342,1,2,0:0:0:0:
300,28,234513,5,8,0:0:0:0:
136,96,234684,1,2,0:0:0:0:
136,96,234770,1,0,0:0:0:0:
136,96,234856,2,0,L|144:200,1,90,0|2,0:0|0:0,0:0:0:0:
92,288,235199,1,8,0:0:0:0:
48,72,235370,1,2,0:0:0:0:
72,28,235456,1,0,0:0:0:0:
116,8,235542,1,0,0:0:0:0:
164,8,235627,1,0,0:0:0:0:
204,36,235713,1,2,0:0:0:0:
304,112,235884,5,8,0:0:0:0:
96,180,236056,1,2,0:0:0:0:
344,236,236227,1,0,0:0:0:0:
152,272,236399,1,2,0:0:0:0:
156,304,236484,1,0,0:0:0:0:
160,340,236570,1,8,0:0:0:0:
224,120,236742,6,0,P|216:76|192:36,1,90,2|0,0:0|0:0,0:0:0:0:
56,152,237084,1,2,0:0:0:0:
60,164,237170,1,0,0:0:0:0:
64,176,237256,1,8,0:0:0:0:
184,344,237427,1,2,0:0:0:0:
344,240,237599,1,0,0:0:0:0:
144,128,237770,1,2,0:0:0:0:
104,160,237856,1,0,0:0:0:0:
88,208,237942,1,8,0:0:0:0:
88,256,238027,1,0,0:0:0:0:
104,304,238113,1,2,0:0:0:0:
376,296,238284,5,0,0:0:0:0:
392,248,238370,1,0,0:0:0:0:
384,200,238456,1,2,0:0:0:0:
344,168,238542,1,0,0:0:0:0:
296,160,238627,1,8,0:0:0:0:
248,176,238713,1,0,0:0:0:0:
224,224,238799,1,2,0:0:0:0:
232,272,238884,1,0,0:0:0:0:
264,312,238970,6,0,B|304:336|304:336|288:184,1,180,4|2,0:0|0:0,0:0:0:0:
272,16,239313,1,8,0:0:0:0:
232,48,239399,1,0,0:0:0:0:
184,56,239484,1,2,0:0:0:0:
136,40,239570,1,0,0:0:0:0:
104,0,239656,2,0,L|96:72,1,45
80,136,239827,5,2,0:0:0:0:
240,88,239999,1,8,0:0:0:0:
400,192,240170,1,2,0:0:0:0:
224,104,240342,1,0,0:0:0:0:
160,304,240513,1,2,0:0:0:0:
152,280,240599,1,0,0:0:0:0:
144,256,240684,1,8,0:0:0:0:
40,104,240856,5,2,0:0:0:0:
160,224,241027,1,0,0:0:0:0:
304,112,241199,1,2,0:0:0:0:
352,104,241284,1,0,0:0:0:0:
400,120,241370,1,8,0:0:0:0:
432,160,241456,1,0,0:0:0:0:
440,208,241542,1,2,0:0:0:0:
272,328,241713,6,0,P|256:288|256:240,1,90,0|2,0:0|0:0,0:0:0:0:
304,88,242056,1,8,0:0:0:0:
464,192,242227,1,2,0:0:0:0:
464,216,242313,1,0,0:0:0:0:
464,240,242399,1,0,0:0:0:0:
328,352,242570,1,2,0:0:0:0:
152,248,242742,2,0,P|184:216|232:208,1,90,8|2,0:0|0:0,0:0:0:0:
400,248,243084,5,0,0:0:0:0:
192,32,243256,1,2,0:0:0:0:
120,344,243427,1,8,0:0:0:0:
352,48,243599,5,2,0:0:0:0:
64,224,243770,1,8,0:0:0:0:
400,336,243942,1,2,0:0:0:0:
184,96,244113,5,8,0:0:0:0:
240,64,244199,1,0,0:0:0:0:
304,64,244284,1,2,0:0:0:0:
360,88,244370,1,0,0:0:0:0:
392,136,244456,6,0,B|360:208|376:296|376:296|336:376|248:384,1,323.999990112305,4|0,0:0|0:0,0:0:0:0:
112,112,244970,2,0,B|184:72|256:104|256:104|280:8|384:0,1,323.999990112305,4|0,0:0|0:0,0:0:0:0:
184,248,245484,2,0,B|104:200|40:264|40:264|120:304,1,242.999992584229,4|0,0:0|0:0,0:0:0:0:
240,320,245827,5,0,0:0:0:0:
456,208,245999,1,2,0:0:0:0:
184,120,246170,1,8,0:0:0:0:
352,336,246342,1,2,0:0:0:0:
360,256,246427,1,2,0:0:0:0:
368,176,246513,1,2,0:0:0:0:
376,96,246599,1,2,0:0:0:0:
384,16,246684,1,2,0:0:0:0:
240,296,246856,1,8,0:0:0:0:
488,112,247027,1,2,0:0:0:0:
56,160,247199,6,0,B|128:136|184:184|184:184|216:240|216:240|208:184|208:184|216:112,1,323.999990112305,4|0,0:0|0:0,0:0:0:0:
480,328,247713,2,0,B|424:328|384:368|384:368|304:312|304:312|256:360|192:352,1,323.999990112305,4|0,0:0|0:0,0:0:0:0:
384,64,248227,2,0,B|401:9|482:5|482:5|519:77|478:123,1,242.999992584229,4|0,0:0|0:0,0:0:0:0:
384,160,248570,5,0,0:0:0:0:
40,56,248742,1,2,0:0:0:0:
280,312,248913,1,8,0:0:0:0:
160,24,249084,5,2,0:0:0:0:
128,80,249170,1,2,0:0:0:0:
120,144,249256,1,2,0:0:0:0:
136,208,249342,1,2,0:0:0:0:
184,248,249427,5,2,0:0:0:0:
216,192,249513,1,0,0:0:0:0:
264,152,249599,1,8,0:0:0:0:
328,136,249684,1,0,0:0:0:0:
392,144,249770,1,2,0:0:0:0:
448,176,249856,1,0,0:0:0:0:
488,224,249942,6,0,B|409:279|334:227|334:227|319:135|409:80,1,323.999990112305,4|0,0:0|0:0,0:0:0:0:
48,80,250456,2,0,B|112:48|176:56|176:56|232:88|296:72|296:72|224:112,1,323.999990112305,4|0,0:3|0:3,0:3:0:0:
40,264,250970,2,0,P|88:312|88:192,1,242.999992584229,4|0,0:0|0:0,0:0:0:0:
32,176,251313,5,0,0:0:0:0:
360,360,251484,1,2,0:0:0:0:
488,40,251656,1,8,0:0:0:0:
240,312,251827,1,2,0:0:0:0:
240,232,251913,1,2,0:0:0:0:
216,152,251999,1,2,0:0:0:0:
160,96,252084,1,2,0:0:0:0:
88,72,252170,5,2,0:0:0:0:
176,360,252342,1,8,0:0:0:0:
256,24,252513,1,2,0:0:0:0:
88,264,252684,6,0,P|176:248|240:288,1,161.999995056153,0|2,0:0|0:0,0:0:0:0:
464,224,253027,1,8,0:0:0:0:
248,104,253199,1,2,0:0:0:0:
232,184,253284,1,0,0:0:0:0:
216,264,253370,6,0,P|136:248|112:168,1,161.999995056153,0|2,0:0|0:0,0:0:0:0:
344,88,253627,2,0,P|370:165|312:226,1,161.999995056153
136,64,253884,2,0,P|189:2|271:21,1,161.999995056153,2|0,0:0|0:0,0:0:0:0:
416,80,254227,1,2,0:0:0:0:
136,192,254399,1,8,0:0:0:0:
304,352,254570,5,2,0:0:0:0:
248,320,254656,1,0,0:0:0:0:
184,312,254742,1,0,0:0:0:0:
120,328,254827,1,0,0:0:0:0:
64,368,254913,5,10,0:0:0:0:
88,312,254999,1,8,0:0:0:0:
88,248,255084,1,8,0:0:0:0:
48,192,255170,1,8,0:0:0:0:
40,128,255256,1,10,0:0:0:0:
56,64,255342,1,0,0:0:0:0:
104,24,255427,5,4,0:0:0:0:
232,184,255599,6,0,B|376:168|376:168|480:200|480:304,1,323.999990112305,4|0,0:0|0:0,0:0:0:0:
48,352,256114,2,0,B|-16:248|48:152|48:152|16:104|40:40,1,323.999990112305,4|0,0:0|0:0,0:0:0:0:
288,272,256628,2,0,B|232:256|184:288|184:288|160:272|128:264,1,161.999995056153,4|0,0:0|0:0,0:0:0:0:
248,32,256970,1,2,0:0:0:0:
360,376,257142,1,8,0:0:0:0:
472,96,257313,1,2,0:0:0:0:
392,112,257399,1,2,0:0:0:0:
328,160,257484,1,2,0:0:0:0:
280,224,257570,1,2,0:0:0:0:
264,304,257656,1,2,0:0:0:0:
472,200,257827,1,8,0:0:0:0:
216,24,257999,1,2,0:0:0:0:
448,216,258170,5,0,0:0:0:0:
112,336,258342,6,0,B|176:232|304:264|304:264|296:328|256:352,1,323.999990112305,4|0,0:0|0:0,0:0:0:0:
80,160,258856,2,0,B|128:88|112:0|112:0|152:80|224:104,1,323.999990112305,4|0,0:0|0:0,0:0:0:0:
456,168,259370,2,0,P|464:112|392:32,1,161.999995056153,4|0,0:0|0:0,0:0:0:0:
80,160,259713,5,2,0:0:0:0:
352,328,259884,1,8,0:0:0:0:
448,72,260056,1,2,0:0:0:0:
384,72,260142,1,0,0:0:0:0:
336,112,260227,5,2,0:0:0:0:
320,48,260313,1,2,0:0:0:0:
272,8,260399,1,2,0:0:0:0:
208,0,260484,1,0,0:0:0:0:
144,16,260570,1,8,0:0:0:0:
104,72,260656,1,2,0:0:0:0:
96,136,260742,1,2,0:0:0:0:
120,192,260827,1,2,0:0:0:0:
176,224,260913,5,0,0:0:0:0:
440,48,261084,6,0,B|272:56|272:56|120:24,1,323.999990112305,4|0,0:0|0:0,0:0:0:0:
16,224,261599,2,0,B|120:200|120:200|232:216|232:216|336:192,1,323.999990112305,4|0,0:0|0:0,0:0:0:0:
504,352,262113,2,0,L|344:376,1,161.999995056153,4|0,0:0|0:0,0:0:0:0:
56,232,262456,5,2,0:0:0:0:
392,280,262627,1,8,0:0:0:0:
288,32,262799,1,2,0:0:0:0:
264,112,262884,1,2,0:0:0:0:
240,192,262970,1,2,0:0:0:0:
216,272,263056,1,2,0:0:0:0:
192,352,263142,5,2,0:0:0:0:
0,176,263313,1,8,0:0:0:0:
256,32,263484,2,0,P|336:24|400:88,1,161.999995056153,2|0,0:0|0:0,0:0:0:0:
448,328,263827,6,0,P|304:256|392:152,1,323.999990112305,4|0,0:0|0:0,0:0:0:0:
32,104,264342,2,0,P|112:32|216:176,1,323.999990112305,4|0,0:0|0:0,0:0:0:0:
64,360,264856,2,0,P|40:280|48:200,1,161.999995056153,4|0,0:0|0:0,0:0:0:0:
64,144,265113,5,0,0:0:0:0:
104,96,265199,1,2,0:0:0:0:
168,80,265284,1,0,0:0:0:0:
232,104,265370,1,8,0:0:0:0:
264,160,265456,1,0,0:0:0:0:
288,216,265542,1,10,0:0:0:0:
344,248,265627,1,0,0:0:0:0:
408,248,265713,1,8,0:0:0:0:
456,208,265799,1,0,0:0:0:0:
472,144,265884,1,10,0:0:0:0:
448,80,265970,1,0,0:0:0:0:
392,48,266056,5,0,0:0:0:0:
328,96,266142,1,0,0:0:0:0:
312,176,266227,1,2,0:0:0:0:
328,256,266313,1,0,0:0:0:0:
384,312,266399,1,0,0:0:0:0:
