osu file format v14

[General]
AudioFilename: audio.mp3
AudioLeadIn: 0
PreviewTime: 271212
Countdown: 0
SampleSet: Soft
StackLeniency: 0.7
Mode: 0
LetterboxInBreaks: 0
WidescreenStoryboard: 1

[Editor]
Bookmarks: 32187,46587,81087,100287,114687,129087,163587,182787,199287,229887,244887,254487,280887
DistanceSpacing: 0.6
BeatDivisor: 4
GridSize: 8
TimelineZoom: 3.299999

[Metadata]
Title:Beyond the Eternity
TitleUnicode:Beyond the Eternity
Artist:Rita
ArtistUnicode:Rita
Creator:Hishiro Chizuru
Version:Despair
Source:
Tags:amb1d3x japanese rock terra mintjam a2c
BeatmapID:2522651
BeatmapSetID:1209610

[Difficulty]
HPDrainRate:5
CircleSize:4
OverallDifficulty:9
ApproachRate:9.2
SliderMultiplier:2
SliderTickRate:1

[Events]
//Background and Video events
0,0,"64639895_p0.jpg",0,0
//Break Periods
//Storyboard Layer 0 (Background)
//Storyboard Layer 1 (Fail)
//Storyboard Layer 2 (Pass)
//Storyboard Layer 3 (Foreground)
//Storyboard Layer 4 (Overlay)
//Storyboard Sound Samples

[TimingPoints]
-213,300,6,2,85,5,1,0
13887,-333.333333333333,6,2,85,5,0,0
14087,-100,6,2,85,60,0,0
14187,-133.333333333333,6,2,85,60,0,0
18987,-117.647058823529,6,2,85,60,0,0
19287,-100,6,2,85,60,0,0
19587,-133.333333333333,6,2,85,60,0,0
32187,-166.666666666667,6,2,85,60,0,0
46587,-142.857142857143,6,2,85,60,0,0
71787,300,3,2,85,60,1,0
71787,-142.857142857143,3,2,85,60,0,0
72687,300,4,2,85,60,1,0
72687,-142.857142857143,3,2,85,60,0,0
73887,300,5,2,85,60,1,0
73887,-142.857142857143,3,2,85,60,0,0
74787,300,5,2,85,60,1,0
74787,-142.857142857143,3,2,85,60,0,0
76287,300,4,2,85,60,1,0
76287,-142.857142857143,3,2,85,60,0,0
81087,-90.9090909090909,3,2,85,60,0,0
100287,300,6,2,85,70,1,0
100287,-133.333333333333,6,2,85,70,0,0
112887,-117.647058823529,6,2,85,70,0,0
114387,-200,6,2,85,70,0,0
114687,-166.666666666667,6,2,85,70,0,0
129087,-133.333333333333,6,2,85,70,0,0
147087,-117.647058823529,6,2,85,70,0,0
147987,-133.333333333333,6,2,85,70,0,0
154287,300,3,2,85,70,1,0
154287,-133.333333333333,3,2,85,70,0,0
155187,300,4,2,85,70,1,0
155187,-133.333333333333,4,2,85,70,0,0
156387,300,5,2,85,70,1,0
156387,-133.333333333333,5,2,85,70,0,0
157287,300,5,2,85,70,1,0
157287,-133.333333333333,5,2,85,70,0,0
158787,300,4,2,85,70,1,0
158787,-133.333333333333,4,2,85,70,0,0
161187,-111.111111111111,4,2,85,70,0,0
162687,-111.111111111111,4,2,85,50,0,0
163587,-90.9090909090909,4,2,85,70,0,0
182787,300,6,2,85,70,1,0
182787,-125,6,2,85,70,0,0
197187,300,7,2,85,70,1,0
199287,300,6,2,85,70,1,0
199287,-100,6,2,85,70,0,1
200412,-133.333333333333,6,2,85,70,0,1
200637,-200,6,2,85,70,0,1
200937,-100,6,2,85,70,0,1
229887,-133.333333333333,6,2,85,70,0,0
243987,-133.333333333333,6,2,85,50,0,0
244887,300,4,2,85,50,1,0
244887,-200,4,2,85,50,0,0
252537,-100,4,2,85,70,0,0
253137,-83.3333333333333,4,2,85,70,0,0
254487,-90.9090909090909,4,2,85,70,0,0
280887,300,6,2,85,80,1,0
280887,-133.333333333333,6,2,85,80,0,0
288087,-117.647058823529,6,2,85,80,0,0
297087,-66.6666666666667,6,2,85,80,0,0
297387,-100,6,2,85,80,0,0
298887,-133.333333333333,6,2,85,60,0,0
300687,-133.333333333333,6,2,85,65,0,0
301587,300,4,2,85,80,1,0
301587,-200,4,2,85,80,0,0
304587,300,4,2,85,50,1,0
304587,-500,4,2,85,50,0,0
304737,-500,4,2,85,20,0,0
311787,-500,4,2,85,5,0,0

[Colours]
Combo1 : 187,157,189
Combo2 : 183,216,180
Combo3 : 167,171,205
Combo4 : 245,176,101

[HitObjects]
256,192,11187,12,0,13887,0:0:0:0:
503,82,14087,5,0,0:0:0:0:
497,71,14137,1,0,0:0:0:0:
491,63,14187,2,0,P|433:52|373:57,1,112.500004291535,2|0,0:0|0:0,0:0:0:0:
361,74,14487,6,0,L|352:169,1,75.0000028610231,2|0,0:0|0:0,0:0:0:0:
431,214,14787,1,2,0:0:0:0:
343,157,14937,1,0,0:0:0:0:
225,210,15087,6,0,P|222:246|232:293,1,75.0000028610231,2|0,0:0|0:0,0:0:0:0:
90,201,15387,2,0,P|122:184|158:153,1,75.0000028610231,2|0,0:0|0:0,0:0:0:0:
150,322,15687,2,0,P|119:302|74:286,1,75.0000028610231,2|0,0:2|0:0,0:0:0:0:
296,354,15987,6,0,L|383:346,1,75.0000028610231,2|0,0:0|0:0,0:0:0:0:
462,384,16287,2,0,B|441:294|481:332|458:235,1,150.000005722046,2|0,0:0|0:0,0:0:0:0:
458,236,16737,1,2,0:2:0:0:
512,90,16887,2,0,P|446:161|329:136,1,225.000008583069,2|0,0:0|0:0,0:0:0:0:
303,47,17487,1,2,0:2:0:0:
380,0,17637,1,2,0:0:0:0:
316,148,17787,6,0,B|226:169|264:129|167:152,1,150.000005722046,2|0,0:0|0:0,0:0:0:0:
168,151,18237,1,2,0:2:0:0:
18,127,18387,1,2,0:0:0:0:
103,76,18537,1,0,0:0:0:0:
215,230,18687,6,0,L|208:313,1,75.0000028610231,2|0,0:0|0:0,0:0:0:0:
91,187,18987,2,0,L|173:147,1,85.0000016212464,2|0,0:0|0:0,0:0:0:0:
122,326,19287,2,0,L|12:249,1,100,2|0,0:2|0:0,0:0:0:0:
258,106,19587,6,0,P|296:106|340:120,1,75.0000028610231,2|0,0:0|0:0,0:0:0:0:
493,145,19887,2,0,B|426:147|436:213|341:227,1,150.000005722046,2|0,0:0|0:0,0:0:0:0:
285,185,20337,1,2,0:2:0:0:
214,245,20487,2,0,L|207:320,1,75.0000028610231,2|0,0:0|0:0,0:0:0:0:
267,384,20787,1,2,0:2:0:0:
267,384,20937,1,0,0:0:0:0:
193,326,21087,2,0,L|199:250,1,75.0000028610231,0|0,0:0|0:0,0:0:0:0:
276,194,21387,5,2,0:0:0:0:
285,185,21687,1,2,0:0:0:0:
201,158,21837,1,2,0:2:0:0:
39,176,21987,1,2,0:0:0:0:
123,203,22137,1,2,0:2:0:0:
295,175,22287,5,2,0:0:0:0:
376,244,22437,1,2,0:0:0:0:
286,332,22587,5,2,0:2:0:0:
295,254,22737,1,2,0:0:0:0:
183,318,22887,5,2,0:2:0:0:
220,384,23037,1,2,0:0:0:0:
48,365,23187,6,0,B|27:275|67:313|44:216,1,150.000005722046,2|0,0:0|0:0,0:0:0:0:
0,132,23637,2,0,P|33:136|75:125,2,75.0000028610231,2|0|0,0:2|0:0|0:0,0:0:0:0:
130,59,24087,6,0,P|189:98|167:179,1,150.000005722046,2|0,0:0|0:0,0:0:0:0:
132,262,24537,2,0,P|169:248|205:245,1,75.0000028610231,2|0,0:0|0:0,0:0:0:0:
389,309,24837,6,0,L|392:345,1,37.5000014305115,2|0,0:2|0:0,0:0:0:0:
412,288,24987,2,0,B|433:198|393:236|416:139,1,150.000005722046,2|0,0:0|0:0,0:0:0:0:
462,77,25437,1,0,0:0:0:0:
415,13,25587,1,0,0:0:0:0:
344,40,25737,1,0,0:0:0:0:
293,201,25887,6,0,P|238:222|154:102,1,225.000008583069,2|0,0:0|0:0,0:0:0:0:
214,62,26487,1,2,0:0:0:0:
164,2,26637,1,0,0:0:0:0:
45,125,26787,6,0,B|13:259|73:202|39:347,1,225.000008583069,2|0,0:0|0:0,0:0:0:0:
208,381,27387,1,2,0:0:0:0:
130,338,27537,1,2,0:2:0:0:
295,378,27687,6,0,B|290:322|290:322|303:288|303:288|296:209,1,150.000005722046,2|0,0:0|0:0,0:0:0:0:
346,170,28137,1,0,0:0:0:0:
421,187,28287,1,2,0:2:0:0:
417,265,28437,1,0,0:0:0:0:
266,159,28587,6,0,P|232:171|193:200,1,75.0000028610231,2|0,0:0|0:0,0:0:0:0:
216,32,28887,2,0,P|246:55|280:70,1,75.0000028610231,2|0,0:0|0:0,0:0:0:0:
131,139,29187,2,0,P|136:102|135:65,1,75.0000028610231,2|0,0:0|0:0,0:0:0:0:
308,294,29487,6,0,L|300:381,1,75.0000028610231,2|0,0:0|0:0,0:0:0:0:
245,232,29787,2,0,L|324:194,1,75.0000028610231,2|0,0:2|0:0,0:0:0:0:
223,318,30087,1,2,0:0:0:0:
141,251,30237,1,2,0:2:0:0:
132,251,30287,1,2,0:0:0:0:
124,251,30337,1,2,0:0:0:0:
116,252,30387,1,2,0:0:0:0:
45,43,32018,6,0,L|76:45,2,28.1250010728836,2|2|2,0:0|0:0|0:0,0:0:0:0:
97,72,32187,2,0,B|155:48|158:91|236:59,1,119.999996337891,2|0,1:2|0:0,0:0:0:0:
310,4,32637,2,0,P|291:59|318:111,1,119.999996337891,2|0,3:2|3:0,0:0:0:0:
402,170,33087,2,0,P|373:179|354:201,1,59.9999981689454,2|0,0:0|0:0,0:0:0:0:
354,201,33387,2,0,P|382:191|401:169,1,59.9999981689454,0|2,3:0|0:0,0:0:0:0:
442,89,33687,1,2,3:2:0:0:
442,89,33837,1,0,3:0:0:0:
507,271,33987,6,0,B|449:295|446:252|368:284,1,119.999996337891,2|0,1:2|0:0,0:0:0:0:
292,313,34437,2,0,P|301:358|295:312,1,119.999996337891,2|0,3:2|3:0,0:0:0:0:
196,258,34887,2,0,L|190:325,1,59.9999981689454,2|0,0:0|0:0,0:0:0:0:
202,318,35187,2,0,L|196:258,1,59.9999981689454,2|0,3:2|0:0,0:0:0:0:
128,207,35487,1,0,3:0:0:0:
128,207,35637,1,0,3:0:0:0:
168,20,35787,6,0,B|220:22|214:74|277:76,1,119.999996337891,2|0,1:2|0:0,0:0:0:0:
390,56,36237,2,0,P|351:87|360:160,1,119.999996337891,2|0,3:2|3:0,0:0:0:0:
463,205,36687,2,0,P|461:176|451:143,1,59.9999981689454,2|0,0:0|0:0,0:0:0:0:
436,225,36987,2,0,P|448:198|456:165,1,59.9999981689454,2|0,3:2|0:0,0:0:0:0:
346,241,37287,1,0,3:0:0:0:
346,241,37437,1,0,3:0:0:0:
222,148,37587,6,0,P|172:148|101:198,1,119.999996337891,2|0,1:2|0:0,0:0:0:0:
15,260,38037,2,0,P|60:256|126:299,1,119.999996337891,2|0,3:2|3:0,0:0:0:0:
242,329,38487,2,0,P|213:334|187:349,1,59.9999981689454,2|0,0:0|0:0,0:0:0:0:
269,321,38787,2,0,P|241:309|211:310,1,59.9999981689454,2|0,3:2|0:0,0:0:0:0:
337,378,39087,1,0,3:0:0:0:
337,378,39237,1,0,3:0:0:0:
474,256,39387,6,0,P|474:207|416:138,1,119.999996337891,2|0,1:2|0:0,0:0:0:0:
354,294,39837,2,0,B|406:296|400:348|463:350,1,119.999996337891,2|0,3:2|3:0,0:0:0:0:
361,174,40287,2,0,P|332:166|302:167,1,59.9999981689454,2|0,0:0|0:0,0:0:0:0:
231,225,40587,1,2,3:2:0:0:
231,225,40737,1,2,0:0:0:0:
156,176,40887,1,0,3:0:0:0:
156,176,41037,1,0,3:0:0:0:
86,291,41187,6,0,P|44:311|16:247,1,119.999996337891,2|0,1:2|0:0,0:0:0:0:
64,136,41637,2,0,L|70:207,2,59.9999981689454,2|0|0,3:2|0:0|3:0,0:0:0:0:
119,62,42087,2,0,P|145:62|184:71,1,59.9999981689454,2|0,0:0|0:0,0:0:0:0:
178,68,42387,2,0,P|148:67|118:61,1,59.9999981689454,2|0,3:2|0:0,0:0:0:0:
52,5,42687,1,0,0:0:0:0:
52,5,42837,1,0,3:0:0:0:
116,172,42987,6,0,B|174:196|177:153|255:185,1,119.999996337891,2|0,1:2|0:0,0:0:0:0:
329,176,43437,2,0,P|310:199|304:229,2,59.9999981689454,2|0|0,3:2|0:0|3:0,0:0:0:0:
450,247,43887,2,0,L|374:240,1,59.9999981689454,2|0,0:0|0:0,0:0:0:0:
390,252,44187,2,0,L|465:245,1,59.9999981689454,2|0,3:2|0:0,0:0:0:0:
509,189,44487,1,0,3:0:0:0:
509,189,44637,1,0,3:0:0:0:
352,347,44787,6,0,B|300:345|306:293|243:291,1,119.999996337891,2|0,1:2|0:0,0:0:0:0:
182,384,45237,2,0,P|218:377|245:363,2,59.9999981689454,2|0|0,3:2|0:0|3:0,0:0:0:0:
87,289,45687,2,0,L|81:356,1,59.9999981689454,2|0,0:0|0:0,0:0:0:0:
92,348,45987,2,0,L|86:288,1,59.9999981689454,2|0,0:0|0:0,0:0:0:0:
27,237,46287,1,0,3:0:0:0:
83,182,46418,2,0,L|111:183,2,22.4999993133545,0|0|0,0:0|0:0|0:0,0:0:0:0:
138,169,46587,6,0,P|158:119|107:47,1,139.999995727539,2|2,1:2|0:0,0:0:0:0:
115,50,47037,1,0,3:0:0:0:
182,0,47187,2,0,P|212:1|261:31,1,69.9999978637696,2|0,0:0|3:0,0:0:0:0:
370,53,47487,2,0,B|323:54|329:100|271:102,1,104.999996795654,2|0,0:0|0:0,0:0:0:0:
259,98,47787,2,0,L|251:179,1,69.9999978637696,2|0,3:2|0:0,0:0:0:0:
328,222,48087,1,2,0:0:0:0:
237,174,48237,1,0,3:0:0:0:
129,286,48387,6,0,B|189:310|193:264|275:298,1,139.999995727539,2|2,1:2|0:0,0:0:0:0:
326,354,48837,1,2,3:2:0:0:
396,301,48987,2,0,L|402:228,1,69.9999978637696,0|0,0:0|3:0,0:0:0:0:
308,121,49287,2,0,P|320:159|342:179,1,69.9999978637696,0|0,0:0|0:0,0:0:0:0:
469,187,49587,2,0,P|492:169|509:127,1,69.9999978637696,0|0,3:0|0:0,0:0:0:0:
413,77,49887,1,2,0:0:0:0:
413,77,50037,1,0,3:0:0:0:
266,211,50187,6,0,P|231:235|121:197,1,139.999995727539,2|2,1:2|0:0,0:0:0:0:
139,219,50637,1,0,3:0:0:0:
7,275,50787,2,0,P|39:300|114:298,1,104.999996795654,2|0,0:0|0:0,0:0:0:0:
123,297,51087,2,0,L|128:378,1,69.9999978637696,2|0,0:0|0:0,0:0:0:0:
299,379,51387,1,2,3:2:0:0:
307,292,51537,1,0,0:0:0:0:
220,285,51687,1,2,0:0:0:0:
212,371,51837,1,0,3:0:0:0:
384,241,51987,6,0,P|428:245|482:277,1,104.999996795654,2|0,1:2|0:0,0:0:0:0:
489,293,52287,1,0,0:0:0:0:
340,126,52437,2,0,P|330:169|279:201,1,104.999996795654,2|0,3:2|0:0,0:0:0:0:
260,205,52737,1,0,3:0:0:0:
426,84,52887,2,0,L|497:92,1,69.9999978637696,0|0,0:0|0:0,0:0:0:0:
363,17,53187,2,0,L|291:23,1,69.9999978637696,0|0,3:0|0:0,0:0:0:0:
232,73,53487,1,2,0:0:0:0:
157,52,53637,1,0,3:0:0:0:
1,159,53787,6,0,B|-13:230|21:215|11:299,1,139.999995727539,2|2,1:2|0:0,0:0:0:0:
11,296,54237,1,0,3:0:0:0:
145,349,54387,2,0,P|131:306|108:288,1,69.9999978637696,2|0,0:0|3:0,0:0:0:0:
269,214,54687,2,0,P|233:249|230:312,1,104.999996795654,2|0,0:0|0:0,0:0:0:0:
239,317,54987,2,0,P|264:348|292:359,1,69.9999978637696,2|0,3:2|0:0,0:0:0:0:
362,322,55287,1,2,0:0:0:0:
348,243,55437,1,0,3:0:0:0:
426,147,55587,6,0,P|367:158|327:139,1,104.999996795654,2|0,1:2|0:0,0:0:0:0:
315,124,55887,1,2,0:0:0:0:
139,175,56037,2,0,P|197:159|237:178,1,104.999996795654,2|0,3:2|0:0,0:0:0:0:
250,194,56337,1,2,3:2:0:0:
346,32,56487,2,0,L|273:39,1,69.9999978637696,2|0,0:0|0:0,0:0:0:0:
48,62,56787,2,0,L|117:54,1,69.9999978637696,0|0,3:0|0:0,0:0:0:0:
201,47,57087,1,2,0:0:0:0:
201,47,57237,1,0,3:0:0:0:
95,171,57387,6,0,B|92:220|92:220|102:243|102:243|95:318,1,139.999995727539,2|2,1:2|0:0,0:0:0:0:
10,342,57837,1,0,3:0:0:0:
143,384,57987,2,0,P|181:375|202:353,1,69.9999978637696,2|0,0:0|3:0,0:0:0:0:
254,191,58287,2,0,P|241:249|253:292,1,104.999996795654,2|0,0:0|0:0,0:0:0:0:
269,307,58587,2,0,L|348:315,1,69.9999978637696,2|0,3:2|0:0,0:0:0:0:
382,246,58887,1,2,0:0:0:0:
336,182,59037,1,0,3:0:0:0:
444,76,59187,6,0,P|413:93|344:88,1,104.999996795654,2|0,1:2|0:0,0:0:0:0:
280,43,59487,2,0,P|234:39|193:51,1,69.9999978637696,2|0,0:0|3:0,0:0:0:0:
33,13,59787,6,0,P|59:54|53:114,1,104.999996795654,2|0,0:0|0:0,0:0:0:0:
11,182,60087,2,0,P|0:216|61:236,1,104.999996795654,2|0,0:0|0:0,0:0:0:0:
109,185,60387,2,0,B|174:157|177:206|265:170,1,139.999995727539,2|0,3:2|0:0,0:0:0:0:
246,177,60837,1,0,0:0:0:0:
425,43,60987,6,0,P|383:82|390:168,1,139.999995727539,2|0,1:2|0:0,0:0:0:0:
463,207,61437,2,0,P|467:239|455:284,2,69.9999978637696,0|0|0,0:0|0:0|0:0,0:0:0:0:
315,327,61887,2,0,B|357:328|352:371|405:373,1,104.999996795654,2|0,0:0|0:0,0:0:0:0:
426,357,62187,2,0,L|501:364,1,69.9999978637696
388,231,62487,2,0,L|316:238,1,69.9999978637696,2|0,0:0|0:0,0:0:0:0:
183,379,62787,6,0,B|165:330|196:328|173:272,1,104.999996795654,2|0,1:2|0:0,0:0:0:0:
169,259,63087,2,0,P|166:230|186:187,1,69.9999978637696,0|0,0:0|0:0,0:0:0:0:
143,123,63387,2,0,P|166:107|218:98,1,69.9999978637696,0|0,0:0|0:0,0:0:0:0:
442,202,63687,6,0,P|410:186|381:153,1,69.9999978637696
465,41,63987,2,0,P|467:72|453:114,1,69.9999978637696,0|0,0:0|0:0,0:0:0:0:
315,105,64287,2,0,P|340:87|383:78,1,69.9999978637696,0|0,0:0|0:0,0:0:0:0:
226,0,64587,6,0,P|165:7|126:28,1,104.999996795654,2|0,1:2|0:0,0:0:0:0:
116,40,64887,1,0,0:0:0:0:
2,101,65037,2,0,P|46:106|99:140,1,104.999996795654,2|0,3:2|0:0,0:0:0:0:
107,155,65337,1,0,3:0:0:0:
166,273,65487,6,0,P|201:248|227:191,1,104.999996795654,2|0,1:2|0:0,0:0:0:0:
306,216,65787,2,0,P|309:258|344:309,1,104.999996795654,2|0,0:0|0:0,0:0:0:0:
283,366,66087,2,0,P|243:347|182:352,1,104.999996795654,2|0,0:0|0:0,0:0:0:0:
77,384,66387,6,0,B|52:317|88:314|64:244,1,139.999995727539,2|0,1:2|0:0,0:0:0:0:
37,128,66837,2,0,P|34:169|44:125,1,139.999995727539,2|0,0:0|3:0,0:0:0:0:
34,44,67287,2,0,B|96:41|115:74|173:75,1,139.999995727539,0|2,3:0|0:0,0:0:0:0:
232,8,67737,1,0,3:0:0:0:
272,105,67887,2,0,P|278:156|266:198,1,69.9999978637696,2|0,3:2|0:0,0:0:0:0:
179,354,68187,6,0,B|235:333|238:366|286:346,1,104.999996795654,2|0,1:2|0:0,0:0:0:0:
298,334,68487,1,0,0:0:0:0:
420,378,68637,2,0,P|388:352|395:253,1,139.999995727539,2|0,0:0|3:0,0:0:0:0:
448,141,69087,2,0,P|417:168|387:173,1,69.9999978637696,0|0,0:0|0:0,0:0:0:0:
320,129,69387,1,2,3:2:0:0:
325,55,69537,1,0,3:0:0:0:
213,4,69687,2,0,L|222:83,1,69.9999978637696,2|0,3:2|0:0,0:0:0:0:
43,128,69987,6,0,P|90:175|75:241,1,139.999995727539,2|0,1:2|0:0,0:0:0:0:
4,336,70437,2,0,L|79:341,2,69.9999978637696,2|0|0,3:2|0:0|3:0,0:0:0:0:
161,267,70887,2,0,P|191:303|198:344,1,69.9999978637696,0|0,0:0|0:0,0:0:0:0:
257,378,71187,1,0,0:0:0:0:
327,345,71337,1,0,3:0:0:0:
298,195,71487,2,0,P|272:228|265:269,1,69.9999978637696,0|0,3:0|0:0,0:0:0:0:
433,44,71787,6,0,B|361:16|357:55|282:29,1,139.999995727539,2|2,1:2|3:2,0:0:0:0:
295,33,72237,1,0,3:0:0:0:
185,125,72387,2,0,P|224:117|257:100,1,69.9999978637696,2|0,3:2|0:0,0:0:0:0:
81,32,72687,6,0,P|30:65|30:144,1,139.999995727539,2|0,1:2|0:0,0:0:0:0:
86,189,73137,1,2,3:2:0:0:
113,261,73287,1,0,3:0:0:0:
87,337,73437,2,0,L|166:330,1,69.9999978637696,0|0,3:0|0:0,0:0:0:0:
19,370,73737,1,0,0:0:0:0:
211,198,73887,6,0,P|265:243|280:314,1,139.999995727539,2|2,1:2|3:2,0:0:0:0:
234,374,74337,1,0,3:0:0:0:
358,295,74487,2,0,P|399:303|427:324,1,69.9999978637696,2|0,3:2|0:0,0:0:0:0:
512,142,74787,6,0,B|456:133|439:167|372:150,1,139.999995727539,2|0,1:2|0:0,0:0:0:0:
373,150,75237,1,2,3:2:0:0:
286,64,75387,1,2,3:2:0:0:
371,34,75537,1,0,3:0:0:0:
286,232,75687,5,0,0:0:0:0:
205,224,75837,1,0,0:0:0:0:
212,144,75987,1,0,3:0:0:0:
293,151,76137,1,0,0:0:0:0:
192,24,76287,6,0,P|157:30|124:40,1,69.9999978637696,2|0,1:2|0:0,0:0:0:0:
3,209,76587,1,2,3:2:0:0:
69,159,76737,2,0,P|103:165|136:175,1,69.9999978637696,2|0,3:2|0:0,0:0:0:0:
250,255,77037,2,0,P|215:261|182:271,1,69.9999978637696,2|0,3:2|3:0,0:0:0:0:
133,337,77337,1,2,0:0:0:0:
361,216,77487,6,0,P|412:224|448:261,1,104.999996795654,2|0,1:2|0:0,0:0:0:0:
454,281,77787,1,2,3:2:0:0:
313,96,77937,2,0,P|285:151|227:166,1,104.999996795654,2|0,0:0|0:0,0:0:0:0:
223,167,78237,1,2,3:2:0:0:
139,145,78387,1,0,3:0:0:0:
88,221,78537,1,2,0:0:0:0:
27,67,78687,5,2,1:2:0:0:
110,44,78837,1,0,0:0:0:0:
101,213,78987,5,2,1:2:0:0:
179,224,79137,1,0,0:0:0:0:
216,80,79287,5,2,1:2:0:0:
293,94,79437,1,0,0:0:0:0:
265,265,79587,5,2,1:2:0:0:
343,254,79737,1,0,0:0:0:0:
409,159,79887,5,2,1:2:0:0:
234,42,80487,6,2,B|230:87|230:87|243:132|243:132|235:164|235:164|244:187,1,139.999995727539
367,248,80937,5,2,0:0:0:0:
367,248,81012,1,2,0:0:0:0:
367,248,81087,2,0,P|257:259|154:296,1,220.000006713867,6|0,1:2|1:0,0:0:0:0:
0,161,81537,2,0,P|56:164|116:178,1,110.000003356934,2|0,1:2|0:0,0:0:0:0:
216,225,81837,1,0,1:0:0:0:
142,309,81987,1,10,0:0:0:0:
296,56,82137,5,0,1:0:0:0:
296,56,82212,1,0,1:0:0:0:
296,56,82287,2,0,P|310:109|310:166,1,110.000003356934,2|0,1:2|1:0,0:0:0:0:
506,300,82587,1,2,1:2:0:0:
433,370,82737,6,0,P|405:264|405:150,1,220.000006713867,2|0,1:2|1:0,0:0:0:0:
404,154,83187,1,8,0:0:0:0:
305,314,83337,1,2,1:2:0:0:
305,314,83412,1,0,1:0:0:0:
305,314,83487,2,0,B|245:308|245:308|207:325|207:325|123:322,1,165.000005035401,2|0,1:2|0:0,0:0:0:0:
117,342,83787,5,2,1:2:0:0:
56,185,83937,1,2,1:2:0:0:
128,136,84087,1,2,0:0:0:0:
53,303,84237,1,2,1:2:0:0:
0,120,84387,5,10,0:0:0:0:
140,224,84537,1,0,1:0:0:0:
140,224,84612,1,0,1:0:0:0:
140,224,84687,2,0,B|245:229|194:192|308:198,1,165.000005035401,2|0,1:2|0:0,0:0:0:0:
327,216,84987,1,2,0:0:0:0:
509,159,85137,2,0,P|508:132|375:133,1,165.000005035401,2|0,1:2|0:0,0:0:0:0:
388,126,85437,1,0,1:0:0:0:
469,275,85587,1,8,0:0:0:0:
396,329,85737,1,0,1:0:0:0:
274,179,85887,6,0,P|192:168|116:196,1,165.000005035401,4|0,1:2|0:0,0:0:0:0:
103,215,86187,1,2,0:0:0:0:
211,295,86337,1,0,1:0:0:0:
287,172,86487,2,0,L|297:56,1,110.000003356934,2|0,0:0|1:0,0:0:0:0:
76,4,86787,2,0,L|85:113,1,110.000003356934,10|0,0:0|0:0,0:0:0:0:
413,98,87087,6,0,P|352:71|307:74,1,110.000003356934,2|0,0:0|1:0,0:0:0:0:
170,244,87387,1,2,0:0:0:0:
268,235,87537,1,0,1:0:0:0:
259,136,87687,1,2,1:2:0:0:
161,145,87837,1,0,1:0:0:0:
16,282,87987,2,0,P|77:309|122:306,1,110.000003356934,10|0,0:0|0:0,0:0:0:0:
471,222,88287,6,0,B|393:230|417:296|332:318,1,165.000005035401,2|0,1:2|0:0,0:0:0:0:
319,309,88587,1,0,0:0:0:0:
200,87,88737,2,0,P|281:126|250:203,1,165.000005035401,2|0,1:2|0:0,0:0:0:0:
253,202,89037,1,2,1:2:0:0:
136,189,89187,1,8,0:0:0:0:
407,25,89337,6,0,B|415:66|401:104|401:104|417:142|417:142|399:191|407:257,1,220.000006713867,6|0,1:2|0:0,0:0:0:0:
406,240,89787,1,10,0:0:0:0:
275,65,89937,6,0,L|161:57,1,110.000003356934,6|0,1:2|0:0,0:0:0:0:
0,185,90237,1,0,1:0:0:0:
99,176,90387,1,8,0:0:0:0:
199,167,90537,1,0,1:0:0:0:
373,258,90687,6,0,P|263:269|160:306,1,220.000006713867,6|0,1:2|0:0,0:0:0:0:
6,171,91137,2,0,P|62:174|122:188,1,110.000003356934,2|0,1:2|0:0,0:0:0:0:
222,235,91437,1,0,1:0:0:0:
293,139,91587,1,10,0:0:0:0:
450,310,91737,5,0,1:0:0:0:
450,310,91812,1,0,1:0:0:0:
450,310,91887,2,0,P|438:246|442:199,1,110.000003356934,2|0,1:2|1:0,0:0:0:0:
296,59,92187,1,2,1:2:0:0:
385,21,92337,2,0,L|372:160,1,110.000003356934,2|0,1:2|0:0,0:0:0:0:
306,225,92637,1,2,1:2:0:0:
461,183,92787,1,8,0:0:0:0:
214,90,92937,5,2,1:2:0:0:
214,90,93012,1,0,1:0:0:0:
214,90,93087,1,0,1:0:0:0:
87,192,93237,1,2,0:0:0:0:
0,135,93387,5,2,1:2:0:0:
225,220,93537,1,2,1:2:0:0:
116,73,93687,5,2,0:0:0:0:
102,215,93837,1,0,1:0:0:0:
90,363,93987,1,10,0:0:0:0:
0,276,94137,5,0,1:0:0:0:
0,276,94212,1,0,1:0:0:0:
0,276,94287,2,0,P|55:263|184:313,1,165.000005035401,2|0,1:2|0:0,0:0:0:0:
173,306,94587,1,2,0:0:0:0:
362,227,94737,2,0,P|306:256|272:371,1,165.000005035401,2|0,1:2|0:0,0:0:0:0:
273,368,95037,1,0,1:0:0:0:
202,212,95187,1,8,0:0:0:0:
346,87,95337,5,0,1:0:0:0:
346,87,95412,1,0,1:0:0:0:
346,87,95487,1,6,1:2:0:0:
179,22,95637,1,8,0:0:0:0:
147,106,95787,1,2,0:0:0:0:
314,171,95937,1,4,0:3:0:0:
245,96,96087,1,0,0:0:0:0:
81,261,96237,5,4,0:3:0:0:
205,344,96387,1,8,0:0:0:0:
366,262,96537,1,2,1:2:0:0:
366,262,96612,1,0,1:0:0:0:
366,262,96687,1,4,0:3:0:0:
36,62,97737,6,0,B|25:37|25:37|31:7,1,55.0000016784668,2|0,0:0|0:0,0:0:0:0:
112,28,97887,2,0,P|183:8|293:48,1,165.000005035401,6|0,1:2|0:0,0:0:0:0:
286,45,98187,1,2,0:0:0:0:
476,115,98337,2,0,B|373:123|428:240|293:247,1,220.000006713867,2|0,1:2|1:0,0:0:0:0:
208,138,98787,2,0,P|261:131|308:159,1,110.000003356934,8|0,0:0|0:0,0:0:0:0:
395,356,99087,5,6,1:2:0:0:
445,280,99237,1,0,1:0:0:0:
275,377,99387,1,8,0:0:0:0:
201,319,99537,5,0,1:0:0:0:
201,319,99612,1,0,1:0:0:0:
201,319,99687,1,8,0:0:0:0:
184,55,99837,1,8,0:0:0:0:
187,143,99987,1,8,0:3:0:0:
191,231,100137,1,8,0:3:0:0:
377,6,100287,6,0,P|310:29|267:113,1,150.000005722046,6|0,1:2|0:0,0:0:0:0:
79,55,100737,2,0,P|146:78|189:162,1,150.000005722046,0|0,1:0|1:0,0:0:0:0:
343,381,101187,6,0,P|373:333|376:299,1,75.0000028610231,10|0,0:0|0:0,0:0:0:0:
282,196,101487,2,0,P|308:245|336:265,1,75.0000028610231,2|0,1:2|0:0,0:0:0:0:
472,235,101787,2,0,P|415:233|384:247,1,75.0000028610231,2|0,1:2|0:0,0:0:0:0:
117,356,102087,6,0,B|111:293|111:293|102:277|102:277|95:198,1,150.000005722046,2|0,1:2|0:0,0:0:0:0:
2,220,102537,2,0,B|8:288|8:288|17:304|17:304|22:366,1,150.000005722046,0|0,1:0|1:0,0:0:0:0:
307,215,102987,6,0,L|386:221,1,75.0000028610231,10|0,0:0|0:0,0:0:0:0:
483,230,103287,2,0,L|437:295,1,75.0000028610231,2|0,1:2|0:0,0:0:0:0:
382,374,103587,2,0,L|348:301,1,75.0000028610231,2|0,1:2|0:0,0:0:0:0:
327,308,103812,1,0,1:0:0:0:
304,308,103887,6,0,P|279:263|307:166,1,150.000005722046,2|0,1:2|0:0,0:0:0:0:
436,69,104337,2,0,B|376:45|372:91|290:57,1,150.000005722046,0|0,1:0|1:0,0:0:0:0:
86,180,104787,6,0,P|120:168|168:166,1,75.0000028610231,10|0,0:0|0:0,0:0:0:0:
43,51,105087,2,0,P|34:86|12:128,1,75.0000028610231,2|0,1:2|0:0,0:0:0:0:
176,80,105387,2,0,P|149:54|122:14,1,75.0000028610231,2|0,1:2|0:0,0:0:0:0:
378,52,105687,6,0,P|342:99|254:141,1,150.000005722046,2|0,1:2|0:0,0:0:0:0:
397,164,106137,2,0,P|433:211|521:253,1,150.000005722046,0|0,1:0|1:0,0:0:0:0:
266,253,106587,5,12,0:0:0:0:
256,359,106737,1,2,0:0:0:0:
258,366,106812,1,2,0:0:0:0:
260,373,106887,1,14,0:0:0:0:
268,263,107037,1,2,1:2:0:0:
262,384,107187,5,14,0:0:0:0:
271,274,107337,1,2,0:0:0:0:
286,104,107487,2,0,L|182:94,1,75.0000028610231,4|0,1:2|0:0,0:0:0:0:
111,84,107787,5,0,0:0:0:0:
0,194,107937,2,0,L|151:183,1,150.000005722046,2|0,1:2|1:0,0:0:0:0:
76,21,108387,6,0,L|83:100,1,75.0000028610231,10|0,0:0|0:0,0:0:0:0:
163,189,108687,1,0,1:0:0:0:
11,202,108837,1,0,1:0:0:0:
105,349,108987,2,0,L|98:274,1,75.0000028610231,10|0,0:0|0:0,0:0:0:0:
363,232,109287,6,0,P|393:253|417:283,2,75.0000028610231,2|0|8,1:2|0:0|0:0,0:0:0:0:
412,378,109737,2,0,P|454:368|512:262,1,150.000005722046,0|0,1:0|1:0,0:0:0:0:
129,382,110187,6,0,L|121:307,1,75.0000028610231,10|0,0:0|0:0,0:0:0:0:
0,208,110487,2,0,P|20:238|54:253,1,75.0000028610231,2|0,1:2|1:0,0:0:0:0:
176,239,110787,2,0,P|209:223|230:193,1,75.0000028610231,10|0,0:0|0:0,0:0:0:0:
136,14,111012,5,8,0:0:0:0:
136,14,111087,2,0,B|141:74|141:74|151:93|151:93|157:161,1,150.000005722046,6|8,1:2|0:0,0:0:0:0:
67,175,111537,2,0,B|61:106|61:106|52:87|52:87|47:28,1,150.000005722046,0|0,1:0|1:0,0:0:0:0:
295,31,111987,6,0,L|374:37,1,75.0000028610231,10|0,0:0|0:0,0:0:0:0:
511,118,112287,1,2,1:2:0:0:
430,124,112437,1,0,1:0:0:0:
304,45,112587,2,0,L|383:51,1,75.0000028610231,10|0,0:0|0:0,0:0:0:0:
499,255,112887,6,0,B|451:263|456:325|389:328,1,127.50000243187,14|0,0:0|0:0,0:0:0:0:
373,324,113187,1,8,0:0:0:0:
363,227,113337,1,0,1:0:0:0:
266,237,113487,1,2,1:2:0:0:
276,333,113637,1,2,1:2:0:0:
180,343,113787,1,10,0:0:0:0:
170,246,113937,1,0,3:0:0:0:
170,246,114012,1,0,3:0:0:0:
170,246,114087,2,0,L|114:250,3,42.5000008106232,0|0|0|0,1:0|0:0|1:0|0:0,0:0:0:0:
79,311,114387,5,8,0:0:0:0:
15,211,114537,1,2,0:0:0:0:
16,204,114587,1,2,0:0:0:0:
18,197,114637,1,2,0:0:0:0:
20,191,114687,2,0,P|53:143|110:133,1,119.999996337891,2|0,1:2|0:0,0:0:0:0:
230,250,115137,2,0,L|297:244,1,59.9999981689454,2|0,1:2|0:0,0:0:0:0:
289,255,115437,2,0,L|221:249,1,59.9999981689454,2|0,1:2|0:0,0:0:0:0:
168,198,115737,1,0,1:0:0:0:
356,300,115887,1,8,0:0:0:0:
376,314,116187,2,0,P|382:286|382:242,1,59.9999981689454,2|0,1:2|0:0,0:0:0:0:
283,135,116487,6,0,L|343:130,2,59.9999981689454,2|0|0,1:2|0:0|0:0,0:0:0:0:
196,236,116937,2,0,P|206:197|203:169,1,59.9999981689454,2|0,1:2|0:0,0:0:0:0:
162,105,117237,1,10,0:0:0:0:
186,31,117387,1,0,1:0:0:0:
261,18,117537,1,0,1:0:0:0:
272,125,117687,1,8,0:0:0:0:
282,141,117987,2,0,L|275:212,1,59.9999981689454,2|0,1:2|0:0,0:0:0:0:
50,328,118287,6,0,L|44:260,2,59.9999981689454,2|0|0,1:2|0:0|0:0,0:0:0:0:
64,172,118737,2,0,B|121:173|114:229|185:232,1,119.999996337891,2|2,1:2|1:2,0:0:0:0:
228,179,119187,1,0,0:0:0:0:
194,106,119337,1,0,1:0:0:0:
178,246,119487,2,0,L|183:309,1,59.9999981689454,8|0,0:0|0:0,0:0:0:0:
172,305,119787,2,0,L|177:245,1,59.9999981689454,2|0,1:2|0:0,0:0:0:0:
264,360,120087,6,0,P|316:356|343:340,1,59.9999981689454,2|0,1:2|0:0,0:0:0:0:
322,353,120387,1,0,0:0:0:0:
494,309,120537,2,0,P|464:314|434:312,1,59.9999981689454,2|0,1:2|0:0,0:0:0:0:
361,278,120837,1,10,0:0:0:0:
325,208,120987,1,2,1:2:0:0:
359,136,121137,1,0,1:0:0:0:
315,213,121287,5,10,0:0:0:0:
349,138,121437,1,2,0:0:0:0:
300,75,121587,1,0,1:0:0:0:
351,15,121737,5,2,0:0:0:0:
351,15,121812,1,2,0:0:0:0:
351,15,121887,2,0,P|316:0|269:6,2,59.9999981689454,6|0|0,1:2|0:0|0:0,0:0:0:0:
433,115,122337,2,0,P|471:71|460:2,1,119.999996337891,2|2,1:2|1:2,0:0:0:0:
466,12,122787,1,0,0:0:0:0:
359,136,122937,5,0,1:0:0:0:
286,45,123087,1,8,0:0:0:0:
273,55,123387,1,2,1:2:0:0:
186,117,123537,1,0,1:0:0:0:
97,16,123687,6,0,L|91:79,2,59.9999981689454,2|0|0,1:2|0:0|0:0,0:0:0:0:
10,81,124137,2,0,L|17:164,1,59.9999981689454,2|0,1:2|0:0,0:0:0:0:
27,218,124437,1,10,0:0:0:0:
96,264,124587,1,0,1:0:0:0:
37,322,124737,1,0,1:0:0:0:
139,364,124887,1,8,0:0:0:0:
156,380,125187,2,0,L|235:373,1,59.9999981689454,2|0,1:2|0:0,0:0:0:0:
370,330,125487,6,0,P|385:304|390:274,1,59.9999981689454,2|0,1:2|0:0,0:0:0:0:
390,274,125787,1,0,0:0:0:0:
286,234,125937,2,0,P|251:182|290:126,1,119.999996337891,2|2,1:2|1:2,0:0:0:0:
273,135,126387,1,0,0:0:0:0:
367,102,126537,1,0,1:0:0:0:
273,19,126687,1,8,0:0:0:0:
263,4,126987,2,0,L|199:9,1,59.9999981689454,2|0,1:2|0:0,0:0:0:0:
68,73,127287,6,0,P|56:102|55:135,2,59.9999981689454,2|0|0,1:2|0:0|0:0,0:0:0:0:
194,121,127737,2,0,P|198:159|184:203,1,59.9999981689454,2|0,1:2|0:0,0:0:0:0:
158,251,128037,1,10,0:0:0:0:
97,304,128187,1,2,1:2:0:0:
128,377,128337,1,0,1:0:0:0:
82,297,128487,5,8,0:0:0:0:
189,286,128637,1,10,0:0:0:0:
290,277,128787,1,0,1:0:0:0:
387,341,128937,5,2,0:0:0:0:
392,346,128987,1,2,0:0:0:0:
397,351,129037,1,2,0:0:0:0:
403,355,129087,2,0,P|426:283|396:219,1,150.000005722046,6|0,1:2|0:0,0:0:0:0:
252,146,129537,1,0,1:0:0:0:
252,146,129687,2,0,L|327:139,1,75.0000028610231,2|0,0:0|1:0,0:0:0:0:
450,71,129987,2,0,L|374:64,1,75.0000028610231,2|0,0:0|1:0,0:0:0:0:
198,15,130287,6,0,P|170:66|165:124,1,112.500004291535,10|0,0:0|0:0,0:0:0:0:
171,140,130587,1,2,1:2:0:0:
124,210,130737,1,0,0:0:0:0:
13,95,130887,6,0,P|30:128|36:164,1,75.0000028610231,2|0,1:2|0:0,0:0:0:0:
9,258,131187,1,2,0:0:0:0:
102,351,131337,2,0,B|152:370|154:332|223:360,1,112.500004291535,2|0,1:2|0:0,0:0:0:0:
223,366,131637,1,8,0:0:0:0:
304,300,131787,1,0,1:0:0:0:
304,300,131937,1,0,1:0:0:0:
438,379,132087,2,0,L|358:372,1,75.0000028610231,8|0,0:0|0:0,0:0:0:0:
304,300,132387,1,2,1:2:0:0:
287,276,132687,6,0,L|294:192,1,75.0000028610231,2|0,1:2|0:0,0:0:0:0:
241,130,132987,1,2,0:0:0:0:
283,211,133137,1,0,1:0:0:0:
365,140,133287,2,0,L|357:56,1,75.0000028610231,2|0,0:0|1:0,0:0:0:0:
258,0,133587,5,2,0:0:0:0:
258,0,133737,1,0,1:0:0:0:
192,60,133887,2,0,P|151:62|116:53,1,75.0000028610231,8|0,0:0|0:0,0:0:0:0:
35,0,134187,2,0,L|26:99,1,75.0000028610231,2|0,1:2|0:0,0:0:0:0:
214,155,134487,6,0,B|168:164|174:209|113:216,1,112.500004291535,2|0,1:2|0:0,0:0:0:0:
99,209,134787,1,2,0:0:0:0:
0,278,134937,2,0,P|51:292|77:356,1,112.500004291535,2|0,1:2|0:0,0:0:0:0:
72,364,135237,5,8,0:0:0:0:
183,306,135387,1,0,1:0:0:0:
235,366,135537,1,0,1:0:0:0:
406,339,135687,5,8,0:0:0:0:
414,249,135837,1,8,0:0:0:0:
325,241,135987,1,2,1:2:0:0:
317,331,136137,1,2,1:2:0:0:
441,142,136287,6,0,B|345:137|393:170|285:161,1,150.000005722046,6|2,1:2|0:0,0:0:0:0:
294,162,136737,1,0,1:0:0:0:
209,121,136887,1,2,0:0:0:0:
209,121,137037,1,0,1:0:0:0:
133,187,137187,1,2,0:0:0:0:
133,187,137337,1,0,1:0:0:0:
59,60,137487,6,0,P|94:71|120:97,1,75.0000028610231,10|0,0:0|0:0,0:0:0:0:
133,187,137787,2,0,P|140:223|130:259,1,75.0000028610231,2|0,1:2|0:0,0:0:0:0:
37,343,138087,6,0,P|109:334|192:374,1,150.000005722046,2|2,1:2|0:0,0:0:0:0:
322,212,138537,2,0,P|278:245|255:311,1,112.500004291535,2|0,1:2|0:0,0:0:0:0:
259,320,138837,1,10,0:0:0:0:
176,271,138987,1,2,1:2:0:0:
238,198,139137,1,0,1:0:0:0:
140,127,139287,1,8,0:0:0:0:
127,110,139587,2,0,L|133:30,1,75.0000028610231,2|0,1:2|0:0,0:0:0:0:
351,23,139887,6,0,L|357:98,1,75.0000028610231,2|0,1:2|0:0,0:0:0:0:
436,169,140187,1,2,0:0:0:0:
353,109,140337,1,0,1:0:0:0:
297,204,140487,2,0,L|290:279,1,75.0000028610231,2|0,0:0|1:0,0:0:0:0:
501,376,140787,5,2,0:0:0:0:
501,376,140937,1,0,1:0:0:0:
444,313,141087,2,0,P|404:313|348:325,1,75.0000028610231,10|0,0:0|0:0,0:0:0:0:
224,355,141387,2,0,P|263:358|318:375,1,75.0000028610231,2|0,1:2|0:0,0:0:0:0:
212,148,141687,6,0,L|137:156,1,75.0000028610231,2|0,1:2|0:0,0:0:0:0:
15,206,141987,2,0,P|52:214|91:258,2,75.0000028610231,2|0|2,0:0|1:0|0:0,0:0:0:0:
144,301,142437,1,8,0:0:0:0:
46,344,142587,1,2,1:2:0:0:
46,344,142737,1,0,1:0:0:0:
249,384,142887,5,10,0:0:0:0:
256,300,143037,1,8,0:0:0:0:
263,216,143187,1,0,1:0:0:0:
270,132,143337,1,0,1:0:0:0:
304,7,143487,6,0,P|247:55|174:61,1,150.000005722046,6|0,1:2|0:0,0:0:0:0:
62,122,143937,2,0,P|99:124|133:138,1,75.0000028610231,2|0,1:2|0:0,0:0:0:0:
232,203,144237,5,2,1:2:0:0:
147,153,144387,1,8,0:0:0:0:
113,247,144537,2,0,P|111:285|122:321,1,75.0000028610231,2|0,1:2|0:0,0:0:0:0:
253,264,144837,2,0,P|255:226|244:190,2,75.0000028610231,2|0|2,1:2|0:0|0:0,0:0:0:0:
134,327,145287,5,2,1:2:0:0:
0,253,145437,1,2,0:0:0:0:
90,245,145587,1,2,0:0:0:0:
38,337,145737,1,2,1:2:0:0:
9,247,145887,5,2,0:0:0:0:
145,320,146037,1,2,1:2:0:0:
262,196,146187,5,10,0:0:0:0:
180,236,146337,1,2,1:2:0:0:
184,157,146487,5,2,0:0:0:0:
356,217,146637,1,2,1:2:0:0:
463,99,146787,5,8,0:3:0:0:
326,134,146937,1,8,0:3:0:0:
88,72,147087,6,0,B|179:73|138:155|237:158,1,170.000003242493,6|0,1:2|0:0,0:0:0:0:
376,240,147537,2,0,P|315:249|265:296,1,127.50000243187,2|0,1:2|0:0,0:0:0:0:
265,309,147837,1,8,0:0:0:0:
106,334,147987,2,0,P|149:340|196:366,1,75.0000028610231,2|0,1:2|0:0,0:0:0:0:
8,298,148287,2,0,P|29:262|66:240,1,75.0000028610231,10|0,0:0|0:0,0:0:0:0:
273,274,148587,1,2,1:2:0:0:
207,199,148737,5,0,1:0:0:0:
207,199,148812,1,0,1:0:0:0:
207,199,148887,2,0,B|180:118|234:112|202:31,1,150.000005722046,2|0,1:2|0:0,0:0:0:0:
281,154,149337,2,0,P|323:160|373:143,1,75.0000028610231,2|0,1:2|0:0,0:0:0:0:
134,82,149637,1,8,0:0:0:0:
49,97,149787,1,0,1:0:0:0:
36,105,150087,2,0,L|27:200,1,75.0000028610231,10|0,0:0|0:0,0:0:0:0:
135,257,150387,2,0,L|127:172,1,75.0000028610231,2|0,1:2|0:0,0:0:0:0:
351,37,150687,6,0,B|367:114|316:112|328:190,1,150.000005722046,6|0,1:2|0:0,0:0:0:0:
413,264,151137,2,0,P|358:264|305:297,1,112.500004291535,2|0,1:2|0:0,0:0:0:0:
298,313,151437,1,8,0:0:0:0:
384,373,151587,1,0,1:0:0:0:
393,384,151887,2,0,L|400:299,1,75.0000028610231,10|0,0:0|0:0,0:0:0:0:
418,142,152187,2,0,L|410:226,1,75.0000028610231,2|0,1:2|0:0,0:0:0:0:
264,382,152487,6,0,B|188:382|203:325|109:322,1,150.000005722046,2|0,1:2|0:0,0:0:0:0:
14,239,152937,2,0,P|61:241|105:189,1,112.500004291535,2|0,1:2|0:0,0:0:0:0:
105,177,153237,1,8,0:0:0:0:
18,124,153387,1,0,1:0:0:0:
107,37,153537,5,0,1:0:0:0:
107,37,153612,1,0,1:0:0:0:
107,37,153687,1,8,0:0:0:0:
193,44,153837,1,8,0:0:0:0:
280,52,153987,1,8,0:3:0:0:
367,60,154137,1,8,0:3:0:0:
472,152,154287,6,0,L|478:226,1,75.0000028610231,6|0,1:2|0:0,0:0:0:0:
444,298,154587,1,2,1:2:0:0:
370,278,154737,1,0,0:0:0:0:
315,337,154887,2,0,L|240:343,1,75.0000028610231,10|0,0:0|0:0,0:0:0:0:
29,326,155187,6,0,P|96:303|105:232,1,150.000005722046,2|0,1:2|0:0,0:0:0:0:
74,124,155637,2,0,L|-5:117,2,75.0000028610231,10|0|0,0:0|1:0|0:0,0:0:0:0:
152,67,156087,1,8,0:0:0:0:
239,73,156237,1,8,0:0:0:0:
387,25,156387,6,0,P|402:57|410:104,1,75.0000028610231,2|0,1:2|0:0,0:0:0:0:
248,64,156687,2,0,P|269:34|306:4,1,75.0000028610231,2|0,1:2|0:0,0:0:0:0:
351,168,156987,2,0,P|315:163|270:147,1,75.0000028610231,10|0,0:0|0:0,0:0:0:0:
73,222,157287,6,0,B|107:231|97:264|147:273,1,75.0000028610231,2|0,1:2|0:0,0:0:0:0:
145,268,157512,1,0,1:0:0:0:
159,264,157587,1,0,1:0:0:0:
240,204,157737,1,10,0:0:0:0:
354,288,157887,2,0,P|312:287|273:305,1,75.0000028610231,2|0,1:2|0:0,0:0:0:0:
454,339,158187,5,8,0:0:0:0:
460,263,158337,1,8,0:0:0:0:
469,188,158487,1,8,0:3:0:0:
476,112,158637,1,8,0:3:0:0:
387,19,158787,6,0,B|343:22|340:73|291:77,1,112.500004291535,6|0,1:2|0:0,0:0:0:0:
268,68,159087,1,2,0:0:0:0:
151,113,159237,2,0,P|211:129|240:154,1,75.0000028610231,2|0,1:2|0:0,0:0:0:0:
357,212,159537,2,0,P|303:242|281:274,1,75.0000028610231,2|8,1:2|0:0,0:0:0:0:
261,324,159837,1,2,0:0:0:0:
31,250,159987,6,0,B|75:247|78:196|127:192,1,112.500004291535,2|0,1:2|0:0,0:0:0:0:
150,201,160287,1,2,0:0:0:0:
266,125,160437,2,0,P|206:109|177:84,1,75.0000028610231,2|0,1:2|0:0,0:0:0:0:
31,0,160737,1,2,1:2:0:0:
98,46,160887,2,0,P|158:30|187:5,1,75.0000028610231,10|0,0:0|0:0,0:0:0:0:
422,16,161187,6,0,B|439:79|409:89|424:153,1,134.999995880127,6|0,1:2|0:0,0:0:0:0:
437,163,161487,1,8,0:0:0:0:
305,221,161637,1,0,1:0:0:0:
305,221,161712,1,0,1:0:0:0:
305,221,161787,1,8,0:0:0:0:
225,170,161937,5,0,1:0:0:0:
98,46,162087,1,0,1:0:0:0:
38,196,162237,1,0,1:0:0:0:
38,196,162312,1,0,1:0:0:0:
38,196,162387,1,10,0:0:0:0:
108,56,162687,5,2,0:0:0:0:
235,179,162987,5,2,0:0:0:0:
313,38,163287,5,2,0:0:0:0:
480,248,163587,6,0,B|345:229|406:283|260:262,1,220.000006713867,6|0,1:2|0:0,0:0:0:0:
378,173,164037,2,0,B|358:237|395:262|360:359,1,165.000005035401,2|0,1:2|0:0,0:0:0:0:
307,384,164337,1,0,1:0:0:0:
451,347,164487,1,10,0:0:0:0:
249,275,164637,1,0,1:0:0:0:
26,203,164787,6,0,L|35:91,1,110.000003356934,2|0,1:2|1:0,0:0:0:0:
274,60,165087,1,10,0:0:0:0:
101,34,165237,2,0,B|204:44|172:132|285:161,1,220.000006713867,2|0,1:2|1:0,0:0:0:0:
502,78,165687,1,8,0:0:0:0:
378,31,165837,5,2,1:2:0:0:
378,31,165912,1,0,1:0:0:0:
378,31,165987,1,2,1:2:0:0:
284,174,166137,1,2,1:2:0:0:
319,345,166287,5,10,0:0:0:0:
405,366,166437,1,2,1:2:0:0:
179,305,166587,5,2,1:2:0:0:
330,242,166737,1,2,1:2:0:0:
491,173,166887,2,0,L|480:53,1,110.000003356934,10|0,0:0|0:0,0:0:0:0:
401,10,167112,5,0,1:0:0:0:
401,10,167187,2,0,B|344:6|344:6|289:19,1,110.000003356934,2|0,1:2|1:0,0:0:0:0:
108,139,167487,1,10,0:0:0:0:
56,49,167637,2,0,B|137:55|137:55|183:86|183:86|291:100,1,220.000006713867,2|0,1:2|1:0,0:0:0:0:
451,197,168087,1,8,0:0:0:0:
512,131,168237,1,0,0:0:0:0:
253,105,168387,5,4,1:2:0:0:
240,120,168687,2,0,L|230:231,1,110.000003356934,10|0,0:0|1:0,0:0:0:0:
302,301,168987,1,2,1:2:0:0:
157,373,169137,1,0,1:0:0:0:
17,120,169287,6,0,B|152:101|91:155|237:134,1,220.000006713867,14|2,0:0|0:0,0:0:0:0:
169,52,169737,1,0,1:0:0:0:
71,202,169887,2,0,L|83:316,1,110.000003356934,10|0,0:0|0:0,0:0:0:0:
157,373,170187,1,2,1:2:0:0:
235,333,170337,1,0,1:0:0:0:
352,212,170487,6,0,L|361:102,1,110.000003356934,14|0,0:0|0:0,0:0:0:0:
471,170,170712,1,0,1:0:0:0:
471,170,170787,2,0,B|371:161|371:161|343:146|343:146|255:139,1,220.000006713867,6|8,1:2|0:0,0:0:0:0:
177,201,171237,1,2,1:2:0:0:
114,127,171387,1,0,0:0:0:0:
191,66,171537,1,2,1:2:0:0:
268,321,171687,1,8,0:0:0:0:
171,283,171837,6,0,B|306:264|245:318|391:297,1,220.000006713867,6|0,1:2|1:0,0:0:0:0:
459,239,172287,1,10,0:0:0:0:
356,39,172437,5,6,1:2:0:0:
298,101,172587,1,8,0:0:0:0:
52,113,172737,5,12,0:0:0:0:
132,52,172887,1,0,1:0:0:0:
128,90,172962,1,0,1:0:0:0:
125,128,173037,1,0,1:0:0:0:
121,167,173112,1,0,1:0:0:0:
116,219,173187,6,0,B|251:238|190:184|336:205,1,220.000006713867,14|8,0:0|0:0,0:0:0:0:
235,131,173637,2,0,B|229:194|229:194|219:217|219:217|212:297,1,165.000005035401,2|0,1:2|0:0,0:0:0:0:
155,351,173937,1,2,1:2:0:0:
309,309,174087,1,10,0:0:0:0:
468,261,174237,5,0,1:0:0:0:
468,261,174312,1,0,1:0:0:0:
468,261,174387,2,0,P|466:203|454:139,1,110.000003356934,2|0,1:2|1:0,0:0:0:0:
219,46,174687,1,10,0:0:0:0:
329,9,174837,6,0,P|306:73|299:174,1,165.000005035401,2|0,1:2|0:0,0:0:0:0:
351,230,175137,1,2,1:2:0:0:
447,144,175287,1,8,0:0:0:0:
219,46,175437,5,0,1:0:0:0:
219,46,175512,1,0,1:0:0:0:
219,46,175587,1,10,0:0:0:0:
201,155,175737,1,2,1:2:0:0:
317,110,175887,1,10,0:0:0:0:
106,80,176037,1,2,0:0:0:0:
192,273,176187,5,2,1:2:0:0:
209,161,176337,1,0,1:0:0:0:
227,52,176487,1,10,0:0:0:0:
12,0,176637,5,0,1:0:0:0:
12,0,176712,1,0,1:0:0:0:
12,0,176787,2,0,P|-10:68|4:173,1,165.000005035401,2|0,1:2|0:0,0:0:0:0:
70,199,177087,1,10,0:0:0:0:
18,324,177237,2,0,B|146:309|96:396|233:384,1,220.000006713867,2|0,1:2|1:0,0:0:0:0:
512,257,177687,1,8,0:0:0:0:
439,313,177837,5,0,1:0:0:0:
439,313,177912,1,0,1:0:0:0:
439,313,177987,2,0,P|428:239|403:185,1,110.000003356934,2|0,1:2|1:0,0:0:0:0:
271,52,178287,1,10,0:0:0:0:
371,20,178437,2,0,P|375:78|363:139,1,110.000003356934,2|0,1:2|0:0,0:0:0:0:
264,292,178737,1,2,1:2:0:0:
334,353,178887,1,8,0:0:0:0:
395,217,179037,5,2,1:2:0:0:
395,217,179112,1,0,1:0:0:0:
395,217,179187,2,0,L|277:206,1,110.000003356934,2|0,1:2|1:0,0:0:0:0:
4,177,179487,2,0,L|122:188,1,110.000003356934,10|0,0:0|1:0,0:0:0:0:
257,305,179787,1,2,1:2:0:0:
257,305,179937,1,0,1:0:0:0:
121,292,180087,1,10,0:0:0:0:
215,100,180237,5,0,1:0:0:0:
215,100,180312,1,0,1:0:0:0:
215,100,180387,1,6,1:2:0:0:
291,64,180537,1,0,1:0:0:0:
460,109,180687,1,10,0:0:0:0:
500,36,180837,2,0,L|388:26,1,110.000003356934,2|0,1:2|0:0,0:0:0:0:
215,100,181137,1,0,1:0:0:0:
295,165,181287,1,8,0:0:0:0:
383,125,181437,1,0,1:0:0:0:
507,253,181587,5,2,1:2:0:0:
399,243,181737,1,0,1:0:0:0:
196,294,181887,1,12,0:0:0:0:
290,319,182037,1,0,1:0:0:0:
483,351,182187,5,8,0:3:0:0:
511,303,182262,1,8,0:3:0:0:
507,253,182337,1,8,0:3:0:0:
483,225,182412,1,8,0:3:0:0:
452,205,182487,1,4,0:3:0:0:
432,179,182562,1,4,0:3:0:0:
427,157,182637,1,4,0:3:0:0:
433,136,182712,1,4,0:3:0:0:
442,126,182787,2,0,B|336:109|391:148|259:122,1,160,6|0,1:2|0:0,0:0:0:0:
198,83,183237,6,0,P|205:121|196:160,1,80,2|0,1:2|0:0,0:0:0:0:
120,116,183537,1,2,1:2:0:0:
358,116,183687,6,0,P|283:116|211:169,1,160,10|0,0:0|1:0,0:0:0:0:
148,263,184137,1,2,1:2:0:0:
202,368,184287,1,8,0:0:0:0:
217,383,184587,6,0,B|280:377|280:377|311:358|311:358|390:351,1,160,2|8,1:2|0:0,0:0:0:0:
459,252,185037,2,0,B|399:257|399:257|368:275|368:275|304:281,1,160,2|0,1:2|1:0,0:0:0:0:
172,242,185487,6,0,P|169:206|240:97,1,160,10|2,0:0|1:2,0:0:0:0:
97,151,185937,1,0,1:0:0:0:
97,151,186087,2,0,P|66:171|21:187,1,80,10|0,0:0|0:0,0:0:0:0:
223,22,186387,6,0,B|307:20|284:84|374:72,1,160,2|10,1:2|0:0,0:0:0:0:
510,39,186837,2,0,P|468:61|468:187,1,160,2|0,1:2|1:0,0:0:0:0:
510,275,187287,1,8,0:0:0:0:
500,291,187587,1,0,1:0:0:0:
407,302,187737,1,0,1:0:0:0:
305,309,187887,2,0,L|296:213,1,80,10|0,0:0|0:0,0:0:0:0:
273,110,188187,6,0,B|167:93|222:132|90:106,1,160,2|10,1:2|0:0,0:0:0:0:
12,0,188637,2,0,P|38:54|-17:149,1,160,2|0,1:2|1:0,0:0:0:0:
0,376,189087,6,0,L|79:382,1,80,12|0,0:0|1:0,0:0:0:0:
171,311,189387,1,10,0:0:0:0:
200,309,189462,1,0,1:0:0:0:
229,307,189537,1,0,1:0:0:0:
258,303,189612,1,0,1:0:0:0:
287,301,189687,1,14,0:0:0:0:
314,300,189987,6,0,P|325:256|323:212,1,80,10|0,0:0|0:0,0:0:0:0:
376,115,190287,2,0,P|343:83|304:63,1,80,2|0,1:2|0:0,0:0:0:0:
170,227,190587,5,10,0:0:0:0:
90,216,190737,1,0,1:0:0:0:
10,205,190887,1,8,0:3:0:0:
10,205,191037,1,0,1:0:0:0:
124,128,191187,5,8,0:0:0:0:
204,117,191337,1,0,1:0:0:0:
284,106,191487,1,8,0:3:0:0:
284,106,191637,1,0,1:0:0:0:
446,1,191787,6,0,L|436:112,1,80,10|0,0:0|0:0,0:0:0:0:
422,245,192087,2,0,L|428:165,1,80,2|0,1:2|0:0,0:0:0:0:
248,200,192387,5,10,0:0:0:0:
281,327,192537,1,0,1:0:0:0:
246,208,192687,1,8,0:3:0:0:
279,335,192837,1,0,1:0:0:0:
345,244,192987,5,8,0:0:0:0:
187,284,193137,1,0,1:0:0:0:
335,240,193287,1,8,0:3:0:0:
177,281,193437,1,0,1:0:0:0:
61,248,193587,6,0,L|70:136,1,80,12|0,0:0|0:0,0:0:0:0:
85,4,193887,2,0,L|78:83,1,80,2|0,1:2|0:0,0:0:0:0:
201,250,194187,5,10,0:0:0:0:
273,242,194337,1,0,1:0:0:0:
267,168,194487,1,8,0:3:0:0:
194,176,194637,1,0,1:0:0:0:
167,288,194787,5,8,0:0:0:0:
312,274,194937,1,0,1:0:0:0:
300,128,195087,1,8,0:3:0:0:
153,142,195237,1,0,1:0:0:0:
64,226,195387,5,10,0:0:0:0:
217,38,195537,1,0,0:0:0:0:
404,192,195687,1,8,1:3:0:0:
249,377,195837,1,0,1:0:0:0:
479,208,195987,5,12,0:0:0:0:
267,160,196137,1,0,0:0:0:0:
57,106,196287,1,8,0:3:0:0:
38,152,196362,1,8,0:3:0:0:
40,199,196437,1,8,0:3:0:0:
64,226,196512,1,8,0:3:0:0:
84,249,196587,1,4,0:3:0:0:
102,276,196662,1,4,0:3:0:0:
106,298,196737,1,4,0:3:0:0:
98,311,196812,1,4,0:3:0:0:
89,317,196887,2,0,L|-2:307,1,80,12|0,0:0|0:0,0:0:0:0:
225,243,197187,5,2,1:2:0:0:
210,229,197337,1,0,3:0:0:0:
189,220,197487,1,0,3:0:0:0:
290,134,197637,5,2,3:2:0:0:
276,120,197787,1,0,3:0:0:0:
259,109,197937,1,0,3:0:0:0:
416,191,198087,5,2,3:2:0:0:
459,92,198237,1,0,3:0:0:0:
361,288,198387,5,2,3:2:0:0:
396,365,198537,1,0,3:0:0:0:
194,252,198687,5,2,3:2:0:0:
292,233,198837,1,0,3:0:0:0:
389,213,198987,1,0,3:0:0:0:
473,120,199137,5,2,0:0:0:0:
470,114,199187,1,2,0:0:0:0:
467,108,199237,1,2,0:0:0:0:
464,102,199287,2,2,B|336:67|417:188|252:143,1,200,14|0,0:0|3:0,1:0:0:0:
219,99,199737,1,0,1:0:0:0:
143,129,199887,1,8,3:2:0:0:
73,87,200037,1,0,1:0:0:0:
4,200,200187,6,2,L|14:319,1,100,10|0,3:2|0:0,1:0:0:0:
95,215,200412,2,2,L|86:317,1,75.0000028610231,2|0,0:0|0:0,1:0:0:0:
177,247,200637,2,2,L|160:309,1,50,2|0,1:2|3:0,1:0:0:0:
51,369,200862,5,2,0:0:0:0:
51,369,200937,2,2,B|104:381|104:381|168:363,1,100,2|0,0:0|3:0,1:0:0:0:
419,198,201237,2,2,B|371:193|371:193|329:206|329:206|266:200,1,150,2|0,1:2|0:0,1:0:0:0:
230,225,201537,1,2,3:2:0:0:
179,224,201612,1,2,3:2:0:0:
147,183,201687,2,2,L|151:133,1,50,2|0,3:2|0:0,1:0:0:0:
281,112,201837,2,2,L|285:161,1,50,2|0,1:2|0:0,1:0:0:0:
115,371,201987,5,10,3:2:0:0:
60,352,202062,1,2,3:2:0:0:
60,293,202137,1,2,3:2:0:0:
115,274,202212,1,2,3:2:0:0:
151,322,202287,2,2,B|254:320|198:287|299:290,1,150,2|0,3:2|0:0,1:0:0:0:
305,297,202587,2,0,L|300:352,1,50,0|0,3:0|0:0,0:0:0:0:
421,334,202737,6,2,L|428:385,2,50,2|2|2,0:0|0:0|3:2,1:0:0:0:
479,275,203037,1,2,1:2:0:0:
337,182,203187,5,2,3:2:0:0:
501,159,203337,1,2,1:2:0:0:
342,186,203487,5,2,3:2:0:0:
506,163,203637,1,2,1:2:0:0:
264,21,203787,5,10,3:2:0:0:
216,144,203937,1,2,1:2:0:0:
263,251,204087,1,2,3:2:0:0:
229,335,204237,1,2,1:2:0:0:
58,384,204387,5,2,3:2:0:0:
42,310,204537,1,10,0:0:0:0:
16,162,204687,6,2,B|115:134|52:228|180:193,1,150,10|0,3:2|0:0,1:0:0:0:
166,187,204987,2,0,L|170:242,2,50,2|0|2,3:2|0:0|1:2,0:0:0:0:
245,92,205287,5,2,3:2:0:0:
414,141,205437,1,2,1:2:0:0:
492,99,205587,5,10,3:2:0:0:
321,195,205737,1,2,1:2:0:0:
161,80,205887,2,2,B|62:81|129:116|-4:106,1,150,2|0,3:2|0:0,1:0:0:0:
4,125,206187,2,0,L|0:180,1,50,8|0,3:2|0:0,0:0:0:0:
24,384,206337,5,0,0:0:0:0:
24,384,206412,1,0,0:0:0:0:
24,384,206487,2,2,B|92:378|92:378|111:368|111:368|171:363,1,150.000005722046,14|0,0:0|0:0,1:0:0:0:
231,310,206787,1,2,3:2:0:0:
126,289,206937,1,2,1:2:0:0:
24,270,207087,1,2,3:2:0:0:
131,297,207237,1,2,1:2:0:0:
347,255,207387,6,2,P|391:262|442:286,1,100,8|2,3:2|1:2,1:0:0:0:
489,354,207687,1,2,3:2:0:0:
365,155,207837,2,2,P|321:162|270:186,2,100,2|0|0,1:2|3:0|1:0,1:0:0:0:
505,6,208287,5,2,3:2:0:0:
431,13,208437,1,2,1:2:0:0:
437,88,208587,1,2,3:2:0:0:
512,81,208737,1,2,1:2:0:0:
346,175,208887,5,2,3:2:0:0:
265,142,209037,1,2,1:2:0:0:
88,224,209187,5,10,3:2:0:0:
149,297,209337,1,2,1:2:0:0:
181,209,209487,1,2,3:2:0:0:
0,351,209637,5,0,1:0:0:0:
81,384,209787,1,0,3:0:0:0:
285,354,209937,5,10,3:2:0:0:
285,354,210012,1,2,3:2:0:0:
285,354,210087,2,2,P|308:310|309:277,1,50,2|0,3:2|0:0,1:0:0:0:
410,300,210237,2,2,P|376:263|366:231,1,50,10|0,0:0|0:0,1:0:0:0:
238,223,210387,1,2,3:2:0:0:
368,86,210537,2,2,B|274:111|346:209|223:240,1,200,2|2,1:2|1:2,1:0:0:0:
86,52,210987,6,2,L|79:123,1,50,10|0,3:2|0:0,1:0:0:0:
168,88,211137,2,2,L|180:158,1,50,2|0,3:2|0:0,1:0:0:0:
28,274,211287,1,2,3:2:0:0:
137,378,211437,2,2,B|130:296|130:296|116:270|116:270|108:177,1,200,2|0,1:2|1:0,1:0:0:0:
214,343,211887,5,10,3:2:0:0:
265,334,211987,1,2,1:2:0:0:
300,292,212087,1,2,1:2:0:0:
294,220,212187,5,10,3:2:0:0:
406,286,212337,1,2,1:2:0:0:
441,363,212487,5,2,3:2:0:0:
499,191,212637,1,2,1:2:0:0:
434,54,212787,5,10,3:2:0:0:
495,286,212937,1,2,1:2:0:0:
428,367,213087,5,10,3:2:0:0:
336,270,213237,1,2,1:2:0:0:
302,272,213312,1,0,1:0:0:0:
268,277,213387,1,8,3:2:0:0:
203,367,213537,6,2,B|177:374|177:374|150:362,1,50,10|0,0:0|0:0,1:0:0:0:
91,325,213687,2,2,B|61:273|97:214|97:214|78:159|78:159|115:104|74:41,1,300,14|0,3:2|1:0,1:0:0:0:
1,106,214287,1,8,3:2:0:0:
1,106,214437,1,0,1:0:0:0:
172,278,214587,6,2,B|262:268|234:192|333:166,1,200,10|0,3:2|3:0,1:0:0:0:
471,211,215037,2,2,L|476:260,2,50,2|0|0,1:2|0:0|3:0,1:0:0:0:
391,335,215337,1,2,0:0:0:0:
130,177,215487,5,10,3:2:0:0:
164,73,215637,1,2,0:2:0:0:
234,220,215787,5,2,3:2:0:0:
263,324,215937,1,2,1:2:0:0:
343,145,216087,5,2,3:2:0:0:
382,39,216237,1,2,1:2:0:0:
507,229,216387,6,2,B|416:238|444:314|345:340,1,200,10|0,3:2|3:0,1:0:0:0:
348,339,216837,1,0,1:0:0:0:
255,290,216987,1,0,3:2:0:0:
175,384,217137,5,2,1:2:0:0:
175,384,217212,1,2,1:2:0:0:
175,384,217287,2,0,P|167:356|170:328,1,50,10|0,3:2|0:0,0:0:0:0:
102,274,217437,2,0,P|122:253|147:241,1,50,2|0,1:2|0:0,0:0:0:0:
306,217,217587,5,2,3:2:0:0:
195,172,217737,1,2,1:2:0:0:
311,230,217887,5,10,3:2:0:0:
200,185,218037,1,2,1:2:0:0:
331,18,218187,6,0,P|339:46|336:74,1,50,10|0,3:2|0:0,0:0:0:0:
404,128,218337,2,0,P|384:149|359:161,1,50,2|0,1:2|0:0,0:0:0:0:
179,178,218487,5,10,3:2:0:0:
333,241,218637,1,2,1:2:0:0:
172,160,218787,5,2,3:2:0:0:
326,223,218937,1,10,0:2:0:0:
263,372,219087,5,10,3:2:0:0:
215,258,219237,1,2,0:2:0:0:
271,147,219387,1,2,3:2:0:0:
236,60,219537,1,2,1:2:0:0:
102,22,219687,5,2,3:2:0:0:
83,109,219837,1,2,1:2:0:0:
400,151,219987,5,10,3:2:0:0:
384,62,220137,1,2,1:2:0:0:
106,254,220287,5,2,3:2:0:0:
180,292,220437,1,2,1:2:0:0:
341,374,220587,5,10,3:2:0:0:
417,315,220737,1,2,1:2:0:0:
417,315,220812,1,0,1:0:0:0:
417,315,220887,2,2,B|465:220|353:208|428:114,1,200,14|0,3:2|3:0,1:0:0:0:
266,43,221337,2,2,P|314:100|313:148,1,100,0|0,1:0|3:0,1:0:0:0:
244,275,221637,5,2,1:2:0:0:
237,299,221712,1,2,1:2:0:0:
230,323,221787,1,10,3:2:0:0:
137,378,221937,2,2,B|130:296|130:296|116:270|116:270|108:177,1,200,2|0,1:2|1:0,1:0:0:0:
108,182,222387,1,0,3:0:0:0:
35,132,222537,1,2,0:2:0:0:
190,36,222687,5,10,3:2:0:0:
287,24,222837,1,10,0:2:0:0:
387,77,222987,1,10,3:2:0:0:
493,133,223137,2,2,P|447:177|456:309,1,200,2|2,1:2|1:2,1:0:0:0:
231,380,223587,5,10,3:2:0:0:
135,357,223737,1,2,1:2:0:0:
35,283,223887,2,2,P|65:220|18:89,1,200,2|0,3:2|3:0,1:0:0:0:
29,100,224337,1,0,1:0:0:0:
215,11,224487,5,14,3:2:0:0:
315,35,224637,1,2,1:2:0:0:
406,108,224787,1,2,3:2:0:0:
321,156,224937,5,2,1:2:0:0:
255,223,225087,1,10,3:2:0:0:
317,278,225237,1,2,1:2:0:0:
464,374,225387,5,10,3:2:0:0:
456,288,225537,1,2,1:2:0:0:
443,189,225687,2,2,B|391:158|332:194|332:194|277:175|277:175|222:212|159:171,1,300,2|0,3:2|0:0,1:0:0:0:
115,110,226212,5,2,0:0:0:0:
115,110,226287,1,14,3:2:0:0:
73,203,226437,1,10,0:2:0:0:
217,334,226587,5,2,3:2:0:0:
183,214,226737,1,2,1:2:0:0:
292,35,226887,5,2,3:2:0:0:
274,167,227037,1,2,1:2:0:0:
347,309,227187,5,10,3:2:0:0:
485,259,227337,1,2,1:2:0:0:
339,317,227487,5,2,3:2:0:0:
477,267,227637,1,2,1:2:0:0:
409,96,227787,5,10,3:2:0:0:
271,146,227937,1,2,1:2:0:0:
271,146,228012,1,0,1:0:0:0:
271,146,228087,2,2,B|146:144|230:100|63:113,1,200,14|0,3:2|3:0,1:0:0:0:
77,112,228537,1,0,1:0:0:0:
26,277,228687,5,2,3:2:0:0:
105,331,228837,1,0,1:0:0:0:
105,331,228912,1,0,1:0:0:0:
105,331,228987,2,2,L|208:321,1,100,14|0,3:2|1:0,1:0:0:0:
440,215,229287,5,10,3:2:0:0:
378,273,229437,1,8,0:0:0:0:
349,270,229512,1,8,0:0:0:0:
320,267,229587,1,8,3:2:0:0:
215,331,229737,1,10,0:2:0:0:
83,222,229887,6,0,P|100:173|187:143,2,150.000005722046,4|10|2,1:0|0:0|0:0,0:0:0:0:
83,222,230637,1,8,0:0:0:0:
37,127,230787,2,0,P|22:89|-10:56,1,75.0000028610231,2|0,1:2|1:0,0:0:0:0:
144,29,231087,6,0,L|223:35,1,75.0000028610231,10|0,0:0|0:0,0:0:0:0:
379,50,231387,2,0,L|304:43,1,75.0000028610231,2|0,1:2|0:0,0:0:0:0:
215,140,231687,6,0,P|202:182|257:273,1,150.000005722046,2|2,1:2|0:0,0:0:0:0:
362,328,232137,2,0,B|270:327|317:373|200:356,1,150.000005722046,2|8,1:2|0:0,0:0:0:0:
126,306,232587,2,0,L|118:393,2,75.0000028610231,0|0|8,1:0|0:0|0:0,0:0:0:0:
3,115,233187,5,2,1:2:0:0:
64,162,233337,1,2,1:2:0:0:
124,109,233487,2,0,P|193:94|270:135,2,150.000005722046,2|10|2,1:2|0:0|0:0,0:0:0:0:
185,198,234237,1,8,0:0:0:0:
278,139,234387,6,0,L|284:59,1,75.0000028610231,2|0,1:2|0:0,0:0:0:0:
375,26,234687,2,0,L|381:100,1,75.0000028610231,10|0,0:0|0:0,0:0:0:0:
486,158,234987,2,0,P|450:181|427:225,1,75.0000028610231,2|0,1:2|1:0,0:0:0:0:
461,343,235287,6,0,B|421:347|421:347|382:333,1,75.0000028610231,2|0,1:2|0:0,0:0:0:0:
388,335,235587,1,2,1:2:0:0:
308,260,235737,2,0,B|220:264|254:313|158:312,1,150.000005722046,2|8,1:2|0:0,0:0:0:0:
171,311,236187,1,0,1:0:0:0:
78,271,236337,5,0,1:0:0:0:
78,271,236412,1,0,1:0:0:0:
78,271,236487,1,8,0:0:0:0:
85,350,236637,1,8,0:0:0:0:
7,357,236787,1,2,1:2:0:0:
0,278,236937,1,8,0:0:0:0:
38,165,237087,6,0,B|127:158|95:215|194:206,1,150.000005722046,6|2,1:2|1:2,0:0:0:0:
297,101,237537,2,0,P|255:78|158:130,1,150.000005722046,2|0,1:2|0:0,0:0:0:0:
267,241,237987,6,0,L|260:320,1,75.0000028610231,2|0,1:2|0:0,0:0:0:0:
379,202,238287,2,0,L|372:281,1,75.0000028610231,10|0,0:2|0:0,0:0:0:0:
481,167,238587,2,0,L|474:246,1,75.0000028610231,2|0,1:2|0:0,0:0:0:0:
422,50,238887,6,0,B|333:43|365:100|266:91,1,150.000005722046,2|0,1:2|0:0,0:0:0:0:
183,69,239337,2,0,P|204:114|195:164,1,75.0000028610231,0|0,1:0|0:0,0:0:0:0:
115,122,239637,1,8,0:0:0:0:
0,182,239787,6,0,L|7:269,1,75.0000028610231,2|0,1:2|0:0,0:0:0:0:
105,213,240087,2,0,L|112:300,1,75.0000028610231,10|0,0:2|0:0,0:0:0:0:
215,237,240387,2,0,L|222:324,1,75.0000028610231,2|0,1:2|0:0,0:0:0:0:
337,378,240687,6,0,B|429:379|382:333|498:349,1,150.000005722046,6|0,1:2|0:0,0:0:0:0:
366,225,241137,2,0,P|349:258|346:295,1,75.0000028610231,0|0,1:0|0:0,0:0:0:0:
446,192,241437,1,8,0:0:0:0:
378,99,241587,6,0,L|282:90,1,75.0000028610231,2|0,1:2|0:0,0:0:0:0:
291,192,241887,2,0,L|195:183,1,75.0000028610231,10|0,0:2|0:0,0:0:0:0:
215,285,242187,2,0,L|119:276,1,75.0000028610231,2|0,1:2|0:0,0:0:0:0:
86,55,242487,6,0,P|103:126|63:187,1,150.000005722046,6|0,1:2|1:0,0:0:0:0:
14,110,242937,1,0,1:0:0:0:
14,110,243012,1,0,1:0:0:0:
14,110,243087,1,8,0:0:0:0:
70,202,243237,1,0,1:0:0:0:
12,299,243387,1,8,0:0:0:0:
83,368,243537,1,0,1:0:0:0:
101,364,243612,1,0,1:0:0:0:
119,359,243687,1,10,0:2:0:0:
1,292,243987,5,2,0:0:0:0:
79,190,244287,5,2,0:0:0:0:
0,91,244587,5,2,0:0:0:0:
90,17,244887,6,0,P|139:10|187:22,1,100,2|0,0:0|0:0,0:0:0:0:
311,67,245337,2,0,P|267:71|218:107,1,100,2|0,0:0|0:0,0:0:0:0:
199,182,245787,1,2,0:0:0:0:
218,376,246087,6,0,L|289:369,1,50,2|0,0:0|0:0,0:0:0:0:
346,365,246387,1,2,0:0:0:0:
512,315,246537,2,0,L|392:304,1,100,2|0,0:0|0:0,0:0:0:0:
182,184,247137,6,0,P|156:218|143:279,1,100,2|0,0:0|0:0,0:0:0:0:
99,341,247587,1,2,0:0:0:0:
99,341,247737,1,2,0:0:0:0:
34,287,247887,1,2,0:0:0:0:
66,215,248037,1,2,0:0:0:0:
18,152,248187,1,2,0:0:0:0:
185,14,248487,6,0,L|248:19,1,50,2|0,0:0|0:0,0:0:0:0:
318,26,248787,1,2,0:0:0:0:
426,90,248937,2,0,P|376:95|332:118,1,100,2|0,0:0|0:0,0:0:0:0:
286,185,249387,1,2,0:0:0:0:
469,382,249987,6,0,L|464:332,1,50,2|0,0:0|0:0,0:0:0:0:
451,202,250287,2,0,L|455:251,1,50,2|0,0:0|0:0,0:0:0:0:
470,338,250587,1,2,0:0:0:0:
357,179,250887,6,0,P|368:150|362:120,1,50,2|0,0:0|0:0,0:0:0:0:
412,66,251187,2,0,P|393:41|363:31,1,50,2|0,0:0|0:0,0:0:0:0:
302,65,251487,2,0,L|246:60,1,50,2|0,0:0|0:0,0:0:0:0:
161,135,251787,2,0,L|216:130,1,50,2|0,0:0|0:0,0:0:0:0:
238,231,252087,6,0,L|134:240,1,100,2|0,0:0|0:0,0:0:0:0:
293,157,252537,6,2,L|444:170,1,150
374,114,252837,5,8,0:0:0:0:
369,163,252912,1,8,0:0:0:0:
366,208,252987,2,0,L|359:279,1,50,0|0,1:0|1:0,0:0:0:0:
498,307,253137,6,0,B|368:294|417:388|254:366,1,239.999992675781,6|0,1:2|0:0,0:0:0:0:
0,214,253587,1,8,0:0:0:0:
59,142,253737,2,0,P|129:145|179:172,1,119.999996337891,6|8,1:2|0:0,0:0:0:0:
304,267,254037,5,6,1:2:0:0:
450,211,254187,1,8,0:0:0:0:
453,181,254262,1,0,1:0:0:0:
457,151,254337,1,0,1:0:0:0:
459,121,254412,1,0,1:0:0:0:
462,83,254487,6,0,B|327:64|388:118|242:97,1,220.000006713867,6|8,1:2|0:0,0:0:0:0:
360,8,254937,2,0,B|340:72|377:97|342:194,1,165.000005035401,2|0,1:2|0:0,0:0:0:0:
289,219,255237,1,2,1:2:0:0:
399,300,255387,1,8,0:0:0:0:
227,380,255537,5,0,1:0:0:0:
227,380,255612,1,0,1:0:0:0:
227,380,255687,2,0,P|204:327|209:272,1,110.000003356934,2|0,1:2|1:0,0:0:0:0:
56,71,255987,1,10,0:0:0:0:
130,19,256137,2,0,P|146:70|141:125,1,110.000003356934,2|0,1:2|0:0,0:0:0:0:
44,353,256437,1,2,1:2:0:0:
0,279,256587,2,0,L|127:267,1,110.000003356934,8|2,0:0|1:2,0:0:0:0:
173,318,256812,5,0,1:0:0:0:
173,318,256887,1,0,1:0:0:0:
230,222,257037,1,2,1:2:0:0:
266,95,257187,5,10,0:0:0:0:
311,178,257337,1,2,1:2:0:0:
397,236,257487,5,2,1:2:0:0:
417,146,257637,1,2,1:2:0:0:
443,61,257787,2,0,P|428:26|434:72,1,110.000003356934,10|0,0:0|0:0,0:0:0:0:
512,238,258087,6,0,P|425:247|371:320,1,165.000005035401,2|0,1:2|0:0,0:0:0:0:
392,383,258387,1,10,0:0:0:0:
285,213,258537,2,0,L|175:222,1,110.000003356934,2|0,1:2|0:0,0:0:0:0:
103,322,258837,1,0,1:0:0:0:
162,217,258987,1,8,0:0:0:0:
35,94,259137,5,0,1:0:0:0:
35,94,259212,1,0,1:0:0:0:
35,94,259287,2,0,B|139:79|92:120|204:104,1,165.000005035401,6|0,1:2|0:0,0:0:0:0:
263,61,259587,1,10,0:0:0:0:
395,123,259737,1,2,1:2:0:0:
395,123,259812,2,0,P|396:180|386:197,1,55.0000016784668,8|0,0:0|0:0,0:0:0:0:
175,355,260037,6,0,L|111:360,2,55.0000016784668,2|0|8,1:2|0:0|0:0,0:0:0:0:
241,289,260337,2,0,L|429:305,1,183.333338928223,6|0,1:2|0:0,0:0:0:0:
488,246,260687,1,0,3:0:0:0:
510,270,260787,2,0,P|515:232|509:177,2,73.3333355712891,8|0|0,3:0|3:0|3:0,3:0:0:0:
328,177,261087,5,8,3:0:0:0:
365,91,261187,1,8,3:0:0:0:
419,167,261287,1,8,3:0:0:0:
329,118,261387,5,4,3:0:0:0:
402,109,261487,1,4,3:0:0:0:
372,176,261587,1,4,3:0:0:0:
368,136,261687,6,0,B|233:117|294:171|148:150,1,220.000006713867,6|8,1:2|0:0,0:0:0:0:
251,340,262137,2,0,B|255:294|255:294|262:277|262:277|267:220,1,110.000003356934,2|0,1:2|1:0,0:0:0:0:
396,0,262437,1,0,1:0:0:0:
216,40,262587,1,10,0:0:0:0:
53,76,262737,5,0,1:0:0:0:
53,76,262812,1,0,1:0:0:0:
53,76,262887,2,0,B|38:176|79:131|63:240,1,165.000005035401,2|0,1:2|0:0,0:0:0:0:
24,310,263187,1,10,0:2:0:0:
152,384,263337,2,0,L|263:374,1,110.000003356934,2|0,1:2|1:0,0:0:0:0:
459,305,263637,1,0,1:0:0:0:
342,268,263787,1,8,0:0:0:0:
166,212,263937,5,2,1:2:0:0:
166,212,264012,1,0,1:0:0:0:
166,212,264087,1,0,1:0:0:0:
291,158,264237,1,2,1:2:0:0:
451,60,264387,5,10,0:2:0:0:
487,161,264537,1,2,1:2:0:0:
256,307,264687,5,2,1:2:0:0:
273,166,264837,1,0,1:0:0:0:
286,42,264987,1,10,0:2:0:0:
109,8,265137,5,0,1:0:0:0:
109,8,265212,1,0,1:0:0:0:
109,8,265287,2,0,P|75:71|84:202,1,165.000005035401,2|0,1:2|0:0,0:0:0:0:
129,222,265587,1,10,0:0:0:0:
20,303,265737,2,0,B|155:284|94:338|240:317,1,220.000006713867,2|0,1:2|1:0,0:0:0:0:
342,248,266187,1,8,0:0:0:0:
251,328,266337,1,0,1:0:0:0:
445,384,266487,5,4,1:2:0:0:
460,256,266637,1,0,1:0:0:0:
475,129,266787,2,0,P|397:106|355:112,1,110.000003356934,10|0,0:0|1:0,0:0:0:0:
222,239,267087,5,2,1:2:0:0:
102,199,267237,1,0,1:0:0:0:
57,360,267387,6,0,P|90:316|77:201,1,165.000005035401,14|0,0:0|0:0,0:0:0:0:
18,165,267687,1,2,1:2:0:0:
104,28,267837,1,0,1:0:0:0:
206,35,267987,1,10,0:0:0:0:
307,38,268137,1,0,1:0:0:0:
425,123,268287,2,0,L|436:250,1,110.000003356934,2|0,1:2|1:0,0:0:0:0:
151,344,268587,5,14,0:0:0:0:
292,378,268737,1,0,1:0:0:0:
292,378,268812,1,0,1:0:0:0:
292,378,268887,2,0,B|325:298|255:288|287:214,1,165.000005035401,10|0,0:0|0:0,0:0:0:0:
335,158,269187,1,8,0:0:0:0:
154,112,269337,5,2,1:2:0:0:
145,13,269487,1,0,1:0:0:0:
243,4,269637,1,2,1:2:0:0:
252,103,269787,1,8,0:0:0:0:
77,218,269937,6,0,B|193:209|151:306|279:297,1,220.000006713867,6|0,1:2|1:0,0:0:0:0:
461,199,270387,1,10,0:0:0:0:
372,145,270537,1,6,1:2:0:0:
286,289,270687,1,8,0:0:0:0:
396,266,270837,5,4,1:0:0:0:
324,71,270987,1,8,0:0:0:0:
289,54,271062,1,0,1:0:0:0:
250,48,271137,1,0,1:0:0:0:
212,56,271212,1,0,1:0:0:0:
177,73,271287,6,0,B|158:208|212:147|191:293,1,220.000006713867,6|8,1:2|0:0,0:0:0:0:
24,295,271737,2,0,P|58:252|110:238,1,110.000003356934,2|0,0:0|1:0,0:0:0:0:
305,323,272037,1,2,1:2:0:0:
174,384,272187,1,8,0:0:0:0:
57,167,272337,5,0,1:0:0:0:
62,128,272412,1,0,1:0:0:0:
67,89,272487,1,2,1:2:0:0:
247,51,272637,1,0,1:0:0:0:
148,9,272787,2,0,L|158:128,1,110.000003356934,10|0,0:0|0:0,0:0:0:0:
178,300,273087,1,2,1:2:0:0:
65,259,273237,2,0,B|200:240|139:294|285:273,1,220.000006713867,2|2,1:2|1:2,0:0:0:0:
337,220,273612,5,0,1:0:0:0:
337,220,273687,1,8,0:0:0:0:
279,101,273837,1,2,1:2:0:0:
372,17,273987,1,10,0:2:0:0:
432,133,274137,1,2,1:2:0:0:
471,322,274287,5,2,1:2:0:0:
330,295,274437,1,2,1:2:0:0:
207,269,274587,2,0,L|196:388,1,110.000003356934,10|0,0:2|0:0,0:0:0:0:
38,322,274887,6,0,B|30:248|30:248|51:201|51:201|47:97,1,220.000006713867,2|10,1:2|0:2,0:0:0:0:
48,106,275337,1,2,1:2:0:0:
231,142,275487,1,0,1:0:0:0:
154,41,275637,1,0,1:0:0:0:
126,196,275787,1,8,0:0:0:0:
104,384,275937,5,0,1:0:0:0:
104,384,276012,1,0,1:0:0:0:
104,384,276087,2,0,P|156:346|281:348,1,165.000005035401,6|0,1:2|0:0,0:0:0:0:
321,383,276387,1,10,0:0:0:0:
504,202,276537,6,0,B|420:197|466:297|363:292,1,165.000005035401,2|0,1:2|0:0,0:0:0:0:
310,250,276837,1,2,1:2:0:0:
330,81,276987,1,8,0:0:0:0:
367,73,277062,1,0,1:0:0:0:
405,67,277137,2,0,L|466:52,1,55.0000016784668,2|0,1:2|0:0,0:0:0:0:
162,20,277287,5,10,0:0:0:0:
149,26,278487,6,0,B|134:70|149:114|149:114|133:146|133:146|144:194|133:250,1,220.000006713867,6|8,1:2|0:0,0:0:0:0:
134,240,278937,1,0,1:0:0:0:
226,341,279087,1,0,1:0:0:0:
340,279,279237,1,2,1:2:0:0:
237,260,279387,5,10,0:0:0:0:
82,317,279537,1,2,1:2:0:0:
0,201,279687,2,0,L|11:65,1,110.000003356934,0|0,1:0|1:0,0:0:0:0:
146,2,279987,2,0,L|155:111,1,110.000003356934,12|0,0:0|0:0,0:0:0:0:
284,47,280287,1,8,0:0:0:0:
316,49,280362,1,8,0:0:0:0:
345,53,280437,1,8,0:0:0:0:
375,56,280512,1,8,0:0:0:0:
404,59,280587,2,0,L|483:68,1,55.0000016784668,8|0,0:0|0:0,0:0:0:0:
493,163,280737,5,0,1:0:0:0:
493,163,280812,1,0,1:0:0:0:
493,163,280887,1,10,3:2:0:0:
421,262,281037,5,2,0:0:0:0:
396,241,281112,1,2,0:0:0:0:
390,208,281187,1,10,3:2:0:0:
322,289,281337,1,2,1:2:0:0:
195,365,281487,5,2,3:2:0:0:
147,265,281637,1,2,1:2:0:0:
59,166,281787,5,10,3:2:0:0:
18,260,281937,1,2,0:2:0:0:
5,71,282087,5,2,3:2:0:0:
117,55,282237,1,2,1:2:0:0:
328,128,282387,5,10,3:2:0:0:
216,144,282537,1,2,0:2:0:0:
33,250,282687,6,2,B|120:242|88:315|186:309,1,150.000005722046,10|8,3:2|3:2,1:0:0:0:
337,276,283137,2,2,P|276:304|248:381,1,150.000005722046,2|0,1:2|1:0,1:0:0:0:
247,377,283587,1,8,3:2:0:0:
251,282,283737,5,2,0:2:0:0:
184,213,283887,1,2,3:2:0:0:
267,122,284037,1,2,1:2:0:0:
141,40,284187,1,10,3:2:0:0:
25,99,284337,1,2,0:2:0:0:
299,12,284487,6,2,P|354:26|421:107,1,150.000005722046,10|8,3:2|3:2,1:0:0:0:
415,92,284937,1,2,1:2:0:0:
300,171,285087,1,2,3:2:0:0:
229,141,285237,1,2,1:2:0:0:
423,248,285387,1,10,3:2:0:0:
509,207,285537,1,2,0:2:0:0:
315,315,285687,1,2,3:2:0:0:
219,301,285837,1,2,1:2:0:0:
415,374,285987,1,10,3:2:0:0:
512,339,286137,1,2,0:2:0:0:
279,190,286287,6,2,P|223:190|178:222,1,112.500004291535,10|0,3:2|0:0,1:0:0:0:
171,244,286587,1,8,3:2:0:0:
37,327,286737,2,2,B|126:322|88:391|188:384,1,150.000005722046,2|2,1:2|1:2,1:0:0:0:
288,182,287187,5,14,3:2:0:0:
184,164,287337,1,2,1:2:0:0:
46,137,287487,1,10,3:2:0:0:
46,137,287562,1,8,0:2:0:0:
46,137,287637,2,2,L|53:81,1,37.5000014305115,2|0,1:2|0:0,1:0:0:0:
100,39,287787,2,2,B|167:31|154:64|235:59,1,112.500004291535,10|0,3:2|0:0,1:0:0:0:
225,44,288087,5,8,3:2:0:0:
407,108,288237,1,2,0:2:0:0:
290,292,288387,5,0,3:0:0:0:
274,136,288537,1,2,1:2:0:0:
387,200,288687,5,10,3:2:0:0:
178,224,288837,1,2,1:2:0:0:
379,218,288987,5,2,3:2:0:0:
170,241,289137,1,2,1:2:0:0:
47,335,289287,5,10,3:2:0:0:
148,377,289437,1,2,1:2:0:0:
333,354,289587,5,2,3:2:0:0:
424,331,289737,1,2,1:2:0:0:
494,154,289887,6,2,P|456:135|414:130,1,85.0000016212464,10|0,3:2|0:0,1:0:0:0:
294,182,290187,1,2,3:2:0:0:
219,79,290337,2,2,L|314:70,1,85.0000016212464,2|8,1:2|3:2,1:0:0:0:
68,160,290637,2,2,L|59:64,1,85.0000016212464,2|0,1:2|3:0,1:0:0:0:
198,271,290937,2,2,L|293:262,1,85.0000016212464,2|8,1:2|3:2,1:0:0:0:
0,300,291237,2,2,L|7:384,1,85.0000016212464,2|0,1:2|3:0,1:0:0:0:
7,384,291537,1,2,1:2:0:0:
306,345,291687,6,2,P|362:307|354:213,1,170.000003242493,14|0,3:2|3:0,1:0:0:0:
279,194,292137,1,0,1:0:0:0:
257,119,292287,1,8,3:2:0:0:
310,66,292437,1,0,1:0:0:0:
512,42,292587,6,2,B|439:36|456:129|354:119,1,170.000003242493,2|8,3:2|3:2,1:0:0:0:
369,119,293037,1,0,1:0:0:0:
201,168,293187,2,2,P|253:175|284:200,1,85.0000016212464,2|0,3:2|1:0,1:0:0:0:
369,383,293487,6,2,L|376:294,1,85.0000016212464,10|0,3:2|0:0,1:0:0:0:
375,298,293787,1,2,3:2:0:0:
482,227,293937,1,2,1:2:0:0:
362,66,294087,2,2,L|368:150,1,85.0000016212464,8|0,3:2|1:0,1:0:0:0:
368,150,294387,1,2,3:2:0:0:
267,236,294537,1,2,1:2:0:0:
156,82,294687,2,2,L|251:90,1,85.0000016212464,8|0,3:2|1:0,1:0:0:0:
84,186,294987,2,2,L|-11:194,1,85.0000016212464,0|0,3:0|0:0,1:0:0:0:
65,357,295287,5,10,3:2:0:0:
130,306,295437,1,2,1:2:0:0:
125,224,295587,1,2,3:2:0:0:
227,377,295737,5,2,1:2:0:0:
266,280,295887,1,10,3:2:0:0:
209,194,296037,1,2,1:2:0:0:
381,303,296187,5,2,3:2:0:0:
362,172,296337,1,2,1:2:0:0:
245,114,296487,1,10,3:2:0:0:
492,155,296637,5,2,1:2:0:0:
390,26,296787,1,2,3:2:0:0:
227,36,296937,1,2,1:2:0:0:
416,354,297087,6,2,B|451:312|449:253|411:213|354:210|354:210|341:239,1,225.000008583069,14|0,3:2|0:0,1:0:0:0:
336,252,297387,2,2,L|283:257,2,50,2|2|2,3:2|0:2|1:2,1:0:0:0:
469,157,297687,5,12,3:2:0:0:
409,78,297837,2,0,P|383:66|357:68,1,50,0|0,1:0|0:0,0:0:0:0:
245,132,297987,5,8,0:3:0:0:
197,160,298062,1,8,0:3:0:0:
147,156,298137,1,8,0:3:0:0:
119,132,298212,1,8,0:3:0:0:
99,101,298287,1,4,0:3:0:0:
73,81,298362,1,4,0:3:0:0:
51,76,298437,1,4,0:3:0:0:
30,82,298512,1,4,0:3:0:0:
21,93,298587,2,2,B|6:195|48:144|29:244,1,150,2|0,3:2|0:0,1:0:0:0:
18,253,298887,5,2,3:2:0:0:
101,280,299037,1,2,0:2:0:0:
183,301,299187,1,2,3:2:0:0:
313,374,299337,5,2,0:2:0:0:
392,348,299487,1,2,3:2:0:0:
400,270,299637,1,2,0:2:0:0:
317,160,299787,6,2,L|221:168,1,75.0000028610231,2|0,3:2|0:0,1:0:0:0:
383,86,300087,2,2,L|478:94,1,75.0000028610231,2|0,3:2|0:0,1:0:0:0:
314,9,300387,1,2,3:2:0:0:
233,74,300537,1,10,3:2:0:0:
210,70,300612,1,2,1:2:0:0:
187,67,300687,5,4,3:0:0:0:
74,58,300837,2,2,L|81:145,1,75.0000028610231,8|0,0:0|3:0,1:0:0:0:
96,290,301137,1,8,0:0:0:0:
96,290,301212,1,8,0:0:0:0:
96,290,301287,2,2,L|103:365,1,75.0000028610231,8|0,3:0|0:0,1:0:0:0:
89,207,301587,6,0,B|164:212|190:126|190:126|228:189|211:279|181:245|176:321|189:348|189:348|287:333|266:227|320:210|361:232|380:290|371:338|371:338|379:282|420:280,1,750,4|0,1:2|0:0,0:0:0:0:
417,280,303987,5,0,1:2:0:0:
345,324,304137,1,0,1:2:0:0:
261,356,304287,1,0,1:2:0:0:
168,384,304437,1,0,1:0:0:0:
164,377,304487,1,2,0:0:0:0:
161,371,304537,1,2,0:0:0:0:
157,364,304587,2,0,B|251:281|223:152|223:152|318:177|428:138|452:40|365:-71|231:-28|236:106|236:106|169:42|120:59|93:95|74:140|121:188,1,960,14|0,0:0|0:0,0:0:0:0:
