osu file format v14

[General]
AudioFilename: audio.mp3
AudioLeadIn: 0
PreviewTime: 194172
Countdown: 0
SampleSet: Soft
StackLeniency: 0.7
Mode: 0
LetterboxInBreaks: 0
WidescreenStoryboard: 0

[Editor]
Bookmarks: 18419,30347,53118,77516,100829,135528,159926,183239,217757,241070,252636
DistanceSpacing: 0.8
BeatDivisor: 4
GridSize: 32
TimelineZoom: 2.899999

[Metadata]
Title:Alicemagic ~TV animation ver.~
TitleUnicode:Alicemagic ~TV animation ver.~
Artist:Rita
ArtistUnicode:Rita
Creator:MrPotato
Version:Shooting Star
Source:リトルバスターズ!
Tags:itay LB! anime ost original soundtrack jpop jrock pop rock video game japanese visual novel vn opening op full version key studio label maeda jun i have i've sound visual arts visualarts little busters!
BeatmapID:4084073
BeatmapSetID:1968968

[Difficulty]
HPDrainRate:5
CircleSize:4.3
OverallDifficulty:8
ApproachRate:8.7
SliderMultiplier:1.6
SliderTickRate:1

[Events]
//Background and Video events
0,0,"little busters alice.jpg",0,0
//Break Periods
//Storyboard Layer 0 (Background)
//Storyboard Layer 1 (Fail)
//Storyboard Layer 2 (Pass)
//Storyboard Layer 3 (Foreground)
//Storyboard Layer 4 (Overlay)
//Storyboard Sound Samples

[TimingPoints]
1070,361.44578313253,4,2,1,40,1,0
5226,-100,4,2,1,5,0,0
5407,-100,4,2,1,65,0,0
6853,-90.9090909090909,4,2,1,65,0,0
29985,-90.9090909090909,4,2,1,55,0,0
30347,-111.111111111111,4,2,1,55,0,0
51672,-100,4,2,1,60,0,0
77515,-90.9090909090909,4,2,1,70,0,1
88901,-90.9090909090909,4,2,1,70,0,0
89082,-90.9090909090909,4,2,1,70,0,1
100829,-90.9090909090909,4,2,1,65,0,0
112756,-111.111111111111,4,2,1,55,0,0
134804,-100,4,2,1,60,0,0
146551,-200,4,2,1,60,0,0
147094,-100,4,2,1,60,0,0
159202,-100,4,2,1,5,0,0
159563,-100,4,2,1,60,0,0
159925,-90.9090909090909,4,2,1,70,0,1
171310,-90.9090909090909,4,2,1,70,0,0
171491,-90.9090909090909,4,2,1,70,0,1
183238,-90.9090909090909,4,2,1,65,0,0
193178,-80,4,2,1,65,0,0
194624,-222.222222222221,4,2,1,50,0,0
200407,-208.333333333333,4,2,1,50,0,0
201853,-153.846153846153,4,2,1,50,0,0
202937,-90.9090909090909,4,2,1,65,0,0
206009,-90.9090909090909,4,2,1,70,0,0
206190,-90.9090909090909,4,2,1,70,0,1
217576,-90.9090909090909,4,2,1,70,0,0
217756,-90.9090909090909,4,2,1,70,0,1
229142,-90.9090909090909,4,2,1,70,0,0
229323,-90.9090909090909,4,2,1,70,0,1
241069,-90.9090909090909,4,2,1,65,0,0
262937,-125,4,2,1,65,0,0
264021,-322.58064516129,4,2,1,65,0,0

[Colours]
Combo1 : 212,155,133
Combo2 : 230,157,84
Combo3 : 251,230,115
Combo4 : 166,103,79
Combo5 : 193,90,63

[HitObjects]
256,192,1250,12,0,5226,0:0:0:0:
438,327,5408,5,8,0:0:0:0:
480,175,5588,1,8,0:0:0:0:
462,153,5678,1,8,0:0:0:0:
466,125,5768,1,8,3:0:0:0:
303,215,5949,5,8,3:0:0:0:
303,215,6039,1,8,3:0:0:0:
398,258,6220,1,4,3:0:0:0:
398,258,6310,1,8,0:0:0:0:
263,338,6491,2,0,B|210:328|210:328|148:374,1,120,8|0,0:0|0:0,0:0:0:0:
156,348,6853,5,6,3:2:0:0:
28,257,7033,1,0,0:0:0:0:
129,205,7214,2,0,L|98:290,1,88.000002685547,10|0,0:2|0:0,0:0:0:0:
61,377,7576,1,2,3:2:0:0:
9,186,7756,1,0,3:0:0:0:
0,297,7937,1,10,0:2:0:0:
74,271,8118,1,0,0:0:0:0:
223,235,8298,5,2,3:2:0:0:
94,170,8479,1,0,3:0:0:0:
170,302,8660,1,10,0:2:0:0:
208,160,8841,1,0,3:0:0:0:
208,160,8931,1,2,0:0:0:0:
208,160,9021,1,2,0:2:0:0:
85,266,9202,1,0,3:0:0:0:
264,358,9383,2,0,B|239:329|239:329|259:282,1,88.000002685547,10|0,0:2|0:0,0:0:0:0:
280,175,9744,6,0,B|317:168|378:185|359:234|439:236,1,176.000005371094,6|10,3:2|0:2,0:0:0:0:
438,235,10467,1,2,3:2:0:0:
479,173,10648,1,0,3:0:0:0:
418,373,10829,2,0,P|404:359|396:323,1,44.0000013427735,10|0,0:2|0:0,0:0:0:0:
510,277,11009,1,0,0:0:0:0:
306,207,11190,6,0,P|346:195|388:177,1,88.000002685547,2|0,3:2|3:0,0:0:0:0:
291,373,11551,2,0,P|250:355|208:342,1,88.000002685547,10|0,0:2|3:0,0:0:0:0:
208,342,11823,1,0,0:0:0:0:
208,342,11913,1,2,0:2:0:0:
330,306,12094,1,0,3:0:0:0:
151,208,12274,2,0,B|153:230|153:230|182:253,1,44.0000013427735,10|0,0:2|0:0,0:0:0:0:
296,171,12455,2,0,B|294:149|294:149|265:126,1,44.0000013427735,2|2,0:0|0:0,0:0:0:0:
260,20,12636,6,0,L|223:192,1,176.000005371094,6|10,3:2|0:2,0:0:0:0:
371,49,13178,1,0,0:0:0:0:
274,17,13359,1,2,3:2:0:0:
274,17,13539,1,0,3:0:0:0:
396,125,13720,1,10,0:2:0:0:
313,157,13901,1,0,0:0:0:0:
352,0,14082,5,2,3:2:0:0:
406,145,14262,1,0,3:0:0:0:
238,104,14443,1,10,0:2:0:0:
336,85,14624,1,2,3:2:0:0:
336,85,14714,1,2,0:0:0:0:
336,85,14804,1,2,0:2:0:0:
136,9,14985,1,0,3:0:0:0:
143,166,15166,2,0,P|156:115|165:80,1,88.000002685547,10|0,0:2|0:0,0:0:0:0:
11,180,15437,5,2,0:2:0:0:
11,180,15527,2,0,B|30:256|66:228|93:276|86:331,1,176.000005371094,6|10,3:2|0:2,0:0:0:0:
86,330,16250,1,2,3:2:0:0:
203,255,16431,1,0,3:0:0:0:
96,186,16612,1,10,0:2:0:0:
223,130,16792,1,0,0:0:0:0:
268,347,16973,6,0,L|213:323,1,44.0000013427735,2|0,3:2|0:0,0:0:0:0:
79,256,17154,2,0,L|38:273,1,44.0000013427735,10|0,0:2|0:0,0:0:0:0:
223,130,17515,5,8,3:0:0:0:
115,33,17877,5,0,3:0:0:0:
199,55,18057,1,10,0:2:0:0:
115,33,18238,1,0,0:0:0:0:
27,160,18419,6,0,L|69:334,1,176.000005371094,6|10,3:2|0:2,0:0:0:0:
125,196,18961,1,0,0:0:0:0:
13,135,19142,1,2,3:2:0:0:
87,79,19323,1,0,3:0:0:0:
237,165,19503,2,0,P|206:147|151:99,1,88.000002685547,10|0,0:2|0:0,0:0:0:0:
235,254,19865,6,0,P|225:273|216:294,1,44.0000013427735,2|0,3:2|0:0,0:0:0:0:
342,234,20045,2,0,P|332:214|323:193,1,44.0000013427735,0|0,3:0|0:0,0:0:0:0:
312,321,20226,1,10,0:2:0:0:
437,218,20407,1,0,3:0:0:0:
437,218,20497,1,2,0:0:0:0:
437,218,20588,1,2,0:2:0:0:
434,308,20768,1,0,3:0:0:0:
438,125,20949,2,0,P|419:84|404:44,1,88.000002685547,10|0,0:2|0:0,0:0:0:0:
216,97,21220,5,2,0:0:0:0:
216,97,21310,2,0,P|303:129|366:187,1,176.000005371094,2|8,3:2|0:0,0:0:0:0:
363,184,22033,1,2,3:2:0:0:
326,55,22214,1,0,3:0:0:0:
263,208,22395,1,10,0:2:0:0:
206,119,22576,1,0,0:0:0:0:
205,286,22756,5,2,3:2:0:0:
59,245,22937,1,0,3:0:0:0:
139,344,23118,1,10,0:2:0:0:
130,203,23298,1,0,3:0:0:0:
126,181,23389,1,2,0:0:0:0:
112,165,23479,1,2,0:2:0:0:
67,16,23660,1,0,3:0:0:0:
50,36,23750,1,2,0:2:0:0:
45,63,23841,1,10,0:2:0:0:
141,81,24021,1,2,0:2:0:0:
13,214,24202,6,0,B|98:197|98:197|144:275,1,176.000005371094,6|10,3:2|0:2,0:0:0:0:
134,357,24744,1,0,0:0:0:0:
203,225,24925,1,2,3:2:0:0:
214,320,25106,1,0,3:0:0:0:
275,177,25286,2,0,P|261:163|249:142,1,44.0000013427735,10|0,0:2|0:0,0:0:0:0:
194,34,25467,1,0,0:0:0:0:
82,163,25648,6,0,P|121:144|153:113,1,88.000002685547,2|0,3:2|3:0,0:0:0:0:
81,299,26009,2,0,P|43:276|1:267,1,88.000002685547,10|0,0:2|3:0,0:0:0:0:
0,267,26280,1,2,0:2:0:0:
0,267,26371,1,2,0:2:0:0:
145,225,26551,1,0,3:0:0:0:
118,364,26732,2,0,P|142:351|175:343,1,44.0000013427735,10|0,0:2|0:0,0:0:0:0:
381,306,26913,5,2,0:2:0:0:
392,322,27003,1,2,0:2:0:0:
397,341,27094,2,0,L|227:291,1,176.000005371094,6|10,3:2|0:2,0:0:0:0:
228,291,27817,1,2,3:2:0:0:
111,248,27997,1,0,3:0:0:0:
260,194,28178,1,10,0:2:0:0:
0,165,28359,6,0,P|76:152|171:123,1,176.000005371094,4|0,3:2|0:0,0:0:0:0:
179,109,28810,1,2,0:0:0:0:
179,109,28901,1,2,0:0:0:0:
213,5,29082,1,2,0:0:0:0:
271,144,29262,1,2,0:0:0:0:
327,78,29443,1,0,3:0:0:0:
446,201,29624,2,0,B|404:227|404:227|353:164,1,132.00000402832,10|0,0:2|0:0,0:0:0:0:
369,147,29985,5,4,3:2:0:0:
473,323,30347,2,0,P|482:284|522:257,1,71.9999978027344,10|0,0:2|0:0,0:0:0:0:
267,285,30708,1,2,0:0:0:0:
311,350,30889,2,0,L|398:316,2,71.9999978027344,2|8|2,3:2|0:0|3:2,0:0:0:0:
184,384,31612,5,2,3:2:0:0:
267,285,31792,2,0,L|180:251,1,71.9999978027344,10|0,0:0|0:0,0:0:0:0:
64,355,32154,2,0,P|103:343|120:298,1,71.9999978027344,2|0,3:2|3:0,0:0:0:0:
1,176,32515,2,0,P|-24:224|1:282,1,107.999996704102,10|0,0:2|0:0,0:0:0:0:
15,281,32877,1,0,3:0:0:0:
120,167,33238,6,0,L|90:73,1,71.9999978027344,10|0,0:0|0:0,0:0:0:0:
264,171,33600,1,2,0:0:0:0:
224,238,33780,2,0,L|254:144,1,71.9999978027344,2|8,3:2|0:0,0:0:0:0:
221,76,34142,2,0,P|294:62|383:31,1,143.999995605469,2|2,3:2|3:2,0:0:0:0:
360,40,34684,1,8,0:0:0:0:
360,40,35045,6,0,P|332:90|352:129,1,71.9999978027344,2|0,3:2|3:0,0:0:0:0:
439,148,35407,2,0,P|466:97|446:58,1,71.9999978027344,10|0,0:2|0:0,0:0:0:0:
320,185,35768,6,0,B|308:204|290:218|290:218|351:323,2,143.999995605469,2|10|0,3:2|0:0|3:0,0:0:0:0:
357,309,36672,1,0,3:0:0:0:
300,376,36853,2,0,P|264:364|242:312,1,71.9999978027344,8|2,0:0|0:0,0:0:0:0:
178,204,37214,6,0,P|181:260|94:322,1,143.999995605469,2|8,3:2|0:0,0:0:0:0:
56,286,37756,2,0,P|2:258|1:219,1,71.9999978027344,2|0,0:0|3:0,0:0:0:0:
118,144,38118,1,0,0:0:0:0:
15,93,38298,2,0,P|65:79|104:51,1,71.9999978027344,10|0,0:0|0:0,0:0:0:0:
237,20,38569,5,8,0:0:0:0:
237,20,38660,2,0,P|216:75|196:192,1,143.999995605469,2|10,3:2|0:2,0:0:0:0:
236,289,39202,2,0,P|157:275|81:249,1,143.999995605469,2|0,0:0|3:0,0:0:0:0:
81,241,39654,1,0,0:0:0:0:
81,241,39744,1,8,0:0:0:0:
221,384,39925,1,4,3:2:0:0:
221,384,40286,5,10,0:0:0:0:
248,211,40467,1,10,0:0:0:0:
135,341,40648,1,2,3:2:0:0:
135,341,40738,1,0,3:2:0:0:
135,341,40829,1,10,0:0:0:0:
301,286,41009,1,6,3:2:0:0:
143,222,41190,1,2,0:0:0:0:
302,361,41371,6,0,P|362:353|391:263,1,143.999995605469,6|0,3:2|3:0,0:0:0:0:
295,82,41913,2,0,P|303:112|351:136,1,71.9999978027344,10|0,0:0|0:0,0:0:0:0:
427,0,42274,2,0,L|344:27,2,71.9999978027344,2|2|8,0:0|3:2|0:0,0:0:0:0:
295,82,42816,2,0,L|142:32,1,143.999995605469,2|0,3:2|3:0,0:0:0:0:
86,14,43359,1,10,0:0:0:0:
86,14,43720,6,0,B|53:35|53:35|68:75,1,71.9999978027344,2|0,3:2|3:0,0:0:0:0:
136,134,44082,2,0,B|174:142|174:142|191:103,1,71.9999978027344,10|0,0:0|0:0,0:0:0:0:
15,254,44443,2,0,L|147:207,1,107.999996704102,0|0,3:0|0:0,0:0:0:0:
140,208,44804,1,10,0:0:0:0:
73,345,45166,5,2,0:0:0:0:
146,371,45347,2,0,P|169:332|147:283,2,71.9999978027344,2|8|2,3:2|0:0|3:2,0:0:0:0:
359,383,46069,5,2,3:2:0:0:
250,338,46250,2,0,L|384:298,1,107.999996704102,10|0,0:0|0:0,0:0:0:0:
378,310,46612,2,0,P|428:290|429:249,1,71.9999978027344,2|0,3:2|3:0,0:0:0:0:
308,180,46973,2,0,P|286:229|315:259,1,71.9999978027344,10|0,0:2|0:0,0:0:0:0:
493,170,47244,5,0,0:0:0:0:
493,170,47335,2,0,B|475:156|454:153|454:153|415:33,2,143.999995605469,2|10|0,3:2|0:2|3:0,0:0:0:0:
488,8,48238,1,0,3:0:0:0:
350,97,48419,1,8,0:0:0:0:
269,44,48600,5,2,0:0:0:0:
269,44,48690,1,0,0:0:0:0:
269,44,48780,2,0,P|254:78|241:214,1,143.999995605469,2|8,3:2|0:0,0:0:0:0:
171,58,49323,2,0,P|111:51|55:31,1,107.999996704102,2|0,0:0|0:0,0:0:0:0:
45,21,49684,1,0,0:0:0:0:
113,139,49865,2,0,P|72:157|51:201,1,71.9999978027344,10|0,0:2|0:0,0:0:0:0:
61,195,50136,5,8,0:0:0:0:
72,205,50226,2,0,B|172:209|128:256|233:250,1,143.999995605469,2|10,3:2|0:2,0:0:0:0:
132,370,50768,2,0,P|132:347|93:289,1,71.9999978027344,2|0,0:0|3:0,0:0:0:0:
247,120,51130,2,0,P|216:145|202:182,1,71.9999978027344,2|8,3:2|0:0,0:0:0:0:
224,343,51491,1,2,0:0:0:0:
34,253,51672,6,0,P|77:243|119:227,1,80,4|8,3:2|0:0,0:0:0:0:
137,218,51943,1,0,0:0:0:0:
137,218,52033,1,8,0:0:0:0:
287,282,52214,1,0,3:0:0:0:
272,254,52304,1,0,3:0:0:0:
241,246,52395,1,8,0:0:0:0:
341,378,52576,1,8,0:0:0:0:
365,384,52666,1,8,0:0:0:0:
392,382,52756,1,10,0:2:0:0:
413,366,52847,1,8,0:0:0:0:
430,345,52937,1,10,0:2:0:0:
437,320,53027,1,8,0:0:0:0:
433,293,53118,6,0,B|422:234|422:234|438:213|438:213|422:115,2,160,6|8|0,3:2|0:0|3:0,0:0:0:0:
348,179,54021,1,0,0:0:0:0:
261,248,54202,2,0,P|308:252|341:297,1,80,8|2,0:0|0:0,0:0:0:0:
292,123,54563,6,0,P|239:140|152:160,1,120,2|0,3:2|0:0,0:0:0:0:
157,154,54925,1,10,0:2:0:0:
96,69,55106,1,2,0:0:0:0:
98,48,55196,1,8,0:0:0:0:
107,31,55286,1,0,3:0:0:0:
189,78,55467,1,2,0:0:0:0:
79,153,55648,1,8,0:0:0:0:
186,238,55829,1,2,0:0:0:0:
128,318,56009,6,0,L|160:153,1,160,2|8,3:2|0:0,0:0:0:0:
158,160,56551,1,0,0:0:0:0:
266,267,56732,2,0,P|245:303|204:317,1,80,0|0,3:0|0:0,0:0:0:0:
273,178,57094,1,8,0:0:0:0:
343,272,57274,1,2,0:0:0:0:
386,69,57455,5,2,3:2:0:0:
393,81,57545,2,0,L|365:190,1,80,8|0,0:0|0:0,0:0:0:0:
378,178,57816,1,10,0:2:0:0:
452,248,57997,1,2,0:0:0:0:
452,248,58088,1,8,0:0:0:0:
452,248,58178,1,0,3:0:0:0:
294,125,58359,2,0,P|249:112|223:172,1,120,2|0,0:0|0:0,0:0:0:0:
231,187,58720,1,2,0:0:0:0:
73,70,58901,6,0,P|98:138|129:242,1,160,6|8,3:2|0:0,0:0:0:0:
123,221,59443,1,2,0:0:0:0:
26,356,59624,2,0,P|64:312|118:312,1,80,0|0,3:0|0:0,0:0:0:0:
293,288,59985,6,0,P|268:323|138:353,2,160,10|0|8,0:0|3:0|0:0,0:0:0:0:
231,187,60889,1,2,0:0:0:0:
244,209,60979,1,8,0:0:0:0:
261,222,61069,2,0,P|270:189|282:133,1,80,2|0,3:2|0:0,0:0:0:0:
420,249,61431,2,0,P|436:289|456:328,1,80,10|0,0:0|0:0,0:0:0:0:
381,135,61792,6,0,B|272:115|346:76|207:66,1,160,2|8,3:2|0:0,0:0:0:0:
76,168,62335,2,0,P|117:154|155:131,1,80,2|0,0:0|3:0,0:0:0:0:
156,41,62696,1,0,0:0:0:0:
298,216,62877,2,0,P|266:175|218:155,1,80,10|0,0:0|0:0,0:0:0:0:
344,358,63238,5,0,3:0:0:0:
344,358,63329,1,8,0:0:0:0:
367,174,63509,1,0,3:0:0:0:
367,174,63600,1,8,0:0:0:0:
440,228,63780,2,0,L|449:203,2,26.6666666666667,8|8|0,0:0|0:0|3:0,0:0:0:0:
446,244,63961,1,2,3:2:0:0:
410,47,64142,1,14,0:0:0:0:
410,47,64684,6,0,P|342:72|238:104,1,160,6|8,3:2|0:0,0:0:0:0:
258,98,65226,1,0,0:0:0:0:
123,3,65407,2,0,P|169:13|194:67,1,80,0|0,3:0|0:0,0:0:0:0:
173,185,65768,1,8,0:0:0:0:
126,113,65949,1,2,0:0:0:0:
266,208,66130,6,0,P|242:247|211:333,1,120,2|0,3:2|0:0,0:0:0:0:
219,335,66491,1,10,0:0:0:0:
365,335,66672,1,2,0:0:0:0:
351,314,66762,1,8,0:0:0:0:
328,306,66853,1,0,3:0:0:0:
439,249,67033,1,2,0:0:0:0:
458,366,67214,1,8,0:0:0:0:
336,229,67395,1,2,0:0:0:0:
183,361,67576,6,0,B|296:353|220:299|365:305,2,160,2|8|0,3:2|0:0|3:0,0:0:0:0:
183,361,68479,1,0,0:0:0:0:
57,231,68660,2,0,L|85:325,1,80,8|0,0:0|0:0,0:0:0:0:
133,173,69021,5,2,3:2:0:0:
140,159,69112,2,0,P|129:115|88:69,1,80,8|0,0:0|0:0,0:0:0:0:
89,80,69383,1,10,0:0:0:0:
192,51,69563,1,2,0:0:0:0:
192,51,69654,1,8,0:0:0:0:
192,51,69744,1,0,3:0:0:0:
58,157,69925,1,2,3:2:0:0:
194,252,70106,1,8,0:0:0:0:
102,370,70286,6,0,P|115:273|125:194,1,160,6|2,3:2|3:2,0:0:0:0:
258,366,70829,2,0,P|227:335|184:332,1,80,10|0,0:0|0:0,0:0:0:0:
348,233,71190,1,0,3:0:0:0:
333,307,71371,1,0,0:0:0:0:
415,173,71551,1,8,0:0:0:0:
432,259,71732,1,0,0:0:0:0:
322,146,71913,6,0,P|239:174|184:201,1,120,0|0,3:0|0:0,0:0:0:0:
201,207,72274,1,10,0:0:0:0:
54,103,72455,1,2,0:0:0:0:
69,110,72545,1,8,0:0:0:0:
78,125,72636,2,0,L|60:223,1,80,2|0,3:2|0:0,0:0:0:0:
148,349,72997,2,0,L|131:262,1,80,10|0,0:0|0:0,0:0:0:0:
361,367,73359,6,0,B|261:362|320:295|203:303,1,160,2|8,3:2|0:0,0:0:0:0:
222,302,73901,1,0,0:0:0:0:
419,187,74082,2,0,L|453:380,1,160,2|8,3:2|0:0,0:0:0:0:
511,276,74624,1,0,0:0:0:0:
348,210,74804,5,2,3:2:0:0:
428,89,74985,1,0,0:0:0:0:
263,115,75166,1,8,0:0:0:0:
263,115,75256,1,2,0:0:0:0:
263,115,75347,1,2,0:0:0:0:
435,183,75527,1,0,3:0:0:0:
334,328,75708,1,8,0:0:0:0:
334,328,76069,5,0,3:0:0:0:
305,339,76160,1,0,3:0:0:0:
274,336,76250,2,0,P|260:304|257:281,1,40,8|8,0:0|0:0,0:0:0:0:
332,191,76431,2,0,P|324:225|313:245,1,40
269,126,76612,1,4,3:0:0:0:
450,39,76792,1,8,0:0:0:0:
450,39,76973,1,0,3:0:0:0:
465,115,77154,1,2,3:2:0:0:
284,50,77335,1,10,0:2:0:0:
191,226,77515,6,0,P|196:245|212:371,1,132.00000402832,6|0,3:2|0:0,0:0:0:0:
228,341,77877,2,0,P|253:299|298:293,1,88.000002685547,2|8,3:2|0:0,0:0:0:0:
481,351,78238,1,2,0:0:0:0:
481,351,78329,1,8,0:0:0:0:
481,351,78419,2,0,P|472:305|459:247,1,88.000002685547,2|0,3:2|0:0,0:0:0:0:
478,194,78690,1,0,0:0:0:0:
478,194,78780,1,8,0:0:0:0:
308,290,78961,6,0,P|346:272|414:250,2,88.000002685547,2|0|2,0:0|3:0|0:0,0:0:0:0:
361,110,79503,1,10,0:0:0:0:
404,189,79684,1,2,0:0:0:0:
404,189,79774,1,2,0:0:0:0:
404,189,79865,1,0,3:0:0:0:
231,157,80045,1,0,3:0:0:0:
309,45,80226,2,0,L|248:65,1,44.0000013427735,8|0,0:0|0:0,0:0:0:0:
140,51,80407,6,0,P|80:39|18:-5,1,132.00000402832,6|0,3:2|0:0,0:0:0:0:
17,21,80768,2,0,P|28:39|30:80,1,44.0000013427735,2|0,3:2|0:0,0:0:0:0:
124,157,80949,1,10,0:0:0:0:
29,219,81130,1,2,0:0:0:0:
29,219,81220,1,8,0:0:0:0:
29,219,81310,2,0,P|42:260|55:326,1,88.000002685547,2|0,3:2|0:0,0:0:0:0:
19,373,81672,1,10,0:0:0:0:
185,272,81853,6,0,P|147:310|136:393,1,132.00000402832,2|0,0:0|0:0,0:0:0:0:
154,377,82214,2,0,P|187:389|258:373,1,88.000002685547,2|10,0:0|0:0,0:0:0:0:
246,221,82576,1,2,0:0:0:0:
322,372,82756,1,0,3:0:0:0:
363,182,82937,1,0,3:0:0:0:
255,310,83118,2,0,L|316:279,1,44.0000013427735,8|0,0:0|0:0,0:0:0:0:
465,238,83298,6,0,P|404:205|397:111,1,132.00000402832,6|0,3:2|0:0,0:0:0:0:
399,130,83660,1,2,3:2:0:0:
249,0,83841,1,10,0:0:0:0:
326,91,84021,1,2,0:0:0:0:
259,159,84202,2,0,L|245:245,1,88.000002685547,2|0,3:2|0:0,0:0:0:0:
238,318,84473,1,0,0:0:0:0:
238,318,84563,1,10,0:0:0:0:
80,363,84744,1,6,3:2:0:0:
80,363,85106,5,2,3:2:0:0:
55,170,85286,2,0,P|12:199|1:260,1,88.000002685547,10|0,0:0|0:0,0:0:0:0:
197,118,85648,2,0,P|153:121|116:100,1,88.000002685547,2|0,3:2|3:0,0:0:0:0:
238,0,86009,2,0,P|301:31|321:100,1,132.00000402832,10|0,0:0|0:0,0:0:0:0:
310,105,86371,5,6,3:2:0:0:
262,182,86551,1,2,0:0:0:0:
349,231,86732,1,8,0:0:0:0:
310,105,86913,5,6,3:2:0:0:
186,176,87094,1,2,0:0:0:0:
234,298,87274,1,0,3:0:0:0:
310,105,87455,5,10,0:2:0:0:
167,17,87636,1,6,3:2:0:0:
383,146,87997,5,0,3:0:0:0:
167,17,88178,1,8,0:0:0:0:
310,105,88359,1,0,3:0:0:0:
310,105,88449,1,0,3:0:0:0:
310,105,88539,1,8,0:0:0:0:
235,158,88720,1,6,3:2:0:0:
334,252,88901,2,0,P|317:242|304:220,1,44.0000013427735,2|2,0:0|0:0,0:0:0:0:
210,384,89082,6,0,P|179:338|228:227,1,176.000005371094,6|0,3:2|3:0,0:0:0:0:
358,349,89624,1,8,0:0:0:0:
405,288,89804,1,2,0:0:0:0:
405,288,89895,1,8,0:0:0:0:
405,288,89985,1,2,3:2:0:0:
338,237,90166,1,0,0:0:0:0:
434,382,90347,1,10,0:0:0:0:
411,197,90527,6,0,P|429:147|462:57,1,132.00000402832,2|2,0:0|0:2,0:0:0:0:
471,88,90889,1,2,0:2:0:0:
378,0,91069,1,10,0:2:0:0:
346,155,91250,1,2,0:2:0:0:
176,67,91431,1,2,3:2:0:0:
261,111,91612,1,2,3:2:0:0:
261,111,91703,1,2,0:2:0:0:
261,111,91792,1,10,0:2:0:0:
218,273,91973,6,0,P|195:211|172:148,1,132.00000402832,6|0,3:2|0:0,0:0:0:0:
150,145,92335,1,2,3:2:0:0:
277,220,92515,1,10,0:0:0:0:
153,339,92696,1,2,0:0:0:0:
153,339,92786,1,8,0:0:0:0:
153,339,92877,2,0,P|125:283|47:282,1,132.00000402832,2|0,3:2|0:0,0:0:0:0:
41,265,93238,2,0,P|84:235|98:167,1,88.000002685547,10|2,0:0|0:0,0:0:0:0:
59,46,93600,5,0,3:0:0:0:
164,166,93780,1,2,0:2:0:0:
89,202,93961,1,10,0:2:0:0:
205,257,94142,1,2,0:2:0:0:
205,257,94232,1,2,0:2:0:0:
205,257,94323,1,2,3:2:0:0:
137,366,94503,1,2,3:2:0:0:
304,272,94684,2,0,P|286:255|274:223,1,44.0000013427735,10|2,0:0|0:0,0:0:0:0:
292,32,94865,6,0,B|272:71|252:90|252:90|260:123|260:123|235:149|217:193,2,176.000005371094,6|0|0,3:2|3:0|0:0,0:0:0:0:
462,163,95768,2,0,P|414:175|402:218,1,88.000002685547,2|0,3:2|0:0,0:0:0:0:
458,255,96130,1,10,0:0:0:0:
370,379,96310,6,0,B|374:361|383:345|383:345|311:216,2,176.000005371094,6|0|2,3:2|3:0|0:2,0:0:0:0:
458,255,97214,1,2,3:2:0:0:
296,352,97395,1,0,3:0:0:0:
245,271,97576,2,0,P|202:287|197:343,1,88.000002685547,10|2,0:0|0:0,0:0:0:0:
121,384,97937,6,0,P|106:331|72:256,1,132.00000402832,6|0,3:2|0:0,0:0:0:0:
45,250,98298,1,8,0:0:0:0:
187,212,98479,2,0,P|198:163|237:105,1,88.000002685547,4|0,3:2|0:0,0:0:0:0:
266,50,98841,1,2,3:2:0:0:
289,161,99021,1,10,0:2:0:0:
122,72,99202,1,6,3:2:0:0:
254,275,99925,5,0,3:0:0:0:
254,275,100015,1,0,3:0:0:0:
254,275,100106,2,0,P|271:255|319:247,1,44.0000013427735,8|0,0:0|0:0,0:0:0:0:
345,384,100286,2,0,P|321:372|301:328,1,44.0000013427735,4|0,3:2|0:0,0:0:0:0:
406,208,100829,6,0,P|347:161|252:113,1,176.000005371094,6|10,3:2|0:2,0:0:0:0:
108,154,101371,1,0,0:0:0:0:
177,104,101551,1,2,3:2:0:0:
177,104,101732,1,0,3:0:0:0:
116,225,101913,1,10,0:2:0:0:
7,163,102094,1,0,0:0:0:0:
221,211,102274,6,0,L|201:302,1,88.000002685547,2|0,3:2|3:0,0:0:0:0:
296,175,102636,1,10,0:2:0:0:
225,67,102816,1,0,3:0:0:0:
225,67,102907,1,2,0:2:0:0:
225,67,102997,1,2,0:2:0:0:
237,235,103178,1,0,3:0:0:0:
310,91,103359,1,10,0:2:0:0:
160,194,103539,2,0,P|139:186|123:170,1,44.0000013427735,2|2,0:0|0:0,0:0:0:0:
0,38,103720,6,0,P|32:119|49:205,1,176.000005371094,6|10,3:2|0:2,0:0:0:0:
49,206,104443,1,2,3:2:0:0:
6,363,104624,1,0,3:0:0:0:
6,363,104804,1,10,0:2:0:0:
58,289,104985,1,0,0:0:0:0:
220,278,105166,6,0,P|171:252|119:237,1,88.000002685547,2|0,3:2|3:0,0:0:0:0:
272,365,105527,2,0,P|307:339|338:308,1,88.000002685547,10|0,0:2|3:0,0:0:0:0:
344,289,105798,1,2,0:0:0:0:
344,289,105889,1,2,0:0:0:0:
266,163,106069,1,2,3:2:0:0:
273,194,106159,1,2,3:2:0:0:
280,225,106249,1,8,0:0:0:0:
172,128,106430,1,2,0:2:0:0:
422,102,106612,6,0,B|352:82|352:82|326:96|326:96|225:69,1,176.000005371094,6|10,3:2|0:2,0:0:0:0:
78,38,107154,1,0,0:0:0:0:
98,120,107335,1,2,3:2:0:0:
180,99,107515,1,0,3:0:0:0:
159,17,107696,1,10,0:2:0:0:
159,17,107877,1,0,0:0:0:0:
15,127,108057,6,0,L|53:218,1,88.000002685547,2|0,3:2|3:0,0:0:0:0:
144,322,108419,1,10,0:2:0:0:
21,281,108600,1,0,3:0:0:0:
21,281,108690,1,2,0:0:0:0:
21,281,108780,1,2,0:2:0:0:
131,177,108961,1,0,3:0:0:0:
206,246,109142,2,0,P|215:226|228:208,1,44.0000013427735,10|0,0:0|0:0,0:0:0:0:
251,107,109323,2,0,P|231:116|210:119,1,44.0000013427735,2|2,0:0|0:0,0:0:0:0:
398,262,109503,6,0,P|394:191|300:179,1,176.000005371094,6|10,3:2|0:2,0:0:0:0:
218,348,110045,1,0,0:0:0:0:
273,268,110226,1,2,3:2:0:0:
174,279,110407,1,0,3:0:0:0:
318,333,110588,1,10,0:2:0:0:
206,203,110768,6,0,B|201:150|237:111|241:126|283:99|276:32,1,176.000005371094,4|0,3:2|0:0,0:0:0:0:
265,35,111220,1,2,0:2:0:0:
265,35,111310,1,2,0:2:0:0:
153,94,111491,1,2,0:0:0:0:
96,26,111672,1,2,0:0:0:0:
0,186,111853,1,0,3:0:0:0:
78,121,112033,2,0,B|84:136|96:158|96:158|65:244,1,132.00000402832,8|0,3:0|0:0,0:0:0:0:
45,262,112395,5,6,3:2:0:0:
180,195,112756,2,0,P|211:214|223:248,1,71.9999978027344,10|0,0:0|0:0,0:0:0:0:
194,321,113118,1,2,0:0:0:0:
295,199,113298,2,0,P|301:146|331:62,1,107.999996704102,2|0,3:2|0:0,0:0:0:0:
339,85,113660,1,2,3:2:0:0:
454,158,114021,5,0,3:0:0:0:
406,283,114202,2,0,L|395:196,1,71.9999978027344,10|0,0:0|0:0,0:0:0:0:
484,77,114563,2,0,L|475:148,1,71.9999978027344,2|0,3:2|0:0,0:0:0:0:
340,45,114925,2,0,P|370:26|406:19,2,71.9999978027344,10|0|0,0:0|0:0|3:0,0:0:0:0:
282,115,115648,6,0,L|211:99,1,71.9999978027344,10|0,0:0|0:0,0:0:0:0:
148,56,116009,1,2,0:0:0:0:
69,185,116190,2,0,P|99:165|121:137,1,71.9999978027344,2|8,3:2|0:0,0:0:0:0:
138,42,116551,1,2,3:2:0:0:
195,186,116913,5,2,3:2:0:0:
179,316,117094,2,0,P|149:276|158:223,1,71.9999978027344,10|0,0:0|0:0,0:0:0:0:
315,134,117455,2,0,P|295:179|244:198,1,71.9999978027344,2|0,3:2|3:0,0:0:0:0:
104,106,117816,2,0,P|173:134|191:191,1,107.999996704102,10|0,0:2|0:0,0:0:0:0:
195,186,118178,6,0,L|229:31,1,143.999995605469,2|10,3:2|0:0,0:0:0:0:
408,74,118720,2,0,P|336:45|290:13,1,107.999996704102,2|0,0:0|0:0,0:0:0:0:
310,10,119082,1,0,3:0:0:0:
295,128,119262,2,0,P|307:161|322:194,1,71.9999978027344,8|2,0:0|0:0,0:0:0:0:
466,276,119624,6,0,B|430:240|430:240|341:280,1,143.999995605469,2|8,3:2|0:0,0:0:0:0:
386,365,120166,2,0,B|422:373|422:373|463:349,1,71.9999978027344,2|0,0:0|3:0,0:0:0:0:
345,278,120527,1,0,0:0:0:0:
259,351,120708,1,10,0:0:0:0:
145,294,120889,5,2,0:0:0:0:
151,272,120979,1,8,0:0:0:0:
161,254,121069,1,2,3:2:0:0:
161,254,121431,2,0,P|149:187|126:95,1,143.999995605469,10|0,0:0|3:0,0:0:0:0:
53,81,121973,1,0,3:0:0:0:
53,81,122063,1,2,0:0:0:0:
53,81,122154,1,8,0:0:0:0:
234,137,122335,1,4,3:2:0:0:
234,137,122696,5,10,0:0:0:0:
53,81,122877,1,10,0:0:0:0:
201,1,123058,1,2,3:2:0:0:
201,1,123148,1,2,3:2:0:0:
201,1,123238,1,10,0:0:0:0:
92,160,123419,1,6,3:2:0:0:
166,222,123600,1,2,0:0:0:0:
0,351,123780,6,0,P|62:315|132:303,1,143.999995605469,6|0,3:2|3:0,0:0:0:0:
305,368,124323,2,0,P|258:359|216:320,1,71.9999978027344,10|0,0:0|0:0,0:0:0:0:
207,274,124684,1,2,0:0:0:0:
304,135,124865,2,0,L|285:224,2,71.9999978027344,2|8|2,3:2|0:0|3:2,0:0:0:0:
161,15,125588,5,2,3:2:0:0:
219,98,125768,2,0,P|232:65|261:45,1,71.9999978027344,10|0,0:0|0:0,0:0:0:0:
102,118,126130,2,0,P|130:139|143:172,1,71.9999978027344,2|0,3:2|3:0,0:0:0:0:
109,244,126491,1,10,0:0:0:0:
109,244,126672,1,2,0:0:0:0:
56,330,126853,5,0,3:0:0:0:
56,330,127214,2,0,L|192:310,1,107.999996704102,10|0,0:0|0:0,0:0:0:0:
183,310,127576,1,2,0:0:0:0:
278,178,127756,2,0,P|251:201|244:236,1,71.9999978027344,2|8,3:2|0:0,0:0:0:0:
273,332,128118,1,2,3:2:0:0:
443,220,128479,5,2,3:2:0:0:
394,109,128660,2,0,L|411:39,1,71.9999978027344,10|0,0:0|0:0,0:0:0:0:
323,206,129021,2,0,L|301:129,1,71.9999978027344,2|0,3:2|3:0,0:0:0:0:
162,74,129383,2,0,P|197:92|225:143,1,71.9999978027344,10|0,0:0|0:0,0:0:0:0:
121,223,129654,5,2,0:0:0:0:
121,223,129744,2,0,P|99:153|65:59,2,143.999995605469,2|10|0,3:2|0:0|3:0,0:0:0:0:
15,167,130648,1,0,3:0:0:0:
161,84,130829,1,8,0:0:0:0:
203,281,131009,5,2,0:0:0:0:
203,281,131100,1,2,0:0:0:0:
203,281,131190,2,0,P|224:210|258:117,1,143.999995605469,2|8,3:2|0:0,0:0:0:0:
405,72,131732,2,0,P|349:70|340:151,1,143.999995605469,2|0,0:0|0:0,0:0:0:0:
441,309,132274,2,0,L|462:232,1,71.9999978027344,10|0,0:0|0:0,0:0:0:0:
464,225,132545,1,8,0:0:0:0:
461,208,132636,6,0,B|377:180|404:255|300:221,1,143.999995605469,2|8,3:2|0:0,0:0:0:0:
365,72,133178,2,0,L|349:142,1,71.9999978027344,2|0,0:0|3:0,0:0:0:0:
277,364,133539,2,0,L|261:294,1,71.9999978027344,2|8,3:2|0:0,0:0:0:0:
324,227,133901,1,2,0:0:0:0:
146,178,134082,5,4,3:2:0:0:
182,312,134262,1,8,0:0:0:0:
53,290,134443,1,8,0:0:0:0:
166,97,134624,1,0,3:0:0:0:
166,97,134714,1,0,3:0:0:0:
166,97,134804,2,0,P|202:113|247:145,1,80,12|0,0:2|0:0,0:0:0:0:
243,158,135076,1,8,0:0:0:0:
240,172,135166,1,10,0:0:0:0:
29,112,135347,5,8,0:0:0:0:
43,82,135437,1,8,0:0:0:0:
74,72,135527,2,0,P|171:53|198:-9,2,160,6|8|0,3:2|0:0|3:0,0:0:0:0:
180,151,136431,1,0,0:0:0:0:
128,256,136612,2,0,P|119:223|61:157,1,120,8|0,0:0|0:0,0:0:0:0:
24,176,136973,6,0,P|9:217|45:257,1,80,2|0,3:2|0:0,0:0:0:0:
113,345,137335,1,10,0:0:0:0:
211,238,137515,1,2,0:0:0:0:
204,225,137606,2,0,P|246:241|296:247,1,80,8|0,0:0|0:0,0:0:0:0:
307,228,137877,1,2,0:0:0:0:
284,382,138057,1,10,0:0:0:0:
189,330,138238,2,0,P|223:321|242:317,1,40,2|0,0:0|0:0,0:0:0:0:
381,284,138419,6,0,B|448:287|458:325|446:338|483:363|533:367,2,160,2|8|0,3:2|0:0|3:0,0:0:0:0:
501,157,139323,1,0,0:0:0:0:
415,205,139503,2,0,P|405:174|368:89,1,120,8|0,0:0|0:0,0:0:0:0:
295,35,139865,5,2,3:2:0:0:
317,25,139955,2,0,P|289:29|220:1,1,80,8|0,0:0|0:0,0:0:0:0:
218,0,140226,1,10,0:0:0:0:
281,119,140407,1,2,0:0:0:0:
294,133,140497,1,8,0:0:0:0:
295,153,140588,1,0,3:0:0:0:
150,196,140768,1,2,0:0:0:0:
217,82,140949,2,0,P|200:78|90:37,1,120,8|0,0:0|0:0,0:0:0:0:
11,18,141310,6,0,P|21:41|31:108,1,80,6|0,3:2|0:0,0:0:0:0:
9,192,141672,1,8,0:0:0:0:
107,324,141853,2,0,P|53:304|76:243,1,120,2|0,0:0|0:0,0:0:0:0:
80,244,142214,1,0,0:0:0:0:
223,279,142395,6,0,B|215:318|215:318|327:361,2,160,10|0|8,0:0|3:0|0:0,0:0:0:0:
402,328,143298,1,2,0:0:0:0:
402,328,143389,1,8,0:0:0:0:
402,328,143479,2,0,P|401:280|436:252,1,80,2|0,3:2|0:0,0:0:0:0:
479,132,143841,2,0,P|445:166|401:161,1,80,10|0,0:0|0:0,0:0:0:0:
326,107,144202,6,0,B|251:101|266:71|243:52|171:43,1,160,2|8,3:2|0:0,0:0:0:0:
108,140,144744,1,2,0:0:0:0:
56,51,144925,2,0,P|85:4|123:6,1,80,0|0,3:0|0:0,0:0:0:0:
238,179,145286,2,0,P|189:205|157:184,1,80,10|0,0:0|0:0,0:0:0:0:
108,140,145648,5,0,3:0:0:0:
99,126,145738,1,8,0:0:0:0:
200,268,146009,1,8,0:0:0:0:
67,322,146190,1,8,0:0:0:0:
58,336,146280,1,8,0:0:0:0:
49,350,146371,1,2,3:2:0:0:
0,190,146551,2,0,L|77:219,1,80,10|0,0:0|0:0,0:0:0:0:
183,384,147094,6,0,P|204:308|235:209,2,160,6|8|0,3:2|0:0|3:0,0:0:0:0:
145,243,147997,1,0,0:0:0:0:
213,144,148178,2,0,P|196:96|181:54,1,80,8|0,0:0|0:0,0:0:0:0:
304,107,148449,5,2,0:0:0:0:
304,107,148539,2,0,P|351:94|388:114,1,80,2|0,3:2|0:0,0:0:0:0:
280,17,148901,1,8,0:0:0:0:
457,118,149082,1,2,0:0:0:0:
457,118,149172,1,8,0:0:0:0:
457,118,149262,1,0,3:0:0:0:
401,179,149443,1,2,0:0:0:0:
474,288,149624,2,0,L|341:236,1,120,10|0,0:0|0:0,0:0:0:0:
349,278,149985,6,0,B|264:275|278:331|195:330,2,160,6|8|0,3:2|0:0|3:0,0:0:0:0:
420,344,150889,1,0,0:0:0:0:
320,184,151069,2,0,L|217:208,1,80,8|0,0:0|0:0,0:0:0:0:
216,216,151341,5,2,0:0:0:0:
199,206,151431,2,0,P|121:170|115:142,1,120,2|0,3:2|0:0,0:0:0:0:
126,114,151792,1,10,0:0:0:0:
245,26,151973,1,2,0:0:0:0:
243,49,152063,1,8,0:0:0:0:
224,64,152154,1,0,3:0:0:0:
98,6,152335,1,2,3:2:0:0:
210,135,152515,1,8,0:0:0:0:
114,231,152696,6,0,P|130:284|158:384,1,160,6|0,3:2|3:0,0:0:0:0:
214,263,153238,2,0,P|220:234|287:200,1,80,10|0,0:0|0:0,0:0:0:0:
369,333,153600,2,0,P|349:355|274:351,1,80,0|0,3:0|0:0,0:0:0:0:
328,213,153961,1,8,0:0:0:0:
464,300,154142,5,2,0:0:0:0:
464,300,154232,1,2,0:0:0:0:
464,300,154323,2,0,B|459:233|493:249|494:169,1,120,0|0,3:0|0:0,0:0:0:0:
483,162,154684,2,0,L|455:68,1,80,10|0,0:0|0:0,0:0:0:0:
366,0,154955,1,8,0:0:0:0:
366,0,155045,2,0,P|359:39|341:74,1,80,2|0,3:2|0:0,0:0:0:0:
327,244,155407,2,0,P|315:218|220:145,1,120,10|0,0:0|0:0,0:0:0:0:
227,165,155768,6,0,P|145:167|112:81,1,160,6|8,3:2|0:0,0:0:0:0:
109,106,156310,1,0,0:0:0:0:
328,110,156491,2,0,P|400:70|385:-20,1,160,2|8,3:2|0:0,0:0:0:0:
284,19,157033,1,0,0:0:0:0:
351,192,157214,5,2,3:2:0:0:
235,78,157395,1,2,0:0:0:0:
416,143,157576,1,8,0:0:0:0:
328,110,157756,1,0,0:0:0:0:
421,41,157937,2,0,L|463:21,1,40,0|0,3:0|0:0,0:0:0:0:
491,224,158118,2,0,P|470:249|397:244,1,80,8|0,0:0|0:0,0:0:0:0:
300,367,158479,5,0,3:0:0:0:
300,367,158569,1,0,3:0:0:0:
300,367,158660,2,0,P|304:308|472:295,1,240,8|0,0:0|0:0,0:0:0:0:
391,344,159563,1,2,0:0:0:0:
325,158,159744,1,2,0:0:0:0:
185,298,159925,6,0,B|109:279|109:279|97:289|97:289|12:267,1,176.000005371094,6|2,3:2|3:2,0:0:0:0:
68,77,160467,2,0,L|91:188,1,88.000002685547,10|0,0:0|0:0,0:0:0:0:
77,190,160738,1,8,0:0:0:0:
77,190,160829,2,0,P|126:175|179:154,1,88.000002685547,2|0,3:2|0:0,0:0:0:0:
210,54,161190,1,10,0:0:0:0:
207,234,161371,6,0,P|254:233|232:145,1,132.00000402832,2|0,0:0|0:0,0:0:0:0:
241,141,161732,1,2,0:0:0:0:
382,179,161913,1,10,0:0:0:0:
421,95,162094,1,2,0:0:0:0:
421,95,162184,1,2,0:0:0:0:
421,95,162274,1,0,3:0:0:0:
350,268,162455,1,0,3:0:0:0:
468,217,162636,2,0,L|481:261,1,44.0000013427735,10|2,0:0|0:0,0:0:0:0:
235,266,162816,6,0,P|320:294|434:344,1,176.000005371094,6|2,3:2|3:2,0:0:0:0:
183,328,163359,1,10,0:0:0:0:
71,216,163539,1,2,0:0:0:0:
79,194,163629,1,8,0:0:0:0:
95,180,163720,2,0,L|76:310,1,132.00000402832,2|0,3:2|0:0,0:0:0:0:
49,321,164082,2,0,L|63:364,1,44.0000013427735,10|0,0:0|0:0,0:0:0:0:
272,198,164262,6,0,P|206:168|137:88,1,176.000005371094,2|2,0:0|0:0,0:0:0:0:
165,236,164804,1,8,0:0:0:0:
372,161,164985,2,0,L|358:254,1,88.000002685547,2|0,0:0|3:0,0:0:0:0:
348,274,165256,1,2,0:0:0:0:
348,274,165347,1,0,3:0:0:0:
445,108,165527,2,0,P|454:140|474:165,1,44.0000013427735,10|2,0:0|0:0,0:0:0:0:
247,111,165708,6,0,L|428:32,1,176.000005371094,6|0,3:2|3:0,0:0:0:0:
247,201,166250,1,10,0:0:0:0:
118,50,166431,1,2,0:0:0:0:
178,253,166612,2,0,B|141:228|141:228|165:127,1,132.00000402832,2|0,3:2|0:0,0:0:0:0:
150,118,166973,1,10,0:0:0:0:
233,355,167154,6,0,P|290:268|344:275,1,132.00000402832,6|0,3:2|0:0,0:0:0:0:
329,278,167515,1,2,3:2:0:0:
425,140,167696,2,0,L|407:237,1,88.000002685547,10|0,0:0|0:0,0:0:0:0:
296,50,168057,2,0,L|314:147,1,88.000002685547,2|0,3:2|0:0,0:0:0:0:
116,75,168419,1,10,0:0:0:0:
137,80,168509,1,8,0:0:0:0:
159,86,168599,1,8,0:0:0:0:
179,92,168690,1,8,0:0:0:0:
201,98,168780,5,6,3:2:0:0:
249,184,168961,1,2,0:0:0:0:
182,256,169142,1,8,0:0:0:0:
201,98,169323,5,6,3:2:0:0:
330,134,169503,1,2,0:0:0:0:
364,262,169684,1,0,3:0:0:0:
201,98,169865,5,10,0:0:0:0:
409,42,170045,1,6,3:2:0:0:
409,42,170407,5,0,3:0:0:0:
201,98,170588,1,8,0:0:0:0:
308,79,170768,1,0,3:0:0:0:
308,79,170859,1,0,3:0:0:0:
308,79,170949,1,8,0:0:0:0:
125,20,171130,1,6,3:2:0:0:
46,211,171310,5,2,0:0:0:0:
67,226,171401,1,2,0:0:0:0:
98,225,171491,2,0,P|77:142|41:46,1,176.000005371094,6|2,3:2|3:2,0:0:0:0:
208,216,172033,1,10,0:0:0:0:
171,305,172214,1,2,0:0:0:0:
171,305,172304,1,8,0:0:0:0:
171,305,172395,1,0,3:0:0:0:
171,131,172576,1,0,0:0:0:0:
258,311,172756,1,10,0:0:0:0:
248,109,172937,6,0,P|314:109|303:190,1,132.00000402832,2|0,0:0|0:0,0:0:0:0:
319,179,173298,1,2,0:0:0:0:
302,192,173389,1,2,0:0:0:0:
283,193,173479,1,10,0:0:0:0:
407,247,173660,1,2,0:0:0:0:
463,177,173841,1,2,3:2:0:0:
420,343,174021,1,2,3:2:0:0:
420,343,174112,1,2,0:0:0:0:
420,343,174202,1,10,0:0:0:0:
260,266,174383,6,0,B|184:281|184:281|175:302|175:302|80:317,1,176.000005371094,6|0,3:2|3:0,0:0:0:0:
26,125,174925,1,8,0:0:0:0:
128,231,175106,1,2,0:0:0:0:
128,231,175196,1,8,0:0:0:0:
128,231,175286,2,0,P|137:190|145:144,1,88.000002685547,2|0,3:2|0:0,0:0:0:0:
52,40,175648,1,10,0:0:0:0:
224,121,175829,6,0,L|409:82,1,176.000005371094,2|2,0:0|0:0,0:0:0:0:
411,57,176280,1,2,0:0:0:0:
411,57,176371,1,10,0:0:0:0:
362,176,176551,1,2,0:0:0:0:
355,188,176642,1,2,0:0:0:0:
356,205,176732,2,0,P|368:231|384:250,1,44.0000013427735,2|2,3:2|0:0,0:0:0:0:
474,133,176913,2,0,P|451:151|437:172,1,44.0000013427735,2|2,3:2|0:0,0:0:0:0:
472,236,177094,1,10,0:0:0:0:
301,308,177274,6,0,P|221:272|103:243,2,176.000005371094,6|0|0,3:2|3:0|0:0,0:0:0:0:
371,360,178088,1,2,0:0:0:0:
371,360,178178,2,0,L|487:337,1,88.000002685547,2|0,3:2|0:0,0:0:0:0:
498,275,178539,1,8,0:0:0:0:
281,164,178720,6,0,B|333:145|333:145|376:271,2,176.000005371094,6|0|0,3:2|3:0|0:0,0:0:0:0:
471,70,179624,2,0,L|445:160,1,88.000002685547,2|0,3:2|0:0,0:0:0:0:
192,90,179985,1,10,0:0:0:0:
220,79,180075,1,8,0:0:0:0:
248,69,180165,1,10,0:0:0:0:
275,58,180256,1,8,0:0:0:0:
303,47,180346,1,6,3:2:0:0:
281,164,180708,5,8,0:0:0:0:
130,44,180889,2,0,L|173:193,1,132.00000402832,4|0,3:2|0:0,0:0:0:0:
173,194,181250,1,2,3:2:0:0:
57,148,181431,1,10,0:0:0:0:
223,41,181612,1,6,3:2:0:0:
279,230,182335,5,0,3:0:0:0:
279,230,182425,1,0,3:0:0:0:
279,230,182516,2,0,L|299:151,1,44.0000013427735,8|0,0:0|0:0,0:0:0:0:
403,114,182696,2,0,L|383:35,1,44.0000013427735,4|0,3:2|0:0,0:0:0:0:
341,6,182877,1,2,0:0:0:0:
341,6,183057,1,2,0:0:0:0:
499,163,183238,5,6,3:2:0:0:
499,163,183419,1,0,3:0:0:0:
277,100,183780,1,2,0:0:0:0:
408,204,183961,5,10,0:0:0:0:
387,232,184082,5,2,0:0:0:0:
403,262,184202,5,2,0:0:0:0:
382,275,184323,6,0,B|335:293|312:288|312:288|294:312|294:312|263:310|211:336,1,176.000005371094,2|0,0:0|0:0,0:0:0:0:
30,316,184865,5,0,3:0:0:0:
125,228,185045,2,0,P|138:268|162:366,1,132.00000402832,2|0,0:0|0:0,0:0:0:0:
144,373,185407,1,14,0:0:0:0:
144,373,185497,1,2,0:0:0:0:
144,373,185588,2,0,P|46:356|59:245,1,220.000006713867,2|0,0:0|0:0,0:0:0:0:
126,228,186130,5,2,3:2:0:0:
144,209,186220,1,2,0:0:0:0:
147,182,186310,1,2,3:2:0:0:
136,157,186401,1,2,0:0:0:0:
113,144,186491,1,2,0:0:0:0:
86,149,186582,1,2,0:0:0:0:
66,161,186672,2,0,P|47:176|21:179,1,44.0000013427735,2|2,0:0|0:0,0:0:0:0:
4,9,186853,6,0,P|26:17|42:38,1,44.0000013427735,10|2,0:0|0:0,0:0:0:0:
173,94,187033,1,2,0:0:0:0:
192,84,187124,1,2,0:0:0:0:
205,66,187214,1,2,0:0:0:0:
208,44,187304,1,2,0:0:0:0:
199,23,187395,6,0,P|213:70|298:76,1,132.00000402832,2|0,3:2|0:0,0:0:0:0:
302,67,187756,1,2,0:0:0:0:
445,140,187937,2,0,P|440:100|379:56,1,88.000002685547,2|0,3:2|0:0,0:0:0:0:
512,244,188298,2,0,P|474:259|447:329,1,88.000002685547,10|6,0:0|3:2,0:0:0:0:
370,377,188660,1,2,0:0:0:0:
370,377,188750,1,2,0:0:0:0:
370,377,188841,1,10,0:0:0:0:
370,377,188931,1,2,0:0:0:0:
370,377,189021,6,0,P|301:375|279:278,1,176.000005371094,6|0,3:2|0:0,0:0:0:0:
410,118,189563,1,2,0:0:0:0:
352,283,189744,1,10,0:0:0:0:
323,139,189925,1,2,0:0:0:0:
451,256,190106,2,0,P|429:249|405:226,1,44.0000013427735,2|0,0:0|0:0,0:0:0:0:
257,98,190286,6,0,P|280:45|366:45,1,132.00000402832,2|0,3:2|0:0,0:0:0:0:
363,56,190648,1,2,3:2:0:0:
189,139,190829,1,2,0:0:0:0:
98,18,191009,1,2,0:0:0:0:
206,217,191190,1,14,0:0:0:0:
295,98,191371,1,2,0:0:0:0:
295,98,191461,1,2,0:0:0:0:
295,98,191551,1,2,0:0:0:0:
125,220,191732,2,0,L|147:286,1,44.0000013427735,2|0,0:0|0:0,0:0:0:0:
247,369,191913,5,2,3:2:0:0:
247,369,192094,2,0,P|276:263|297:211,1,132.00000402832,2|0,3:2|0:0,0:0:0:0:
301,223,192455,1,2,0:0:0:0:
377,118,192636,1,10,0:0:0:0:
373,129,192726,1,2,0:0:0:0:
348,148,192816,1,2,0:0:0:0:
307,140,192907,1,10,0:0:0:0:
289,92,192997,1,2,3:2:0:0:
317,51,193088,1,2,0:0:0:0:
365,45,193178,6,0,P|430:62|520:75,1,150,6|0,3:2|0:0,0:0:0:0:
395,253,193539,1,2,3:2:0:0:
475,139,193720,1,8,0:0:0:0:
306,226,193901,1,10,0:2:0:0:
320,252,193991,1,10,0:2:0:0:
325,281,194082,1,10,0:2:0:0:
493,321,194262,2,0,P|473:336|454:352,1,50,8|0,3:0|0:0,0:0:0:0:
381,171,194443,2,0,P|357:163|334:153,1,50,4|0,3:0|0:0,0:0:0:0:
194,376,194624,6,0,B|286:348|296:200|146:154|72:246|94:322|94:322|100:287|130:263|163:264,1,467.999985717774,6|0,3:2|0:0,0:0:0:0:
11,181,197335,2,0,L|0:175,2,11.9999996337891,2|2|2,0:0|0:0|0:0,0:0:0:0:
0,87,197515,6,0,B|23:120|76:118|95:68|80:49|80:49|95:68|114:73|114:73|151:28|228:29|272:86|261:143|261:143|261:143|261:143|256:97|210:84,1,467.999985717774,6|0,3:2|0:0,0:0:0:0:
203,212,200226,2,0,L|210:192,2,11.9999996337891,2|2|2,0:0|0:0|0:0,0:0:0:0:
273,239,200407,6,0,B|271:277|229:314|205:286|165:305|162:363|162:363|184:304|242:322,1,268.8000065625,6|0,3:2|0:0,0:0:0:0:
293,363,201853,2,0,P|333:386|385:370,1,103.999995239258,2|2,0:0|0:0,0:0:0:0:
480,384,202395,2,0,P|488:357|500:322,1,51.999997619629,2|0,0:0|0:0,0:0:0:0:
463,192,202756,5,2,3:2:0:0:
352,317,202937,1,8,0:0:0:0:
326,310,203027,1,2,0:0:0:0:
311,287,203118,2,0,P|302:267|308:238,1,44.0000013427735,2|8,0:0|3:0,0:0:0:0:
500,265,203298,2,0,P|497:286|478:308,1,44.0000013427735,4|0,3:0|0:0,0:0:0:0:
350,190,203479,5,6,3:2:0:0:
391,100,203660,1,2,0:0:0:0:
487,129,203841,1,8,0:0:0:0:
350,190,204021,5,6,3:2:0:0:
277,85,204202,1,2,0:0:0:0:
370,0,204383,1,0,3:0:0:0:
350,190,204563,5,10,0:0:0:0:
186,214,204744,1,6,3:2:0:0:
350,190,205106,5,0,3:0:0:0:
169,59,205286,1,8,0:0:0:0:
169,59,205377,1,8,0:0:0:0:
169,59,205467,1,8,3:0:0:0:
350,190,205648,1,8,0:0:0:0:
255,291,205829,2,0,P|260:268|284:245,1,44.0000013427735,6|0,3:2|0:0,0:0:0:0:
404,360,206009,2,0,P|388:377|355:385,1,44.0000013427735,2|2,0:0|0:0,0:0:0:0:
259,155,206190,6,0,P|313:148|374:244,1,176.000005371094,6|2,3:2|3:2,0:0:0:0:
199,211,206732,1,10,0:0:0:0:
266,71,206913,1,2,0:0:0:0:
266,71,207003,1,8,0:0:0:0:
266,71,207094,1,2,3:2:0:0:
134,157,207274,1,0,0:0:0:0:
290,238,207455,2,0,L|269:179,1,44.0000013427735,10|0,0:0|0:0,0:0:0:0:
151,0,207636,6,0,P|109:30|71:114,1,132.00000402832,2|0,0:0|0:0,0:0:0:0:
83,124,207997,1,2,0:0:0:0:
266,71,208178,1,8,0:0:0:0:
190,22,208359,1,2,0:0:0:0:
369,62,208539,1,0,3:0:0:0:
323,177,208720,1,0,3:0:0:0:
323,177,208810,1,2,0:0:0:0:
323,177,208901,1,10,0:0:0:0:
435,332,209082,6,0,L|399:189,1,132.00000402832,6|0,3:2|0:0,0:0:0:0:
419,183,209443,1,2,3:2:0:0:
357,356,209624,1,10,0:0:0:0:
205,300,209804,1,2,0:0:0:0:
205,300,209895,1,8,0:0:0:0:
205,300,209985,2,0,P|262:276|355:258,1,132.00000402832,2|0,3:2|0:0,0:0:0:0:
339,230,210347,2,0,P|330:186|303:125,1,88.000002685547,10|2,0:0|0:0,0:0:0:0:
395,290,210708,5,0,3:0:0:0:
471,125,210889,1,2,0:0:0:0:
471,125,210979,1,2,0:0:0:0:
471,125,211069,1,10,0:0:0:0:
393,149,211250,1,2,0:0:0:0:
465,252,211431,1,0,3:0:0:0:
505,50,211612,1,0,3:0:0:0:
337,203,211792,2,0,P|351:226|381:235,1,44.0000013427735,10|2,0:0|0:0,0:0:0:0:
407,71,211973,6,0,B|377:26|321:36|321:36|276:33|233:-21,2,176.000005371094,6|0|0,3:2|3:0|0:0,0:0:0:0:
277,146,212877,2,0,P|231:149|190:205,1,88.000002685547,2|0,3:2|0:0,0:0:0:0:
0,76,213238,1,10,0:0:0:0:
46,178,213419,6,0,P|123:218|187:278,2,176.000005371094,6|0|0,3:2|3:0|0:0,0:0:0:0:
206,354,214323,2,0,P|250:336|256:292,1,88.000002685547,2|0,3:2|0:0,0:0:0:0:
78,239,214684,1,10,0:0:0:0:
68,268,214774,1,8,0:0:0:0:
84,294,214865,1,10,0:0:0:0:
162,193,215045,6,0,P|224:171|271:164,1,88.000002685547,6|0,3:2|0:0,0:0:0:0:
460,279,215407,1,8,0:0:0:0:
420,343,215588,2,0,P|373:352|344:267,1,132.00000402832,4|0,3:2|0:0,0:0:0:0:
346,259,215949,1,2,3:2:0:0:
435,162,216130,1,10,0:2:0:0:
318,61,216310,1,6,3:2:0:0:
459,247,216672,5,4,3:2:0:0:
330,379,217033,5,4,3:2:0:0:
468,236,217214,1,0,3:0:0:0:
340,160,217395,1,10,0:0:0:0:
312,146,217485,1,8,0:0:0:0:
281,138,217576,1,10,0:0:0:0:
250,134,217666,1,8,0:0:0:0:
219,135,217756,6,0,B|113:132|161:194|47:188,1,176.000005371094,6|2,3:2|3:2,0:0:0:0:
0,33,218298,2,0,P|34:43|66:88,1,88.000002685547,10|2,0:0|0:0,0:0:0:0:
62,108,218569,1,8,0:0:0:0:
62,108,218660,1,2,3:2:0:0:
192,113,218841,1,0,0:0:0:0:
148,267,219021,2,0,P|172:257|211:246,1,44.0000013427735,8|0,0:0|0:0,0:0:0:0:
383,254,219202,6,0,P|300:223|246:186,1,132.00000402832,2|0,0:0|0:0,0:0:0:0:
261,170,219563,1,2,0:0:0:0:
270,315,219744,1,10,0:0:0:0:
335,130,219925,1,2,0:0:0:0:
335,130,220015,1,2,0:0:0:0:
335,130,220106,1,0,3:0:0:0:
235,85,220287,1,0,3:0:0:0:
381,0,220467,1,8,0:0:0:0:
133,67,220648,6,0,L|174:223,1,132.00000402832,6|0,3:2|0:0,0:0:0:0:
186,202,221009,2,0,L|165:280,1,44.0000013427735,2|0,3:2|0:0,0:0:0:0:
119,334,221190,1,10,0:0:0:0:
277,187,221371,1,2,0:0:0:0:
277,187,221461,1,8,0:0:0:0:
277,187,221551,2,0,P|323:209|348:262,1,88.000002685547,2|0,3:2|0:0,0:0:0:0:
344,317,221913,1,10,0:0:0:0:
473,102,222094,6,0,L|455:240,1,132.00000402832,2|0,0:0|0:0,0:0:0:0:
433,244,222455,2,0,L|447:353,1,88.000002685547,2|8,0:0|0:0,0:0:0:0:
463,354,222726,1,2,0:0:0:0:
463,354,222816,1,2,0:0:0:0:
351,223,222997,1,0,3:0:0:0:
473,102,223178,1,0,3:0:0:0:
270,195,223359,2,0,P|253:165|226:146,1,44.0000013427735,10|2,0:0|0:0,0:0:0:0:
431,37,223539,6,0,P|349:50|337:145,1,176.000005371094,6|2,3:2|3:2,0:0:0:0:
457,253,224082,1,10,0:0:0:0:
351,223,224262,1,2,0:0:0:0:
258,316,224443,2,0,L|146:298,1,88.000002685547,2|0,3:2|0:0,0:0:0:0:
155,288,224714,1,2,0:0:0:0:
155,288,224804,1,10,0:0:0:0:
8,378,224985,1,6,3:2:0:0:
8,378,225347,5,2,3:2:0:0:
49,217,225527,2,0,P|45:180|15:128,1,88.000002685547,10|0,0:0|0:0,0:0:0:0:
208,224,225889,2,0,P|185:194|132:166,1,88.000002685547,2|0,3:2|0:0,0:0:0:0:
247,342,226250,1,10,0:0:0:0:
242,316,226340,1,8,0:0:0:0:
254,293,226430,1,8,0:0:0:0:
277,281,226521,1,8,0:0:0:0:
303,285,226611,5,6,3:2:0:0:
333,189,226792,1,2,0:0:0:0:
241,147,226973,1,8,0:0:0:0:
303,285,227154,5,6,3:2:0:0:
411,186,227335,1,2,0:0:0:0:
329,66,227515,1,0,3:0:0:0:
303,285,227696,5,10,0:0:0:0:
512,225,227877,1,6,3:2:0:0:
512,225,228238,5,0,3:0:0:0:
303,285,228419,1,8,0:0:0:0:
423,357,228600,1,0,3:0:0:0:
423,357,228690,1,0,3:0:0:0:
423,357,228780,1,10,0:2:0:0:
356,184,228961,1,6,3:2:0:0:
437,108,229142,2,0,P|422:82|413:52,1,44.0000013427735,2|2,0:0|0:0,0:0:0:0:
148,58,229323,6,0,P|249:76|351:100,1,176.000005371094,6|2,3:2|3:2,0:0:0:0:
85,129,229865,1,10,0:0:0:0:
54,28,230045,1,2,0:0:0:0:
54,28,230136,1,8,0:0:0:0:
54,28,230226,1,2,3:2:0:0:
20,187,230407,1,0,0:0:0:0:
148,58,230588,1,10,0:0:0:0:
93,224,230768,6,0,L|111:354,1,132.00000402832,2|0,0:0|0:0,0:0:0:0:
125,373,231130,1,2,0:0:0:0:
13,286,231310,1,10,0:0:0:0:
193,312,231491,1,2,0:0:0:0:
206,309,231582,1,2,0:0:0:0:
217,302,231672,2,0,P|231:281|240:256,1,44.0000013427735,2|2,3:2|0:0,0:0:0:0:
157,172,231853,2,0,P|159:197|168:222,1,44.0000013427735,2|2,3:2|0:0,0:0:0:0:
277,69,232033,1,10,0:0:0:0:
424,167,232214,6,0,B|349:154|349:154|324:171|324:171|228:153,1,176.000005371094,6|2,3:2|3:2,0:0:0:0:
44,29,232756,2,0,P|90:45|124:91,1,88.000002685547,10|2,0:0|0:0,0:0:0:0:
132,98,233027,1,8,0:0:0:0:
132,98,233118,2,0,L|103:222,1,88.000002685547,2|0,3:2|0:0,0:0:0:0:
61,292,233479,1,10,0:0:0:0:
282,305,233660,6,0,P|276:223|196:204,1,176.000005371094,2|2,0:0|0:0,0:0:0:0:
217,345,234202,1,10,0:0:0:0:
377,310,234383,1,2,0:0:0:0:
478,359,234563,1,2,3:2:0:0:
472,337,234653,1,2,0:0:0:0:
467,316,234743,1,2,3:2:0:0:
462,294,234834,1,2,0:0:0:0:
456,273,234924,1,10,0:0:0:0:
417,61,235106,6,0,P|395:159|365:259,2,176.000005371094,6|0|0,3:2|3:0|0:0,0:0:0:0:
302,178,236009,2,0,L|207:135,1,88.000002685547,2|0,3:2|0:0,0:0:0:0:
143,48,236371,1,10,0:0:0:0:
35,261,236551,6,0,B|44:210|84:193|82:207|132:187|144:132,2,176.000005371094,6|0|0,3:2|3:0|0:0,0:0:0:0:
207,215,237455,2,0,P|249:230|300:283,1,88.000002685547,2|0,3:2|0:0,0:0:0:0:
349,384,237816,1,10,0:0:0:0:
358,337,237906,1,8,0:0:0:0:
392,304,237997,1,10,0:0:0:0:
439,297,238087,1,8,0:0:0:0:
482,319,238178,1,4,3:2:0:0:
204,335,238539,5,8,0:0:0:0:
301,253,238720,2,0,L|261:119,1,132.00000402832,4|0,3:2|0:0,0:0:0:0:
243,107,239082,1,2,3:2:0:0:
386,162,239262,1,10,0:0:0:0:
448,26,239443,1,6,3:2:0:0:
145,151,240166,5,0,3:0:0:0:
145,151,240256,1,0,3:0:0:0:
145,151,240346,2,0,P|167:162|184:194,1,44.0000013427735,8|0,0:0|0:0,0:0:0:0:
251,65,240527,2,0,P|241:84|242:106,1,44.0000013427735,4|0,3:2|0:0,0:0:0:0:
292,345,240889,6,0,L|305:313,2,29.3333342285157,2|2|2,0:0|0:0|0:0,0:0:0:0:
186,280,241069,6,0,P|241:271|291:202,1,132.00000402832,6|0,3:2|0:0,0:0:0:0:
283,197,241431,1,10,0:2:0:0:
414,290,241612,1,0,0:0:0:0:
397,109,241792,2,0,P|376:161|362:201,2,88.000002685547,2|0|10,3:2|3:0|0:2,0:0:0:0:
512,109,242335,1,0,0:0:0:0:
368,38,242515,5,2,3:2:0:0:
368,38,242696,1,0,3:0:0:0:
453,159,242877,1,10,0:2:0:0:
505,12,243057,1,0,3:0:0:0:
505,12,243148,1,2,0:2:0:0:
505,12,243238,1,2,0:2:0:0:
360,146,243419,2,0,L|377:193,1,44.0000013427735,0|0,3:0|0:0,0:0:0:0:
486,85,243600,2,0,P|441:75|328:43,1,132.00000402832,10|2,0:2|0:2,0:0:0:0:
328,35,243961,6,0,P|271:37|240:145,1,176.000005371094,6|10,3:2|0:2,0:2:0:0:
235,136,244684,1,2,3:2:0:0:
318,265,244865,1,0,3:0:0:0:
228,323,245045,2,0,L|246:273,1,44.0000013427735,10|0,0:2|0:0,0:0:0:0:
264,209,245226,1,0,0:0:0:0:
174,384,245407,6,0,P|147:337|121:295,2,88.000002685547,2|0|10,3:2|3:0|0:2,0:0:0:0:
318,265,245949,1,0,3:0:0:0:
342,274,246039,1,2,0:0:0:0:
352,298,246130,1,2,0:0:0:0:
228,323,246310,1,0,3:0:0:0:
267,168,246491,2,0,P|276:143|288:120,1,44.0000013427735,10|0,0:2|0:0,0:0:0:0:
145,218,246672,2,0,P|170:227|193:239,1,44.0000013427735,2|2,0:2|0:0,0:0:0:0:
146,97,246853,6,0,P|76:68|-9:-7,1,176.000005371094,6|10,3:2|0:2,0:0:0:0:
78,152,247395,1,0,0:0:0:0:
0,233,247576,1,2,3:2:0:0:
0,233,247756,1,0,3:0:0:0:
141,201,247937,1,10,0:2:0:0:
11,101,248118,1,0,0:0:0:0:
131,214,248298,5,2,3:2:0:0:
190,68,248479,1,0,3:0:0:0:
68,156,248660,1,10,0:2:0:0:
219,219,248841,1,0,3:0:0:0:
219,219,248931,1,2,0:0:0:0:
219,219,249021,1,2,0:2:0:0:
55,150,249202,1,0,3:0:0:0:
111,350,249383,2,0,P|156:310|163:263,1,88.000002685547,10|2,0:2|0:2,0:0:0:0:
273,149,249654,5,2,0:2:0:0:
273,149,249744,2,0,P|303:195|420:192,1,176.000005371094,6|10,3:2|0:2,0:0:0:0:
343,376,250467,1,2,3:2:0:0:
441,266,250648,1,0,3:0:0:0:
289,319,250829,1,10,0:2:0:0:
423,384,251009,1,0,0:0:0:0:
373,231,251190,6,0,L|397:176,1,44.0000013427735,2|0,3:2|0:0,0:0:0:0:
278,140,251371,2,0,L|254:85,1,44.0000013427735,8|0,0:0|0:0,0:0:0:0:
395,25,251732,5,8,3:0:0:0:
234,13,252094,5,0,3:0:0:0:
314,50,252275,1,8,0:0:0:0:
234,13,252455,1,2,0:2:0:0:
184,223,252636,6,0,L|146:22,1,176.000005371094,6|10,3:2|0:2,0:0:0:0:
83,162,253178,1,0,0:0:0:0:
184,223,253359,1,2,3:2:0:0:
184,223,253539,1,0,3:0:0:0:
75,337,253720,2,0,L|95:251,1,88.000002685547,10|0,0:2|0:0,0:0:0:0:
190,340,254082,5,2,3:2:0:0:
288,206,254262,1,0,3:0:0:0:
374,278,254443,1,10,0:2:0:0:
289,303,254624,1,0,3:0:0:0:
289,303,254714,1,2,0:2:0:0:
289,303,254804,1,2,0:2:0:0:
382,203,254985,1,0,3:0:0:0:
324,120,255166,1,10,0:2:0:0:
504,64,255347,5,2,0:0:0:0:
504,64,255437,1,2,0:0:0:0:
504,64,255527,2,0,P|482:145|458:249,1,176.000005371094,6|10,3:2|0:2,0:0:0:0:
461,234,256250,1,2,3:2:0:0:
307,192,256431,1,0,3:0:0:0:
411,104,256612,2,0,P|394:63|379:21,1,88.000002685547,10|0,0:2|0:0,0:0:0:0:
394,191,256973,5,2,3:2:0:0:
394,191,257154,1,0,3:0:0:0:
470,41,257335,1,10,0:2:0:0:
314,84,257515,1,0,3:0:0:0:
295,79,257606,1,2,0:2:0:0:
283,61,257696,1,2,0:2:0:0:
354,161,257877,1,0,3:0:0:0:
378,168,257968,1,0,3:0:0:0:
394,191,258057,2,0,P|387:225|381:246,1,44.0000013427735,10|0,0:2|0:0,0:0:0:0:
318,323,258238,2,0,P|312:301|308:280,1,44.0000013427735,2|2,0:0|0:0,0:0:0:0:
403,383,258419,6,0,L|197:316,1,176.000005371094,6|10,3:2|0:2,0:0:0:0:
71,216,258961,1,0,0:0:0:0:
162,357,259142,1,2,3:2:0:0:
71,316,259323,1,0,3:0:0:0:
207,197,259503,2,0,P|185:244|174:278,2,88.000002685547,10|0|2,0:2|0:0|3:2,0:0:0:0:
277,55,260045,5,0,3:0:0:0:
301,140,260226,1,10,0:2:0:0:
386,117,260407,1,0,3:0:0:0:
363,32,260588,1,2,0:2:0:0:
363,32,260678,1,10,0:2:0:0:
363,32,260768,1,2,3:2:0:0:
212,100,260949,1,10,0:2:0:0:
93,24,261130,2,0,P|103:39|117:72,1,44.0000013427735,2|2,0:0|0:0,0:0:0:0:
41,262,261310,6,0,P|84:157|173:152,1,176.000005371094,6|10,3:2|0:2,0:0:0:0:
208,176,261853,1,0,0:0:0:0:
251,312,262033,1,2,3:2:0:0:
283,159,262214,1,0,3:0:0:0:
251,312,262395,1,10,0:2:0:0:
358,142,262576,1,4,3:2:0:0:
227,62,262937,6,0,L|240:20,2,32,2|0|2,0:0|0:0|0:0,0:0:0:0:
310,2,263298,1,2,0:0:0:0:
295,185,263479,2,0,L|278:123,2,64,2|2|2,0:0|0:0|0:0,0:0:0:0:
361,329,264021,6,0,B|404:226|275:176|225:230|273:276|120:291|133:186|133:186|200:163|200:163|146:131|146:131|158:64|158:64|106:104|106:104|46:62|46:62|59:134|59:134|0:174|0:174|63:181|63:181|44:221|70:263,1,991.999960644533,6|0,3:2|0:0,0:0:0:0:
