osu file format v14

[General]
AudioFilename: audio.mp3
AudioLeadIn: 0
PreviewTime: 61197
Countdown: 0
SampleSet: Soft
StackLeniency: 0.7
Mode: 0
LetterboxInBreaks: 0
WidescreenStoryboard: 0

[Editor]
Bookmarks: 14209
DistanceSpacing: 1.1
BeatDivisor: 4
GridSize: 4
TimelineZoom: 1.4

[Metadata]
Title:Alicemagic (TV Size)
TitleUnicode:Alicemagic (TV Size)
Artist:Rita
ArtistUnicode:Rita
Creator:Kawasaki Sakura
Version:Insane feat. molten125
Source:リトルバスターズ!
Tags:molten125 -karupa- ~TV animation ver.~ version ed ending little busters! ex anime japanese jpop jrock j-rock j-pop
BeatmapID:4539127
BeatmapSetID:2154145

[Difficulty]
HPDrainRate:5
CircleSize:4
OverallDifficulty:8
ApproachRate:9
SliderMultiplier:1.8
SliderTickRate:1

[Events]
//Background and Video events
0,0,"little_busters_2_compressed.jpg",0,0
Video,500,"bustersvideo.avi"
//Break Periods
//Storyboard Layer 0 (Background)
//Storyboard Layer 1 (Fail)
//Storyboard Layer 2 (Pass)
//Storyboard Layer 3 (Foreground)
//Storyboard Layer 4 (Overlay)
//Storyboard Sound Samples

[TimingPoints]
-248,361.44578313253,4,2,1,70,1,0
1197,-100,4,2,1,80,0,0
14209,-100,4,2,1,70,0,0
61739,-100,4,2,1,85,0,1
83426,-133.333333333333,4,2,1,85,0,1
84511,-100,4,2,1,85,0,0
85053,-100,4,2,1,80,0,0
85776,-100,4,2,1,70,0,0
86498,-100,4,2,1,60,0,0
87221,-100,4,2,1,50,0,0
87944,-100,4,2,1,40,0,0
88667,-100,4,2,1,30,0,0
89390,-100,4,2,1,20,0,0
90113,-100,4,2,1,10,0,0
90836,-100,4,2,1,5,0,0

[Colours]
Combo1 : 250,194,5
Combo2 : 240,51,51
Combo3 : 210,79,221
Combo4 : 147,225,40

[HitObjects]
123,51,1197,6,0,P|78:86|74:130,1,90,8|8,0:0|0:0,0:0:0:0:
71,116,1468,1,8,0:0:0:0:
71,116,1559,1,0,1:2:0:0:
87,232,1739,1,8,0:0:0:0:
96,260,1830,1,8,0:0:0:0:
111,290,1920,1,8,0:0:0:0:
129,322,2011,1,8,0:0:0:0:
146,343,2101,2,0,L|221:364,1,45,8|8,0:0|0:0,0:0:0:0:
297,331,2282,2,0,L|382:303,1,90,12|0,0:0|0:0,0:0:0:0:
454,158,2643,6,0,P|357:109|271:144,1,180,6|8,1:2|0:0,0:0:0:0:
292,126,3185,1,2,0:0:0:0:
201,192,3366,2,0,P|183:148|181:100,1,90,0|0,1:2|1:2,0:0:0:0:
361,192,3727,2,0,P|354:242|341:284,1,90,10|0,0:0|0:0,0:0:0:0:
201,192,4089,5,0,1:2:0:0:
373,113,4270,1,2,1:2:0:0:
342,279,4450,1,8,0:0:0:0:
286,140,4631,1,2,1:2:0:0:
286,140,4721,1,2,1:2:0:0:
286,140,4812,2,0,P|283:85|299:40,1,90,2|0,1:2|1:2,0:0:0:0:
113,98,5173,2,0,P|158:93|218:98,1,90,10|0,0:0|0:0,0:0:0:0:
385,38,5535,6,0,P|405:134|378:208,1,180,2|8,1:2|0:0,0:0:0:0:
338,316,6077,1,2,0:0:0:0:
208,265,6258,2,0,B|145:259|101:217,1,90,0|0,1:2|1:2,0:0:0:0:
217,108,6619,2,0,B|282:104|325:145,1,90,10|0,0:0|0:0,0:0:0:0:
208,265,6980,5,0,1:2:0:0:
81,155,7161,1,2,1:2:0:0:
81,155,7342,1,8,0:0:0:0:
55,337,7523,1,2,1:2:0:0:
55,337,7613,1,2,1:2:0:0:
55,337,7703,1,2,1:2:0:0:
93,175,7884,2,0,P|102:219|117:262,2,90,0|10|0,1:2|0:0|0:0,0:0:0:0:
55,337,8426,6,0,P|151:348|218:273,1,180,6|8,1:2|0:0,0:0:0:0:
36,236,8968,1,2,0:0:0:0:
197,168,9149,1,0,1:2:0:0:
197,168,9330,1,0,1:2:0:0:
69,108,9511,2,0,P|147:51|240:51,1,180,10|0,0:0|1:2,0:0:0:0:
377,20,10053,5,2,1:2:0:0:
377,20,10233,1,8,0:0:0:0:
288,138,10414,1,2,1:2:0:0:
288,138,10505,1,2,1:2:0:0:
288,138,10595,1,2,1:2:0:0:
390,137,10776,1,0,1:2:0:0:
276,265,10956,1,10,0:0:0:0:
457,302,11137,1,0,0:0:0:0:
276,265,11318,6,0,P|209:292|97:303,1,180,6|8,1:2|0:0,0:0:0:0:
198,190,11860,1,2,0:0:0:0:
101,303,12041,1,0,1:2:0:0:
276,265,12221,1,0,1:2:0:0:
74,186,12402,1,10,0:0:0:0:
219,69,12583,1,6,1:2:0:0:
256,192,12673,12,4,14209,1:2:0:0:
332,241,14571,6,0,P|402:228|367:135,1,180,10|2,0:0|0:0,0:0:0:0:
245,96,15113,2,0,P|246:155|255:185,1,90,2|8,1:2|0:0,0:0:0:0:
326,34,15474,2,0,P|265:3|156:46,1,180,2|2,1:2|1:2,0:0:0:0:
7,137,16017,2,0,P|-2:87|0:44,1,90,10|0,0:0|0:0,0:0:0:0:
137,118,16378,2,0,P|138:162|129:206,1,90,2|0,1:2|1:2,0:0:0:0:
33,268,16739,1,10,0:0:0:0:
213,350,17101,6,0,P|254:330|352:355,1,135,0|0,1:2|0:0,0:0:0:0:
368,335,17462,2,0,P|370:285|380:243,1,90,10|0,0:0|0:0,0:0:0:0:
280,158,17824,1,2,0:0:0:0:
199,182,18005,2,0,P|253:196|302:203,1,90,2|8,1:2|0:0,0:0:0:0:
120,254,18366,2,0,P|91:186|140:89,1,180,2|2,1:2|1:2,0:0:0:0:
280,158,18908,1,10,0:0:0:0:
287,144,19270,6,0,P|347:160|386:162,1,90,2|0,1:2|1:2,0:0:0:0:
512,211,19631,2,0,P|467:215|424:229,1,90,10|0,0:0|0:0,0:0:0:0:
311,326,19992,6,0,P|229:341|134:291,1,180,2|10,1:2|0:0,0:0:0:0:
242,214,20535,2,0,P|247:150|249:113,1,90,2|0,0:0|1:2,0:0:0:0:
151,55,20896,1,0,1:2:0:0:
92,185,21077,1,8,0:0:0:0:
202,135,21258,1,2,0:0:0:0:
78,4,21438,2,0,P|68:60|78:105,2,90,2|0|8,1:2|1:2|0:0,0:0:0:0:
180,153,21980,2,0,P|112:131|-10:155,1,180,2|0,0:0|0:0,0:0:0:0:
75,316,22523,2,0,P|85:257|84:217,1,90,10|0,0:0|1:2,0:0:0:0:
84,226,22794,5,8,0:0:0:0:
84,226,22884,1,2,1:2:0:0:
163,183,23065,1,0,0:0:0:0:
252,179,23245,1,10,0:0:0:0:
329,225,23426,2,0,P|327:276|318:319,1,90,2|0,0:0|1:2,0:0:0:0:
509,280,23788,2,0,P|464:278|419:270,1,90,0|8,1:2|0:0,0:0:0:0:
285,88,24149,6,0,P|367:130|469:103,1,180,4|8,1:2|0:0,0:0:0:0:
381,26,24691,1,8,0:0:0:0:
219,125,24872,1,0,1:2:0:0:
219,125,24962,1,0,1:2:0:0:
219,125,25053,1,8,0:0:0:0:
401,221,25233,2,0,P|411:278|386:358,1,135,4|0,1:2|0:0,0:0:0:0:
356,364,25595,6,0,P|282:339|175:339,1,180,4|0,1:2|1:2,0:0:0:0:
84,266,26137,2,0,B|100:198|100:198|91:145|91:145|108:77,1,180,10|2,0:0|0:0,0:0:0:0:
280,124,26679,2,0,P|225:127|188:123,1,90,2|8,1:2|0:0,0:0:0:0:
330,43,27041,2,0,P|371:98|344:208,1,180,2|2,1:2|1:2,0:0:0:0:
190,202,27583,5,10,0:0:0:0:
280,124,27764,1,0,0:0:0:0:
171,181,27944,1,2,1:2:0:0:
293,293,28125,1,0,1:2:0:0:
103,257,28306,2,0,P|83:213|118:68,1,180,10|0,0:0|1:2,0:0:0:0:
434,153,29029,6,0,P|372:147|334:133,1,90,10|0,0:0|0:0,0:0:0:0:
276,61,29390,1,2,0:0:0:0:
178,213,29571,2,0,P|240:207|278:193,1,90,2|8,1:2|0:0,0:0:0:0:
434,153,29932,6,0,P|449:235|406:353,1,180,2|2,1:2|1:2,0:0:0:0:
286,366,30474,2,0,P|279:315|281:268,1,90,10|0,0:0|0:0,0:0:0:0:
349,188,30836,1,2,1:2:0:0:
349,188,31017,1,0,1:2:0:0:
224,106,31197,2,0,P|172:119|132:125,1,90,10|0,0:0|0:0,0:0:0:0:
22,52,31559,6,0,P|5:105|34:202,1,135,2|0,1:2|0:0,0:0:0:0:
15,216,31920,2,0,P|70:203|117:202,1,90,10|2,0:0|0:0,0:0:0:0:
212,262,32282,1,0,1:2:0:0:
290,173,32462,1,0,1:2:0:0:
392,259,32643,1,8,0:0:0:0:
314,348,32823,1,2,0:0:0:0:
261,193,33005,6,0,P|306:202|362:204,1,90,2|0,1:2|1:2,0:0:0:0:
322,74,33366,1,8,0:0:0:0:
185,99,33547,2,0,P|158:154|186:277,1,180,2|0,0:0|0:0,0:0:0:0:
46,369,34089,2,0,P|54:324|57:280,1,90,10|0,0:0|1:2,0:0:0:0:
11,212,34360,5,8,0:0:0:0:
0,189,34450,2,0,P|54:203|114:206,1,90,2|0,1:2|0:0,0:0:0:0:
179,133,34812,1,10,0:0:0:0:
176,304,34992,2,0,P|201:235|188:116,1,180,2|2,0:0|1:2,0:0:0:0:
334,205,35535,2,0,P|400:200|447:194,1,90,8|2,0:0|0:0,0:0:0:0:
335,101,35896,5,4,1:2:0:0:
234,227,36077,1,8,0:0:0:0:
212,50,36258,1,8,0:0:0:0:
425,116,36438,1,0,1:2:0:0:
425,116,36529,1,0,1:2:0:0:
425,116,36619,1,8,0:0:0:0:
240,151,36800,2,0,L|182:127,2,45,8|8|10,0:0|0:0|0:0,0:0:0:0:
327,314,37161,5,10,0:0:0:0:
327,314,37251,1,8,0:0:0:0:
327,314,37342,2,0,P|341:188|326:111,1,180,6|8,1:2|0:0,0:0:0:0:
88,182,38065,2,0,P|79:271|93:359,1,180,0|8,1:2|0:0,0:0:0:0:
222,339,38607,1,2,0:0:0:0:
266,217,38788,2,0,P|206:231|173:234,1,90,2|0,1:2|0:0,0:0:0:0:
358,300,39149,5,10,0:0:0:0:
387,188,39330,1,2,1:2:0:0:
387,188,39420,1,8,0:0:0:0:
387,188,39511,1,0,1:2:0:0:
254,255,39691,1,2,0:0:0:0:
304,370,39872,1,10,0:0:0:0:
433,274,40053,1,2,0:0:0:0:
301,182,40233,6,0,P|212:178|178:282,1,180,2|8,1:2|0:0,0:0:0:0:
342,268,40956,2,0,P|297:264|253:254,1,90,0|0,1:2|0:0,0:0:0:0:
391,134,41318,2,0,P|434:124|479:120,1,90,8|2,0:0|0:0,0:0:0:0:
338,55,41679,5,2,1:2:0:0:
338,55,41770,1,8,0:0:0:0:
338,55,41860,1,0,1:2:0:0:
251,183,42041,1,10,0:0:0:0:
170,133,42221,1,2,1:2:0:0:
170,133,42312,1,8,0:0:0:0:
170,133,42402,2,0,P|222:141|271:151,1,90,0|2,1:2|0:0,0:0:0:0:
100,204,42764,2,0,P|60:158|93:69,1,135,8|0,0:0|0:0,0:0:0:0:
170,133,43125,6,0,P|151:207|160:327,1,180,6|8,1:2|0:0,0:0:0:0:
265,375,43667,2,0,P|327:326|426:339,1,180,2|0,0:0|0:0,0:0:0:0:
306,232,44209,2,0,B|293:183|293:183|295:118,1,90,10|0,0:0|0:0,0:0:0:0:
486,176,44571,2,0,P|435:176|374:167,1,90,0|0,1:2|0:0,0:0:0:0:
294,143,44932,5,8,0:0:0:0:
202,227,45113,1,0,1:2:0:0:
202,227,45203,1,8,0:0:0:0:
202,227,45294,1,2,1:2:0:0:
338,267,45474,1,0,0:0:0:0:
169,299,45655,2,0,P|159:248|160:202,1,90,10|0,0:0|0:0,0:0:0:0:
282,56,46017,6,0,B|272:115|272:115|283:172|283:172|266:231,1,180,2|8,1:2|0:0,0:0:0:0:
372,118,46559,2,0,P|424:108|474:96,1,90,2|0,0:0|1:2,0:0:0:0:
460,99,46920,1,0,0:0:0:0:
435,287,47101,2,0,P|425:230|423:190,1,90,10|0,0:0|0:0,0:0:0:0:
266,231,47462,6,0,L|206:218,2,45,0|8|0,1:2|0:0|1:2,0:0:0:0:
193,135,47824,1,8,0:0:0:0:
367,76,48005,1,8,0:0:0:0:
367,76,48095,1,8,0:0:0:0:
367,76,48185,1,2,1:2:0:0:
323,314,48366,2,0,P|353:236|317:152,1,180,14|0,0:0|0:0,0:0:0:0:
216,56,48908,6,0,P|156:44|115:39,1,90,6|0,1:2|0:0,0:0:0:0:
14,113,49270,2,0,P|5:183|28:304,2,180,8|0|8,0:0|1:2|0:0,0:0:0:0:
229,137,50354,5,2,1:2:0:0:
110,79,50535,1,0,0:0:0:0:
111,236,50715,1,10,0:0:0:0:
292,196,50896,1,2,1:2:0:0:
292,196,50986,1,8,0:0:0:0:
292,196,51077,2,0,P|238:187|192:186,1,90,0|2,1:2|0:0,0:0:0:0:
345,86,51438,2,0,P|389:83|434:75,1,90,10|0,0:0|0:0,0:0:0:0:
427,185,51800,6,0,P|418:253|419:376,1,180,2|8,1:2|0:0,0:0:0:0:
417,364,52342,1,0,0:0:0:0:
296,313,52523,2,0,P|236:290|103:313,1,180,0|8,1:2|0:0,0:0:0:0:
48,87,53245,5,2,1:2:0:0:
48,87,53336,1,8,0:0:0:0:
48,87,53426,1,0,1:2:0:0:
183,150,53607,1,10,0:0:0:0:
165,36,53788,1,2,1:2:0:0:
165,36,53878,1,8,0:0:0:0:
165,36,53968,1,0,1:2:0:0:
71,108,54149,1,2,1:2:0:0:
133,238,54330,1,8,0:0:0:0:
287,177,54511,6,0,P|219:208|106:188,1,180,6|2,1:2|1:2,0:0:0:0:
267,319,55053,2,0,P|354:303|436:336,1,180,10|0,0:0|1:2,0:0:0:0:
366,220,55595,1,0,0:0:0:0:
466,140,55776,2,0,B|471:186|471:186|459:243,1,90,8|0,0:0|0:0,0:0:0:0:
297,141,56137,6,0,P|220:127|115:166,1,180,0|10,1:2|0:0,0:0:0:0:
246,282,56679,1,0,1:2:0:0:
246,282,56770,1,8,0:0:0:0:
246,282,56860,2,0,P|323:296|428:257,1,180,2|10,1:2|0:0,0:0:0:0:
485,193,57402,1,0,0:0:0:0:
398,76,57583,6,0,P|345:69|301:60,1,90,6|0,1:2|0:0,0:0:0:0:
331,180,57944,2,0,P|324:233|315:277,1,90,8|0,0:0|0:0,0:0:0:0:
201,258,58306,2,0,P|128:265|88:167,1,180,2|8,1:2|0:0,0:0:0:0:
84,180,58848,1,0,0:0:0:0:
146,8,59029,6,0,P|161:74|155:206,1,180,2|8,1:2|0:0,0:0:0:0:
362,204,59571,1,0,0:0:0:0:
280,115,59751,1,0,1:2:0:0:
426,30,59932,2,0,P|386:84|283:71,1,180,8|0,0:0|1:2,0:0:0:0:
218,22,60384,1,0,1:2:0:0:
195,47,60474,2,0,L|208:114,1,45,8|8,0:0|0:0,0:0:0:0:
287,196,60655,5,8,3:0:0:0:
201,261,60836,1,4,3:0:0:0:
96,234,61017,1,8,0:0:0:0:
79,127,61197,1,0,1:2:0:0:
205,165,61378,5,2,1:2:0:0:
68,248,61559,1,10,0:0:0:0:
68,248,61649,1,8,0:0:0:0:
68,248,61739,2,0,P|125:288|234:261,1,180,6|2,1:2|1:2,0:0:0:0:
329,192,62282,1,8,0:0:0:0:
476,239,62462,1,2,1:2:0:0:
476,239,62553,1,8,0:0:0:0:
476,239,62643,1,0,1:2:0:0:
296,321,62824,1,0,0:0:0:0:
247,159,63005,1,10,0:0:0:0:
324,227,63185,6,0,P|256:251|157:214,1,180,2|2,0:0|0:0,0:0:0:0:
11,227,63727,2,0,B|6:273|6:273|19:320,1,90,10|2,0:0|0:0,0:0:0:0:
158,215,64089,1,0,1:2:0:0:
80,138,64270,1,0,1:2:0:0:
267,59,64450,1,8,0:0:0:0:
207,298,64631,2,0,P|189:243|205:119,1,180,6|2,1:2|1:2,0:0:0:0:
412,221,65173,6,0,P|331:211|284:205,1,90,10|2,0:0|1:2,0:0:0:0:
322,209,65444,1,8,0:0:0:0:
322,209,65535,1,2,1:2:0:0:
207,298,65715,1,0,0:0:0:0:
202,123,65896,1,10,0:0:0:0:
396,188,66077,2,0,P|386:249|386:299,1,90,2|0,0:0|1:2,0:0:0:0:
119,163,66438,5,2,0:0:0:0:
284,188,66619,1,10,0:0:0:0:
242,42,66800,1,2,0:0:0:0:
108,126,66980,5,0,1:2:0:0:
269,215,67161,1,0,1:2:0:0:
275,46,67342,1,8,0:0:0:0:
192,289,67523,6,0,B|179:222|179:222|191:166|191:166|174:86,1,180,6|2,1:2|1:2,0:0:0:0:
269,215,68065,1,10,0:0:0:0:
400,173,68245,5,2,0:0:0:0:
262,232,68426,1,2,1:2:0:0:
475,286,68607,1,0,0:0:0:0:
322,166,68788,1,10,0:0:0:0:
421,58,68968,2,0,P|431:133|412:243,1,180,6|2,1:2|1:2,0:0:0:0:
232,158,69511,2,0,P|289:166|339:163,1,90,10|0,0:0|0:0,0:0:0:0:
260,282,69872,2,0,P|252:339|255:389,1,90,2|0,1:2|1:2,0:0:0:0:
77,299,70233,2,0,P|24:265|51:186,1,135,10|8,0:0|0:0,0:0:0:0:
49,191,70595,6,0,P|66:273|45:381,1,180,6|8,1:2|0:0,0:0:0:0:
206,264,71137,2,0,P|317:264|394:302,1,180,6|0,1:2|1:2,0:0:0:0:
296,131,71679,1,10,0:0:0:0:
286,347,71860,2,0,P|278:293|290:158,1,180,6|0,1:2|1:2,0:0:0:0:
364,33,72402,6,0,L|310:44,1,45,8|0,0:0|1:2,0:0:0:0:
165,86,72583,2,0,L|219:97,1,45,0|0,1:2|1:2,0:0:0:0:
378,180,72764,1,8,0:0:0:0:
128,287,72944,2,0,P|127:239|220:226,1,135,6|0,1:2|0:0,0:0:0:0:
275,252,73306,6,0,P|355:284|455:277,1,180,6|2,1:2|1:2,0:0:0:0:
311,154,73848,1,8,0:0:0:0:
178,180,74029,1,2,1:2:0:0:
178,180,74119,1,8,0:0:0:0:
178,180,74209,1,2,1:2:0:0:
163,312,74390,1,0,0:0:0:0:
285,370,74571,1,10,0:0:0:0:
376,273,74751,2,0,P|369:216|359:83,1,180,2|2,0:0|0:0,0:0:0:0:
200,19,75294,5,10,0:0:0:0:
141,178,75474,1,2,0:0:0:0:
232,97,75655,1,0,1:2:0:0:
146,275,75836,1,0,1:2:0:0:
1,137,76017,1,8,0:0:0:0:
200,19,76197,6,0,P|283:32|311:128,1,180,6|2,1:2|1:2,0:0:0:0:
225,195,76739,1,10,0:0:0:0:
374,279,76920,1,2,1:2:0:0:
374,279,77011,1,8,0:0:0:0:
374,279,77101,2,0,B|380:328|380:328|366:375,1,90,2|0,1:2|0:0,0:0:0:0:
152,273,77462,1,10,0:0:0:0:
288,324,77643,2,0,P|201:335|116:286,1,180,2|2,0:0|0:0,0:0:0:0:
228,120,78185,2,0,P|228:173|220:221,1,90,10|2,0:0|0:0,0:0:0:0:
61,108,78547,5,0,1:2:0:0:
243,25,78727,1,0,1:2:0:0:
145,140,78908,1,10,0:0:0:0:
287,267,79089,2,0,P|212:292|137:211,1,180,6|0,1:2|1:2,0:0:0:0:
285,91,79631,2,0,P|342:108|436:117,1,135,8|0,0:0|0:0,0:0:0:0:
445,96,79992,2,0,P|432:152|429:201,1,90,2|0,1:2|0:0,0:0:0:0:
500,261,80354,1,10,0:0:0:0:
302,186,80535,6,0,B|279:217|279:217|224:167|142:200,1,180,6|0,1:2|1:2,0:0:0:0:
25,75,81077,2,0,P|88:68|124:55,1,90,8|0,0:0|0:0,0:0:0:0:
302,186,81438,1,2,1:2:0:0:
192,110,81619,1,0,1:2:0:0:
347,49,81800,1,10,0:0:0:0:
284,212,81980,2,0,L|290:256,1,45,2|0,1:2|1:2,0:0:0:0:
472,170,82161,6,0,P|412:198|297:183,1,180,4|8,1:2|0:0,0:0:0:0:
139,309,82703,2,0,P|199:281|314:296,1,180,4|2,1:2|1:2,0:0:0:0:
309,293,83245,1,10,0:0:0:0:
223,148,83426,6,0,B|149:108|40:95|40:95|94:97|137:70,1,270.000010299683,6|0,1:2|1:2,0:0:0:0:
116,80,84239,1,0,1:2:0:0:
116,80,84330,1,8,0:0:0:0:
2,200,84511,1,8,0:0:0:0:
239,282,84691,2,0,L|299:256,2,45,0|0|4,1:2|1:2|1:2,0:0:0:0:
256,192,84962,12,0,90836,0:0:0:0:
