osu file format v14

[General]
AudioFilename: audio.mp3
AudioLeadIn: 0
PreviewTime: 61197
Countdown: 0
SampleSet: Soft
StackLeniency: 0.7
Mode: 0
LetterboxInBreaks: 0
WidescreenStoryboard: 1

[Editor]
Bookmarks: 13855,43674
DistanceSpacing: 1.2
BeatDivisor: 4
GridSize: 4
TimelineZoom: 1.4

[Metadata]
Title:Alicemagic (TV Size)
TitleUnicode:Alicemagic (TV Size)
Artist:Rita
ArtistUnicode:Rita
Creator:Kawasaki Sakura
Version:Hard
Source:リトルバスターズ!
Tags:molten125 -karupa- ~TV animation ver.~ version ed ending little busters! ex anime japanese jpop jrock j-rock j-pop
BeatmapID:4539739
BeatmapSetID:2154145

[Difficulty]
HPDrainRate:4
CircleSize:3.6
OverallDifficulty:7
ApproachRate:8
SliderMultiplier:1.4
SliderTickRate:1

[Events]
//Background and Video events
0,0,"little_busters_2_compressed.jpg",0,0
Video,500,"bustersvideo.avi"
//Break Periods
//Storyboard Layer 0 (Background)
//Storyboard Layer 1 (Fail)
//Storyboard Layer 2 (Pass)
//Storyboard Layer 3 (Foreground)
//Storyboard Layer 4 (Overlay)
//Storyboard Sound Samples

[TimingPoints]
-248,361.44578313253,4,2,1,70,1,0
1197,-100,4,2,1,80,0,0
14209,-100,4,2,1,70,0,0
61739,-100,4,2,1,85,0,1
83426,-133.333333333333,4,2,1,85,0,1
84511,-100,4,2,1,85,0,0
85053,-100,4,2,1,80,0,0
85776,-100,4,2,1,70,0,0
86498,-100,4,2,1,60,0,0
87221,-100,4,2,1,50,0,0
87944,-100,4,2,1,40,0,0
88667,-100,4,2,1,30,0,0
89390,-100,4,2,1,20,0,0
90113,-100,4,2,1,10,0,0
90836,-100,4,2,1,5,0,0

[Colours]
Combo1 : 250,194,5
Combo2 : 240,51,51
Combo3 : 210,79,221
Combo4 : 147,225,40

[HitObjects]
64,105,1197,6,0,L|146:129,1,70,8|8,0:0|0:0,0:0:0:0:
161,107,1468,1,8,0:0:0:0:
161,107,1559,2,0,L|205:93,1,35,0|0,1:2|1:2,0:0:0:0:
218,62,1739,2,0,L|364:92,1,140,8|8,0:0|0:0,0:0:0:0:
440,17,2282,1,12,0:0:0:0:
492,144,2462,5,0,1:2:0:0:
492,144,2553,1,0,1:2:0:0:
492,144,2643,2,0,P|514:206|478:291,1,140,6|8,1:2|0:0,0:0:0:0:
397,328,3185,1,2,0:0:0:0:
302,281,3366,2,0,P|287:243|284:198,1,70,0|0,1:2|1:2,0:0:0:0:
197,119,3727,2,0,P|191:153|178:185,1,70,10|0,0:0|0:0,0:0:0:0:
75,218,4089,6,0,P|19:203|16:131,1,140,0|8,1:2|0:0,0:0:0:0:
82,49,4631,1,2,1:2:0:0:
82,49,4721,1,2,1:2:0:0:
82,49,4812,2,0,L|164:64,1,70,2|0,1:2|1:2,0:0:0:0:
242,130,5173,2,0,L|331:112,1,70,10|0,0:0|0:0,0:0:0:0:
415,108,5535,6,0,L|433:29,2,70,2|0|8,1:2|0:0|0:0,0:0:0:0:
343,197,6077,2,0,L|358:265,2,70,2|0|0,0:0|1:2|1:2,0:0:0:0:
242,130,6619,2,0,L|148:117,1,70,10|0,0:0|0:0,0:0:0:0:
80,166,6980,5,0,1:2:0:0:
80,166,7161,1,2,1:2:0:0:
154,252,7342,1,8,0:0:0:0:
76,322,7523,2,0,L|68:360,2,35,2|2|2,1:2|1:2|1:2,0:0:0:0:
154,252,7884,1,0,1:2:0:0:
259,295,8065,2,0,P|315:290|343:275,1,70,10|0,0:0|0:0,0:0:0:0:
432,348,8426,6,0,P|448:303|423:206,1,140,6|8,1:2|0:0,0:0:0:0:
359,136,8968,2,0,P|297:127|233:183,1,140,2|0,0:0|1:2,0:0:0:0:
162,248,9511,2,0,L|174:317,1,70,10|0,0:0|0:0,0:0:0:0:
79,372,9872,5,0,1:2:0:0:
79,372,10053,1,2,1:2:0:0:
0,292,10233,2,0,L|11:211,1,70,8|2,0:0|1:2,0:0:0:0:
36,195,10505,1,2,1:2:0:0:
36,195,10595,2,0,L|120:174,1,70,2|0,1:2|1:2,0:0:0:0:
201,231,10956,1,10,0:0:0:0:
201,231,11137,1,0,0:0:0:0:
297,170,11318,6,0,P|309:122|295:26,1,140,6|8,1:2|0:0,0:0:0:0:
192,98,11860,2,0,P|121:82|97:80,1,70,2|0,0:0|1:2,0:0:0:0:
23,139,12221,1,0,1:2:0:0:
97,214,12402,1,10,0:0:0:0:
0,288,12583,1,6,1:2:0:0:
256,192,12673,12,8,13848,0:0:0:0:
410,335,14209,6,0,L|432:192,1,140,4|10,1:2|0:0,0:0:0:0:
317,80,14932,1,2,0:0:0:0:
317,80,15113,2,0,L|233:99,1,70,2|8,1:2|0:0,0:0:0:0:
191,157,15474,2,0,L|41:130,1,140,2|2,1:2|1:2,0:0:0:0:
21,210,16017,2,0,P|2:243|37:354,1,140,10|2,0:0|1:2,0:0:0:0:
101,364,16559,1,0,1:2:0:0:
101,364,16739,2,0,L|171:347,1,70,10|0,0:0|0:0,0:0:0:0:
237,297,17101,6,0,L|206:126,1,140,0|10,1:2|0:0,0:0:0:0:
316,27,17824,1,2,0:0:0:0:
316,27,18005,2,0,P|355:41|391:43,1,70,2|8,1:2|0:0,0:0:0:0:
463,17,18366,2,0,P|489:69|480:171,1,140,2|2,1:2|1:2,0:0:0:0:
423,202,18908,2,0,L|271:185,1,140,10|2,0:0|1:2,0:0:0:0:
206,152,19450,1,0,1:2:0:0:
206,152,19631,2,0,L|118:162,1,70,10|0,0:0|0:0,0:0:0:0:
66,104,19992,6,0,P|45:149|80:240,1,140,2|10,1:2|0:0,0:0:0:0:
130,291,20535,2,0,L|270:257,1,140,2|0,0:0|1:2,0:0:0:0:
320,193,21077,1,8,0:0:0:0:
320,193,21258,1,2,0:0:0:0:
402,205,21438,2,0,P|431:249|407:346,1,140,2|8,1:2|0:0,0:0:0:0:
339,361,21980,2,0,L|192:342,1,140,2|0,0:0|0:0,0:0:0:0:
128,298,22523,2,0,L|43:315,1,70,10|0,0:0|1:2,0:0:0:0:
26,284,22794,5,8,0:0:0:0:
26,284,22884,2,0,L|6:138,1,140,2|10,1:2|0:0,0:0:0:0:
57,78,23426,2,0,L|143:100,1,70,2|0,0:0|1:2,0:0:0:0:
193,144,23788,2,0,L|289:118,1,70,0|8,1:2|0:0,0:0:0:0:
364,67,24149,6,0,L|351:214,1,140,4|8,1:2|0:0,0:0:0:0:
274,285,24691,1,8,0:0:0:0:
178,251,24872,1,0,1:2:0:0:
178,251,24962,1,0,1:2:0:0:
178,251,25053,1,8,0:0:0:0:
130,157,25233,2,0,L|143:81,1,70,4|0,1:2|0:0,0:0:0:0:
241,23,25595,6,0,P|295:40|400:47,1,140,4|0,1:2|1:2,0:0:0:0:
457,75,26137,2,0,P|486:121|457:210,1,140,10|2,0:0|0:0,0:0:0:0:
412,264,26679,2,0,L|431:333,1,70,2|8,1:2|0:0,0:0:0:0:
354,367,27041,2,0,P|317:350|206:365,1,140,2|2,1:2|1:2,0:0:0:0:
144,321,27583,1,10,0:0:0:0:
234,179,27944,2,0,L|247:92,1,70,2|0,1:2|1:2,0:0:0:0:
170,68,28306,2,0,L|98:48,1,70,10|0,0:0|0:0,0:0:0:0:
30,92,28667,6,0,B|18:166|18:166|41:251,2,140,0|10|2,1:2|0:0|0:0,0:0:0:0:
102,49,29571,2,0,L|170:68,1,70,2|8,1:2|0:0,0:0:0:0:
236,120,29932,2,0,L|377:85,1,140,2|2,1:2|1:2,0:0:0:0:
454,103,30474,2,0,P|487:144|461:232,1,140,10|2,0:0|1:2,0:0:0:0:
400,270,31017,1,0,1:2:0:0:
400,270,31197,2,0,L|317:255,1,70,10|0,0:0|0:0,0:0:0:0:
263,206,31559,6,0,L|104:240,1,140,2|10,1:2|0:0,0:0:0:0:
63,291,32101,2,0,P|71:326|175:339,1,140,2|0,0:0|1:2,0:0:0:0:
227,299,32643,2,0,L|300:317,1,70,8|2,0:0|0:0,0:0:0:0:
363,365,33005,2,0,P|378:315|379:281,1,70,2|0,1:2|1:2,0:0:0:0:
334,232,33366,1,8,0:0:0:0:
334,232,33547,2,0,P|309:177|316:94,1,140,2|0,0:0|0:0,0:0:0:0:
372,44,34089,1,10,0:0:0:0:
456,86,34270,5,0,1:2:0:0:
456,86,34360,1,8,0:0:0:0:
456,86,34450,2,0,P|479:148|463:227,1,140,2|10,1:2|0:0,0:0:0:0:
414,285,34992,2,0,P|353:296|327:289,1,70,2|0,0:0|1:2,0:0:0:0:
266,265,35354,2,0,P|215:254|184:262,1,70,2|8,1:2|0:0,0:0:0:0:
124,298,35715,1,2,0:0:0:0:
41,230,35896,6,0,L|28:153,1,70,4|8,1:2|0:0,0:0:0:0:
76,82,36258,2,0,L|136:96,3,35,8|0|0|0,0:0|1:2|1:2|1:2,0:0:0:0:
142,116,36619,2,0,L|229:100,1,70,8|8,0:0|0:0,0:0:0:0:
243,76,36890,1,8,0:0:0:0:
243,76,36980,1,10,0:0:0:0:
327,123,37161,5,10,0:0:0:0:
327,123,37251,1,8,0:0:0:0:
327,123,37342,2,0,P|328:180|339:276,2,140,6|8|0,1:2|0:0|1:2,0:0:0:0:
375,55,38245,1,0,0:0:0:0:
375,55,38426,2,0,L|471:77,1,70,8|2,0:0|0:0,0:0:0:0:
504,129,38788,2,0,P|502:211|486:287,1,140,2|10,1:2|0:0,0:0:0:0:
414,302,39330,2,0,P|328:315|285:277,1,140,2|2,0:0|0:0,0:0:0:0:
216,243,39872,1,10,0:0:0:0:
216,243,40053,1,2,0:0:0:0:
134,263,40233,6,0,P|101:225|118:127,1,140,2|8,1:2|0:0,0:0:0:0:
234,29,40956,2,0,L|381:56,1,140,0|8,1:2|0:0,0:0:0:0:
450,24,41498,1,2,0:0:0:0:
510,97,41679,1,2,1:2:0:0:
510,97,41770,1,8,0:0:0:0:
510,97,41860,1,0,1:2:0:0:
453,159,42041,2,0,L|456:240,1,70,10|2,0:0|1:2,0:0:0:0:
427,260,42312,1,8,0:0:0:0:
427,260,42402,2,0,P|364:252|347:245,1,70,0|2,1:2|0:0,0:0:0:0:
298,190,42764,2,0,L|179:215,1,105,8|0,0:0|0:0,0:0:0:0:
170,178,43125,6,0,P|147:91|152:32,1,140,6|8,1:2|0:0,0:0:0:0:
69,16,43667,2,0,L|-1:40,1,70,2|0,0:0|1:2,0:0:0:0:
18,126,44029,1,0,0:0:0:0:
18,126,44209,2,0,L|32:199,1,70,10|0,0:0|0:0,0:0:0:0:
81,262,44571,2,0,B|156:269|123:303|211:314,1,140,0|8,1:2|0:0,0:0:0:0:
289,361,45113,1,0,1:2:0:0:
289,361,45203,1,8,0:0:0:0:
289,361,45294,2,0,L|368:347,1,70,2|0,1:2|0:0,0:0:0:0:
441,358,45655,2,0,L|465:280,1,70,10|0,0:0|0:0,0:0:0:0:
400,232,46017,6,0,L|374:77,1,140,2|8,1:2|0:0,0:0:0:0:
300,58,46559,2,0,P|256:49|225:47,1,70,2|0,0:0|1:2,0:0:0:0:
160,92,46920,1,0,0:0:0:0:
160,92,47101,2,0,P|142:145|140:176,1,70,10|0,0:0|0:0,0:0:0:0:
203,229,47462,1,0,1:2:0:0:
203,229,47553,1,8,0:0:0:0:
203,229,47643,1,0,1:2:0:0:
155,298,47824,1,8,0:0:0:0:
71,285,48005,2,0,L|64:331,2,35,8|8|2,0:0|0:0|1:2,0:0:0:0:
16,222,48366,2,0,P|6:178|27:85,1,140,14|0,0:0|0:0,0:0:0:0:
116,22,48908,6,0,P|189:46|267:51,1,140,6|8,1:2|0:0,0:0:0:0:
378,161,49631,2,0,P|354:234|349:312,1,140,0|8,1:2|0:0,0:0:0:0:
190,353,50354,2,0,P|135:337|146:262,1,140,2|10,1:2|0:0,0:0:0:0:
205,210,50896,1,2,1:2:0:0:
205,210,50986,1,8,0:0:0:0:
205,210,51077,2,0,L|198:119,1,70,0|2,1:2|0:0,0:0:0:0:
239,65,51438,2,0,L|322:39,1,70,10|0,0:0|0:0,0:0:0:0:
390,36,51800,6,0,P|392:126|412:192,1,140,2|8,1:2|0:0,0:0:0:0:
477,325,52523,2,0,P|400:316|317:326,1,140,0|8,1:2|0:0,0:0:0:0:
176,365,53245,1,2,1:2:0:0:
176,365,53336,1,8,0:0:0:0:
176,365,53426,1,0,1:2:0:0:
102,323,53607,1,10,0:0:0:0:
82,241,53788,2,0,L|35:254,2,35,2|8|0,1:2|0:0|1:2,0:0:0:0:
136,177,54149,2,0,L|146:96,1,70,2|8,1:2|0:0,0:0:0:0:
230,45,54511,6,0,P|282:42|331:122,1,140,6|2,1:2|1:2,0:0:0:0:
406,145,55053,2,0,L|385:304,1,140,10|0,0:0|1:2,0:0:0:0:
311,314,55595,1,0,0:0:0:0:
311,314,55776,2,0,L|235:304,1,70,8|0,0:0|0:0,0:0:0:0:
168,263,56137,2,0,L|146:184,1,70,0|0,1:2|0:0,0:0:0:0:
173,115,56498,2,0,P|127:102|87:112,1,70,10|0,0:0|1:2,0:0:0:0:
74,133,56770,1,8,0:0:0:0:
74,133,56860,1,2,1:2:0:0:
10,288,57221,2,0,L|21:365,1,70,10|0,0:0|0:0,0:0:0:0:
134,382,57583,6,0,L|276:351,1,140,6|8,1:2|0:0,0:0:0:0:
437,373,58306,2,0,L|456:296,1,70,2|0,1:2|0:0,0:0:0:0:
395,244,58667,2,0,L|378:170,1,70,8|0,0:0|0:0,0:0:0:0:
300,107,59029,6,0,P|223:91|155:81,1,140,2|8,1:2|0:0,0:0:0:0:
44,201,59751,1,0,1:2:0:0:
90,270,59932,2,0,P|124:233|109:140,1,140,8|0,0:0|1:2,0:0:0:0:
90,114,60384,1,0,1:2:0:0:
90,114,60474,2,0,L|82:40,1,70,8|8,0:0|3:0,0:0:0:0:
160,12,60836,2,0,L|238:36,1,70,4|8,3:0|0:0,0:0:0:0:
283,94,61197,1,0,1:2:0:0:
357,55,61378,1,2,1:2:0:0:
433,89,61559,1,10,0:0:0:0:
480,187,61739,6,0,P|487:240|441:326,1,140,6|2,1:2|1:2,0:0:0:0:
351,350,62282,2,0,L|272:317,1,70,8|2,0:0|1:2,0:0:0:0:
251,291,62553,1,8,0:0:0:0:
251,291,62643,2,0,L|157:315,1,70,0|0,1:2|0:0,0:0:0:0:
99,373,63005,1,10,0:0:0:0:
7,322,63185,6,0,P|-6:269|9:177,1,140,2|2,0:0|0:0,0:0:0:0:
97,133,63727,2,0,L|76:41,1,70,10|2,0:0|0:0,0:0:0:0:
169,5,64089,1,0,1:2:0:0:
248,74,64270,1,0,1:2:0:0:
344,33,64450,5,8,0:0:0:0:
344,33,64631,2,0,P|358:112|342:195,1,140,6|2,1:2|1:2,0:0:0:0:
262,229,65173,2,0,L|274:303,1,70,10|2,0:0|1:2,0:0:0:0:
308,337,65444,1,8,0:0:0:0:
308,337,65535,2,0,L|394:357,1,70,2|0,1:2|0:0,0:0:0:0:
479,333,65896,1,10,0:0:0:0:
506,231,66077,6,0,P|498:191|491:90,1,140,2|2,0:0|0:0,0:0:0:0:
404,32,66619,1,10,0:0:0:0:
404,32,66800,1,2,0:0:0:0:
323,98,66980,2,0,L|236:131,1,70,0|0,1:2|1:2,0:0:0:0:
158,85,67342,1,8,0:0:0:0:
80,156,67523,6,0,P|64:258|77:300,1,140,6|2,1:2|1:2,0:0:0:0:
154,358,68065,2,0,L|245:337,1,70,10|2,0:0|0:0,0:0:0:0:
324,365,68426,2,0,P|342:315|334:221,1,140,2|10,1:2|0:0,0:0:0:0:
377,132,68968,2,0,P|307:125|246:174,1,140,6|2,1:2|1:2,0:0:0:0:
184,244,69511,2,0,L|105:225,1,70,10|0,0:0|0:0,0:0:0:0:
25,173,69872,1,2,1:2:0:0:
19,67,70053,1,0,1:2:0:0:
105,7,70233,2,0,L|201:28,1,70,10|0,0:0|1:2,0:0:0:0:
218,59,70505,5,8,0:0:0:0:
218,59,70595,2,0,L|377:40,1,140,6|8,1:2|0:0,0:0:0:0:
445,99,71137,2,0,B|441:153|441:153|410:191|410:191|403:240,1,140,6|0,1:2|1:2,0:0:0:0:
461,316,71679,1,10,0:0:0:0:
334,342,71860,6,0,P|268:351|197:290,1,140,6|0,1:2|1:2,0:0:0:0:
124,250,72402,2,0,L|111:196,3,35,8|0|0|0,0:0|1:2|1:2|1:2,0:0:0:0:
145,172,72764,1,8,0:0:0:0:
244,202,72944,1,6,1:2:0:0:
298,111,73125,1,2,0:0:0:0:
421,166,73306,6,0,P|448:112|417:18,1,140,6|2,1:2|1:2,0:0:0:0:
328,19,73848,2,0,L|234:44,1,70,8|2,0:0|1:2,0:0:0:0:
223,75,74119,1,8,0:0:0:0:
223,75,74209,2,0,L|127:62,1,70,2|0,1:2|0:0,0:0:0:0:
51,37,74571,1,10,0:0:0:0:
17,136,74751,6,0,P|18:184|23:285,1,140,2|2,0:0|0:0,0:0:0:0:
85,360,75294,1,10,0:0:0:0:
184,328,75474,1,2,0:0:0:0:
282,364,75655,2,0,P|291:308|286:273,1,70,0|0,1:2|1:2,0:0:0:0:
210,224,76017,1,8,0:0:0:0:
274,141,76197,6,0,P|352:137|410:181,1,140,6|2,1:2|1:2,0:0:0:0:
456,259,76739,1,10,0:0:0:0:
396,345,76920,1,2,1:2:0:0:
396,345,77011,1,8,0:0:0:0:
396,345,77101,2,0,L|309:362,1,70,2|0,1:2|0:0,0:0:0:0:
237,302,77462,1,10,0:0:0:0:
133,320,77643,6,0,P|107:273|125:180,1,140,2|2,0:0|0:0,0:0:0:0:
52,108,78185,1,10,0:0:0:0:
122,30,78366,1,2,0:0:0:0:
217,74,78547,2,0,L|288:97,1,70,0|0,1:2|1:2,0:0:0:0:
378,49,78908,1,10,0:0:0:0:
437,152,79089,6,0,P|454:224|425:295,1,140,6|0,1:2|1:2,0:0:0:0:
343,339,79631,2,0,L|198:310,1,140,8|2,0:0|1:2,0:0:0:0:
104,338,80173,1,0,0:0:0:0:
45,250,80354,5,10,0:0:0:0:
45,250,80535,2,0,L|30:94,1,140,6|0,1:2|1:2,0:0:0:0:
115,47,81077,2,0,P|202:38|261:80,1,140,8|2,0:0|1:2,0:0:0:0:
305,148,81619,1,0,1:2:0:0:
235,227,81800,1,10,0:0:0:0:
235,227,81980,1,2,0:0:0:0:
344,294,82161,6,0,P|393:320|483:268,1,140,4|8,1:2|0:0,0:0:0:0:
501,192,82703,2,0,L|479:53,1,140,4|2,1:2|1:2,0:0:0:0:
380,15,83245,1,10,0:0:0:0:
301,118,83426,6,0,P|245:103|76:78,1,210.000008010865,6|0,1:2|1:2,0:0:0:0:
60,98,84239,1,0,1:2:0:0:
60,98,84330,1,8,0:0:0:0:
120,186,84511,1,8,0:0:0:0:
81,283,84691,2,0,L|70:333,2,35,0|0|4,1:2|1:2|1:2,0:0:0:0:
256,192,84962,12,0,90836,0:0:0:0:
