osu file format v14

[General]
AudioFilename: audio.mp3
AudioLeadIn: 0
PreviewTime: 58082
Countdown: 0
SampleSet: Normal
StackLeniency: 0.7
Mode: 0
LetterboxInBreaks: 0
WidescreenStoryboard: 0

[Editor]
DistanceSpacing: 1
BeatDivisor: 2
GridSize: 4
TimelineZoom: 1.3

[Metadata]
Title:Alea jacta est!
TitleUnicode:Alea jacta est!
Artist:Rita
ArtistUnicode:Rita
Creator:shionelove
Version:Normal
Source:カタハネ ―An' call Belle―
Tags:katahane 10miles 笛 yoshilove
BeatmapID:1521497
BeatmapSetID:720095

[Difficulty]
HPDrainRate:3
CircleSize:3
OverallDifficulty:4
ApproachRate:5
SliderMultiplier:1.2
SliderTickRate:2

[Events]
//Background and Video events
Video,0,"kthn_OP_x264.avi"
0,0,"katahane1.png",0,0
//Break Periods
//Storyboard Layer 0 (Background)
//Storyboard Layer 1 (Fail)
//Storyboard Layer 2 (Pass)
//Storyboard Layer 3 (Foreground)
//Storyboard Sound Samples

[TimingPoints]
359,379.746835443038,4,1,0,50,1,0
18586,-133.333333333333,4,1,0,50,0,0
20105,-100,4,1,0,50,0,0
21624,-111.111111111111,4,1,0,50,0,0
33776,-100,4,1,0,50,0,0
58080,-100,4,1,0,50,0,1
82384,-100,4,1,0,50,0,0
94536,-111.111111111111,4,1,0,50,0,0
96055,-100,4,1,0,50,0,0

[HitObjects]
256,112,359,6,0,L|376:112,4,120
136,112,2447,2,0,L|256:112,1,120
256,272,3396,6,0,L|136:272,4,120,0|0|0|0|2,0:0|0:0|0:0|0:0|0:0,0:0:0:0:
376,272,5295,1,2,0:0:0:0:
376,152,5675,1,2,0:0:0:0:
256,152,6055,1,2,0:0:0:0:
136,152,6434,6,0,L|136:16,1,120,4|8,0:0|0:0,0:0:0:0:
256,32,7194,2,0,L|396:32,1,120,0|8,0:0|0:0,0:0:0:0:
460,120,7953,2,0,P|412:168|348:200,3,120,0|8|0|8,0:0|0:0|0:0|0:0,0:0:0:0:
244,192,9472,6,0,L|244:316,1,120,0|8,0:0|0:0,0:0:0:0:
124,312,10232,2,0,L|124:188,1,120,0|8,0:0|0:0,0:0:0:0:
124,72,10991,1,2,0:0:0:0:
244,72,11371,1,10,0:0:0:0:
364,72,11751,1,2,0:0:0:0:
364,311,12510,6,0,L|232:311,1,120,4|8,0:0|0:0,0:0:0:0:
123,311,13270,2,0,L|29:217,1,120,0|8,0:3|0:0,0:3:0:0:
36,108,14029,2,0,L|156:108,3,120,0|8|0|8,0:0|0:0|0:0|0:0,0:0:0:0:
276,104,15548,6,0,P|344:108|408:144,1,120,0|8,0:0|0:0,0:0:0:0:
392,252,16308,2,0,P|337:275|277:277,1,120,0|8,0:0|0:0,0:0:0:0:
156,280,17067,5,2,0:0:0:0:
154,160,17447,1,2,0:0:0:0:
34,162,17827,1,2,0:0:0:0:
37,282,18207,1,2,0:0:0:0:
256,192,18586,12,0,20105,0:0:0:0:
432,80,21624,6,0,L|432:208,1,107.999996704102,4|0,0:0|0:0,0:0:0:0:
324,188,22384,2,0,L|324:60,1,107.999996704102
216,76,23143,5,0,0:0:0:0:
108,76,23523,1,0,0:0:0:0:
108,184,23903,2,0,L|224:184,1,107.999996704102
216,292,24662,6,0,L|84:292,4,107.999996704102
380,292,26751,2,0,P|444:240|468:152,1,161.999995056153
468,60,27700,5,0,0:0:0:0:
360,60,28080,1,0,0:0:0:0:
252,60,28460,2,0,L|136:60,1,107.999996704102
72,144,29219,6,0,L|188:144,1,107.999996704102
288,144,29979,1,0,0:0:0:0:
396,144,30359,1,0,0:0:0:0:
400,252,30738,6,0,L|272:252,3,107.999996704102
184,252,32257,5,2,0:0:0:0:
184,252,32637,1,2,0:0:0:0:
184,252,33017,1,2,0:0:0:0:
92,60,33776,6,0,L|224:60,1,120,4|8,0:0|0:0,0:0:0:0:
332,60,34536,2,0,L|464:60,2,120,0|8|0,0:0|0:0|0:0,0:0:0:0:
332,180,35675,1,8,0:0:0:0:
452,180,36055,2,0,P|432:248|384:288,1,120,0|8,0:0|0:0,0:0:0:0:
276,280,36814,6,0,L|156:280,2,120,0|8|0,0:0|0:0|0:0,0:0:0:0:
276,160,37953,2,2,L|216:160,1,60
56,160,38903,6,2,P|88:104|136:64,1,120
248,64,39662,1,2,0:0:0:0:
248,64,39852,2,0,L|388:64,3,120,0|8|0|8,0:0|0:0|0:0|0:0,0:0:0:0:
368,184,41371,6,0,P|360:248|328:304,1,120,0|8,0:0|0:0,0:0:0:0:
212,296,42131,2,0,P|184:242|178:183,1,120,0|8,0:0|0:0,0:0:0:0:
256,192,42890,12,0,44409,0:0:0:0:
256,192,45928,5,4,0:0:0:0:
120,72,46498,2,2,P|208:40|304:40,1,180
412,40,47447,1,0,0:0:0:0:
412,220,48017,6,0,P|346:281|265:318,1,180
148,348,48966,2,2,P|96:274|69:189,1,180
68,8,50105,2,0,L|68:72,2,60,2|2|0,0:0|0:0|0:0,0:0:0:0:
204,72,51055,6,0,L|384:72,1,180
384,192,52004,1,0,0:0:0:0:
256,316,52574,6,2,P|164:300|88:240,1,180
95,134,53523,2,2,P|167:82|256:68,2,180
256,192,55042,12,0,56561,0:0:0:0:
84,192,58080,5,4,0:0:0:0:
208,60,58650,2,2,P|300:40|392:68,1,180
381,181,59599,1,2,0:0:0:0:
381,301,59979,2,0,L|315:301,1,60,0|2,0:0|0:0,0:0:0:0:
200,300,60548,5,2,0:0:0:0:
200,300,60738,1,0,0:0:0:0:
200,300,60928,2,2,L|120:300,1,60
80,96,62257,6,0,P|140:80|200:96,1,120
256,96,62827,1,2,0:0:0:0:
256,96,63017,2,0,L|324:96,1,60,0|2,0:0|0:0,0:0:0:0:
432,252,64156,6,0,P|376:288|296:304,1,120,4|0,0:0|0:0,0:0:0:0:
264,304,64726,2,2,P|206:287|112:212,1,180
113,93,65675,5,0,0:0:0:0:
292,92,66245,2,0,P|384:108|488:156,1,180
460,260,67194,6,2,P|412:312|352:328,2,120
360,192,68333,2,0,L|240:192,1,120,0|2,0:0|0:0,0:0:0:0:
155,276,69093,5,2,0:0:0:0:
70,191,69472,1,2,0:0:0:0:
155,107,69852,1,2,0:0:0:0:
276,108,70232,6,0,P|368:108|472:108,1,180,4|0,0:0|0:0,0:0:0:0:
456,108,71181,1,2,0:0:0:0:
456,288,71751,1,2,0:0:0:0:
276,288,72321,1,2,0:0:0:0:
99,288,73270,6,2,P|80:196|96:96,2,180
220,288,74789,2,0,P|239:196|223:96,1,180
44,36,76308,6,2,L|232:36,1,180,6|2,0:0|0:0,0:0:0:0:
404,36,77447,1,0,0:0:0:0:
464,139,77827,1,0,0:0:0:0:
344,139,78207,1,2,0:0:0:0:
344,139,78396,1,2,0:0:0:0:
256,192,79346,12,4,82384,0:0:0:0:
256,288,83903,6,0,L|384:288,1,120,0|8,0:0|0:0,0:0:0:0:
376,168,84662,2,0,L|376:44,1,120,0|8,0:0|0:0,0:0:0:0:
256,48,85422,6,0,L|120:48,1,120,0|8,0:0|0:0,0:0:0:0:
16,48,86181,2,0,L|16:176,1,120,0|8,0:0|0:0,0:0:0:0:
16,288,86941,1,2,0:0:0:0:
136,288,87321,1,10,0:0:0:0:
255,288,87700,1,2,0:0:0:0:
424,192,88460,6,0,P|416:128|376:80,1,120,4|8,0:0|0:0,0:0:0:0:
264,84,89219,2,0,P|228:131|223:190,1,120,0|8,0:0|0:0,0:0:0:0:
224,312,89979,2,0,L|96:312,3,120,0|8|0|8,0:0|0:0|0:0|0:0,0:0:0:0:
104,191,91498,6,0,P|109:131|144:84,1,120,0|8,0:0|0:0,0:0:0:0:
248,20,92257,2,0,P|303:41|340:87,1,120,0|8,0:0|0:0,0:0:0:0:
340,207,93017,5,2,0:0:0:0:
339,325,93396,1,2,0:0:0:0:
219,325,93776,1,2,0:0:0:0:
220,206,94156,1,2,0:0:0:0:
220,96,94536,6,0,L|348:96,3,107.999996704102
256,192,96055,12,4,97574,0:0:0:0:
