osu file format v14

[General]
AudioFilename: audio.mp3
AudioLeadIn: 0
PreviewTime: 80427
Countdown: 0
SampleSet: Soft
StackLeniency: 0.3
Mode: 0
LetterboxInBreaks: 0
WidescreenStoryboard: 1

[Editor]
Bookmarks: 11967,34293,56618,81037,114525,136850,159176,183594,217082,250570
DistanceSpacing: 1
BeatDivisor: 8
GridSize: 4
TimelineZoom: 1.300001

[Metadata]
Title:Adenium
TitleUnicode:Adenium
Artist:Rita
ArtistUnicode:Rita
Creator:Irohas
Version:Mirage
Source:赫炎のインガノック
Tags:mugiwarasekai sekien no inganock what a beautiful people ライアーソフト liar-soft blueberry&yogurt pop jpop j-pop rock j-rock jrock op video game japanese opening
BeatmapID:3133247
BeatmapSetID:1532012

[Difficulty]
HPDrainRate:5
CircleSize:4.5
OverallDifficulty:5
ApproachRate:8.5
SliderMultiplier:3
SliderTickRate:1

[Events]
//Background and Video events
0,0,"84693636_p0.jpg",0,0
//Break Periods
//Storyboard Layer 0 (Background)
//Storyboard Layer 1 (Fail)
//Storyboard Layer 2 (Pass)
//Storyboard Layer 3 (Foreground)
//Storyboard Layer 4 (Overlay)
//Storyboard Sound Samples

[TimingPoints]
409,348.837209302326,4,2,2,30,1,0
409,-333.333333333333,4,2,2,30,0,0
805,697.674418604651,4,2,2,40,1,0
805,-117.647058823529,4,2,2,40,0,0
3595,-133.333333333333,4,2,2,40,0,0
3944,-117.647058823529,4,2,2,40,0,0
11967,-105.263157894737,4,2,1,60,0,0
19293,-94.3396226415094,4,2,1,60,0,0
19991,-105.263157894737,4,2,1,60,0,0
23653,-94.3396226415094,4,2,1,60,0,0
24177,-105.263157894737,4,2,1,60,0,0
34293,-133.333333333333,4,2,10,45,0,0
34642,-133.333333333333,4,2,2,45,0,0
45456,-125,4,2,2,45,0,0
56618,-105.263157894737,4,2,1,60,0,0
77898,-105.263157894737,4,2,10,35,0,0
78072,-105.263157894737,4,2,1,60,0,0
79293,-105.263157894737,4,2,1,70,0,0
79467,-105.263157894737,4,2,3,60,0,0
79642,-105.263157894737,4,2,3,50,0,0
79991,-105.263157894737,4,2,1,70,0,0
80165,-105.263157894737,4,2,2,70,0,0
80339,-64.5161290322581,4,2,1,80,0,0
80427,-64.5161290322581,4,2,1,5,0,0
80514,-64.5161290322581,4,2,1,80,0,0
80601,-64.5161290322581,4,2,1,5,0,0
80688,-133.333333333333,4,2,1,80,0,0
81037,348.837209302326,3,2,10,60,1,1
81037,-200,3,2,10,60,0,1
81211,-200,3,2,3,75,0,0
83653,-181.818181818182,3,2,3,75,0,0
84176,-200,3,2,3,75,0,0
87316,-200,3,2,3,55,0,0
87403,-200,3,2,3,75,0,0
87839,-181.818181818181,3,2,3,75,0,0
88362,-200,3,2,3,45,0,0
88449,-200,3,2,3,75,0,0
88711,-166.666666666667,3,2,3,75,0,0
88798,-166.666666666667,3,2,3,45,0,0
88885,-166.666666666667,3,2,3,75,0,0
88973,-166.666666666667,3,2,3,45,0,0
89060,-166.666666666667,3,2,3,75,0,0
89409,-200,3,2,3,55,0,0
89496,-200,3,2,3,75,0,0
93595,-181.818181818182,3,2,3,75,0,0
95339,-200,3,2,3,75,0,0
95688,-181.818181818181,3,2,3,55,0,0
95775,-181.818181818181,3,2,3,75,0,0
96734,-181.818181818181,3,2,3,45,0,0
96821,-166.666666666667,3,2,3,75,0,0
97083,-133.333333333333,3,2,3,75,0,0
97170,-133.333333333333,3,2,3,45,0,0
97257,-133.333333333333,3,2,3,75,0,0
97345,-66.6666666666667,3,2,3,45,0,0
97432,-285.714285714286,3,2,3,75,0,0
97693,-500.000000000003,3,2,3,5,0,0
97781,-200,3,2,10,70,0,1
97955,-200,3,2,3,75,0,0
104060,-200,3,2,3,55,0,0
104147,-200,3,2,3,75,0,0
105106,-200,3,2,3,45,0,0
105193,-200,3,2,3,75,0,0
106153,-200,3,2,3,55,0,0
106240,-200,3,2,3,75,0,0
108246,-181.818181818181,3,2,3,75,0,0
108769,-200,3,2,3,75,0,0
112432,-200,3,2,3,55,0,0
112519,-200,3,2,3,75,0,0
114525,697.674418604651,4,2,10,50,1,0
114525,-133.333333333333,4,2,10,50,0,0
114699,-133.333333333333,4,2,2,50,0,0
125687,-125,4,2,1,50,0,0
135280,-125,4,2,2,50,0,0
136850,-133.333333333333,4,2,10,50,0,0
137025,-133.333333333333,4,2,2,50,0,0
137548,-153.846153846153,4,2,2,50,0,0
141908,-153.846153846153,4,2,2,30,0,0
142257,-153.846153846153,4,2,2,50,0,0
142431,-133.333333333333,4,2,2,50,0,0
143129,-153.846153846153,4,2,0,30,0,0
143478,-153.846153846153,4,2,2,50,0,0
146094,-153.846153846153,4,2,0,50,0,0
146269,-666.666666666667,4,2,0,30,0,0
146618,-666.666666666667,4,2,0,20,0,0
147490,-666.666666666667,4,2,2,30,0,0
148013,-133.333333333333,4,2,2,50,0,0
149408,-200,4,2,2,50,0,0
150106,-133.333333333333,4,2,2,50,0,0
152548,-200,4,2,2,50,0,0
153594,-133.333333333333,4,2,2,50,0,0
155687,-200,4,2,2,50,0,0
156385,-133.333333333333,4,2,2,50,0,0
159176,-105.263157894737,4,2,1,60,0,0
180455,-105.263157894737,4,2,10,35,0,0
180629,-105.263157894737,4,2,1,60,0,0
181850,-105.263157894737,4,2,1,70,0,0
182025,-105.263157894737,4,2,3,60,0,0
182199,-105.263157894737,4,2,3,50,0,0
182548,-105.263157894737,4,2,1,70,0,0
182722,-105.263157894737,4,2,2,70,0,0
182897,-66.6666666666667,4,2,3,70,0,0
182984,-66.6666666666667,4,2,3,5,0,0
183071,-66.6666666666667,4,2,3,70,0,0
183158,-66.6666666666667,4,2,3,5,0,0
183245,-66.6666666666667,4,2,3,70,0,0
183594,348.837209302326,3,2,10,60,1,1
183594,-181.818181818181,3,2,10,60,0,1
183768,-200,3,2,3,75,0,0
185338,-181.818181818181,3,2,3,75,0,0
185687,-200,3,2,3,75,0,0
187082,-181.818181818181,3,2,3,75,0,0
187431,-200,3,2,3,75,0,0
187780,-161.290322580645,3,2,3,75,0,0
188128,-200,3,2,3,75,0,0
189873,-200,3,2,3,55,0,0
189960,-200,3,2,3,75,0,0
190919,-200,3,2,3,45,0,0
191006,-200,3,2,3,75,0,0
191268,-200,3,2,3,75,0,0
191617,-133.333333333333,3,2,3,75,0,0
191966,-200,3,2,3,55,0,0
192053,-200,3,2,3,75,0,0
197198,-181.818181818181,3,2,3,75,0,0
197896,-181.818181818181,3,2,3,75,0,0
198245,-181.818181818181,3,2,3,55,0,0
198332,-181.818181818181,3,2,3,75,0,0
199291,-181.818181818181,3,2,3,45,0,0
199378,-181.818181818181,3,2,3,75,0,0
199989,-133.333333333333,3,2,3,75,0,0
200076,-133.333333333333,3,2,3,45,0,0
200163,-133.333333333333,3,2,3,75,0,0
200250,-133.333333333333,3,2,3,45,0,0
200338,-200,3,2,10,70,0,1
200512,-181.818181818181,3,2,3,75,0,0
201384,-200,3,2,3,75,0,0
206617,-200,3,2,3,55,0,0
206704,-200,3,2,3,75,0,0
207663,-181.818181818181,3,2,3,45,0,0
207750,-181.818181818181,3,2,3,75,0,0
208361,-133.333333333333,3,2,3,75,0,0
208710,-200,3,2,3,55,0,0
208797,-200,3,2,3,75,0,0
209233,-200,3,2,3,75,0,0
211326,-181.818181818181,3,2,3,75,0,0
211849,-200,3,2,3,75,0,0
213942,-200,3,2,3,75,0,0
214989,-181.818181818181,3,2,3,55,0,0
215076,-181.818181818181,3,2,3,75,0,0
215687,-200,3,2,3,75,0,0
216559,-200,3,2,1,75,0,0
216733,-200,3,2,3,75,0,0
216907,-200,3,2,2,75,0,0
217082,-200,3,2,10,60,0,1
217256,-200,3,2,3,75,0,0
221268,-181.818181818181,3,2,3,75,0,0
221617,-200,3,2,3,75,0,0
225105,-285.714285714284,3,2,3,75,0,0
225454,-200,3,2,3,55,0,0
225541,-200,3,2,3,75,0,0
225977,-181.818181818181,3,2,3,75,0,0
226500,-200,3,2,3,75,0,0
231733,-200,3,2,3,55,0,0
231820,-200,3,2,3,75,0,0
232082,-133.333333333333,3,2,3,75,0,0
232169,-133.333333333333,3,2,3,45,0,0
232256,-133.333333333333,3,2,3,75,0,0
232344,-133.333333333333,3,2,3,45,0,0
232431,-133.333333333333,3,2,3,75,0,0
232780,-133.333333333333,3,2,3,45,0,0
232867,-133.333333333333,3,2,3,75,0,0
233303,-111.111111111111,3,2,3,75,0,0
233390,-111.111111111111,3,2,3,45,0,0
233477,-111.111111111111,3,2,3,75,0,0
233564,-111.111111111111,3,2,3,45,0,0
233826,-181.818181818182,3,2,10,70,0,1
234000,-166.666666666667,3,2,3,75,0,0
234873,-200,3,2,3,75,0,0
240105,-200,3,2,3,55,0,0
240192,-200,3,2,3,75,0,0
241152,-200,3,2,3,45,0,0
241239,-200,3,2,3,75,0,0
241675,-133.333333333333,3,2,3,75,0,0
242198,-181.818181818181,3,2,3,55,0,0
242285,-181.818181818181,3,2,3,75,0,0
242547,-200,3,2,3,75,0,0
246907,-181.818181818181,3,2,3,75,0,0
247431,-200,3,2,3,75,0,0
248477,-200,3,2,3,45,0,0
248564,-200,3,2,3,75,0,0
250309,-333.333333333333,3,2,1,75,0,0
250570,697.674418604651,3,2,3,75,1,0
250570,-277.777777777778,3,2,3,75,0,0
251267,-277.777777777778,3,2,3,65,0,0
252663,-277.777777777778,3,2,3,55,0,0
253360,-277.777777777778,3,2,3,40,0,0
254058,-277.777777777778,3,2,3,30,0,0
254756,-277.777777777778,3,2,3,15,0,0
255453,-277.777777777778,3,2,3,10,0,0
255802,-277.777777777778,3,2,3,5,0,0

[Colours]
Combo1 : 255,194,166
Combo2 : 252,231,205
Combo3 : 245,203,204
Combo4 : 203,227,228
Combo5 : 234,235,205
Combo6 : 225,237,120
Combo7 : 159,175,249

[HitObjects]
0,120,409,6,0,L|6:148,3,19.9999993896485,2|2|2|2,0:0|0:0|0:0|0:0,0:0:0:0:
76,242,805,53,0,3:0:0:0:
73,236,848,2,0,L|78:205,2,31.8750006079674,0|2|2,0:0|0:1|0:1,0:0:0:0:
13,297,1153,38,0,L|78:284,1,63.7500012159348,10|0,0:1|3:0,0:0:0:0:
218,354,1502,2,0,P|187:344|150:345,1,63.7500012159348,8|10,0:0|0:1,0:0:0:0:
70,384,1851,1,0,3:0:0:0:
252,245,2025,6,0,L|384:223,1,127.50000243187,8|8,0:0|0:0,0:0:0:0:
458,281,2549,2,0,L|445:346,1,63.7500012159348,0|0,3:0|3:0,0:0:0:0:
512,179,2898,2,0,P|506:162|500:111,1,64,8|0,0:0|0:0,0:0:0:0:
465,27,3246,5,8,3:1:0:0:
330,123,3421,1,10,0:1:0:0:
261,51,3595,22,0,L|271:1,2,42.1875016093255,0|2|2,3:0|0:1|0:1,0:0:0:0:
195,113,3944,38,0,L|127:128,1,64,10|0,0:1|0:0,0:0:0:0:
42,49,4293,2,0,P|35:80|29:111,1,64,8|0,0:0|0:0,0:0:0:0:
129,264,4642,6,0,P|153:223|134:143,1,128,8|0,0:1|0:0,0:0:0:0:
26,223,5165,2,0,P|32:254|39:291,1,64,8|0,0:1|0:0,0:0:0:0:
184,384,5514,2,0,P|190:352|196:321,1,64,8|0,0:0|0:0,0:0:0:0:
76,384,5863,5,8,0:0:0:0:
303,305,6037,1,10,0:0:0:0:
378,367,6211,1,10,0:0:0:0:
449,315,6386,6,0,P|458:264|473:178,1,128,0|0,3:0|0:0,0:0:0:0:
403,120,6909,2,0,L|333:132,1,64,0|8,3:0|0:0,0:0:0:0:
203,23,7258,2,0,L|273:11,1,64,10|0,0:1|0:0,0:0:0:0:
254,98,7607,54,0,P|203:74|134:86,1,128,8|0,0:0|0:0,0:0:0:0:
68,153,8130,1,0,3:0:0:0:
139,208,8305,5,0,3:0:0:0:
8,344,8479,1,8,0:0:0:0:
67,270,8653,5,8,3:1:0:0:
64,258,8828,1,0,3:1:0:0:
114,384,9002,1,10,0:1:0:0:
60,246,9177,6,0,L|79:112,1,127.50000243187,0|10,3:0|0:1,0:0:0:0:
63,21,9700,2,0,L|-1:33,1,64,0|8,3:0|0:0,0:0:0:0:
162,111,10049,2,0,P|195:101|226:99,1,64,10|0,0:1|0:0,0:0:0:0:
306,35,10398,1,8,0:0:0:0:
354,116,10572,54,0,L|342:187,1,64,0|0,3:0|0:0,0:0:0:0:
444,298,10921,1,0,3:1:0:0:
281,241,11095,6,0,L|410:217,1,128,0|0,3:0|0:0,0:0:0:0:
292,369,11618,1,10,0:1:0:0:
205,312,11793,1,2,0:1:0:0:
109,368,11967,6,0,P|88:329|119:229,1,142.49999619484,4|2,0:3|1:1,0:0:0:0:
201,175,12491,1,2,0:1:0:0:
112,122,12665,2,0,P|68:130|26:138,1,71.2499980974198,8|2,0:0|0:1,0:0:0:0:
324,26,13014,1,2,3:1:0:0:
238,0,13188,6,0,L|225:81,1,71.9999978027344,10|0,0:1|0:0,0:0:0:0:
340,230,13537,2,0,L|352:153,1,71.2499980974198,2|8,0:1|0:3,0:0:0:0:
223,256,13886,1,8,0:3:0:0:
362,360,14060,53,8,0:0:0:0:
448,313,14235,1,2,0:1:0:0:
237,384,14409,5,8,0:3:0:0:
105,248,14584,1,8,0:3:0:0:
33,349,14758,6,0,P|77:341|173:325,1,142.49999619484,0|2,3:0|0:0,0:0:0:0:
340,230,15281,1,8,0:3:0:0:
237,141,15456,2,0,P|245:187|251:224,1,71.2499980974198,8|2,0:0|0:1,0:0:0:0:
349,109,15805,1,2,3:2:0:0:
220,5,15979,1,10,0:1:0:0:
442,72,16153,6,0,L|416:215,1,142.49999619484,0|8,3:0|0:3,0:0:0:0:
485,285,16677,1,8,0:3:0:0:
368,373,16851,53,8,0:0:0:0:
318,297,17025,1,2,0:1:0:0:
220,329,17200,5,8,0:3:0:0:
170,236,17374,1,8,0:3:0:0:
235,148,17549,5,0,3:0:0:0:
299,207,17723,1,2,0:1:0:0:
106,314,17898,6,0,L|30:303,1,71.2499980974198,2|8,3:2|0:3,0:0:0:0:
255,234,18246,2,0,L|326:244,1,71.9999978027344,8|0,0:0|0:0,0:0:0:0:
422,202,18595,54,0,B|445:168|445:168|418:62,1,142.49999619484,2|0,0:0|3:0,0:0:0:0:
345,5,19118,1,2,0:1:0:0:
260,63,19293,6,0,B|189:39|171:96|94:76,1,159.000000242615,8|8,0:3|0:0,0:0:0:0:
0,4,19816,5,2,0:1:0:0:
8,12,19991,2,0,L|87:0,1,71.2499980974198,8|8,0:3|0:3,0:0:0:0:
92,158,20339,2,0,L|16:170,1,71.9999978027344,0|0,3:0|0:0,0:0:0:0:
171,67,20688,1,2,0:0:0:0:
223,150,20863,6,0,L|201:296,1,142.49999619484,8|2,0:3|0:1,0:0:0:0:
379,372,21386,1,2,0:0:0:0:
298,244,21560,1,10,0:1:0:0:
139,373,21735,54,0,P|180:343|279:351,1,142.49999619484,8|8,0:3|0:3,0:0:0:0:
452,198,22258,1,8,0:3:0:0:
472,290,22432,2,0,L|395:281,1,71.9999978027344,8|0,0:0|0:0,0:0:0:0:
315,180,22781,1,2,0:0:0:0:
417,94,22956,1,8,0:3:0:0:
297,39,23130,6,0,L|317:192,1,142.49999619484,4|2,0:0|0:1,0:0:0:0:
241,263,23653,1,8,0:3:0:0:
241,263,23741,1,0,1:0:0:0:
241,263,23828,6,4,B|170:239|152:296|76:277,1,159.000000242615,8|0,0:0|3:0,0:0:0:0:
161,167,24351,1,10,0:1:0:0:
327,352,24525,2,0,P|265:383|185:368,1,142.49999619484,2|8,0:0|0:3,0:0:0:0:
401,245,25049,1,8,0:3:0:0:
455,384,25223,6,0,P|464:343|474:301,1,71.9999978027344,8|0,0:0|0:0,0:0:0:0:
311,251,25572,2,0,P|304:209|296:164,1,71.2499980974198,8|8,0:3|0:3,0:0:0:0:
436,48,25921,54,0,L|420:127,1,71.2499980974198,0|2,3:0|0:1,0:0:0:0:
503,228,26270,6,0,B|519:193|519:193|512:152,1,71.2499980974198,2|8,0:0|0:3,0:0:0:0:
323,30,26618,2,0,B|308:65|308:65|315:105,1,71.2499980974198,8|8,0:0|0:3,0:0:0:0:
238,171,26967,5,2,0:0:0:0:
409,78,27142,1,10,0:1:0:0:
322,30,27316,5,0,3:0:0:0:
238,62,27491,1,10,0:1:0:0:
122,130,27665,53,8,0:3:0:0:
8,70,27839,1,8,0:3:0:0:
111,15,28014,5,8,0:0:0:0:
201,218,28188,1,2,0:1:0:0:
200,229,28275,1,0,1:0:0:0:
198,240,28363,1,8,0:3:0:0:
289,311,28537,1,8,0:3:0:0:
180,366,28711,6,0,B|130:349|130:349|86:379|38:367,2,142.49999619484,4|2|8,0:3|0:1|0:0,0:0:0:0:
368,198,29584,1,8,0:3:0:0:
448,284,29758,2,0,P|399:291|290:308,1,142.49999619484,2|0,0:0|3:0,0:0:0:0:
289,311,30281,5,10,0:1:0:0:
134,220,30456,1,8,0:3:0:0:
271,154,30630,1,8,0:3:0:0:
232,244,30805,54,0,L|150:261,1,71.2499980974198,8|2,0:0|0:1,0:0:0:0:
0,166,31153,2,0,L|75:149,1,71.2499980974198,12|8,0:3|0:3,0:0:0:0:
132,371,31502,6,0,P|77:341|0:354,2,142.49999619484,2|6|8,0:0|0:0|0:0,0:0:0:0:
338,242,32374,1,8,0:3:0:0:
246,173,32549,2,0,L|231:252,1,71.2499980974198,0|10,3:0|0:1,0:0:0:0:
319,372,32898,1,8,0:1:0:0:
412,312,33072,5,8,0:3:0:0:
409,298,33246,1,0,3:0:0:0:
503,137,33421,1,10,0:1:0:0:
486,244,33595,5,8,0:3:0:0:
481,233,33770,1,10,0:1:0:0:
413,161,33944,53,8,0:1:0:0:
512,30,34118,5,10,0:1:0:0:
438,0,34293,6,0,L|321:20,2,112.500004291535,4|2|0,0:0|0:0|1:0,0:0:0:0:
301,209,35339,2,0,P|309:238|314:271,1,56.2500021457673,0|2,0:0|0:0,0:0:0:0:
392,384,35688,2,0,P|396:356|405:323,1,56.2500021457673,2|2,0:0|0:1,0:0:0:0:
289,354,36037,2,0,L|168:373,1,112.500004291535,8|0,0:3|1:0,0:0:0:0:
38,277,36735,5,2,0:0:0:0:
108,220,36909,1,2,0:0:0:0:
36,165,37084,54,0,P|9:207|23:274,1,112.500004291535,0|8,3:0|0:3,0:0:0:0:
190,375,37781,2,0,P|214:331|195:265,1,112.500004291535,0|2,1:0|0:0,0:0:0:0:
262,205,38305,6,0,L|382:218,1,112.500004291535,2|2,0:0|0:1,0:0:0:0:
440,147,38828,2,0,P|432:127|426:90,1,56.2500021457673,8|0,0:3|0:0,0:0:0:0:
506,211,39177,2,0,L|485:333,1,112.500004291535,0|2,1:0|0:0,0:0:0:0:
441,381,39700,1,8,0:3:0:0:
354,316,39874,6,0,L|291:327,1,56.2500021457673,0|2,3:0|0:0,0:0:0:0:
208,360,40223,2,0,P|179:354|152:350,1,56.2500021457673,8|0,0:3|0:0,0:0:0:0:
63,288,40572,2,0,P|40:308|43:388,1,112.500004291535,0|2,1:0|0:0,0:0:0:0:
161,260,41095,5,2,0:0:0:0:
104,116,41444,53,2,0:1:0:0:
92,171,41618,2,0,L|106:108,1,56.2500021457673,8|0,0:3|0:0,0:0:0:0:
0,0,41967,2,0,L|20:120,1,112.500004291535,0|2,1:0|0:0,0:0:0:0:
132,29,42491,5,2,0:1:0:0:
140,34,42665,2,0,L|198:25,1,56.2500021457673,0|0,3:0|0:0,0:0:0:0:
319,66,43014,2,0,L|261:75,1,56.2500021457673,8|8,0:3|0:3,0:0:0:0:
384,0,43363,5,0,1:0:0:0:
447,195,43711,1,8,0:3:0:0:
472,120,43886,5,2,0:0:0:0:
267,322,44235,1,2,0:1:0:0:
335,377,44409,1,8,0:3:0:0:
418,354,44584,1,2,0:0:0:0:
195,368,44758,54,0,L|80:385,1,112.500004291535,0|8,1:0|0:3,0:0:0:0:
11,333,45281,1,2,0:0:0:0:
84,263,45456,6,0,P|88:235|96:205,1,60,0|8,3:0|0:1,0:0:0:0:
14,82,45804,2,0,L|24:141,1,60,10|8,0:3|0:1,0:0:0:0:
126,102,46153,6,0,L|247:83,1,120,0|2,1:0|0:3,0:0:0:0:
315,21,46677,1,2,0:0:0:0:
370,121,46851,6,0,P|362:149|357:179,1,60,2|8,0:3|0:1,0:0:0:0:
428,248,47200,2,0,L|495:236,1,60,2|8,0:3|0:1,0:0:0:0:
336,302,47549,2,0,L|268:291,1,60,0|0,1:0|0:0,0:0:0:0:
213,225,47898,1,2,0:3:0:0:
112,297,48072,1,8,0:1:0:0:
40,245,48246,54,0,P|12:279|21:361,1,120,2|2,0:3|0:3,0:0:0:0:
122,204,48770,1,8,0:1:0:0:
124,196,48944,2,0,P|117:159|111:126,1,60,0|2,1:0|0:0,0:0:0:0:
271,67,49293,1,2,0:3:0:0:
224,0,49467,6,0,L|204:122,1,120,0|2,3:0|0:0,0:0:0:0:
295,186,49991,2,0,P|344:160|408:171,1,120,2|2,0:3|1:3,0:0:0:0:
471,123,50514,1,8,0:1:0:0:
512,245,50688,2,0,P|504:274|498:303,1,60,2|8,0:3|0:1,0:0:0:0:
426,384,51037,6,0,P|418:355|413:319,1,60,0|8,3:0|0:1,0:0:0:0:
270,235,51386,2,0,P|263:268|256:293,1,60,2|8,0:3|0:1,0:0:0:0:
326,326,51735,2,0,L|196:348,1,120,0|2,1:0|0:3,0:0:0:0:
137,384,52258,1,8,0:3:0:0:
68,312,52432,6,0,P|75:280|82:246,1,60,2|8,0:3|0:1,0:0:0:0:
149,175,52781,2,0,P|142:143|134:108,1,60,2|8,0:3|0:1,0:0:0:0:
62,35,53130,54,0,P|30:66|39:142,1,120,0|2,1:0|0:3,0:0:0:0:
216,225,53653,1,0,3:0:0:0:
225,230,53828,2,0,L|295:220,1,60,2|8,0:3|0:1,0:0:0:0:
364,280,54177,6,0,P|356:314|349:352,1,60,2|8,0:3|0:1,0:0:0:0:
272,135,54525,2,0,P|280:101|288:69,1,60,0|8,1:0|0:1,0:0:0:0:
352,26,54874,1,2,0:3:0:0:
240,4,55049,5,8,0:0:0:0:
231,6,55136,1,8,0:0:0:0:
223,8,55223,1,8,0:0:0:0:
72,112,55398,1,4,1:0:0:0:
127,42,55572,1,2,0:3:0:0:
21,2,55746,69,8,0:0:0:0:
120,211,55921,1,8,0:0:0:0:
129,217,56618,6,0,L|281:195,1,142.49999619484,4|2,0:0|0:3,0:0:0:0:
356,124,57142,1,0,3:0:0:0:
407,204,57316,2,0,P|399:244|391:285,1,71.9999978027344,8|0,0:0|0:0,0:0:0:0:
356,124,57665,1,2,0:3:0:0:
507,0,57839,5,8,0:1:0:0:
421,57,58014,2,0,P|348:74|286:36,1,142.49999619484,2|8,0:0|0:3,0:0:0:0:
179,98,58537,1,8,0:3:0:0:
109,28,58711,2,0,P|141:15|185:13,1,71.9999978027344,8|0,0:0|0:0,0:0:0:0:
273,129,59060,1,8,0:3:0:0:
171,213,59235,1,8,0:3:0:0:
228,281,59409,6,0,L|214:360,1,71.9999978027344,0|0,3:0|0:0,0:0:0:0:
98,287,59758,2,0,L|16:305,1,71.2499980974198,2|0,0:3|3:0,0:0:0:0:
44,196,60107,53,8,0:0:0:0:
215,351,60281,2,0,L|361:329,1,142.49999619484,2|8,0:0|0:1,0:0:0:0:
414,268,60805,1,0,3:0:0:0:
507,348,60979,6,0,P|525:322|505:218,1,142.49999619484,8|8,0:1|0:3,0:0:0:0:
402,176,61502,1,8,0:0:0:0:
512,70,61677,1,0,3:0:0:0:
354,14,61851,5,8,0:3:0:0:
418,79,62025,1,8,0:3:0:0:
307,255,62200,6,0,P|315:217|325:176,1,71.2499980974198,4|0,0:0|0:0,0:0:0:0:
211,0,62549,2,0,P|203:34|192:83,1,71.2499980974198,2|0,3:1|3:0,0:0:0:0:
11,246,62898,2,0,P|42:232|83:231,1,71.2499980974198,8|2,0:0|0:0,0:0:0:0:
246,141,63246,70,0,P|174:156|112:116,1,142.49999619484,2|0,0:3|3:0,0:0:0:0:
80,51,63770,1,2,0:0:0:0:
0,162,63944,5,8,0:3:0:0:
104,233,64118,1,8,0:3:0:0:
0,324,64293,6,0,L|83:308,1,71.2499980974198,8|0,0:0|0:0,0:0:0:0:
222,167,64642,2,0,P|210:197|207:244,1,71.2499980974198,8|8,0:3|0:3,0:0:0:0:
263,306,64991,2,0,P|324:320|397:284,1,142.49999619484,0|2,3:0|3:0,0:0:0:0:
357,209,65514,1,2,3:1:0:0:
512,172,65688,54,0,L|429:156,1,71.2499980974198,8|0,0:0|0:0,0:0:0:0:
357,209,66037,1,2,3:0:0:0:
512,319,66211,1,8,0:1:0:0:
401,383,66386,6,0,P|392:355|400:312,1,71.2499980974198,2|8,3:1|1:1,0:0:0:0:
450,254,66648,1,0,1:0:0:0:
443,252,66735,2,0,L|367:267,1,71.2499980974198,8|8,0:3|0:3,0:0:0:0:
163,194,67084,6,0,L|237:180,1,71.2499980974198,8|0,0:1|1:0,0:0:0:0:
311,118,67345,1,0,1:0:0:0:
317,123,67432,2,0,B|332:147|332:147|324:193,1,71.9999978027344,8|8,0:3|0:1,0:0:0:0:
172,298,67781,6,0,B|128:285|128:285|81:319|38:307,1,142.49999619484,4|2,0:0|0:3,0:0:0:0:
63,219,68305,1,0,3:0:0:0:
260,362,68479,2,0,L|407:339,1,142.49999619484,8|2,0:0|0:3,0:0:0:0:
466,218,69002,1,8,0:1:0:0:
369,187,69177,54,0,P|353:223|352:256,1,71.2499980974198,2|0,0:0|3:0,0:0:0:0:
503,381,69525,2,0,P|515:343|512:308,1,71.2499980974198,8|8,0:3|0:3,0:0:0:0:
349,64,69874,1,8,0:0:0:0:
459,187,70049,5,2,0:0:0:0:
505,110,70223,1,8,0:3:0:0:
476,23,70398,1,8,0:3:0:0:
298,145,70572,6,0,P|204:110|164:124,1,142.49999619484,0|2,3:0|0:3,0:0:0:0:
98,0,71095,1,0,3:0:0:0:
0,95,71270,2,0,L|72:84,1,71.2499980974198,8|0,0:0|1:0,0:0:0:0:
167,199,71618,1,2,0:3:0:0:
118,267,71793,6,0,P|125:305|132:345,1,71.2499980974198,8|0,0:1|3:0,0:0:0:0:
313,199,72142,2,0,P|306:236|300:281,1,71.2499980974198,8|8,0:1|0:3,0:0:0:0:
353,345,72491,53,8,0:3:0:0:
508,160,72665,1,8,0:0:0:0:
389,213,72839,1,0,3:0:0:0:
490,379,73014,5,8,0:3:0:0:
460,264,73188,1,8,0:3:0:0:
429,139,73363,86,0,B|422:89|467:63|451:-2,2,142.49999619484,4|2|8,0:0|3:1|0:0,0:0:0:0:
312,247,74235,1,2,0:0:0:0:
249,178,74409,2,0,P|258:150|263:101,1,71.9999978027344,2|0,0:3|0:0,0:0:0:0:
170,248,74758,6,0,P|129:256|87:265,1,71.2499980974198,0|2,3:0|0:0,0:0:0:0:
0,199,75107,2,0,P|29:184|128:221,1,142.49999619484,8|8,0:3|0:0,0:0:0:0:
228,384,75630,1,0,0:0:0:0:
298,343,75805,2,0,L|309:272,1,71.2499980974198,8|8,0:3|0:0,0:0:0:0:
392,188,76153,6,0,L|369:37,1,142.49999619484,0|2,3:0|3:0,0:0:0:0:
491,135,76677,1,2,0:1:0:0:
304,264,76851,2,0,P|294:230|302:190,1,71.2499980974198,8|8,0:0|0:3,0:0:0:0:
420,304,77200,1,2,3:0:0:0:
243,374,77374,1,8,1:1:0:0:
236,362,77461,1,8,1:0:0:0:
235,349,77549,1,8,3:1:0:0:
168,275,77723,5,2,0:0:0:0:
368,376,77898,1,4,0:0:0:0:
93,324,78072,53,8,0:1:0:0:
341,223,78246,1,4,0:0:0:0:
218,104,78421,5,2,0:0:0:0:
201,128,78508,1,2,0:0:0:0:
202,137,78595,1,4,0:0:0:0:
236,238,78770,5,2,0:0:0:0:
289,24,78944,1,4,0:0:0:0:
473,233,79293,37,8,0:0:0:0:
323,152,79467,1,8,0:1:0:0:
323,152,79642,1,2,0:3:0:0:
460,81,79816,5,0,3:0:0:0:
418,164,79991,1,8,0:3:0:0:
418,164,80165,1,2,0:1:0:0:
322,242,80339,86,0,L|252:233,1,58.1250004434586,8|0,0:3|0:0,0:0:0:0:
163,178,80514,6,0,L|94:188,1,58.1250004434586,8|0,0:3|0:0,0:0:0:0:
0,236,80688,5,8,0:3:0:0:
49,310,80863,5,2,0:0:0:0:
9,384,81037,54,0,P|64:345|150:352,1,150,10|2,3:2|0:1,0:0:0:0:
239,215,81560,2,0,P|231:259|223:303,1,75,0|4,3:3|0:1,0:0:0:0:
105,186,81909,5,2,0:0:0:0:
342,383,82083,2,0,P|335:345|327:306,1,75,8|0,0:1|3:0,0:0:0:0:
497,213,82432,2,0,P|438:224|384:194,1,112.5,2|0,0:1|0:0,0:0:0:0:
383,187,82781,2,0,L|401:104,1,75,4|2,0:1|0:0,0:0:0:0:
276,0,83130,2,0,L|289:78,1,75,8|8,0:1|0:3,0:0:0:0:
394,12,83478,1,2,3:1:0:0:
226,153,83653,86,0,B|159:129|129:187|59:165,1,165.000005035401,8|0,0:3|3:0,0:0:0:0:
0,73,84176,2,0,L|77:60,1,75,8|0,0:1|3:3,0:0:0:0:
105,260,84525,2,0,L|28:273,1,75,4|2,0:1|0:0,0:0:0:0:
226,153,84874,1,4,0:1:0:0:
369,300,85048,1,2,0:0:0:0:
258,342,85223,6,0,L|275:256,1,75,0|2,3:0|0:3,0:0:0:0:
112,81,85571,1,2,0:1:0:0:
225,57,85746,86,0,L|208:143,1,75,8|4,0:3|0:1,0:0:0:0:
130,0,86095,1,2,0:0:0:0:
331,185,86269,5,8,0:1:0:0:
446,58,86443,1,0,3:0:0:0:
348,14,86618,86,0,B|333:51|333:51|339:99,1,75,2|2,0:1|3:2,0:0:0:0:
476,246,86967,2,0,B|494:210|494:210|486:168,1,75,4|2,0:1|3:2,0:0:0:0:
103,294,87316,6,0,L|255:269,1,150,4|2,0:0|0:1,0:0:0:0:
460,358,87839,86,0,B|393:334|361:391|293:370,1,165.000005035401,8|2,0:3|0:3,0:0:0:0:
355,111,88362,6,0,L|367:187,1,75,12|0,0:0|0:0,0:0:0:0:
280,280,88624,1,0,3:0:0:0:
275,271,88711,2,0,L|285:218,1,44.999998626709,8|0,0:3|0:0,0:0:0:0:
181,337,88885,2,0,L|191:390,1,44.999998626709,8|0,0:3|0:0,0:0:0:0:
280,280,89060,85,0,3:0:0:0:
82,369,89234,1,0,3:0:0:0:
76,367,89321,1,0,3:0:0:0:
62,372,89409,6,0,B|37:337|37:337|65:232,1,150,4|2,0:0|0:1,0:0:0:0:
0,112,89932,2,0,P|49:143|135:128,1,150,2|2,0:3|0:3,0:0:0:0:
282,54,90455,86,0,P|244:39|203:43,1,75,8|0,0:1|3:0,0:0:0:0:
67,248,90804,2,0,P|102:248|138:233,1,75,2|2,0:1|0:0,0:0:0:0:
116,28,91153,6,0,L|100:112,1,75,4|2,0:1|0:0,0:0:0:0:
232,274,91502,2,0,L|244:200,1,75,0|8,3:0|0:3,0:0:0:0:
352,238,91850,85,2,0:1:0:0:
139,371,92025,2,0,L|291:346,1,150,8|2,0:3|0:3,0:0:0:0:
465,258,92548,1,8,0:1:0:0:
321,109,92723,1,2,0:3:0:0:
419,24,92897,6,0,P|447:42|452:151,1,150,4|4,0:1|0:1,0:0:0:0:
313,230,93420,1,2,0:0:0:0:
313,230,93507,1,2,0:0:0:0:
313,230,93595,86,0,B|246:206|219:263|148:245,1,165.000005035401,0|2,3:0|0:1,0:0:0:0:
0,184,94118,2,0,L|127:163,1,123.75000377655,2|0,0:3|0:0,0:0:0:0:
187,107,94467,2,0,L|196:66,1,41.2500012588501,2|0,0:3|0:0,0:0:0:0:
109,0,94641,6,0,B|91:28|91:28|104:80,1,82.5000025177003,8|0,0:1|3:0,0:0:0:0:
269,177,94990,2,0,P|308:162|355:164,1,82.5000025177003,2|2,0:1|0:0,0:0:0:0:
167,295,95339,2,0,P|108:306|54:276,1,112.5,4|0,0:1|0:0,0:0:0:0:
53,267,95688,86,0,L|140:251,1,82.5000025177003,4|0,0:0|0:0,0:0:0:0:
373,350,96037,1,8,0:1:0:0:
321,245,96211,21,0,3:0:0:0:
348,161,96385,1,2,0:1:0:0:
224,21,96560,1,8,0:1:0:0:
145,109,96734,5,12,0:0:0:0:
163,104,96909,1,0,3:0:0:0:
291,41,97083,54,0,L|228:31,1,56.2500021457673,8|0,0:1|0:0,0:0:0:0:
0,157,97257,2,0,L|63:167,1,56.2500021457673,8|0,0:1|0:0,0:0:0:0:
125,234,97432,86,0,L|143:323,1,78.7499975967408,8|0,0:3|0:0,0:0:0:0:
86,380,97781,6,0,B|145:386|161:333|238:353,1,150,4|2,1:2|0:1,0:0:0:0:
450,244,98304,2,0,P|378:282|308:267,1,150,0|2,3:3|0:0,0:0:0:0:
249,193,98827,6,0,L|263:112,1,75,8|0,0:1|3:0,0:0:0:0:
348,34,99176,2,0,B|363:72|363:72|357:113,1,75,2|2,0:1|0:0,0:0:0:0:
152,247,99525,2,0,B|141:212|141:212|149:170,1,75,4|2,0:1|0:0,0:0:0:0:
19,13,99874,1,8,0:1:0:0:
174,63,100048,85,8,0:3:0:0:
0,130,100223,2,0,L|88:113,1,75,2|8,3:1|0:3,0:0:0:0:
238,264,100571,1,4,0:1:0:0:
93,336,100746,5,0,3:0:0:0:
93,336,100833,1,0,3:0:0:0:
93,336,100920,2,0,P|68:298|93:200,2,150,8|4|4,0:1|0:1|0:1,0:0:0:0:
251,384,101792,85,2,0:0:0:0:
251,384,101880,1,2,0:0:0:0:
251,384,101967,2,0,L|402:361,1,150,0|2,3:0|0:1,0:0:0:0:
469,283,102490,2,0,P|432:268|393:270,1,75,8|4,0:3|0:1,0:0:0:0:
228,149,102839,1,2,0:0:0:0:
214,254,103013,6,0,L|303:238,1,75,8|0,0:1|3:0,0:0:0:0:
84,110,103362,2,0,L|100:200,1,75,2|2,0:1|3:2,0:0:0:0:
262,0,103711,2,0,L|173:16,1,75,4|2,0:1|3:2,0:0:0:0:
334,113,104060,85,4,0:0:0:0:
492,195,104234,1,0,3:0:0:0:
512,121,104409,1,2,0:1:0:0:
408,29,104583,5,8,0:3:0:0:
312,202,104757,1,4,0:1:0:0:
334,280,104932,1,2,0:3:0:0:
420,228,105106,85,12,0:0:0:0:
237,312,105281,1,0,0:0:0:0:
416,371,105455,5,8,0:3:0:0:
143,236,105630,1,8,0:3:0:0:
336,287,105804,69,0,3:0:0:0:
239,319,105978,5,0,3:0:0:0:
140,357,106153,5,4,0:0:0:0:
54,105,106502,1,2,0:1:0:0:
0,213,106676,86,0,P|65:226|139:184,1,150,2|2,0:3|0:3,0:0:0:0:
264,106,107199,2,0,P|225:99|182:92,1,75,8|0,0:1|3:0,0:0:0:0:
67,15,107548,6,0,P|106:8|149:1,1,75,2|2,0:1|0:0,0:0:0:0:
395,190,107897,2,0,L|279:210,1,112.5,4|0,0:1|0:0,0:0:0:0:
231,263,108246,86,0,B|298:239|330:296|398:275,1,165.000005035401,0|2,3:0|0:1,0:0:0:0:
512,150,108769,6,0,L|492:239,1,75,8|4,0:3|0:1,0:0:0:0:
349,0,109118,1,2,0:3:0:0:
335,97,109292,86,0,L|408:81,1,75,8|2,0:1|0:3,0:0:0:0:
236,203,109641,2,0,L|219:280,1,75,4|2,0:1|0:0,0:0:0:0:
192,80,109990,2,0,L|125:44,1,75,4|2,0:1|0:0,0:0:0:0:
393,329,110339,5,0,3:0:0:0:
316,382,110513,2,0,B|274:366|274:366|219:400|174:384,1,150,2|2,0:3|0:3,0:0:0:0:
8,303,111037,2,0,L|98:289,1,75,4|2,0:1|0:3,0:0:0:0:
247,163,111385,1,8,0:1:0:0:
195,310,111560,86,0,P|184:262|174:222,1,75,0|2,3:0|0:1,0:0:0:0:
315,69,111909,2,0,P|326:117|335:157,1,75,2|4,0:0|0:1,0:0:0:0:
199,5,112257,1,2,0:0:0:0:
18,87,112432,6,0,P|61:80|108:73,1,75,4|0,0:0|3:0,0:0:0:0:
98,79,112693,1,0,3:0:0:0:
104,81,112781,1,8,0:1:0:0:
207,187,112955,5,0,3:0:0:0:
130,229,113130,1,2,0:1:0:0:
203,82,113304,69,8,0:1:0:0:
358,260,113478,1,8,3:3:0:0:
307,324,113653,1,0,3:0:0:0:
304,162,113827,5,8,0:1:0:0:
323,81,114002,1,8,0:3:0:0:
345,0,114176,1,2,0:1:0:0:
430,124,114350,5,0,3:0:0:0:
430,124,114438,1,2,0:1:0:0:
430,124,114525,6,0,P|458:129|494:135,1,56.2500021457673,4|2,0:0|0:0,0:0:0:0:
512,45,114873,2,0,P|484:40|456:34,1,56.25,2|2,0:0|0:0,0:0:0:0:
304,162,115222,6,0,B|248:226|157:246|76:240|34:203|18:136|54:89|107:81|152:119|133:186,1,450.000017166138,8|0,1:1|1:0,0:0:0:0:
66,291,116879,1,2,0:0:0:0:
62,298,116966,2,0,L|74:357,1,56.2500021457673,2|2,1:2|0:0,0:0:0:0:
177,384,117315,6,0,B|312:406|346:259|471:244|558:266|566:331|524:416|385:393|325:334|309:271,1,618.75002360344,8|0,0:1|0:0,0:0:0:0:
316,264,119408,1,0,1:0:0:0:
249,155,119757,2,0,L|262:92,1,56.2500021457673,2|2,1:2|0:0,0:0:0:0:
210,19,120106,54,0,B|137:-3|30:41|-23:178|38:302|142:299|167:284|167:284|102:254|95:179|125:148,1,618.75002360344,8|0,0:1|0:0,0:0:0:0:
131,145,122199,1,0,1:0:0:0:
331,191,122548,6,0,P|359:182|392:180,1,56.2500021457673,2|2,1:2|0:0,0:0:0:0:
502,119,122897,2,0,P|472:113|437:106,1,56.2500021457673,8|0,0:1|0:0,0:0:0:0:
277,259,123245,6,0,B|424:216|424:216|383:238|384:281,1,225.000008583069,2|0,0:0|0:0,0:0:0:0:
312,384,124292,2,0,L|244:374,1,56.2500021457673,0|0,3:0|0:0,0:0:0:0:
177,330,124641,2,0,L|59:349,1,112.500004291535,2|4,0:0|0:3,0:0:0:0:
11,124,125338,1,8,0:1:0:0:
71,174,125513,1,8,0:1:0:0:
0,217,125687,6,0,P|8:186|12:152,1,60,0|2,3:0|0:0,0:0:0:0:
111,83,126036,2,0,P|102:52|98:18,1,60,2|0,0:3|3:0,0:0:0:0:
201,59,126385,2,0,L|329:77,1,120,8|2,0:3|0:3,0:0:0:0:
411,0,126908,2,0,P|384:1|353:12,1,60,8|0,0:1|3:0,0:0:0:0:
297,144,127257,1,2,0:0:0:0:
292,155,127431,54,0,L|303:217,1,60,2|0,3:0|3:0,0:0:0:0:
370,280,127780,2,0,L|359:342,1,60,8|0,0:3|0:0,0:0:0:0:
261,384,128129,6,0,L|255:353,2,30,2|0|2,0:3|0:0|0:1,0:0:0:0:
218,297,128478,6,0,L|279:305,1,60,0|2,3:0|0:0,0:0:0:0:
145,366,128827,2,0,P|115:371|86:379,1,60,6|0,0:3|3:0,0:0:0:0:
25,315,129176,2,0,L|43:191,1,120,8|2,0:3|0:3,0:0:0:0:
116,154,129699,6,2,L|175:144,1,60,8|0,0:1|3:0,0:0:0:0:
256,129,130048,2,2,L|315:119,1,60,8|2,0:1|3:0,0:0:0:0:
470,52,130397,1,0,3:0:0:0:
357,6,130571,1,8,0:3:0:0:
411,121,130745,1,0,3:0:0:0:
413,133,130920,53,2,0:3:0:0:
473,210,131094,5,2,0:1:0:0:
376,297,131269,5,0,3:0:0:0:
512,384,131618,5,0,0:0:0:0:
469,312,131792,1,0,3:0:0:0:
356,372,131966,54,0,P|323:378|285:388,1,60,8|2,0:3|0:0,0:0:0:0:
235,329,132315,2,0,L|110:312,1,120,2|0,0:3|3:0,0:0:0:0:
30,257,132838,1,8,0:1:0:0:
86,185,133013,5,2,3:0:0:0:
83,175,133187,1,0,3:0:0:0:
22,120,133362,5,8,0:3:0:0:
165,0,133536,1,0,0:0:0:0:
152,160,133711,6,0,L|145:121,2,30,2|0|2,0:3|0:0|0:1,0:0:0:0:
244,0,134059,54,0,L|235:65,1,60,0|2,3:0|0:0,0:0:0:0:
132,186,134408,2,0,P|126:157|119:127,1,60,6|0,0:3|3:0,0:0:0:0:
240,156,134757,2,0,P|296:131|357:143,1,120,8|2,0:3|0:3,0:0:0:0:
457,111,135280,1,8,0:0:0:0:
452,101,135368,1,8,0:0:0:0:
450,88,135455,1,8,0:0:0:0:
494,16,135629,5,4,1:0:0:0:
432,206,135804,1,2,0:3:0:0:
352,140,135978,5,8,0:0:0:0:
494,16,136152,1,8,0:0:0:0:
0,287,136850,6,0,L|59:276,1,56.2500021457673,4|2,0:0|0:0,0:0:0:0:
177,333,137199,2,0,P|148:335|120:345,1,56.2500021457673,2|2,0:1|0:0,0:0:0:0:
121,353,137548,54,0,B|256:377|303:208|419:183|478:217|505:310|463:387|343:357|321:286|324:214,1,584.999973220826,2|2,0:0|0:1,0:0:0:0:
283,153,139990,5,2,1:0:0:0:
279,143,140164,2,0,L|298:38,1,97.4999955368044,2|2,0:0|0:0,0:0:0:0:
176,8,141385,6,0,L|224:0,1,48.7499977684022,2|0,0:0|0:0,0:0:0:0:
295,46,141734,2,0,L|344:38,1,48.7499977684022,2|0,0:0|3:0,0:0:0:0:
416,98,142083,1,0,3:0:0:0:
413,103,142431,6,0,P|411:108|402:165,1,56.2500021457673,2|2,1:0|0:0,0:0:0:0:
466,226,142780,2,0,P|468:231|478:285,1,56.2500021457673,2|2,0:1|0:0,0:0:0:0:
502,379,143129,54,0,B|439:286|310:231|128:242|76:409|189:445|249:401|288:346|271:267,1,584.999973220826,2|8,0:1|0:1,0:0:0:0:
211,215,145571,1,2,1:0:0:0:
204,211,145745,2,0,L|101:228,1,97.4999955368044,2|2,0:0|0:1,0:0:0:0:
37,172,146269,54,0,L|41:150,2,22.4999993133545,2|2|2,0:0|0:0|0:0,0:0:0:0:
0,384,147490,37,0,3:0:0:0:
45,319,147664,1,0,3:0:0:0:
124,315,147838,1,0,3:0:0:0:
191,353,148013,6,0,P|222:347|253:343,1,56.2500021457673,0|8,3:0|0:1,0:0:0:0:
325,302,148362,2,0,P|352:307|380:311,1,56.2500021457673,2|8,0:3|0:1,0:0:0:0:
462,352,148711,2,0,L|484:238,1,112.500004291535,0|2,1:0|0:3,0:0:0:0:
426,175,149234,5,2,0:0:0:0:
417,171,149408,2,0,L|379:178,3,37.5,2|8|2|8,0:3|0:1|0:3|0:1,0:0:0:0:
302,222,150106,2,0,P|249:199|194:208,1,112.500004291535,0|2,1:0|0:3,0:0:0:0:
0,146,150804,6,0,P|55:153|105:130,1,112.500004291535,2|2,0:3|0:3,0:0:0:0:
175,54,151327,2,0,P|147:32|69:34,2,112.500004291535,8|2|0,0:1|0:0|3:0,0:0:0:0:
254,105,152199,54,0,L|315:95,1,56.2500021457673,2|2,0:3|0:0,0:0:0:0:
428,200,152548,1,2,0:3:0:0:
422,196,152722,1,2,0:0:0:0:
405,174,152897,6,0,L|413:131,3,37.5,2|8|2|8,1:3|0:1|0:3|0:1,0:0:0:0:
340,236,153594,6,0,P|346:267|350:299,1,56.2500021457673,0|8,3:0|0:1,0:0:0:0:
235,384,153943,2,0,P|238:356|250:322,1,56.2500021457673,2|8,0:3|0:1,0:0:0:0:
174,267,154292,6,0,L|58:249,1,112.500004291535,0|2,1:0|0:3,0:0:0:0:
339,379,154990,2,0,L|450:361,1,112.500004291535,2|2,0:3|0:3,0:0:0:0:
501,299,155513,53,8,0:1:0:0:
504,293,155687,2,0,L|494:250,2,37.5,0|8|4,1:0|0:1|0:3,0:0:0:0:
403,172,156385,6,0,P|435:142|506:141,1,112.500004291535,2|2,0:3|0:3,0:0:0:0:
370,276,156908,2,0,P|338:284|261:249,1,112.500004291535,8|8,0:1|0:1,0:0:0:0:
101,175,157431,5,2,0:3:0:0:
109,180,157606,2,0,L|142:174,2,28.1250010728836,8|8|8,0:0|0:0|0:0,0:0:0:0:
182,233,157955,6,0,L|66:218,1,112.500004291535,4|8,1:0|0:0,0:0:0:0:
12,153,158478,1,8,0:0:0:0:
385,270,159176,54,0,P|321:236|251:247,1,142.49999619484,4|2,0:0|0:3,0:0:0:0:
155,350,159699,1,0,3:0:0:0:
230,380,159873,2,0,L|307:366,1,71.2499980974198,8|0,0:0|0:0,0:0:0:0:
170,269,160222,5,2,0:3:0:0:
10,185,160397,1,8,0:1:0:0:
119,134,160571,2,0,L|107:209,1,71.2499980974198,2|0,0:0|3:0,0:0:0:0:
21,332,160920,6,0,P|9:305|16:256,1,71.2499980974198,8|8,0:3|0:3,0:0:0:0:
212,84,161269,2,0,P|245:123|236:211,1,142.49999619484,8|8,0:0|0:3,0:0:0:0:
228,220,161792,1,8,0:3:0:0:
425,311,161966,6,0,L|276:291,1,142.49999619484,0|2,3:0|0:3,0:0:0:0:
399,120,162490,1,0,3:0:0:0:
505,195,162664,2,0,P|462:201|428:209,1,71.2499980974198,8|0,0:0|1:0,0:0:0:0:
305,143,163013,53,2,0:3:0:0:
408,0,163187,1,8,0:1:0:0:
293,47,163362,5,0,3:0:0:0:
360,243,163536,1,8,0:1:0:0:
137,191,163711,5,8,0:3:0:0:
154,186,163885,1,8,0:3:0:0:
253,210,164059,5,8,0:0:0:0:
49,131,164234,1,0,3:0:0:0:
147,82,164408,53,8,0:3:0:0:
196,0,164583,5,8,0:3:0:0:
129,36,164757,6,0,L|151:176,1,142.49999619484,4|2,0:0|3:1,0:0:0:0:
40,283,165280,1,0,3:0:0:0:
36,277,165455,2,0,P|44:236|52:194,1,71.2499980974198,8|2,0:0|0:0,0:0:0:0:
196,358,165804,2,0,P|188:317|180:276,1,71.2499980974198,2|8,0:3|0:1,0:0:0:0:
90,384,166152,5,0,3:0:0:0:
308,214,166327,1,2,0:0:0:0:
305,227,166501,2,0,L|291:297,1,71.2499980974198,8|8,0:3|0:3,0:0:0:0:
364,384,166850,2,0,P|405:354|502:366,1,142.49999619484,8|8,0:0|0:3,0:0:0:0:
305,227,167373,1,8,0:3:0:0:
390,171,167548,54,0,L|414:28,1,142.49999619484,0|2,3:0|3:0,0:0:0:0:
217,127,168071,1,2,0:1:0:0:
280,0,168245,2,0,P|289:35|293:77,1,71.2499980974198,8|8,0:0|0:3,0:0:0:0:
133,225,168594,2,0,P|124:190|123:149,1,71.2499980974198,2|8,3:0|0:1,0:0:0:0:
1,58,168943,1,2,3:1:0:0:
109,1,169118,5,8,1:1:0:0:
107,16,169205,1,0,1:0:0:0:
105,28,169292,1,8,0:3:0:0:
160,89,169466,5,8,0:3:0:0:
0,197,169641,1,8,0:0:0:0:
112,317,169815,5,0,1:0:0:0:
114,302,169902,1,0,1:0:0:0:
116,290,169989,1,8,0:3:0:0:
173,229,170164,53,8,0:3:0:0:
0,384,170338,2,0,P|9:379|72:366,1,71.2499980974198,4|0,0:0|0:0,0:0:0:0:
188,296,170687,2,0,P|197:300|259:309,1,71.2499980974198,2|0,0:3|3:0,0:0:0:0:
325,352,171036,6,0,L|476:330,1,142.49999619484,8|2,0:0|0:3,0:0:0:0:
512,224,171559,1,8,0:1:0:0:
441,178,171734,6,0,P|395:187|365:196,1,71.2499980974198,2|0,0:0|3:0,0:0:0:0:
236,39,172083,2,0,P|271:47|306:53,1,71.2499980974198,8|8,0:3|0:3,0:0:0:0:
258,151,172431,6,0,L|148:171,1,106.87499714613,8|0,0:0|0:0,0:0:0:0:
136,174,172780,1,8,0:3:0:0:
20,101,172955,1,8,0:3:0:0:
125,34,173129,69,0,3:0:0:0:
0,244,173478,1,2,0:3:0:0:
65,306,173652,1,0,3:0:0:0:
11,383,173827,6,0,P|51:351|142:351,1,142.49999619484,8|2,0:0|0:3,0:0:0:0:
292,262,174350,2,0,L|219:275,1,71.2499980974198,8|0,0:1|3:0,0:0:0:0:
100,184,174699,2,0,P|135:190|174:197,1,71.2499980974198,8|8,0:1|0:3,0:0:0:0:
367,368,175048,1,8,0:3:0:0:
267,367,175222,6,0,L|337:353,1,71.2499980974198,8|0,0:0|3:0,0:0:0:0:
510,280,175571,2,0,P|472:281|438:267,1,71.2499980974198,8|8,0:3|0:3,0:0:0:0:
418,248,175920,54,0,P|404:219|422:115,1,142.49999619484,4|2,0:0|3:1,0:0:0:0:
482,47,176443,1,0,3:0:0:0:
396,6,176618,2,0,L|281:25,1,106.87499714613,8|0,0:0|0:0,0:0:0:0:
269,33,176966,5,2,0:3:0:0:
122,107,177141,1,8,0:1:0:0:
169,175,177315,6,0,L|148:320,1,142.49999619484,0|8,3:0|0:3,0:0:0:0:
148,316,177838,1,8,0:3:0:0:
244,384,178013,2,0,L|321:372,1,71.2499980974198,8|0,0:0|0:0,0:0:0:0:
508,192,178362,5,8,0:3:0:0:
391,241,178536,1,8,0:3:0:0:
512,331,178711,54,0,P|475:324|437:318,1,71.2499980974198,0|2,3:0|0:0,0:0:0:0:
308,235,179059,2,0,P|272:241|233:249,1,71.2499980974198,2|2,3:0|0:1,0:0:0:0:
129,316,179408,6,0,P|102:259|134:178,1,142.49999619484,8|2,0:0|3:0,0:0:0:0:
224,141,179931,1,8,1:1:0:0:
238,143,180019,1,8,1:0:0:0:
249,144,180106,1,8,3:1:0:0:
422,96,180280,1,2,0:0:0:0:
381,30,180455,37,4,0:0:0:0:
239,0,180629,5,8,0:1:0:0:
107,47,180804,5,4,0:0:0:0:
63,183,180978,69,2,0:0:0:0:
3,119,181152,38,0,L|8:93,6,17.8124995243549,2|2|2|2|2|2|2,0:0|0:0|0:0|0:0|0:0|0:0|0:0,0:0:0:0:
63,183,181501,5,4,0:0:0:0:
20,374,181850,5,8,0:0:0:0:
85,314,182025,1,8,0:1:0:0:
166,252,182199,37,2,0:3:0:0:
307,384,182373,1,8,0:1:0:0:
361,327,182548,22,0,L|354:291,2,35.6249990487099,8|2|2,0:3|0:1|0:1,0:0:0:0:
438,255,182897,70,0,L|451:193,1,56.2500021457673,8|0,0:1|0:0,0:0:0:0:
326,75,183071,2,0,L|338:134,1,56.2500021457673,8|0,0:1|0:0,0:0:0:0:
483,375,183245,21,8,0:1:0:0:
489,372,183420,5,2,0:3:0:0:
488,381,183594,54,0,P|420:337|337:348,1,165.000005035401,10|2,3:2|0:1,0:0:0:0:
177,286,184117,2,0,P|216:280|264:273,1,75,0|4,3:3|0:1,0:0:0:0:
420,127,184466,1,2,0:0:0:0:
326,75,184640,6,0,L|307:163,1,75,8|0,0:1|3:0,0:0:0:0:
477,285,184989,2,0,L|496:197,1,75,2|2,0:1|0:0,0:0:0:0:
344,263,185338,86,0,B|274:236|254:298|180:277,1,165.000005035401,4|8,0:1|0:1,0:0:0:0:
84,229,185861,1,8,0:3:0:0:
184,146,186035,1,2,3:1:0:0:
17,102,186210,6,0,L|96:87,1,75,8|4,0:3|0:1,0:0:0:0:
320,200,186559,1,0,3:0:0:0:
242,85,186733,86,0,P|249:49|258:0,1,75,8|0,0:1|3:3,0:0:0:0:
434,179,187082,6,0,P|371:208|314:197,1,123.75000377655,4|0,0:1|0:0,0:0:0:0:
297,189,187431,1,4,0:1:0:0:
376,73,187605,1,2,0:0:0:0:
469,368,187780,86,0,B|422:311|342:331|342:331|367:330|387:351,1,185.99999262085,0|2,3:0|0:1,0:0:0:0:
213,166,188303,2,0,L|232:284,1,112.5,8|0,0:3|0:0,0:0:0:0:
233,298,188652,1,2,0:0:0:0:
85,378,188826,6,0,L|167:363,1,75,8|0,0:1|3:0,0:0:0:0:
393,232,189175,2,0,L|319:245,1,75,2|2,0:1|3:2,0:0:0:0:
213,166,189524,2,0,P|192:121|204:49,1,112.5,4|0,0:1|0:0,0:0:0:0:
178,49,189873,86,0,P|201:23|315:19,1,150,4|2,0:0|0:1,0:0:0:0:
505,144,190396,2,0,L|382:127,1,112.5,8|0,0:3|0:0,0:0:0:0:
374,125,190745,5,2,0:3:0:0:
233,248,190919,1,12,0:0:0:0:
323,304,191094,1,0,0:0:0:0:
323,304,191181,1,0,3:0:0:0:
323,304,191268,86,0,L|338:220,1,75,8|8,0:3|0:3,0:0:0:0:
474,371,191617,6,0,L|407:383,1,56.2500021457673,0|0,3:0|0:0,0:0:0:0:
177,257,191791,2,0,L|244:245,1,56.2500021457673,0|0,3:0|0:0,0:0:0:0:
142,378,191966,86,0,P|73:340|1:352,1,150,4|2,0:0|0:1,0:0:0:0:
193,153,192489,2,0,L|177:238,1,75,2|4,0:3|0:1,0:0:0:0:
395,384,192838,1,2,0:3:0:0:
227,340,193012,6,0,P|262:325|312:327,1,75,8|0,0:1|3:0,0:0:0:0:
475,262,193361,2,0,P|436:265|402:252,1,75,2|2,0:1|0:0,0:0:0:0:
341,164,193710,2,0,L|363:39,1,112.5,4|0,0:1|0:0,0:0:0:0:
365,31,194059,85,0,3:0:0:0:
471,146,194233,2,0,B|484:118|484:118|471:66,1,75,8|2,0:3|0:1,0:0:0:0:
260,8,194582,6,0,L|101:32,1,150,8|2,0:3|0:3,0:0:0:0:
0,158,195105,2,0,P|35:141|80:141,1,75,8|2,0:1|0:3,0:0:0:0:
251,209,195454,86,0,P|185:244|110:229,1,150,4|4,0:1|0:1,0:0:0:0:
168,110,195977,1,2,0:0:0:0:
317,301,196152,2,0,P|309:342|302:382,1,75,0|2,3:0|0:3,0:0:0:0:
169,328,196500,5,2,0:1:0:0:
450,228,196675,2,0,L|363:215,1,75,2|4,0:3|0:1,0:0:0:0:
276,137,197024,85,2,0:3:0:0:
271,134,197111,1,2,0:0:0:0:
256,139,197198,6,0,B|236:181|236:181|243:229,1,82.5000025177003,8|0,0:1|3:0,0:0:0:0:
467,380,197547,2,0,B|486:340|486:340|476:292,1,82.5000025177003,2|2,0:1|0:0,0:0:0:0:
398,74,197896,2,0,L|377:211,1,123.75000377655,4|0,0:1|0:0,0:0:0:0:
375,216,198245,85,4,0:0:0:0:
503,154,198419,1,0,0:0:0:0:
332,314,198594,5,8,0:1:0:0:
319,310,198681,1,0,3:0:0:0:
306,306,198768,1,0,3:0:0:0:
98,245,198942,85,2,0:1:0:0:
293,149,199117,1,8,0:1:0:0:
437,321,199291,1,12,0:0:0:0:
273,384,199466,5,0,3:0:0:0:
225,227,199640,1,8,0:1:0:0:
300,296,199814,69,8,0:1:0:0:
177,384,199989,6,0,P|183:352|193:318,1,56.2500021457673,8|0,0:3|0:0,0:0:0:0:
306,203,200163,6,0,P|299:171|289:137,1,56.2500021457673,0|0,3:0|0:0,0:0:0:0:
220,63,200338,86,0,P|253:28|357:30,1,150,4|2,1:2|0:1,0:0:0:0:
161,187,200861,2,0,B|92:163|71:221|-3:201,1,165.000005035401,0|2,3:3|0:0,0:0:0:0:
263,282,201384,2,0,L|385:262,1,112.5,8|0,0:1|0:0,0:0:0:0:
428,183,201733,6,0,P|392:169|354:173,1,75,2|2,0:1|0:0,0:0:0:0:
192,362,202082,2,0,P|240:382|303:369,1,112.5,4|0,0:1|0:0,0:0:0:0:
313,362,202431,85,8,0:1:0:0:
89,288,202605,2,0,P|49:296|6:305,1,75,8|2,0:3|3:1,0:0:0:0:
202,192,202954,2,0,P|239:198|281:205,1,75,8|4,0:3|0:1,0:0:0:0:
378,0,203303,5,0,3:0:0:0:
459,74,203477,2,8,P|393:109|320:93,1,150,8|4,0:1|0:1,0:0:0:0:
378,0,204000,1,2,0:0:0:0:
473,189,204175,5,4,0:1:0:0:
425,253,204349,1,2,0:0:0:0:
492,383,204524,85,0,3:0:0:0:
391,352,204698,2,0,L|305:368,1,75,2|2,0:3|0:1,0:0:0:0:
176,256,205047,2,0,P|173:249|171:175,1,75,8|4,0:3|0:1,0:0:0:0:
278,279,205396,85,2,0:0:0:0:
212,363,205570,2,0,P|171:377|73:332,1,150,8|2,0:1|0:1,0:0:0:0:
16,246,206094,5,2,3:2:0:0:
102,133,206268,1,4,0:1:0:0:
17,67,206442,85,2,3:2:0:0:
208,145,206617,2,0,L|361:122,1,150,4|2,0:0|0:1,0:0:0:0:
512,232,207140,6,0,B|439:211|439:211|389:220|393:263,1,150,8|2,0:3|0:3,0:0:0:0:
226,384,207663,86,0,P|206:345|226:264,1,123.75000377655,12|0,0:0|3:0,0:0:0:0:
198,252,208012,6,0,L|284:236,1,82.5000025177003,8|8,0:3|0:3,0:0:0:0:
512,339,208361,86,0,L|456:348,1,56.2500021457673,0|0,3:0|0:0,0:0:0:0:
365,281,208535,85,0,3:0:0:0:
359,283,208623,1,0,0:0:0:0:
377,275,208710,6,0,L|401:120,1,150,4|2,0:0|0:1,0:0:0:0:
486,41,209233,2,0,P|412:2|341:18,1,150,2|2,0:3|0:3,0:0:0:0:
171,102,209756,2,0,P|206:115|292:90,1,112.5,8|0,0:1|0:0,0:0:0:0:
285,86,210105,6,0,L|199:71,1,75,2|2,0:1|0:0,0:0:0:0:
49,195,210454,2,0,L|122:207,1,75,4|2,0:1|0:0,0:0:0:0:
72,10,210803,86,0,B|57:46|57:46|68:93,1,75,0|8,3:0|0:3,0:0:0:0:
253,218,211152,1,2,0:1:0:0:
166,300,211326,6,0,B|97:276|77:332|2:314,1,165.000005035401,8|2,0:3|0:3,0:0:0:0:
231,384,211849,86,0,B|279:367|279:367|321:398|381:381,1,150,8|4,0:1|0:1,0:0:0:0:
469,219,212373,1,2,0:0:0:0:
346,284,212547,1,4,0:1:0:0:
489,373,212721,1,2,0:0:0:0:
433,299,212896,6,0,P|443:246|463:138,1,150,0|2,3:0|0:1,0:0:0:0:
386,51,213419,2,0,P|414:31|499:37,1,112.5,2|0,0:3|0:0,0:0:0:0:
506,45,213768,85,2,0:3:0:0:
238,154,213942,2,0,P|284:146|324:140,1,75,8|0,0:1|3:0,0:0:0:0:
412,201,214291,5,2,0:1:0:0:
189,53,214466,1,2,0:0:0:0:
120,101,214640,86,0,P|105:124|103:175,1,75,4|2,0:1|0:0,0:0:0:0:
184,278,214989,6,0,B|115:254|95:310|24:296,1,165.000005035401,4|6,0:0|0:3,0:0:0:0:
106,176,215512,1,0,3:0:0:0:
300,379,215687,86,0,P|306:348|315:301,1,75,2|0,0:1|3:1,0:0:0:0:
258,218,216035,21,8,0:3:0:0:
407,317,216210,1,8,0:3:0:0:
216,384,216384,1,0,1:0:0:0:
96,262,216559,69,8,0:0:0:0:
170,40,216733,1,8,0:3:0:0:
241,83,216907,21,2,3:1:0:0:
149,168,217082,6,0,L|-4:196,1,150,4|2,0:0|0:1,0:0:0:0:
217,289,217605,2,0,L|375:261,1,150,10|2,0:0|0:2,0:0:0:0:
461,358,218128,6,0,P|424:350|384:345,1,75,8|0,0:1|3:0,0:0:0:0:
501,117,218477,2,0,P|464:125|424:130,1,75,2|0,0:0|3:0,0:0:0:0:
512,246,218826,6,0,L|391:226,1,112.5,2|0,0:0|0:0,0:0:0:0:
321,161,219175,54,0,P|312:131|314:78,1,75,2|2,3:3|0:3,0:0:0:0:
382,15,219524,1,2,0:0:0:0:
210,117,219698,6,0,P|136:131|69:89,1,150,10|0,0:0|0:0,0:0:0:0:
159,26,220221,1,8,0:3:0:0:
321,161,220396,1,2,0:3:0:0:
272,227,220570,37,10,0:0:0:0:
497,384,220919,1,10,0:0:0:0:
352,326,221268,38,0,B|283:302|263:358|192:344,1,165.000005035401,4|2,0:3|0:1,0:0:0:0:
53,271,221791,2,0,L|132:259,1,75,10|0,0:0|0:1,0:0:0:0:
272,112,222140,1,2,0:2:0:0:
178,60,222314,6,0,P|162:101|163:132,1,75,8|0,0:1|3:0,0:0:0:0:
314,308,222663,2,0,P|329:266|327:235,1,75,2|0,0:0|3:0,0:0:0:0:
202,225,223012,6,0,L|111:239,1,75,2|0,0:0|3:0,0:0:0:0:
123,234,223274,1,0,3:0:0:0:
117,231,223361,5,6,0:3:0:0:
6,155,223535,1,0,3:0:0:0:
92,126,223710,1,0,3:0:0:0:
147,343,223884,1,4,0:3:0:0:
62,310,224059,21,0,0:0:0:0:
232,197,224233,1,4,0:1:0:0:
356,335,224407,1,4,0:3:0:0:
272,384,224582,5,2,0:3:0:0:
270,376,224669,1,8,0:3:0:0:
269,369,224756,85,8,0:3:0:0:
467,241,224931,1,8,0:3:0:0:
308,100,225105,22,0,P|315:126|320:159,1,52.4999983978272,0|0,3:0|3:0,0:0:0:0:
309,164,225454,70,0,P|367:133|450:150,1,150,4|2,0:0|0:1,0:0:0:0:
267,262,225977,2,0,B|198:238|178:295|103:276,1,165.000005035401,2|2,0:3|0:3,0:0:0:0:
32,204,226413,1,2,0:0:0:0:
39,206,226500,6,0,P|72:190|110:190,1,75,8|0,0:1|3:0,0:0:0:0:
224,62,226849,2,0,L|209:141,1,75,2|2,0:1|0:0,0:0:0:0:
119,47,227198,85,4,0:1:0:0:
335,171,227373,1,2,0:0:0:0:
194,276,227547,6,0,P|231:264|275:262,1,75,0|8,3:0|0:3,0:0:0:0:
431,101,227896,1,2,0:1:0:0:
475,163,228070,86,0,L|446:321,1,150,8|2,0:3|0:3,0:0:0:0:
194,276,228594,5,8,0:1:0:0:
358,217,228768,1,2,0:3:0:0:
302,384,228942,85,4,0:1:0:0:
228,354,229117,1,2,0:0:0:0:
73,214,229291,5,4,0:1:0:0:
0,281,229466,1,2,0:0:0:0:
79,340,229640,86,0,P|120:331|156:324,1,75,0|2,3:0|0:3,0:0:0:0:
271,248,229989,1,2,0:1:0:0:
341,282,230163,6,0,P|360:249|348:132,1,150,2|2,0:3|0:3,0:0:0:0:
258,85,230687,85,8,0:1:0:0:
425,5,230861,1,0,3:0:0:0:
235,188,231035,5,2,0:1:0:0:
156,107,231210,1,2,0:0:0:0:
9,179,231384,1,4,0:1:0:0:
90,261,231559,85,2,0:0:0:0:
31,23,231733,1,4,0:0:0:0:
148,175,231907,21,0,3:0:0:0:
150,180,231995,1,0,3:0:0:0:
158,192,232082,86,0,L|143:258,1,56.2500021457673,8|0,0:1|0:0,0:0:0:0:
245,383,232256,2,0,L|258:318,1,56.2500021457673,0|0,3:0|0:0,0:0:0:0:
112,366,232431,85,2,0:1:0:0:
352,258,232605,1,8,0:1:0:0:
238,197,232780,5,12,0:0:0:0:
471,371,232954,1,0,3:0:0:0:
483,344,233041,1,8,0:3:0:0:
482,314,233128,1,8,0:1:0:0:
410,285,233303,86,0,L|343:297,1,67.4999979400635,8|0,0:1|0:0,0:0:0:0:
96,195,233477,2,0,L|162:182,1,67.4999979400635,8|0,0:1|0:0,0:0:0:0:
243,87,233652,6,0,L|238:70,5,16.8749994850159,2|0|0|0|0|0,0:1|0:0|0:0|0:0|0:0|0:0,0:0:0:0:
288,170,233826,70,0,B|252:78|300:-18|385:-31|447:36|402:102|369:110,1,330.000010070801,4|4,1:2|0:1,0:0:0:0:
457,214,234698,1,2,0:1:0:0:
457,214,234785,1,2,0:3:0:0:
457,214,234873,22,0,P|460:192|473:137,1,75,8|0,0:1|3:0,0:0:0:0:
363,348,235221,2,0,P|360:326|347:271,1,75,2|2,0:1|0:0,0:0:0:0:
254,239,235570,2,0,L|138:259,1,112.5,4|0,0:1|0:0,0:0:0:0:
122,264,235919,85,8,0:1:0:0:
3,198,236094,2,0,P|35:180|82:178,1,75,8|2,0:3|3:1,0:0:0:0:
259,81,236442,6,0,P|168:103|116:73,1,150,8|0,0:3|3:0,0:0:0:0:
433,185,236966,2,0,P|454:153|432:75,1,112.5,8|0,0:1|0:0,0:0:0:0:
369,0,237314,2,0,L|352:83,1,75,4|2,0:1|0:0,0:0:0:0:
270,186,237663,2,0,L|283:270,1,75,4|2,0:1|0:0,0:0:0:0:
389,384,238012,86,0,B|403:335|421:296|421:296|382:245,1,150,0|2,3:0|0:1,0:0:0:0:
205,355,238535,2,0,P|240:367|280:359,1,75,8|4,0:3|0:1,0:0:0:0:
78,189,238884,1,2,0:0:0:0:
215,246,239059,6,8,P|173:254|131:263,1,75,8|0,0:1|3:0,0:0:0:0:
0,87,239407,2,8,P|36:94|73:102,1,75,2|2,0:1|3:2,0:0:0:0:
25,379,239756,2,0,L|6:262,1,112.5,4|0,0:1|0:0,0:0:0:0:
6,249,240105,85,4,0:0:0:0:
134,134,240280,1,0,3:0:0:0:
242,143,240454,5,2,0:1:0:0:
116,0,240628,1,8,0:3:0:0:
206,49,240803,85,4,0:1:0:0:
157,239,240977,1,2,0:3:0:0:
351,149,241152,5,12,0:0:0:0:
377,76,241326,1,0,0:0:0:0:
306,0,241500,85,8,0:3:0:0:
263,186,241675,1,8,0:3:0:0:
263,186,241762,1,0,3:0:0:0:
263,186,241849,6,0,L|274:246,1,56.2500021457673,0|0,3:0|0:0,0:0:0:0:
372,359,242023,2,0,P|375:332|384:301,1,56.2500021457673,0|0,3:0|0:0,0:0:0:0:
254,331,242198,86,0,B|184:304|164:366|90:345,1,165.000005035401,4|2,0:0|0:1,0:0:0:0:
9,266,242721,2,0,P|52:240|114:245,1,112.5,2|0,0:3|0:0,0:0:0:0:
183,183,243070,2,0,L|173:137,1,37.5,2|0,0:3|0:0,0:0:0:0:
268,46,243245,6,0,L|250:130,1,75,8|0,0:1|3:0,0:0:0:0:
371,254,243594,2,0,P|380:228|378:176,1,75,2|2,0:1|0:0,0:0:0:0:
260,248,243942,86,0,L|179:267,1,75,4|2,0:1|0:0,0:0:0:0:
0,170,244291,2,0,L|81:151,1,75,0|8,3:0|0:3,0:0:0:0:
222,357,244640,5,2,0:1:0:0:
72,247,244814,2,0,P|57:278|62:325,1,75,8|4,0:3|0:1,0:0:0:0:
190,197,245163,1,2,0:3:0:0:
145,131,245338,85,8,0:1:0:0:
212,0,245512,1,2,0:3:0:0:
287,80,245687,22,0,L|443:105,1,150,4|4,0:1|0:1,0:0:0:0:
432,121,246384,70,0,P|460:72|422:-14,1,150,0|2,3:0|0:1,0:0:0:0:
333,194,246907,2,0,B|263:167|243:229|169:208,1,165.000005035401,2|2,0:3|0:3,0:0:0:0:
30,135,247431,2,0,P|74:127|107:121,1,75,8|0,0:1|3:0,0:0:0:0:
173,209,247780,6,0,P|159:248|158:285,1,75,2|2,0:1|0:0,0:0:0:0:
309,384,248128,2,0,P|319:346|320:304,1,75,4|0,0:1|0:0,0:0:0:0:
152,369,248477,86,0,L|74:382,1,75,4|0,0:0|3:0,0:0:0:0:
72,380,248739,1,0,3:0:0:0:
67,377,248826,5,2,0:3:0:0:
13,224,249000,1,8,0:3:0:0:
85,268,249175,85,2,0:1:0:0:
129,59,249349,1,8,0:3:0:0:
212,144,249524,21,0,3:3:0:0:
304,120,249698,1,8,0:3:0:0:
398,97,249873,1,0,1:0:0:0:
482,276,250047,1,2,0:0:0:0:
485,251,250221,5,2,0:2:0:0:
478,247,250309,2,0,L|451:253,2,22.4999993133545,2|2|2,0:0|0:0|0:0,0:0:0:0:
358,323,250570,38,0,B|406:346|458:299|452:234|424:179|346:169|270:186|193:230|304:348|210:416|129:419|77:417|-30:331|-52:233|61:159|111:147|175:192|158:263|98:300,1,810.000019775391,2|0,0:0|0:0,0:0:0:0:
