osu file format v14

[General]
AudioFilename: audio.ogg
AudioLeadIn: 0
PreviewTime: 79819
Countdown: 0
SampleSet: Soft
StackLeniency: 0.7
Mode: 0
LetterboxInBreaks: 0
WidescreenStoryboard: 0

[Editor]
DistanceSpacing: 1.1
BeatDivisor: 2
GridSize: 8
TimelineZoom: 1

[Metadata]
Title:Adenium
TitleUnicode:Adenium
Artist:Rita
ArtistUnicode:Rita
Creator:Garden
Version:Easy
Source:赫炎のインガノック
Tags:Sekien no Inganock -What a Beautiful People- liar-soft Blueberry & Yogurt steampunk Japanese Folk Rock JRock J-Rock Video Game Opening short version visual novel vn famc featured artist mappers' guild mpg
BeatmapID:4056326
BeatmapSetID:1888925

[Difficulty]
HPDrainRate:2
CircleSize:3
OverallDifficulty:2
ApproachRate:4
SliderMultiplier:0.899999999999999
SliderTickRate:1

[Events]
//Background and Video events
0,0,"0851.jpg",0,0
//Break Periods
2,34409,44052
//Storyboard Layer 0 (Background)
//Storyboard Layer 1 (Fail)
//Storyboard Layer 2 (Pass)
//Storyboard Layer 3 (Foreground)
//Storyboard Layer 4 (Overlay)
//Storyboard Sound Samples

[TimingPoints]
721,348.837209302326,4,2,1,60,1,0
14325,-100,4,2,1,55,0,0
14674,-100,4,2,1,50,0,0
15023,-100,4,2,1,45,0,0
15372,-100,4,2,1,60,0,0
26709,-100,4,2,1,55,0,0
27407,-100,4,2,1,50,0,0
28104,-100,4,2,1,45,0,0
28627,-100,4,2,1,60,0,0
78860,348.837209302326,6,2,1,70,1,0
80953,348.837209302326,6,2,1,80,1,0
114092,-100,6,2,1,60,0,0

[Colours]
Combo1 : 98,98,176
Combo2 : 0,102,128

[HitObjects]
178,316,11883,6,0,P|225:306|284:295,1,89.9999999999999,4|2,1:1|0:0,0:0:0:0:
350,350,12581,2,0,P|433:350|453:269,2,180,8|2|8,1:0|0:0|1:0,0:0:0:0:
266,298,14325,1,2,0:0:0:0:
314,211,14674,1,2,3:2:0:0:
62,53,15721,1,2,0:0:0:0:
104,141,16069,6,0,P|73:197|9:199,2,135,2|2|2,3:2|3:2|0:0,0:0:0:0:
62,53,17465,2,0,P|113:40|163:25,1,89.9999999999999,2|2,3:2|3:2,0:0:0:0:
226,91,18162,1,8,1:0:0:0:
301,154,18511,2,0,P|387:128|477:109,2,180,2|2|2,0:0|3:2|0:0,0:0:0:0:
207,185,20255,5,2,3:2:0:0:
147,373,20953,2,0,P|189:357|231:342,1,89.9999999999999,8|2,1:0|3:0,0:0:0:0:
329,358,21651,2,0,P|317:314|302:272,2,89.9999999999999,2|2|8,3:2|3:2|1:0,0:0:0:0:
426,377,22697,1,2,3:2:0:0:
478,293,23046,6,0,P|461:245|449:197,1,89.9999999999999,4|2,3:2|0:0,0:0:0:0:
477,111,23744,2,0,P|453:35|347:51,1,180,12|2,1:0|0:0,0:0:0:0:
237,185,25139,2,0,P|192:178|147:172,1,89.9999999999999,8|2,1:0|0:0,0:0:0:0:
82,97,25837,5,2,3:2:0:0:
8,163,26186,2,0,P|26:242|50:352,1,180,2|2,0:0|0:0,0:0:0:0:
143,361,27232,1,2,3:2:0:0:
200,280,27581,2,0,P|293:293|386:308,1,180,2|2,3:2|3:2,0:0:0:0:
441,230,28627,6,0,P|430:186|421:142,1,89.9999999999999,4|2,3:2|3:2,0:0:0:0:
343,80,29325,1,8,1:0:0:0:
279,156,29674,2,0,P|194:147|171:65,2,180,2|2|4,3:2|3:2|0:0,0:0:0:0:
343,80,31418,5,2,3:2:0:0:
421,142,31767,2,0,P|431:185|440:229,1,89.9999999999999,12|8,1:0|1:0,0:0:0:0:
382,310,32465,1,2,0:0:0:0:
295,261,32814,2,0,P|226:271|205:337,2,135,8|8|8,1:0|1:0|1:0,0:0:0:0:
382,310,34209,5,4,1:0:0:0:
460,249,45372,6,0,P|469:206|481:160,2,89.9999999999999,4|2|0,0:0|3:2|1:0,0:0:0:0:
382,310,46418,1,2,0:0:0:0:
322,231,46767,2,0,P|254:214|144:196,1,180,2|0,0:0|1:0,0:0:0:0:
78,123,47814,1,2,0:0:0:0:
153,59,48162,6,0,P|234:77|239:160,2,180,2|0|0,0:0|1:0|0:0,0:0:0:0:
78,123,49907,1,2,0:0:0:0:
145,196,50255,2,0,P|131:235|120:293,1,89.9999999999999,0|2,1:0|0:0,0:0:0:0:
193,351,50953,6,0,P|291:331|302:259,1,180,2|0,0:0|1:0,0:0:0:0:
265,69,52348,2,0,P|356:101|448:118,2,180,2|0|2,0:0|1:0|0:0,0:0:0:0:
185,9,54093,5,2,0:0:0:0:
121,84,54441,1,0,1:0:0:0:
171,274,55139,2,0,P|87:244|0:227,2,180,8|8|4,0:1|0:1|1:0,0:0:0:0:
249,334,56883,6,0,P|301:322|349:308,1,89.9999999999999,2|8,0:0|1:0,0:0:0:0:
421,363,57581,1,2,0:0:0:0:
477,281,57930,2,0,P|468:189|377:171,1,180,2|8,3:2|1:0,0:0:0:0:
305,209,58976,1,2,0:0:0:0:
246,128,59325,6,0,P|263:37|347:27,2,180,2|8|0,3:2|1:0|3:0,0:0:0:0:
305,209,61069,1,2,3:2:0:0:
234,278,61418,2,0,P|184:268|113:260,1,89.9999999999999,8|2,1:0|0:0,0:0:0:0:
101,173,62116,6,0,P|56:166|12:157,2,89.9999999999999,2|2|8,3:2|3:2|1:0,0:0:0:0:
165,97,63162,2,0,P|252:112|348:127,2,180,2|2|2,0:0|3:2|0:0,0:0:0:0:
122,7,64907,5,2,3:2:0:0:
8,169,65604,2,0,P|11:240|68:257,1,135,8|8,1:0|0:1,0:0:0:0:
69,356,66476,2,0,P|94:297|157:300,1,135,8|8,0:1|1:0,0:0:0:0:
346,360,67697,6,0,P|398:349|451:340,2,89.9999999999999,4|2|8,3:1|0:0|1:0,0:0:0:0:
251,330,68744,1,2,0:0:0:0:
301,244,69093,2,0,P|292:159|203:148,1,180,2|8,0:0|1:0,0:0:0:0:
138,211,70139,1,8,0:1:0:0:
44,179,70488,6,0,P|26:90|6:3,2,180,2|8|0,3:2|1:0|3:0,0:0:0:0:
138,211,72232,1,0,3:0:0:0:
210,143,72581,2,0,P|197:95|187:38,1,89.9999999999999,8|2,1:0|0:0,0:0:0:0:
273,2,73279,6,0,P|361:29|360:115,1,180,2|8,3:2|1:0,0:0:0:0:
307,185,74325,1,2,3:2:0:0:
395,230,74674,1,2,3:2:0:0:
128,360,75721,1,2,0:0:0:0:
44,306,76069,6,0,P|14:226|77:168,1,180,2|8,3:2|1:0,0:0:0:0:
171,136,77116,1,2,0:0:0:0:
255,188,77465,2,0,P|362:129|312:17,1,270,2|12,1:2|1:0,0:0:0:0:
213,16,78860,5,4,1:0:0:0:
267,98,79208,2,0,P|353:113|444:128,1,180,2|8,1:2|3:0,0:0:0:0:
503,207,80255,2,0,P|514:249|489:285,1,89.9999999999999,0|12,1:0|1:3,0:0:0:0:
397,323,80953,6,0,B|484:336|484:336|501:379,2,135,6|2|2,1:0|1:2|1:2,0:0:0:0:
312,374,82348,2,0,L|223:360,1,89.9999999999999,2|2,1:0|1:0,0:0:0:0:
156,286,83046,1,4,1:0:0:0:
291,226,83569,1,2,1:2:0:0:
426,166,84092,1,2,1:2:0:0:
364,88,84441,2,0,L|275:74,1,89.9999999999999,2|2,1:0|1:0,0:0:0:0:
185,116,85139,6,0,P|155:54|86:64,2,135,4|2|2,1:0|1:2|1:2,0:0:0:0:
127,196,86534,1,2,1:0:0:0:
214,241,86883,1,2,1:0:0:0:
145,312,87232,2,0,B|58:334|58:334|31:373,2,135,4|2|2,1:0|1:2|1:2,0:0:0:0:
237,347,88627,2,0,L|337:322,1,89.9999999999999,14|6,1:3|1:3,0:0:0:0:
398,259,89325,6,0,B|376:346|376:346|421:400,2,135,6|2|2,1:0|1:2|1:2,0:0:0:0:
479,202,90720,2,0,L|502:113,1,89.9999999999999,2|2,1:0|1:0,0:0:0:0:
428,47,91418,1,4,1:0:0:0:
321,150,91941,1,2,1:2:0:0:
214,253,92464,1,2,1:2:0:0:
149,177,92813,2,0,L|172:88,1,89.9999999999999,2|2,1:0|1:0,0:0:0:0:
95,25,93511,6,0,P|38:35|35:108,2,135,4|2|2,1:0|1:2|1:2,0:0:0:0:
171,89,94906,1,2,1:0:0:0:
148,185,95255,1,2,1:0:0:0:
125,281,95604,1,4,1:0:0:0:
245,367,96127,2,0,P|302:357|305:284,1,135,8|2,1:3|1:2,0:0:0:0:
248,211,96999,1,2,1:0:0:0:
271,115,97348,1,8,1:3:0:0:
363,79,97697,6,0,B|416:92|416:92|439:117|439:117|484:127,2,135,4|2|2,1:0|1:2|1:2,0:0:0:0:
271,115,99092,2,0,L|163:90,1,89.9999999999999,2|2,1:0|1:0,0:0:0:0:
112,24,99790,1,4,1:0:0:0:
6,128,100313,1,2,1:2:0:0:
43,271,100836,1,2,1:2:0:0:
137,240,101185,2,0,L|224:260,1,89.9999999999999,2|2,1:0|1:0,0:0:0:0:
319,290,101883,6,0,P|256:294|239:364,2,135,4|2|2,1:0|1:2|1:2,0:0:0:0:
409,331,103278,1,2,1:0:0:0:
479,260,103627,1,2,1:0:0:0:
435,171,103976,1,4,1:0:0:0:
506,41,104499,2,0,B|468:64|468:64|378:49,1,135,2|2,1:2|1:2,0:0:0:0:
300,110,105371,2,0,L|200:93,1,89.9999999999999,14|6,1:3|1:3,0:0:0:0:
126,145,106069,6,0,B|114:94|114:94|79:80|79:80|66:32,2,135,4|2|2,1:0|1:2|1:2,0:0:0:0:
53,212,107464,2,0,L|75:314,1,89.9999999999999,2|2,1:0|1:0,0:0:0:0:
153,356,108162,1,4,1:0:0:0:
266,260,108685,1,2,1:2:0:0:
409,299,109208,1,2,1:2:0:0:
464,216,109557,2,0,L|445:128,1,89.9999999999999,2|2,1:0|1:0,0:0:0:0:
357,81,110255,6,0,P|329:23|266:27,2,135,4|2|2,1:0|1:2|1:2,0:0:0:0:
314,170,111650,1,2,1:0:0:0:
228,120,111999,1,2,1:0:0:0:
185,209,112348,2,0,B|98:232|98:232|73:286,2,135,4|2|14,1:0|1:2|1:3,0:0:0:0:
272,255,113743,2,0,L|294:355,1,89.9999999999999,6|0,1:3|0:0,0:0:0:0:
