osu file format v14

[General]
AudioFilename: audio.mp3
AudioLeadIn: 0
PreviewTime: 64561
Countdown: 0
SampleSet: Soft
StackLeniency: 0.3
Mode: 0
LetterboxInBreaks: 0
WidescreenStoryboard: 1

[Editor]
DistanceSpacing: 1.2
BeatDivisor: 4
GridSize: 4
TimelineZoom: 4.5

[Metadata]
Title:Take
TitleUnicode:竹
Artist:Risshuu feat. Choko
ArtistUnicode:立秋 feat. ちょこ
Creator:yf_bmp
Version:wyrio's Another
Source:
Tags:bamboo masato ishioh 石王マサト bofxvi the bms of fighters xvi arcaea muse dash video game japanese novelty rabbit usagi electronic ウサギ Muziyami Koiyuki wyrio Moecho Gust Yorita Yoshino toybot nika mika xLolicore- My Angel Watame dahkjdas
BeatmapID:2848365
BeatmapSetID:1376486

[Difficulty]
HPDrainRate:5
CircleSize:4
OverallDifficulty:7
ApproachRate:9
SliderMultiplier:1.3
SliderTickRate:1

[Events]
//Background and Video events
Video,0,"bga_take.mp4"
0,0,"bg_take.png",0,0
//Break Periods
2,23930,28529
//Storyboard Layer 0 (Background)
//Storyboard Layer 1 (Fail)
//Storyboard Layer 2 (Pass)
//Storyboard Layer 3 (Foreground)
//Storyboard Layer 4 (Overlay)
//Storyboard Sound Samples

[TimingPoints]
120,400,4,2,1,80,1,0
1270,-100,4,2,1,5,0,0
1320,-100,4,2,1,80,0,0
1720,-90.9090909090909,4,2,1,80,0,0
13320,273.972602739726,4,2,1,80,1,0
13320,-133.333333333333,4,2,1,80,0,0
13936,-133.333333333333,4,2,1,5,0,0
14004,-133.333333333333,4,2,1,80,0,0
14552,-100,4,2,1,80,0,0
14963,-80,4,2,1,80,0,0
23765,-80,4,2,1,5,0,0
24279,333.333333333333,4,2,1,40,1,0
29279,461.538461538462,4,2,1,80,1,0
29740,461.538461538462,4,2,1,80,1,0
29740,-83.3333333333333,4,2,1,80,0,0
32855,-83.3333333333333,4,2,1,20,0,0
32970,-83.3333333333333,4,2,1,80,0,0
33894,422.535211267606,4,2,1,80,1,0
33894,-83.3333333333333,4,2,1,80,0,0
37697,387.096774193548,4,2,1,80,1,0
37697,-83.3333333333333,4,2,1,80,0,0
41181,363.636363636364,4,2,1,80,1,0
41181,-83.3333333333333,4,2,1,80,0,0
41544,-100,4,2,1,80,0,0
42636,342.857142857143,4,2,1,80,1,0
43064,-100,4,2,1,5,0,0
43150,-100,4,2,1,80,0,0
43236,-100,4,2,1,5,0,0
43321,-100,4,2,1,80,0,0
44350,327.868852459016,4,2,1,80,1,0
46973,307.692307692308,4,2,1,80,1,0
49434,300,4,2,1,80,1,0
50634,292.682926829268,4,2,1,80,1,0
51811,279.06976744186,4,2,1,80,1,0
52922,273.972602739726,4,2,1,80,1,0
53743,-66.6666666666667,4,2,1,80,0,0
54017,307.692307692308,4,2,1,80,1,0
54632,-100,4,2,0,80,0,0
55864,273.972602739726,4,2,1,80,1,0
56274,-80,4,2,1,80,0,0
56411,273.972602739726,4,2,1,80,1,0
56684,-80,4,2,1,80,0,0
73946,276.497695852535,4,2,1,80,1,0
74015,-100,4,2,1,5,0,0
74084,-100,4,2,1,80,0,0
74153,-100,4,2,1,5,0,0
74222,292.682926829268,4,2,1,80,1,0
74295,-100,4,2,1,5,0,0
74368,-100,4,2,1,80,0,0
74441,-100,4,2,1,5,0,0
74515,307.692307692308,4,2,1,80,1,0
74591,-100,4,2,1,5,0,0
74668,-100,4,2,1,80,0,0
74745,-100,4,2,1,5,0,0
74823,327.868852459016,4,2,1,80,1,0
74904,-100,4,2,1,5,0,0
74986,-100,4,2,1,80,0,0
75068,-100,4,2,1,5,0,0
75150,-100,4,2,1,80,0,0
75314,-100,4,2,1,5,0,0
75588,-100,4,2,1,80,0,0
76462,327.868852459016,4,2,1,80,1,0
97773,-100,4,2,1,50,0,0
97882,-100,4,2,1,80,0,0
98757,-80,4,2,1,80,0,0
111298,-80,4,2,1,30,0,0
111380,-80,4,2,1,80,0,0
111461,-80,4,2,1,30,0,0
111543,-80,4,2,1,80,0,0
111625,-80,4,2,1,30,0,0
111707,-80,4,2,1,80,0,0
115150,-66.6666666666667,4,2,1,80,0,0
115232,-66.6666666666667,4,2,1,5,0,0
115806,521.739130434783,4,2,1,80,1,0
116850,375,4,2,1,80,1,0
117600,307.692307692308,4,2,1,80,1,0
118215,272.727272727273,4,2,1,80,1,0
118761,255.31914893617,4,2,1,80,1,0
119271,235.294117647059,4,2,1,80,1,0
119624,218.181818181818,4,2,1,80,1,0
119624,-80,4,2,1,80,0,0
119733,218.181818181818,4,2,1,80,1,0
119951,-80,4,2,1,80,0,0
125842,200,4,2,1,80,1,0
125842,-80,4,2,1,80,0,0
126547,190.47619047619,4,2,1,80,1,0
126547,-80,4,2,1,80,0,0
126642,190.47619047619,4,2,1,80,1,0
126832,-80,4,2,1,80,0,0
132356,218.181818181818,4,2,1,80,1,0
132720,461.538461538462,4,2,1,80,1,0
132951,324.324324324324,4,2,1,80,1,0
133600,279.06976744186,4,2,1,80,1,0
134158,260.869565217391,4,2,1,80,1,0
134680,240,4,2,1,80,1,0
135160,222.222222222222,4,2,1,80,1,0
135604,210.526315789474,4,2,1,80,1,0
136025,200,4,2,1,80,1,0
136425,190.47619047619,4,2,1,80,1,0
136758,750,4,2,1,80,1,0
139695,-100,4,2,1,5,0,0
139758,273.972602739726,4,2,1,80,1,0

[Colours]
Combo1 : 64,187,73
Combo2 : 255,98,89
Combo3 : 114,114,114
Combo4 : 255,227,147
Combo5 : 115,160,255
Combo6 : 196,95,243
Combo7 : 255,92,199
Combo8 : 118,194,33

[HitObjects]
60,87,920,6,0,P|101:65|74:105,1,130,2|2,2:1|0:0,0:0:0:0:
25,215,1720,6,0,B|48:214|48:214|66:220|66:220|82:217|82:217|120:222,1,85.8000026184083,0|2,1:0|0:0,0:0:0:0:
129,237,2040,1,2,0:1:0:0:
129,237,2120,2,0,L|161:228,1,28.6000008728028,0|2,1:0|0:1,0:0:0:0:
231,252,2360,1,2,0:1:0:0:
153,155,2520,6,0,B|176:154|176:154|194:160|194:160|210:157|210:157|248:162,1,85.8000026184083,0|2,1:0|0:0,0:0:0:0:
257,177,2840,1,2,0:1:0:0:
257,177,2920,2,0,L|289:168,1,28.6000008728028,0|2,1:0|0:1,0:0:0:0:
359,192,3160,1,2,0:1:0:0:
272,93,3320,6,0,B|295:92|295:92|313:98|313:98|329:95|329:95|367:100,1,85.8000026184083,0|2,1:0|0:0,0:0:0:0:
376,115,3640,1,2,0:1:0:0:
376,115,3720,2,0,L|408:106,1,28.6000008728028,0|2,1:0|0:1,0:0:0:0:
478,130,3960,1,2,0:1:0:0:
440,267,4120,6,0,L|491:255,2,47.6666681213379,0|2|2,1:0|0:1|0:0,0:0:0:0:
376,194,4520,2,0,L|293:182,2,47.6666681213379,0|2|2,1:0|2:1|2:2,0:0:0:0:
361,325,4920,6,0,B|338:326|338:326|320:320|320:320|304:323|304:323|266:318,1,85.8000026184083,0|2,1:0|0:0,0:0:0:0:
257,303,5240,1,2,0:1:0:0:
257,303,5320,2,0,L|225:312,1,28.6000008728028,0|2,1:0|0:1,0:0:0:0:
155,288,5560,1,2,0:1:0:0:
32,218,5720,6,0,B|55:219|55:219|73:213|73:213|89:216|89:216|127:211,1,85.8000026184083,0|2,1:0|0:0,0:0:0:0:
136,196,6040,1,2,0:1:0:0:
136,196,6120,2,0,L|168:205,1,28.6000008728028,0|2,1:0|0:1,0:0:0:0:
238,181,6360,1,2,0:1:0:0:
224,72,6520,5,0,1:0:0:0:
224,72,6680,1,2,2:0:0:0:
224,72,6920,6,0,B|223:95|223:95|229:113|229:113|226:129|226:129|231:167,1,85.8000026184083,0|2,1:0|0:0,0:0:0:0:
246,176,7240,1,2,0:1:0:0:
246,176,7320,2,0,L|237:208,1,28.6000008728028,0|2,1:0|0:1,0:0:0:0:
261,278,7560,1,2,0:1:0:0:
329,152,7720,6,0,B|328:175|328:175|334:193|334:193|331:209|331:209|336:247,1,85.8000026184083,0|2,1:0|0:0,0:0:0:0:
351,256,8040,1,2,0:1:0:0:
351,256,8120,2,0,L|342:288,1,28.6000008728028,0|2,1:0|0:1,0:0:0:0:
366,358,8360,1,2,0:1:0:0:
444,203,8520,6,0,B|421:209|421:209|406:220|406:220|390:222|390:222|355:239,1,85.8000026184083,0|2,1:0|0:0,0:0:0:0:
351,256,8840,1,2,0:1:0:0:
351,256,8920,2,0,L|317:257,1,28.6000008728028,0|2,1:0|0:1,0:0:0:0:
259,301,9160,1,2,0:1:0:0:
430,328,9320,6,0,B|417:308|417:308|401:297|401:297|394:283|394:283|368:255,1,85.8000026184083,0|2,1:0|0:0,0:0:0:0:
351,256,9640,1,2,0:1:0:0:
351,256,9720,2,0,L|339:224,1,28.6000008728028,0|2,1:0|0:1,0:0:0:0:
278,183,9960,1,2,0:1:0:0:
306,354,10120,6,0,B|320:335|320:335|326:317|326:317|337:306|337:306|356:273,1,85.8000026184083,0|2,1:0|0:0,0:0:0:0:
351,256,10440,1,2,0:1:0:0:
351,256,10520,2,0,L|377:235,1,28.6000008728028,0|2,1:0|0:1,0:0:0:0:
399,166,10760,1,2,0:1:0:0:
244,244,10920,6,0,B|266:251|266:251|285:251|285:251|299:258|299:258|336:266,1,85.8000026184083,0|2,1:0|0:0,0:0:0:0:
351,256,11240,1,2,0:1:0:0:
351,256,11320,2,0,L|379:274,1,28.6000008728028,0|2,1:0|0:1,0:0:0:0:
451,274,11560,1,2,0:1:0:0:
495,158,11720,5,0,1:0:0:0:
476,75,11880,1,2,0:1:0:0:
386,110,12040,2,0,L|402:185,2,57.2000017456055,2|2|2,0:0|0:2|0:0,0:0:0:0:
207,95,12520,5,2,0:1:0:0:
213,7,12680,1,2,0:0:0:0:
308,32,12840,2,0,L|305:98,2,57.2000017456055,2|2|2,0:0|0:0|0:1,0:0:0:0:
273,207,13320,6,0,B|267:157|267:157|269:153|269:153|258:61|258:61|261:60|261:60|254:6,1,195.00000743866,2|0,0:1|0:0,0:0:0:0:
146,80,14004,1,2,0:2:0:0:
146,80,14141,6,0,L|97:72,2,48.750001859665,2|2|2,0:0|0:0|0:1,0:0:0:0:
178,162,14552,6,0,L|113:152,2,65,2|2|0,0:1|0:1|0:0,0:0:0:0:
207,248,14963,6,0,L|127:236,2,81.25,0|0|0,1:0|1:0|1:0,0:0:0:0:
253,363,15374,6,0,B|315:359|315:359|318:352|318:352|417:343,1,162.5,4|2,1:1|0:0,0:0:0:0:
494,284,15785,6,0,B|498:250|498:250|502:246|502:246|505:201,1,81.25,8|2,1:0|3:2,0:0:0:0:
422,252,16059,6,0,B|426:218|426:218|430:214|430:214|433:169,1,81.25,2|2,1:3|3:2,0:0:0:0:
350,220,16333,6,0,B|354:186|354:186|358:182|358:182|361:137,1,81.25,8|2,1:0|3:2,0:0:0:0:
278,188,16607,6,0,B|282:154|282:154|286:150|286:150|289:105,1,81.25,0|2,1:0|3:2,0:0:0:0:
207,158,16881,6,0,B|211:124|211:124|215:120|215:120|218:75,1,81.25,8|2,1:0|3:2,0:0:0:0:
135,126,17155,6,0,B|139:92|139:92|143:88|143:88|146:43,2,81.25,2|0|0,1:3|1:0|1:0,0:0:0:0:
1,177,17566,6,0,B|8:230|8:230|12:231|12:231|31:343,1,162.5,0|2,1:2|3:2,0:0:0:0:
137,352,17977,6,0,B|130:315|130:315|133:309|133:309|125:270,1,81.25,8|2,1:0|3:2,0:0:0:0:
201,236,18251,6,0,B|208:272|208:272|205:278|205:278|212:315,1,81.25,2|0,1:3|1:0,0:0:0:0:
286,273,18525,6,0,B|279:236|279:236|282:230|282:230|274:191,1,81.25,8|2,1:0|3:2,0:0:0:0:
350,157,18799,6,0,B|357:193|357:193|354:199|354:199|361:236,1,81.25,0|0,1:0|1:0,0:0:0:0:
436,203,19073,6,0,B|429:166|429:166|432:160|432:160|424:121,1,81.25,8|2,1:0|1:2,0:0:0:0:
315,17,19347,6,0,B|244:9|244:9|243:16|243:16|195:11|195:11|195:5|195:5|162:-1,1,162.5,2|8,1:3|1:0,0:0:0:0:
76,119,19758,6,0,B|126:113|126:113|151:103|151:103|178:107|178:107|237:98,1,162.5,4|2,1:1|3:2,0:0:0:0:
394,144,20169,6,0,B|366:140|366:140|353:135|353:135|338:137|338:137|306:132,1,81.25,8|2,1:0|3:2,0:0:0:0:
246,186,20443,6,0,B|223:190|223:190|208:188|208:188|195:193|195:193|167:197,1,81.25,2|2,1:3|1:2,0:0:0:0:
178,290,20717,6,0,B|206:286|206:286|219:281|219:281|234:283|234:283|257:279,1,81.25,8|0,1:0|3:0,0:0:0:0:
325,226,20991,6,0,B|349:230|349:230|364:228|364:228|377:233|377:233|405:237,1,81.25,0|2,1:0|1:2,0:0:0:0:
417,331,21265,6,0,B|389:327|389:327|376:322|376:322|361:324|361:324|329:319,1,81.25,8|2,1:0|1:2,0:0:0:0:
190,384,21539,6,0,B|218:380|218:380|231:375|231:375|246:377|246:377|278:372,2,81.25,2|0|0,1:3|1:0|1:0,0:0:0:0:
42,350,21950,6,0,B|33:320|33:320|40:277|40:277|45:273|45:273|51:213|51:213|42:190,1,162.5,2|0,1:2|1:0,0:0:0:0:
43,193,22292,1,0,1:0:0:0:
43,193,22361,6,0,B|81:202|81:202|85:199|85:199|123:210,1,81.25,8|0,1:0|1:0,0:0:0:0:
176,63,22635,2,0,B|138:73|138:73|136:80|136:80|94:89,2,81.25,2|2|2,1:3|1:2|1:2,0:0:0:0:
244,142,23046,1,0,1:0:0:0:
244,142,23183,6,0,B|275:139|275:139|282:143|282:143|327:137,1,81.25,0|6,1:0|1:2,0:0:0:0:
461,89,23456,2,0,B|419:84|419:84|418:80|418:80|380:77,1,81.25,0|4,1:2|1:2,0:0:0:0:
318,25,23730,1,2,1:3:0:0:
146,95,29279,5,2,0:0:0:0:
146,95,29394,1,2,0:1:0:0:
146,95,29509,2,0,L|184:86,1,32.5,2|2,0:2|0:1,0:0:0:0:
214,16,29740,6,0,B|250:19|250:19|266:25|266:25|281:22|281:22|335:25,1,116.999996429443,0|2,1:0|0:1,0:0:0:0:
412,44,30201,2,0,B|398:62|398:62|403:137,1,77.999997619629,0|2,1:0|2:1,0:0:0:0:
506,246,30663,2,0,B|467:243|467:243|463:239|463:239|421:235,1,77.999997619629,0|2,1:0|0:2,0:0:0:0:
479,89,31124,2,0,L|489:180,1,77.999997619629,0|2,1:0|0:2,0:0:0:0:
435,317,31586,5,0,1:0:0:0:
435,317,31816,1,0,0:0:0:0:
342,184,32047,2,0,B|316:182|316:182|305:177|305:177|291:182|291:182|248:177,1,77.999997619629,0|2,1:0|0:2,0:0:0:0:
92,238,32509,2,0,B|120:234|120:234|155:242|155:242|178:230|178:230|233:228,1,116.999996429443,0|0,1:0|0:0,0:0:0:0:
266,179,32970,2,0,L|275:130,3,38.9999988098145,0|2|2|2,1:0|0:1|2:2|0:1,0:0:0:0:
209,96,33432,6,0,L|196:-7,1,77.999997619629,0|2,0:0|0:0,0:0:0:0:
372,0,33894,2,0,B|380:51|380:51|375:62|375:62|386:129,1,116.999996429443,0|2,1:0|0:1,0:0:0:0:
377,201,34316,2,0,B|352:191|352:191|283:191,1,77.999997619629,0|2,1:0|2:1,0:0:0:0:
157,168,34739,2,0,B|197:165|197:165|203:157|203:157|260:152,1,77.999997619629,0|2,1:0|0:0,0:0:0:0:
329,263,35161,2,0,L|243:267,1,77.999997619629,0|2,1:0|0:0,0:0:0:0:
82,165,35584,6,0,B|87:203|87:203|97:225|97:225|94:254|94:254|101:302,1,116.999996429443,0|2,1:0|0:1,0:0:0:0:
183,353,36006,2,0,B|176:305|176:305|180:296|180:296|176:276,1,77.999997619629,0|2,1:0|0:0,0:0:0:0:
15,237,36429,1,0,1:0:0:0:
15,237,36640,1,2,0:0:0:0:
112,90,36851,2,0,L|61:87,3,38.9999988098145,0|2|2|2,1:0|0:1|2:0|2:1,0:0:0:0:
66,11,37274,6,0,L|161:20,1,77.999997619629,0|2,0:0|0:0,0:0:0:0:
318,50,37697,2,0,B|262:55|262:55|258:63|258:63|183:68,1,116.999996429443,0|2,1:0|0:1,0:0:0:0:
173,139,38084,2,0,B|188:160|188:160|177:228,1,77.999997619629,0|2,1:0|2:1,0:0:0:0:
81,331,38471,2,0,B|71:287|71:287|74:284|74:284|65:244,1,77.999997619629,0|2,1:0|0:0,0:0:0:0:
217,275,38858,2,0,B|221:309|221:309|227:314|227:314|232:357,1,77.999997619629,0|2,1:0|0:0,0:0:0:0:
81,331,39245,6,0,L|170:348,1,77.999997619629,0|2,1:0|2:2,0:0:0:0:
109,177,39632,2,0,L|23:160,1,77.999997619629,0|2,1:0|0:1,0:0:0:0:
109,19,40019,2,0,L|200:36,1,77.999997619629,0|2,1:0|0:0,0:0:0:0:
336,91,40406,2,0,L|380:78,3,38.9999988098145,0|2|2|2,1:1|0:1|2:0|0:1,0:1:0:0:
416,144,40793,6,0,L|326:172,1,77.999997619629,0|2,0:0|0:0,0:0:0:0:
277,33,41181,2,0,B|326:21|326:21|328:16|328:16|390:0,1,116.999996429443,0|0,1:0|0:0,0:0:0:0:
467,30,41544,2,0,L|487:112,1,65,0|2,1:0|2:1,0:0:0:0:
499,235,41908,2,0,L|482:162,1,65,0|2,1:0|0:0,0:0:0:0:
341,167,42271,2,0,L|358:256,1,65,0|2,1:0|0:0,0:0:0:0:
500,314,42636,6,0,B|421:300,1,65,0|2,1:0|2:0,0:0:0:0:
309,378,42978,2,0,B|387:346,1,65,0|2,1:0|2:0,0:0:0:0:
419,206,43321,1,0,1:0:0:0:
419,206,43493,1,2,0:0:0:0:
315,93,43664,2,0,L|276:84,3,32.5,0|2|2|2,1:0|0:1|2:0|0:1,0:0:0:0:
357,23,44007,6,0,L|273:1,1,65,0|2,1:0|0:0,0:0:0:0:
170,118,44350,6,0,L|175:79,2,32.5,0|0|10,1:0|1:0|1:2,0:0:0:0:
22,206,44677,2,0,L|32:259,2,32.5,0|0|8,1:0|1:0|1:1,0:0:0:0:
16,51,45005,2,0,L|-24:43,2,32.5,2|2|10,1:3|1:1|3:2,0:0:0:0:
73,124,45333,5,0,1:0:0:0:
129,197,45497,1,8,3:1:0:0:
133,206,45579,1,2,1:1:0:0:
136,215,45661,2,0,L|130:259,2,32.5,0|0|8,1:0|1:0|1:2,0:0:0:0:
185,310,45989,6,0,L|229:301,3,32.5,0|0|8|2,1:0|1:0|1:1|1:1,0:0:0:0:
238,270,46317,2,0,L|281:259,2,32.5,0|0|8,1:0|1:0|1:2,0:0:0:0:
441,323,46645,2,0,L|353:309,1,65,0|2,1:0|3:2,0:0:0:0:
281,338,46973,6,0,L|273:385,2,32.5,0|0|10,1:0|1:0|1:2,0:0:0:0:
318,195,47280,2,0,L|308:151,2,32.5,0|2|8,1:0|1:1|1:1,0:0:0:0:
354,45,47588,5,2,1:3:0:0:
362,58,47665,1,2,1:1:0:0:
370,72,47742,1,8,1:2:0:0:
379,86,47819,1,0,1:0:0:0:
386,97,47896,6,0,L|428:105,3,32.5,2|0|8|2,1:2|1:0|1:1|1:1,0:0:0:0:
449,68,48203,2,0,L|490:75,3,32.5,0|0|8|0,1:0|1:0|1:2|1:0,0:0:0:0:
512,39,48511,1,0,1:0:0:0:
495,201,48665,5,8,1:1:0:0:
488,189,48742,1,2,1:1:0:0:
481,177,48819,2,0,L|492:134,3,32.5,0|0|8|2,1:0|1:0|1:2|3:1,0:0:0:0:
509,116,49126,1,0,1:0:0:0:
259,222,49434,6,0,L|268:268,2,32.5,0|0|10,1:0|1:0|1:2,0:0:0:0:
205,99,49734,2,0,L|160:83,2,32.5,0|2|8,1:0|1:1|1:1,0:0:0:0:
329,108,50034,2,0,L|364:77,3,32.5,2|2|8|0,1:3|1:1|1:2|3:0,0:0:0:0:
373,68,50334,1,0,1:0:0:0:
346,304,50634,6,0,L|305:316,2,32.5,0|0|8,1:0|1:0|1:2,0:0:0:0:
264,158,50926,2,0,L|299:166,2,32.5,0|0|8,1:0|1:0|1:1,0:0:0:0:
324,0,51219,2,0,L|283:13,3,32.5,0|0|8|0,1:0|1:0|1:2|1:0,0:0:0:0:
252,22,51512,1,0,1:0:0:0:
32,166,51811,6,0,P|63:181|75:180,3,32.5,0|0|10|2,0:0|1:0|1:2|1:1,0:0:0:0:
86,209,52090,2,0,P|109:198|124:198,3,32.5,0|0|8|2,1:0|1:0|1:1|1:1,0:0:0:0:
148,175,52369,2,0,L|194:185,5,43.3333333333333,2|0|0|0|0|0,1:3|1:0|1:0|1:0|1:0|1:0,0:0:0:0:
256,192,52922,12,4,54017,0:2:0:0:
432,61,54632,6,0,B|452:80|452:80|439:193,1,130,2|2,0:0|0:0,0:0:0:0:
340,214,55093,1,2,0:0:0:0:
340,214,55247,6,0,B|329:196|329:196|335:145,1,65,2|2,0:0|0:1,0:0:0:0:
253,80,55555,2,0,L|242:149,1,65,0|2,0:0|0:1,0:0:0:0:
428,245,55864,2,0,L|441:177,2,65,0|0|0,1:0|1:0|1:0,0:0:0:0:
259,363,56274,6,0,B|197:359|197:359|194:352|194:352|95:343,1,162.5,4|2,1:1|3:2,0:0:0:0:
18,284,56685,6,0,B|14:250|14:250|10:246|10:246|7:201,1,81.25,8|2,1:0|3:2,0:0:0:0:
90,252,56959,6,0,B|86:218|86:218|82:214|82:214|79:169,1,81.25,2|2,1:3|3:2,0:0:0:0:
162,220,57233,6,0,B|158:186|158:186|154:182|154:182|151:137,1,81.25,8|2,1:0|3:2,0:0:0:0:
234,188,57507,6,0,B|230:154|230:154|226:150|226:150|223:105,1,81.25,0|2,1:0|3:2,0:0:0:0:
305,158,57781,6,0,B|301:124|301:124|297:120|297:120|294:75,1,81.25,8|2,1:0|3:2,0:0:0:0:
377,126,58055,6,0,B|373:92|373:92|369:88|369:88|366:43,2,81.25,2|0|0,1:3|1:0|1:0,0:0:0:0:
511,177,58466,6,0,B|504:230|504:230|500:231|500:231|481:343,1,162.5,2|2,1:2|3:2,0:0:0:0:
375,352,58877,6,0,B|382:315|382:315|379:309|379:309|387:270,1,81.25,8|2,1:0|3:2,0:0:0:0:
311,236,59151,6,0,B|304:272|304:272|307:278|307:278|300:315,1,81.25,2|2,1:3|3:2,0:0:0:0:
226,273,59425,6,0,B|233:236|233:236|230:230|230:230|238:191,1,81.25,8|2,1:0|3:2,0:0:0:0:
162,157,59699,6,0,B|155:193|155:193|158:199|158:199|151:236,1,81.25,0|0,1:0|1:0,0:0:0:0:
76,203,59973,6,0,B|83:166|83:166|80:160|80:160|88:121,1,81.25,8|0,1:0|1:0,0:0:0:0:
197,17,60247,6,0,B|268:9|268:9|269:16|269:16|317:11|317:11|317:5|317:5|350:-1,1,162.5,2|0,1:3|1:0,0:0:0:0:
436,119,60658,6,0,B|386:113|386:113|361:103|361:103|334:107|334:107|275:98,1,162.5,4|0,1:0|3:0,0:0:0:0:
118,144,61069,6,0,B|146:140|146:140|159:135|159:135|174:137|174:137|206:132,1,81.25,8|2,1:0|3:2,0:0:0:0:
266,186,61343,6,0,B|289:190|289:190|304:188|304:188|317:193|317:193|345:197,1,81.25,2|0,1:3|3:2,0:0:0:0:
334,290,61616,6,0,B|306:286|306:286|293:281|293:281|278:283|278:283|255:279,1,81.25,8|0,1:0|3:0,0:0:0:0:
187,226,61891,6,0,B|163:230|163:230|148:228|148:228|135:233|135:233|107:237,1,81.25,0|2,1:0|3:2,0:0:0:0:
95,331,62165,6,0,B|123:327|123:327|136:322|136:322|151:324|151:324|183:319,1,81.25,8|0,1:0|3:2,0:0:0:0:
322,384,62439,6,0,B|294:380|294:380|281:375|281:375|266:377|266:377|234:372,2,81.25,2|0|0,1:3|1:0|1:0,0:0:0:0:
470,350,62850,6,0,B|479:320|479:320|472:277|472:277|467:273|467:273|461:213|461:213|470:190,1,162.5,2|2,1:2|1:2,0:0:0:0:
469,193,63192,1,0,1:0:0:0:
469,193,63261,6,0,B|431:202|431:202|427:199|427:199|389:210,1,81.25,8|0,1:0|1:0,0:0:0:0:
336,63,63535,2,0,B|374:73|374:73|376:80|376:80|418:89,2,81.25,2|0|8,1:3|1:0|1:0,0:0:0:0:
268,142,63946,1,0,1:0:0:0:
268,142,64083,6,0,B|237:139|237:139|230:143|230:143|185:137,1,81.25,0|0,1:0|1:0,0:0:0:0:
51,89,64356,2,0,B|93:84|93:84|94:80|94:80|132:77,1,81.25,0|0,1:0|1:0,0:0:0:0:
254,21,64630,1,2,1:3:0:0:
254,21,64767,1,0,1:0:0:0:
254,21,64904,1,0,1:0:0:0:
254,21,65041,6,0,B|192:25|192:25|189:32|189:32|90:41,1,162.5,4|2,1:0|3:2,0:0:0:0:
13,100,65452,6,0,B|9:134|9:134|5:138|5:138|2:183,1,81.25,8|2,1:0|3:2,0:0:0:0:
85,132,65726,6,0,B|81:166|81:166|77:170|77:170|74:215,1,81.25,2|2,1:3|3:2,0:0:0:0:
157,164,66000,6,0,B|153:198|153:198|149:202|149:202|146:247,1,81.25,8|2,1:0|3:2,0:0:0:0:
229,196,66274,6,0,B|225:230|225:230|221:234|221:234|218:279,1,81.25,0|2,1:0|3:2,0:0:0:0:
300,226,66548,6,0,B|296:260|296:260|292:264|292:264|289:309,1,81.25,8|2,1:0|3:2,0:0:0:0:
372,258,66822,6,0,B|368:292|368:292|364:296|364:296|361:341,2,81.25,2|0|8,1:3|1:0|1:0,0:0:0:0:
506,207,67233,6,0,B|499:154|499:154|495:153|495:153|476:41,1,162.5,2|2,1:2|1:2,0:0:0:0:
370,32,67644,6,0,B|377:69|377:69|374:75|374:75|382:114,1,81.25,8|2,1:0|3:2,0:0:0:0:
306,148,67918,6,0,B|299:112|299:112|302:106|302:106|295:69,1,81.25,2|2,1:3|1:2,0:0:0:0:
221,111,68192,6,0,B|228:148|228:148|225:154|225:154|233:193,1,81.25,8|2,1:0|3:2,0:0:0:0:
157,227,68466,6,0,B|150:191|150:191|153:185|153:185|146:148,1,81.25,0|0,1:0|1:0,0:0:0:0:
71,181,68740,6,0,B|78:218|78:218|75:224|75:224|83:263,1,81.25,8|2,1:0|1:2,0:0:0:0:
192,367,69014,6,0,B|263:375|263:375|264:368|264:368|312:373|312:373|312:379|312:379|345:385,1,162.5,2|0,1:3|1:0,0:0:0:0:
431,265,69425,6,0,B|381:271|381:271|356:281|356:281|329:277|329:277|270:286,1,162.5,4|0,1:0|3:2,0:0:0:0:
113,240,69836,6,0,B|141:244|141:244|154:249|154:249|169:247|169:247|201:252,1,81.25,8|2,1:0|3:2,0:0:0:0:
261,198,70110,6,0,B|284:194|284:194|299:196|299:196|312:191|312:191|340:187,1,81.25,2|0,1:3|3:2,0:0:0:0:
329,94,70383,6,0,B|301:98|301:98|288:103|288:103|273:101|273:101|250:105,1,81.25,8|0,1:0|3:0,0:0:0:0:
182,158,70658,6,0,B|158:154|158:154|143:156|143:156|130:151|130:151|102:147,1,81.25,0|2,1:0|3:2,0:0:0:0:
90,53,70932,6,0,B|118:57|118:57|131:62|131:62|146:60|146:60|178:65,1,81.25,8|0,1:0|3:0,0:0:0:0:
317,0,71206,6,0,B|289:4|289:4|276:9|276:9|261:7|261:7|229:12,2,81.25,2|0|0,1:3|1:0|1:0,0:0:0:0:
465,34,71617,6,0,B|474:64|474:64|467:107|467:107|462:111|462:111|456:171|456:171|465:194,1,162.5,2|2,1:2|1:2,0:0:0:0:
464,191,71959,1,0,1:0:0:0:
464,191,72028,6,0,B|426:182|426:182|422:185|422:185|384:174,1,81.25,8|0,1:0|1:0,0:0:0:0:
331,321,72302,2,0,B|369:311|369:311|371:304|371:304|413:295,2,81.25,2|0|0,1:3|1:0|1:0,0:0:0:0:
263,242,72713,1,0,1:0:0:0:
263,242,72850,6,0,B|232:245|232:245|225:241|225:241|180:247,1,81.25,0|0,1:0|1:0,0:0:0:0:
46,295,73123,2,0,B|88:300|88:300|89:304|89:304|127:307,1,81.25,4|0,1:2|1:0,0:0:0:0:
189,359,73397,1,2,1:3:0:0:
189,359,73671,6,0,L|201:312,3,40.625,2|2|2|2,0:0|0:0|0:0|0:0,0:0:0:0:
205,308,73946,6,0,L|277:284,1,65,2|2,1:2|2:2,0:0:0:0:
144,177,74222,6,0,L|189:238,1,65,2|2,2:2|2:2,0:0:0:0:
241,68,74515,6,0,L|196:129,1,65,2|2,2:2|2:2,0:0:0:0:
366,137,74823,6,0,L|293:114,1,65,2|2,2:2|2:2,0:0:0:0:
362,267,75150,5,2,3:3:0:0:
487,72,75588,1,2,3:2:0:0:
261,44,76025,1,2,3:2:0:0:
261,44,76462,6,0,L|275:137,2,86.6666666666667,0|2|2,1:0|0:0|0:1,0:0:0:0:
291,216,77117,2,0,L|305:309,2,86.6666666666667,4|2|2,1:3|0:0|0:1,0:0:0:0:
33,130,77773,6,0,L|47:223,1,86.6666666666667,0|2,1:0|0:0,0:0:0:0:
65,296,78210,1,2,1:1:0:0:
65,296,78428,2,0,L|79:389,2,86.6666666666667,8|2|2,1:2|0:0|0:1,0:0:0:0:
185,38,79084,6,0,L|171:131,2,86.6666666666667,0|2|2,1:0|0:0|0:1,0:0:0:0:
155,210,79739,2,0,L|141:303,2,86.6666666666667,4|2|2,1:3|0:0|0:1,0:0:0:0:
413,124,80396,6,0,L|399:217,1,86.6666666666667,0|2,1:0|0:0,0:0:0:0:
381,290,80832,1,2,1:1:0:0:
381,290,81052,2,0,L|367:383,2,86.6666666666667,8|2|2,1:2|0:0|0:1,0:0:0:0:
425,63,81707,6,0,L|355:49,1,65,0|2,1:0|0:2,0:0:0:0:
466,186,82035,2,0,L|480:116,1,65,2|2,0:1|1:2,0:0:0:0:
339,229,82363,2,0,L|409:243,1,65,4|2,1:3|0:2,0:0:0:0:
298,106,82691,2,0,L|284:176,1,65,2|2,0:1|0:2,0:0:0:0:
96,178,83019,6,0,L|166:164,1,65,0|2,1:0|0:2,0:0:0:0:
55,301,83347,2,0,L|41:231,1,65,2|2,0:1|0:2,0:0:0:0:
182,344,83675,2,0,L|112:358,1,65,8|2,1:2|0:0,0:0:0:0:
223,221,84003,2,0,L|237:291,1,65,2|2,0:1|0:0,0:0:0:0:
386,114,84330,6,0,L|455:127,1,65,0|2,1:0|0:2,0:0:0:0:
502,192,84576,1,0,1:0:0:0:
502,192,84658,2,0,L|489:267,1,65,2|2,0:1|1:2,0:0:0:0:
302,226,84986,2,0,L|316:157,1,65,4|2,1:3|0:0,0:0:0:0:
418,310,85314,2,0,L|346:294,1,65,2|2,0:1|0:0,0:0:0:0:
135,196,85642,6,0,L|207:180,1,65,0|2,1:0|0:2,0:0:0:0:
167,0,85970,2,0,L|98:13,1,65,2|2,0:1|0:2,0:0:0:0:
63,142,86298,2,0,L|52:77,1,65,8|2,1:2|0:2,0:0:0:0:
251,112,86626,2,0,L|237:43,1,65,2|2,0:1|0:2,0:0:0:0:
323,175,86953,6,0,L|384:150,3,52,0|2|2|2,1:0|0:1|0:1|0:0,0:0:0:0:
448,124,87478,1,2,1:2:0:0:
448,124,87609,2,0,L|486:165,4,52,4|2|2|2|2,1:3|0:1|0:1|0:2|0:2,0:0:0:0:
512,235,88265,6,0,L|500:293,2,52,0|2|2,1:0|0:1|0:1,0:0:0:0:
426,276,88658,1,2,1:2:0:0:
426,276,88789,1,2,1:2:0:0:
426,276,88921,2,0,L|438:218,2,52,8|2|2,1:2|0:2|0:1,0:0:0:0:
343,265,89314,2,0,L|330:321,1,52,0|2,1:2|0:2,0:0:0:0:
253,325,89576,6,0,L|237:380,3,52,0|2|2|2,1:0|0:1|0:1|0:2,0:0:0:0:
162,365,90101,1,2,1:2:0:0:
162,365,90232,2,0,L|88:379,4,52,4|2|2|2|2,1:3|0:1|0:1|0:2|0:2,0:0:0:0:
48,319,90888,6,0,L|30:270,2,52,0|2|2,1:0|0:1|0:1,0:0:0:0:
106,242,91281,1,2,1:2:0:0:
106,242,91412,1,2,1:2:0:0:
106,242,91544,2,0,L|128:303,4,52,8|2|2|0|2,1:2|0:2|0:1|1:0|1:2,0:0:0:0:
129,162,92199,6,0,L|83:155,4,43.3333333333333,0|2|2|2|2,1:0|0:2|0:1|0:2|0:1,0:0:0:0:
109,79,92746,1,2,1:2:0:0:
109,79,92855,2,0,L|159:90,5,43.3333333333333,4|2|2|2|2|2,1:3|0:2|0:1|0:2|0:1|0:2,0:0:0:0:
221,57,93511,6,0,L|267:69,1,43.3333333333333,0|2,1:0|0:2,0:0:0:0:
334,93,93729,2,0,L|378:109,1,43.3333333333333,2|2,1:1|0:2,0:0:0:0:
447,133,93948,2,0,L|496:147,1,43.3333333333333,2|2,1:1|0:2,0:0:0:0:
512,73,94166,2,0,L|500:8,2,43.3333333333333,8|2|2,1:2|3:2|0:0,0:0:0:0:
488,144,94494,1,2,1:1:0:0:
488,144,94604,2,0,L|478:202,1,43.3333333333333,2|0,1:1|0:1,0:0:0:0:
435,253,94822,6,0,L|335:270,1,86.6666666666667,0|2,1:0|0:1,0:0:0:0:
283,236,95150,1,2,1:2:0:0:
283,236,95259,1,2,1:1:0:0:
283,236,95369,1,2,1:2:0:0:
283,236,95478,2,0,L|265:147,1,86.6666666666667,4|2,1:3|0:1,0:0:0:0:
432,73,95915,1,2,0:1:0:0:
265,34,96134,5,0,1:0:0:0:
158,177,96352,1,2,0:1:0:0:
278,328,96571,1,2,1:1:0:0:
278,328,96680,1,2,1:2:0:0:
278,328,96789,2,0,L|190:321,1,86.6666666666667,8|2,1:2|0:0,0:0:0:0:
123,289,97117,1,2,1:1:0:0:
123,289,97227,1,2,1:1:0:0:
123,289,97336,1,2,1:2:0:0:
123,289,97445,6,0,B|115:244|115:244|117:240|117:240|113:181|113:181|107:170|107:170|106:150,1,130,2|0,0:0|0:0,0:0:0:0:
169,112,97882,2,0,L|176:59,1,43.3333333333333,2|2,0:1|0:1,0:0:0:0:
251,82,98101,2,0,L|242:142,1,43.3333333333333,2|2,0:1|0:1,0:0:0:0:
320,137,98319,2,0,L|326:88,1,43.3333333333333,2|8,0:1|2:3,0:0:0:0:
444,348,98757,6,0,L|438:292,1,46.4285714285714,0|2,1:0|3:2,0:0:0:0:
498,256,98944,1,2,3:2:0:0:
498,256,99038,2,0,L|490:197,1,46.4285714285714,0|2,1:2|3:2,0:0:0:0:
427,170,99225,5,0,1:0:0:0:
427,170,99319,1,2,1:2:0:0:
427,170,99412,2,0,L|421:116,1,46.4285714285714,4|2,1:3|3:2,0:0:0:0:
487,82,99600,1,0,1:0:0:0:
487,82,99693,2,0,L|479:34,1,46.4285714285714,2|2,1:2|3:2,0:0:0:0:
408,12,99881,5,0,1:0:0:0:
408,12,99974,1,2,1:2:0:0:
408,12,100068,6,0,L|342:5,3,46.4285714285714,0|2|0|2,1:0|1:2|1:0|1:2,0:0:0:0:
327,27,100443,1,0,1:2:0:0:
177,84,100630,5,2,1:2:0:0:
177,84,100724,2,0,L|235:89,1,46.4285714285714,8|2,1:1|3:2,0:0:0:0:
278,155,100911,1,0,1:0:0:0:
278,155,101005,1,2,1:2:0:0:
278,155,101099,2,0,L|332:162,1,46.4285714285714,0|2,1:0|3:2,0:0:0:0:
387,205,101286,1,0,1:0:0:0:
387,205,101380,6,0,L|379:266,1,46.4285714285714,0|2,1:0|3:2,0:0:0:0:
317,291,101567,2,0,L|310:347,1,46.4285714285714,0|2,1:0|3:2,0:0:0:0:
252,384,101754,1,0,1:0:0:0:
146,305,101942,5,0,1:0:0:0:
146,305,102035,2,0,L|138:257,2,46.4285714285714,4|2|0,1:3|1:2|1:0,0:0:0:0:
70,339,102316,2,0,L|59:390,3,46.4285714285714,2|2|0|2,1:2|1:2|1:0|1:2,0:0:0:0:
24,274,102691,6,0,L|37:226,1,46.4285714285714,0|2,1:0|1:2,0:0:0:0:
105,190,102878,2,0,L|122:141,1,46.4285714285714,0|2,1:0|1:2,0:0:0:0:
173,86,103066,1,0,1:0:0:0:
173,86,103159,1,2,1:2:0:0:
173,86,103253,1,0,1:0:0:0:
173,86,103347,6,0,L|232:73,2,46.4285714285714,8|0|0,1:1|0:0|1:0,0:0:0:0:
114,18,103628,1,0,1:0:0:0:
386,260,104002,2,0,L|440:272,3,40.625,0|0|0|0,1:0|1:0|1:0|1:0,0:0:0:0:
465,246,104330,1,0,1:0:0:0:
349,184,104494,1,0,1:0:0:0:
455,105,104658,6,0,L|500:94,3,40.625,4|0|0|0,1:3|1:0|1:0|1:0,0:0:0:0:
511,53,104986,1,0,1:0:0:0:
386,5,105150,1,0,3:0:0:0:
310,115,105314,6,0,L|270:126,3,40.625,0|0|0|0,1:0|1:0|1:0|1:0,0:0:0:0:
232,102,105642,1,0,1:0:0:0:
246,234,105806,1,0,3:0:0:0:
120,290,105970,5,8,1:0:0:0:
37,196,106134,1,0,1:0:0:0:
37,196,106298,2,0,L|-21:177,2,40.625,0|0|0,1:0|3:0|1:0,0:0:0:0:
183,350,106625,6,0,L|229:335,3,40.625,0|0|0|2,1:0|1:0|1:0|1:2,0:0:0:0:
258,345,106953,1,0,1:0:0:0:
324,188,107117,1,0,1:0:0:0:
228,56,107281,6,0,L|279:69,3,40.625,4|0|0|2,1:3|1:0|1:0|1:2,0:0:0:0:
299,30,107609,1,0,1:0:0:0:
324,188,107773,1,0,1:0:0:0:
256,192,107937,12,2,109248,1:2:0:0:
385,127,109740,5,0,0:0:0:0:
385,127,109904,1,2,2:2:0:0:
493,279,110232,1,2,0:0:0:0:
438,68,110560,5,2,0:0:0:0:
412,251,110888,1,2,2:2:0:0:
339,292,111052,1,2,0:0:0:0:
281,232,111216,5,6,1:2:0:0:
281,232,111380,1,2,1:2:0:0:
281,232,111543,1,6,1:2:0:0:
251,337,111707,6,0,B|189:333|189:333|186:326|186:326|87:317,1,162.5,4|2,1:0|0:0,0:0:0:0:
10,258,112199,6,0,B|6:224|6:224|2:220|2:220|-1:175,1,81.25,2|2,2:1|0:0,0:0:0:0:
82,226,112527,6,0,B|78:192|78:192|74:188|74:188|71:143,1,81.25,2|2,1:3|0:0,0:0:0:0:
154,194,112855,6,0,B|150:160|150:160|146:156|146:156|143:111,1,81.25,2|2,0:1|0:0,0:0:0:0:
226,162,113183,6,0,B|222:128|222:128|218:124|218:124|215:79,1,81.25,0|2,1:2|0:0,0:0:0:0:
297,132,113511,6,0,B|293:98|293:98|289:94|289:94|286:49,1,81.25,2|0,0:1|0:0,0:0:0:0:
369,100,113839,6,0,B|365:66|365:66|361:62|361:62|358:17,2,81.25,2|2|2,1:3|0:0|0:1,0:0:0:0:
488,228,114330,6,0,B|492:245|492:245|428:261|428:261|425:256|425:256|371:269|371:269|376:304,1,162.5,0|2,1:0|0:0,0:0:0:0:
220,293,114822,6,0,B|227:254|227:254|235:246|235:246|238:192,1,81.25,2|2,2:1|0:0,0:0:0:0:
444,383,115150,6,0,L|412:293,1,48.750001859665,2|0,1:3|0:0,0:0:0:0:
86,7,116327,5,2,0:0:0:0:
386,46,116849,5,0,0:0:0:0:
381,293,117225,5,2,0:0:0:0:
222,350,117600,5,2,0:0:0:0:
111,231,117907,5,2,0:0:0:0:
209,107,118215,5,2,0:0:0:0:
304,174,118487,5,2,0:0:0:0:
242,242,118760,5,2,0:0:0:0:
191,192,119016,5,2,0:0:0:0:
230,163,119143,1,2,0:0:0:0:
258,191,119271,2,0,B|260:216|260:216|267:221|267:221|270:271,2,65,4|0|4,1:2|1:2|1:2,0:0:0:0:
259,363,119624,6,0,B|197:359|197:359|194:352|194:352|98:347,1,162.5,4|2,1:1|3:2,0:0:0:0:
18,284,119951,6,0,B|14:250|14:250|10:246|10:246|7:201,1,81.25,8|2,1:0|3:2,0:0:0:0:
90,252,120169,6,0,B|86:218|86:218|82:214|82:214|79:169,1,81.25,2|2,1:3|3:2,0:0:0:0:
162,220,120387,6,0,B|158:186|158:186|154:182|154:182|151:137,1,81.25,8|2,1:0|3:2,0:0:0:0:
234,188,120605,6,0,B|230:154|230:154|226:150|226:150|223:105,1,81.25,0|0,1:0|3:0,0:0:0:0:
305,158,120823,6,0,B|301:124|301:124|297:120|297:120|294:75,1,81.25,8|0,1:0|3:0,0:0:0:0:
377,126,121042,6,0,B|373:92|373:92|369:88|369:88|366:43,2,81.25,2|2|2,1:3|1:2|1:2,0:0:0:0:
511,177,121369,6,0,B|504:230|504:230|500:231|500:231|481:343,1,162.5,2|2,1:2|3:2,0:0:0:0:
375,352,121696,6,0,B|382:315|382:315|379:309|379:309|387:270,1,81.25,8|2,1:0|3:2,0:0:0:0:
311,236,121914,6,0,B|304:272|304:272|307:278|307:278|300:315,1,81.25,2|2,1:3|3:2,0:0:0:0:
226,273,122133,6,0,B|233:236|233:236|230:230|230:230|238:191,1,81.25,8|2,1:0|3:2,0:0:0:0:
162,157,122351,6,0,B|155:193|155:193|158:199|158:199|151:236,1,81.25,0|0,1:0|1:0,0:0:0:0:
76,203,122569,6,0,B|83:166|83:166|80:160|80:160|88:121,1,81.25,8|2,1:1|1:2,0:0:0:0:
197,17,122787,6,0,B|268:9|268:9|269:16|269:16|317:11|317:11|317:5|317:5|350:-1,1,162.5,2|0,1:3|1:1,0:0:0:0:
436,119,123114,6,0,B|386:113|386:113|361:103|361:103|334:107|334:107|275:98,1,162.5,4|0,1:1|3:0,0:0:0:0:
118,144,123442,6,0,B|146:140|146:140|159:135|159:135|174:137|174:137|206:132,1,81.25,8|2,1:0|3:2,0:0:0:0:
266,186,123660,6,0,B|289:190|289:190|304:188|304:188|317:193|317:193|345:197,1,81.25,2|2,1:3|3:2,0:0:0:0:
334,290,123878,6,0,B|306:286|306:286|293:281|293:281|278:283|278:283|255:279,1,81.25,8|2,1:0|3:2,0:0:0:0:
187,226,124096,6,0,B|163:230|163:230|148:228|148:228|135:233|135:233|107:237,1,81.25,0|2,1:0|3:2,0:0:0:0:
95,331,124314,6,0,B|123:327|123:327|136:322|136:322|151:324|151:324|183:319,1,81.25,8|2,1:0|3:2,0:0:0:0:
322,384,124533,6,0,B|294:380|294:380|281:375|281:375|266:377|266:377|234:372,2,81.25,2|2|8,1:3|3:2|1:0,0:0:0:0:
470,350,124860,6,0,B|479:320|479:320|472:277|472:277|467:273|467:273|461:213|461:213|470:190,1,162.5,2|0,1:2|1:0,0:0:0:0:
469,193,125133,1,0,1:0:0:0:
469,193,125187,6,0,B|431:202|431:202|427:199|427:199|389:210,1,81.25,8|2,1:0|3:2,0:0:0:0:
336,63,125405,2,0,B|374:73|374:73|376:80|376:80|418:89,2,81.25,2|0|0,1:3|1:0|1:0,0:0:0:0:
268,142,125733,1,0,1:0:0:0:
268,142,125842,6,0,B|237:139|237:139|230:143|230:143|185:137,1,81.25,0|0,1:0|1:0,0:0:0:0:
51,89,126042,2,0,B|93:84|93:84|94:80|94:80|132:77,1,81.25,0|0,1:0|1:0,0:0:0:0:
253,21,126242,1,6,1:2:0:0:
253,21,126342,1,0,1:2:0:0:
253,21,126442,1,4,1:2:0:0:
253,21,126547,6,0,B|315:25|315:25|318:32|318:32|414:37,1,162.5,4|0,1:0|1:0,0:0:0:0:
494,100,126832,6,0,B|498:134|498:134|502:138|502:138|505:183,1,81.25,2|0,1:2|1:0,0:0:0:0:
422,132,127022,6,0,B|426:166|426:166|430:170|430:170|433:215,1,81.25,2|0,1:3|1:0,0:0:0:0:
350,164,127213,6,0,B|354:198|354:198|358:202|358:202|361:247,1,81.25,2|0,1:2|1:0,0:0:0:0:
278,196,127403,6,0,B|282:230|282:230|286:234|286:234|289:279,1,81.25,2|0,1:2|1:0,0:0:0:0:
207,226,127594,6,0,B|211:260|211:260|215:264|215:264|218:309,1,81.25,2|0,1:2|1:0,0:0:0:0:
135,258,127784,6,0,B|139:292|139:292|143:296|143:296|146:341,2,81.25,2|2|2,1:3|1:2|1:2,0:0:0:0:
1,207,128070,6,0,B|8:154|8:154|12:153|12:153|31:41,1,162.5,0|0,1:0|1:0,0:0:0:0:
137,32,128356,6,0,B|130:69|130:69|133:75|133:75|125:114,1,81.25,2|0,1:2|1:0,0:0:0:0:
201,148,128546,6,0,B|208:112|208:112|205:106|205:106|212:69,1,81.25,2|0,1:3|1:0,0:0:0:0:
286,111,128737,6,0,B|279:148|279:148|282:154|282:154|274:193,1,81.25,2|0,1:2|1:0,0:0:0:0:
350,227,128927,6,0,B|357:191|357:191|354:185|354:185|361:148,1,81.25,2|0,1:2|1:0,0:0:0:0:
436,181,129118,6,0,B|429:218|429:218|432:224|432:224|424:263,1,81.25,2|0,1:2|1:0,0:0:0:0:
315,367,129308,6,0,B|244:375|244:375|243:368|243:368|195:373|195:373|195:379|195:379|162:385,1,162.5,2|0,1:3|1:0,0:0:0:0:
76,265,129594,6,0,B|126:271|126:271|151:281|151:281|178:277|178:277|237:286,1,162.5,4|0,1:1|1:0,0:0:0:0:
394,240,129880,6,0,B|366:244|366:244|353:249|353:249|338:247|338:247|306:252,1,81.25,2|0,1:2|1:0,0:0:0:0:
246,198,130070,6,0,B|223:194|223:194|208:196|208:196|195:191|195:191|167:187,1,81.25,2|0,1:3|1:0,0:0:0:0:
178,94,130261,6,0,B|206:98|206:98|219:103|219:103|234:101|234:101|257:105,1,81.25,2|0,1:2|1:0,0:0:0:0:
325,158,130451,6,0,B|349:154|349:154|364:156|364:156|377:151|377:151|405:147,1,81.25,2|0,1:2|1:0,0:0:0:0:
417,53,130641,6,0,B|389:57|389:57|376:62|376:62|361:60|361:60|329:65,1,81.25,2|0,1:2|1:0,0:0:0:0:
190,0,130832,6,0,B|218:4|218:4|231:9|231:9|246:7|246:7|278:12,2,81.25,2|0|2,1:3|1:0|1:2,0:0:0:0:
42,34,131118,6,0,B|33:64|33:64|40:107|40:107|45:111|45:111|51:171|51:171|42:194,1,162.5,0|0,1:0|1:0,0:0:0:0:
43,191,131356,1,0,1:0:0:0:
43,191,131403,6,0,B|81:182|81:182|85:185|85:185|123:174,1,81.25,2|0,1:2|1:0,0:0:0:0:
176,321,131594,2,0,B|138:311|138:311|136:304|136:304|94:295,2,81.25,2|0|2,1:3|0:0|1:2,0:0:0:0:
244,242,131880,1,0,1:0:0:0:
244,242,131975,6,0,B|275:245|275:245|282:241|282:241|327:247,1,81.25,4|2,1:2|1:2,0:0:0:0:
461,295,132165,2,0,B|419:300|419:300|418:304|418:304|380:307,1,81.25,0|2,1:0|1:2,0:0:0:0:
329,373,132356,1,4,1:1:0:0:
400,220,132519,5,2,0:0:0:0:
264,125,132720,1,2,0:0:0:0:
410,52,132951,5,4,1:0:0:0:
343,175,133194,1,2,0:0:0:0:
267,49,133437,1,2,0:0:0:0:
336,9,133600,5,4,1:0:0:0:
276,90,133809,1,2,0:0:0:0:
235,0,134018,1,2,0:0:0:0:
285,37,134158,6,0,L|270:139,2,97.5,4|2|2,1:0|0:0|0:0,0:0:0:0:
66,223,134680,6,0,L|51:120,2,97.5,4|2|2,1:0|0:0|0:0,0:0:0:0:
301,210,135160,6,0,L|284:310,2,97.5,4|2|2,1:1|3:2|3:2,0:0:0:0:
130,118,135604,6,0,L|144:220,2,97.5,4|2|0,1:1|3:2|3:0,0:0:0:0:
360,321,136025,6,0,L|375:219,2,97.5,4|0|2,1:1|0:0|1:2,0:0:0:0:
211,290,136425,6,0,L|217:328,6,32.5,0|0|0|0|0|0|0,1:0|1:0|1:0|1:0|1:0|1:0|1:0,0:0:0:0:
256,192,136758,12,4,139758,1:2:0:0:
