osu file format v14

[General]
AudioFilename: audio.mp3
AudioLeadIn: 0
PreviewTime: 64561
Countdown: 0
SampleSet: Soft
StackLeniency: 0
Mode: 0
LetterboxInBreaks: 0
WidescreenStoryboard: 1

[Editor]
DistanceSpacing: 1
BeatDivisor: 4
GridSize: 4
TimelineZoom: 6.299999

[Metadata]
Title:Take
TitleUnicode:竹
Artist:Risshuu feat. Choko
ArtistUnicode:立秋 feat. ちょこ
Creator:yf_bmp
Version:nika mika's Extra
Source:
Tags:bamboo masato ishioh 石王マサト bofxvi the bms of fighters xvi arcaea muse dash video game japanese novelty rabbit usagi electronic ウサギ Muziyami Koiyuki wyrio Moecho Gust Yorita Yoshino toybot nika mika xLolicore- My Angel Watame dahkjdas
BeatmapID:2886136
BeatmapSetID:1376486

[Difficulty]
HPDrainRate:4
CircleSize:4.6
OverallDifficulty:8
ApproachRate:9.7
SliderMultiplier:2
SliderTickRate:1

[Events]
//Background and Video events
Video,0,"bga_take.mp4"
0,0,"bg_take.png",0,0
//Break Periods
2,24479,28725
//Storyboard Layer 0 (Background)
//Storyboard Layer 1 (Fail)
//Storyboard Layer 2 (Pass)
//Storyboard Layer 3 (Foreground)
//Storyboard Layer 4 (Overlay)
//Storyboard Sound Samples

[TimingPoints]
120,400,4,2,1,80,1,0
920,-1000,4,2,1,80,0,0
1270,-1000,4,2,1,5,0,0
1320,-1000,4,2,1,80,0,0
1720,-100,4,2,1,80,0,0
6520,-66.6666666666667,4,2,1,80,0,0
6553,-66.6666666666667,4,2,1,5,0,0
6600,-66.6666666666667,4,2,1,80,0,0
6760,-100,4,2,1,80,0,0
8520,-83.3333333333333,4,2,1,80,0,0
10120,-66.6666666666667,4,2,1,80,0,0
13320,273.972602739726,4,2,1,80,1,0
13320,-500,4,2,1,80,0,0
13867,-500,4,2,1,5,0,0
14004,-500,4,2,1,80,0,0
15374,-200,4,2,1,80,0,0
15785,-100,4,2,1,80,0,0
19758,-200,4,2,1,80,0,0
20169,-100,4,2,1,80,0,0
22635,-100,4,2,2,80,0,0
23730,-100,4,2,1,80,0,0
23765,-100,4,2,1,5,0,0
24279,333.333333333333,4,2,1,40,1,0
29279,461.538461538462,4,2,1,80,1,0
29740,461.538461538462,4,2,1,80,1,0
29740,-200,4,2,1,80,0,0
30201,-133.333333333333,4,2,1,80,0,0
33894,422.535211267606,4,2,1,80,1,0
33894,-200,4,2,1,80,0,0
34316,-133.333333333333,4,2,1,80,0,0
37697,387.096774193548,4,2,1,80,1,0
37697,-200,4,2,1,80,0,0
38084,-133.333333333333,4,2,1,80,0,0
40116,-133.333333333333,4,2,1,20,0,0
40213,-133.333333333333,4,2,1,80,0,0
40309,-133.333333333333,4,2,1,20,0,0
40406,-133.333333333333,4,2,1,80,0,0
41181,363.636363636364,4,2,1,80,1,0
41181,-200,4,2,1,80,0,0
41544,-133.333333333333,4,2,1,80,0,0
42636,342.857142857143,4,2,1,80,1,0
43064,-100,4,2,1,5,0,0
43150,-100,4,2,1,80,0,0
43236,-100,4,2,1,5,0,0
43321,-100,4,2,1,80,0,0
43407,-100,4,2,1,20,0,0
43493,-100,4,2,1,80,0,0
43578,-100,4,2,1,20,0,0
43664,-100,4,2,1,80,0,0
44350,327.868852459016,4,2,1,80,1,0
46973,307.692307692308,4,2,1,80,1,0
47588,-80,4,2,1,80,0,0
49434,300,4,2,1,80,1,0
50334,-303.030303030303,4,2,1,80,0,0
50634,292.682926829268,4,2,1,80,1,0
51811,279.06976744186,4,2,1,80,1,0
52922,273.972602739726,4,2,1,80,1,0
54017,307.692307692308,4,2,1,80,1,0
54632,-100,4,2,0,80,0,0
55864,273.972602739726,4,2,1,80,1,0
56274,-200,4,2,1,80,0,0
56411,273.972602739726,4,2,1,80,1,0
60657,-200,4,2,1,80,0,0
65041,-200,4,2,1,80,0,0
67232,-100,4,2,1,80,0,0
69424,-200,4,2,1,80,0,0
69835,-100,4,2,1,80,0,0
72301,-100,4,2,2,80,0,0
72849,-100,4,2,1,80,0,0
73946,276.497695852535,4,2,1,80,1,0
74015,-100,4,2,1,5,0,0
74084,-100,4,2,1,80,0,0
74153,-100,4,2,1,5,0,0
74222,292.682926829268,4,2,1,80,1,0
74222,-111.111111111111,4,2,1,80,0,0
74295,-111.111111111111,4,2,1,5,0,0
74368,-111.111111111111,4,2,1,80,0,0
74441,-111.111111111111,4,2,1,5,0,0
74515,307.692307692308,4,2,1,80,1,0
74515,-125,4,2,1,80,0,0
74591,-125,4,2,1,5,0,0
74668,-125,4,2,1,80,0,0
74745,-125,4,2,1,5,0,0
74823,327.868852459016,4,2,1,80,1,0
74823,-142.857142857143,4,2,1,80,0,0
74904,-142.857142857143,4,2,1,5,0,0
74986,-142.857142857143,4,2,1,80,0,0
75068,-142.857142857143,4,2,1,5,0,0
75150,-142.857142857143,4,2,1,80,0,0
75314,-142.857142857143,4,2,1,5,0,0
75588,-142.857142857143,4,2,1,80,0,0
76462,327.868852459016,4,2,1,80,1,0
76462,-200,4,2,1,80,0,0
97445,-400,4,2,1,80,0,0
97773,-400,4,2,1,50,0,0
97882,-400,4,2,1,80,0,0
98757,-100,4,2,1,80,0,0
106093,-100,4,2,1,5,0,0
106134,-100,4,2,1,80,0,0
109904,-125,4,2,1,80,0,0
110396,-166.666666666667,4,2,1,80,0,0
111298,-166.666666666667,4,2,1,30,0,0
111380,-166.666666666667,4,2,1,80,0,0
111461,-166.666666666667,4,2,1,30,0,0
111543,-166.666666666667,4,2,1,80,0,0
111625,-166.666666666667,4,2,1,30,0,0
111707,-166.666666666667,4,2,1,80,0,0
114166,-33.3333333333333,4,2,1,80,0,0
115273,-33.3333333333333,4,2,1,5,0,0
115806,521.739130434783,4,2,1,80,1,0
116327,-100,4,2,1,80,0,0
116850,375,4,2,1,80,1,0
117600,307.692307692308,4,2,1,80,1,0
118215,272.727272727273,4,2,1,80,1,0
118761,255.31914893617,4,2,1,80,1,0
119271,235.294117647059,4,2,1,80,1,0
119624,218.181818181818,4,2,1,80,1,0
119624,-200,4,2,1,80,0,0
119733,218.181818181818,4,2,1,80,1,0
123114,-200,4,2,1,80,0,0
125842,200,4,2,1,80,1,0
126547,190.47619047619,4,2,1,80,1,0
126547,-133.333333333333,4,2,1,80,0,0
126642,190.47619047619,4,2,1,80,1,0
126689,-133.333333333333,4,2,1,80,0,0
132356,218.181818181818,4,2,1,80,1,0
132720,461.538461538462,4,2,1,80,1,0
132951,324.324324324324,4,2,1,80,1,0
133600,279.06976744186,4,2,1,80,1,0
134158,260.869565217391,4,2,1,80,1,0
134680,240,4,2,1,80,1,0
135160,222.222222222222,4,2,1,80,1,0
135604,210.526315789474,4,2,1,80,1,0
136025,200,4,2,1,80,1,0
136425,190.47619047619,4,2,1,80,1,0
136425,-133.333333333333,4,2,1,80,0,0
136758,750,4,2,1,80,1,0
136758,-1000,4,2,1,80,0,0
139664,-100,4,2,1,5,0,0
139758,273.972602739726,4,2,1,80,1,0

[Colours]
Combo1 : 64,187,73
Combo2 : 255,98,89
Combo3 : 114,114,114
Combo4 : 255,227,147
Combo5 : 115,160,255
Combo6 : 196,95,243
Combo7 : 255,92,199
Combo8 : 118,194,33

[HitObjects]
253,179,920,102,0,L|257:199,1,20,2|2,2:1|0:0,0:0:0:0:
45,49,1720,6,0,L|170:31,1,120,0|2,1:0|0:0,0:0:0:0:
110,83,2040,5,2,0:1:0:0:
195,114,2200,1,2,0:1:0:0:
225,197,2360,1,2,0:0:0:0:
57,360,2520,86,0,L|182:342,1,120,0|2,1:0|0:0,0:0:0:0:
110,311,2840,37,2,0:1:0:0:
192,279,3000,1,2,0:1:0:0:
225,197,3160,1,2,0:0:0:0:
45,49,3320,86,0,L|170:31,1,120,0|2,1:0|0:0,0:0:0:0:
110,83,3641,37,2,0:1:0:0:
195,114,3800,1,2,0:1:0:0:
225,197,3961,1,2,0:0:0:0:
33,306,4120,5,0,1:0:0:0:
62,298,4253,1,2,0:2:0:0:
90,291,4386,1,2,0:1:0:0:
148,348,4520,69,0,1:0:0:0:
177,355,4653,1,2,0:2:0:0:
205,362,4786,1,2,0:1:0:0:
283,328,4920,6,0,P|337:296|400:300,1,120,0|2,1:0|0:0,0:0:0:0:
492,344,5240,5,2,0:1:0:0:
425,283,5400,1,2,0:1:0:0:
430,193,5560,1,2,0:0:0:0:
283,58,5720,6,0,P|337:90|400:84,1,120,0|2,1:0|0:0,0:0:0:0:
492,42,6040,69,2,0:1:0:0:
425,103,6200,1,2,0:1:0:0:
430,193,6360,1,0,0:0:0:0:
494,272,6520,6,0,B|459:248|434:270|434:270|454:298|488:294,1,120.000004577637,2|0,1:1|0:0,0:0:0:0:
501,298,6760,1,2,0:1:0:0:
336,348,6920,70,0,L|352:230,1,120,0|2,1:0|0:0,0:0:0:0:
423,330,7240,21,2,0:1:0:0:
352,229,7400,1,2,0:1:0:0:
256,306,7560,1,2,0:0:0:0:
176,348,7720,102,0,L|160:230,1,120,0|2,1:0|0:0,0:0:0:0:
89,330,8040,21,2,0:1:0:0:
159,229,8200,1,2,0:1:0:0:
256,306,8360,1,2,0:0:0:0:
336,348,8520,70,0,L|355:204,1,143.999995605469,0|2,1:0|0:0,0:0:0:0:
423,330,8840,53,2,0:1:0:0:
354,205,9000,1,2,0:1:0:0:
256,306,9160,1,2,0:0:0:0:
176,348,9320,70,0,L|157:204,1,143.999995605469,0|2,1:0|0:0,0:0:0:0:
89,330,9640,53,2,0:1:0:0:
157,205,9800,1,2,0:1:0:0:
256,306,9960,1,2,0:0:0:0:
336,348,10120,38,0,L|360:165,1,180.000006866455,0|2,1:0|0:0,0:0:0:0:
423,330,10440,21,2,0:1:0:0:
359,169,10600,1,2,0:1:0:0:
256,306,10760,1,2,0:0:0:0:
176,348,10920,102,0,L|152:165,1,180.000006866455,0|2,1:0|0:0,0:0:0:0:
89,330,11240,21,2,0:1:0:0:
152,169,11400,1,2,0:1:0:0:
256,306,11560,1,2,0:0:0:0:
359,169,11720,5,0,1:0:0:0:
294,148,11880,1,2,0:1:0:0:
294,80,12040,1,2,0:0:0:0:
359,59,12200,1,0,0:0:0:0:
398,114,12360,1,2,0:0:0:0:
152,169,12520,85,0,1:0:0:0:
217,148,12680,1,2,0:1:0:0:
217,80,12840,1,2,0:0:0:0:
152,59,13000,1,2,0:0:0:0:
113,114,13160,1,2,0:1:0:0:
18,204,13320,6,0,P|50:176|93:177,1,80,2|0,0:1|0:0,0:0:0:0:
17,203,14004,5,2,0:2:0:0:
43,204,14141,1,2,0:0:0:0:
67,194,14278,1,2,0:0:0:0:
85,174,14415,5,2,0:1:0:0:
167,142,14552,1,2,0:1:0:0:
155,227,14689,1,2,0:1:0:0:
112,374,14826,69,0,0:0:0:0:
96,293,14963,1,0,1:0:0:0:
6,287,15100,5,0,1:0:0:0:
233,326,15237,1,0,1:0:0:0:
321,265,15374,70,0,L|334:369,1,100,4|2,1:1|0:0,0:0:0:0:
439,202,15786,85,8,1:0:0:0:
311,181,15922,1,2,3:2:0:0:
241,235,16059,21,2,1:3:0:0:
310,180,16196,1,2,3:2:0:0:
437,200,16334,101,8,1:0:0:0:
309,179,16470,1,2,3:2:0:0:
436,199,16608,101,0,1:0:0:0:
308,178,16744,1,2,3:2:0:0:
435,198,16882,5,8,1:0:0:0:
307,177,17018,1,2,3:2:0:0:
240,234,17156,21,2,1:3:0:0:
306,176,17293,1,0,1:0:0:0:
434,197,17430,1,0,1:0:0:0:
407,364,17567,6,0,B|390:343|423:313|465:292|465:292|467:341|446:384|429:376,1,200,0|2,1:2|3:2,0:0:0:0:
314,377,17977,5,8,1:0:0:0:
253,321,18114,1,2,3:2:0:0:
170,383,18251,5,2,1:3:0:0:
153,285,18388,1,0,1:0:0:0:
24,331,18525,5,8,1:0:0:0:
49,199,18662,1,2,3:2:0:0:
153,0,18799,69,0,1:0:0:0:
182,164,18936,1,0,1:0:0:0:
153,0,19073,5,8,1:0:0:0:
182,164,19210,1,2,1:2:0:0:
209,335,19348,6,0,P|238:267|152:291,1,200,2|8,1:3|1:0,0:0:0:0:
37,347,19758,54,0,L|141:360,1,100,4|2,1:1|3:2,0:0:0:0:
318,186,20169,85,8,1:0:0:0:
283,328,20306,1,2,3:2:0:0:
351,377,20443,21,2,1:3:0:0:
282,329,20580,1,2,1:2:0:0:
350,378,20718,5,8,1:0:0:0:
281,330,20854,1,2,3:2:0:0:
317,187,20992,69,0,1:0:0:0:
280,331,21128,1,2,1:2:0:0:
316,188,21265,5,8,1:0:0:0:
279,332,21403,1,2,1:2:0:0:
348,380,21540,5,2,1:3:0:0:
278,333,21677,1,0,1:0:0:0:
315,189,21814,1,0,1:0:0:0:
399,168,21951,5,2,1:2:0:0:
427,90,22225,5,0,1:0:0:0:
427,90,22293,1,0,1:0:0:0:
427,90,22362,1,8,1:0:0:0:
460,230,22499,1,0,1:0:0:0:
427,361,22636,5,2,1:3:0:0:
348,380,22773,1,2,1:2:0:0:
279,332,22910,1,2,1:2:0:0:
200,351,23047,1,0,1:0:0:0:
28,186,23184,5,0,1:0:0:0:
239,215,23321,1,6,1:2:0:0:
94,53,23457,6,0,B|74:71|77:99|134:129|134:129|162:78|151:49|131:43,1,200,0|2,1:2|1:3,0:0:0:0:
99,18,24279,1,4,1:1:0:0:
141,319,29279,69,2,0:0:0:0:
138,309,29394,1,2,0:1:0:0:
135,299,29509,1,2,0:2:0:0:
132,289,29625,1,2,0:1:0:0:
110,223,29740,6,0,L|88:150,1,75,0|2,1:0|0:1,0:0:0:0:
176,164,30201,6,0,L|191:78,1,75.0000028610231,0|2,1:0|2:1,0:0:0:0:
110,223,30663,6,0,L|88:150,1,75,0|2,1:0|0:2,0:0:0:0:
176,164,31124,70,0,L|191:78,1,75.0000028610231,0|2,1:0|0:2,0:0:0:0:
85,37,31586,6,0,B|78:64|114:80|114:80|121:38|95:31,1,112.500004291535,0|2,1:0|0:1,0:0:0:0:
85,19,32047,1,0,1:0:0:0:
11,94,32278,1,2,0:2:0:0:
195,246,32509,5,0,1:0:0:0:
195,246,32740,1,2,0:2:0:0:
269,290,32970,2,0,L|312:280,1,37.5000014305115,0|2,1:0|0:1,0:0:0:0:
372,331,33201,2,0,L|418:336,1,37.5000014305115,2|2,2:2|0:1,0:0:0:0:
512,384,33432,5,0,0:0:0:0:
512,384,33663,1,2,0:0:0:0:
407,98,33894,70,0,L|484:112,1,75,0|2,1:0|0:1,0:0:0:0:
273,46,34316,6,0,L|347:32,1,75,0|2,1:0|2:1,0:0:0:0:
407,98,34739,6,0,L|484:112,1,75,0|2,1:0|0:0,0:0:0:0:
273,46,35161,6,0,L|347:32,1,75,0|2,1:0|0:0,0:0:0:0:
202,161,35584,70,0,B|208:183|250:176|250:176|233:140|206:148,1,112.500004291535,0|2,1:0|0:1,0:0:0:0:
188,149,36006,1,0,1:0:0:0:
325,120,36217,1,2,0:0:0:0:
54,74,36429,5,0,1:0:0:0:
54,74,36640,1,2,0:0:0:0:
1,171,36851,2,0,L|14:214,1,37.5000014305115,0|2,1:0|0:1,0:0:0:0:
81,248,37063,2,0,L|73:295,1,37.5000014305115,2|2,2:0|2:1,0:0:0:0:
0,384,37274,5,0,0:0:0:0:
0,384,37485,1,2,0:0:0:0:
238,175,37697,6,0,L|260:248,1,75,0|2,1:0|0:1,0:0:0:0:
336,220,38084,70,0,L|321:306,1,75.0000028610231,0|2,1:0|2:1,0:0:0:0:
238,175,38471,6,0,L|260:248,1,75,0|2,1:0|0:0,0:0:0:0:
336,220,38858,6,0,L|321:306,1,75.0000028610231,0|2,1:0|0:0,0:0:0:0:
411,152,39245,6,0,B|418:125|382:109|382:109|375:151|401:158,1,112.500004291535,0|2,1:0|0:1,0:0:0:0:
411,170,39632,1,0,1:0:0:0:
485,95,39826,1,2,0:1:0:0:
298,13,40019,69,0,1:0:0:0:
298,13,40213,1,2,0:0:0:0:
216,62,40406,2,0,L|170:57,1,37.5000014305115,0|2,1:1|0:1,0:1:0:0:
114,122,40600,2,0,L|74:129,1,37.5000014305115,2|2,0:2|0:1,0:1:0:0:
0,0,40793,5,0,0:0:0:0:
0,0,40987,1,2,0:0:0:0:
79,250,41181,6,0,L|1:236,1,75,0|2,1:0|0:1,0:0:0:0:
139,315,41544,6,0,L|219:297,1,75.0000028610231,0|2,1:0|2:1,0:0:0:0:
339,261,41908,70,0,P|304:245|261:247,1,75.0000028610231,0|2,1:0|0:2,0:0:0:0:
394,333,42271,6,0,P|431:334|466:319,1,75.0000028610231,0|2,1:1|0:0,0:0:0:0:
384,174,42636,6,0,B|406:161|415:135|415:135|406:161|412:184,1,100,0|2,1:0|2:0,0:0:0:0:
484,164,42893,1,2,0:1:0:0:
484,164,42978,1,0,1:0:0:0:
256,93,43150,1,2,0:0:0:0:
185,139,43321,5,0,1:0:0:0:
185,139,43493,1,2,0:0:0:0:
256,93,43664,2,0,L|310:100,1,50,0|0,1:0|0:0,0:0:0:0:
381,65,43836,2,0,L|435:52,1,50,2|0,0:0|0:0,0:0:0:0:
512,0,44007,69,0,1:0:0:0:
512,0,44178,1,2,0:0:0:0:
426,190,44350,6,0,L|483:178,2,50,0|0|10,1:0|1:0|1:2,0:0:0:0:
356,242,44677,5,0,1:0:0:0:
331,236,44758,1,0,1:0:0:0:
307,231,44840,1,8,1:0:0:0:
426,190,45005,6,0,L|483:178,2,50,0|0|10,1:0|1:0|1:2,0:0:0:0:
356,242,45333,70,0,L|299:230,1,50,0|0,1:0|1:0,0:0:0:0:
106,319,45497,5,8,1:0:0:0:
125,303,45578,1,0,1:0:0:0:
148,293,45660,1,0,1:0:0:0:
172,288,45742,1,0,1:0:0:0:
197,289,45824,1,8,1:2:0:0:
365,377,45989,5,0,1:0:0:0:
346,361,46070,1,0,1:0:0:0:
323,351,46152,1,8,1:0:0:0:
299,346,46234,1,0,1:0:0:0:
274,347,46317,6,0,L|329:341,1,50,0|2,1:0|1:2,0:0:0:0:
399,331,46481,2,0,L|454:325,1,50,8|2,1:2|3:1,0:0:0:0:
512,384,46645,69,0,1:0:0:0:
512,384,46809,1,2,3:2:0:0:
344,155,46973,6,0,L|351:106,2,50,0|0|10,1:0|1:0|1:2,0:0:0:0:
268,0,47280,5,0,1:0:0:0:
272,24,47357,1,2,1:1:0:0:
276,49,47433,1,8,1:1:0:0:
140,134,47588,5,2,1:3:0:0:
105,137,47664,1,2,1:1:0:0:
75,118,47741,1,8,1:2:0:0:
64,85,47818,1,0,1:0:0:0:
77,53,47895,1,2,1:2:0:0:
107,35,47972,1,0,1:0:0:0:
141,40,48049,1,8,1:1:0:0:
165,66,48126,1,2,1:1:0:0:
215,122,48203,70,0,L|207:185,2,62.5,0|0|8,1:0|1:0|1:2,0:0:0:0:
0,255,48511,5,0,1:0:0:0:
84,235,48665,1,8,1:1:0:0:
254,361,48819,6,0,L|193:349,1,62.5,0|0,1:0|1:0,0:0:0:0:
118,332,48973,2,0,L|57:320,1,62.5,10|0,1:2|1:0,0:0:0:0:
0,384,49126,5,0,1:0:0:0:
0,384,49280,1,2,3:2:0:0:
226,262,49434,69,0,1:0:0:0:
201,256,49509,1,0,1:0:0:0:
176,250,49584,1,10,1:2:0:0:
293,201,49734,6,0,L|342:191,2,50,0|2|8,1:0|1:1|1:1,0:0:0:0:
226,262,50034,5,2,1:3:0:0:
201,256,50109,1,2,1:1:0:0:
176,250,50184,1,8,1:2:0:0:
293,201,50334,54,0,L|343:190,1,49.499999848938,0|2,1:0|1:1,0:0:0:0:
395,29,50634,22,0,L|403:78,1,50,0|0,1:0|1:0,0:0:0:0:
312,21,50780,2,0,L|320:70,1,50,10|0,1:2|1:0,0:0:0:0:
232,17,50926,2,0,L|240:66,1,50,0|0,1:0|0:0,0:0:0:0:
0,109,51073,2,0,L|8:158,1,50,8|2,1:1|1:1,0:0:0:0:
80,96,51219,2,0,L|88:145,1,50,0|0,1:0|1:0,0:0:0:0:
160,77,51365,2,0,L|168:126,1,50,8|0,1:2|1:0,0:0:0:0:
0,0,51512,21,0,1:0:0:0:
0,0,51658,1,2,3:2:0:0:
20,231,51811,5,0,0:0:0:0:
44,228,51880,1,0,1:0:0:0:
68,231,51950,1,10,1:2:0:0:
90,242,52020,1,2,1:1:0:0:
142,298,52090,69,0,1:0:0:0:
166,301,52159,1,0,1:0:0:0:
190,298,52229,1,8,1:1:0:0:
212,287,52299,1,2,1:1:0:0:
265,229,52369,53,2,1:3:0:0:
303,225,52462,1,0,1:0:0:0:
335,240,52555,1,0,1:0:0:0:
383,296,52648,5,0,1:0:0:0:
418,301,52741,1,0,1:0:0:0:
453,285,52834,1,0,1:0:0:0:
408,229,52922,53,4,1:2:0:0:
290,302,53058,1,8,1:2:0:0:
290,302,53127,1,2,1:1:0:0:
290,302,53195,6,0,L|295:329,2,25,0|0|0,1:0|1:0|1:0,0:0:0:0:
408,229,53332,2,0,L|412:205,2,25,8|0|0,1:1|1:0|1:0,0:0:0:0:
256,54,53469,22,0,L|306:60,1,50,4|0,1:2|1:0,0:0:0:0:
383,67,53606,2,0,L|433:73,1,50,4|0,1:2|1:0,0:0:0:0:
512,0,53743,5,0,1:2:0:0:
512,0,53880,1,0,1:2:0:0:
256,54,54017,37,4,0:2:0:0:
256,54,54632,5,2,0:0:0:0:
353,94,54786,1,2,0:0:0:0:
393,192,54940,1,2,0:0:0:0:
353,289,55093,1,2,0:0:0:0:
255,329,55247,1,2,0:0:0:0:
158,289,55401,1,2,0:1:0:0:
118,191,55555,1,0,0:0:0:0:
158,94,55709,1,2,0:1:0:0:
256,54,55864,5,0,1:0:0:0:
256,192,56000,1,0,1:0:0:0:
255,329,56137,1,0,1:0:0:0:
477,113,56274,54,0,L|367:133,1,100,4|2,1:1|3:2,0:0:0:0:
439,202,56684,85,8,1:0:0:0:
311,181,56820,1,2,3:2:0:0:
238,236,56957,21,2,1:3:0:0:
310,180,57094,1,2,3:2:0:0:
437,200,57232,101,8,1:0:0:0:
309,179,57368,1,2,3:2:0:0:
436,199,57506,101,0,1:0:0:0:
308,178,57642,1,2,3:2:0:0:
435,198,57780,5,8,1:0:0:0:
307,177,57916,1,2,3:2:0:0:
237,235,58054,21,2,1:3:0:0:
306,176,58191,1,0,1:0:0:0:
434,197,58328,1,0,1:0:0:0:
407,364,58465,6,0,B|390:343|423:313|465:292|465:292|467:341|446:384|429:376,1,200,2|2,1:2|3:2,0:0:0:0:
314,377,58875,5,8,1:0:0:0:
253,321,59012,1,2,3:2:0:0:
170,383,59149,21,2,1:3:0:0:
153,285,59286,1,2,3:2:0:0:
24,331,59423,69,8,1:0:0:0:
49,199,59560,1,2,3:2:0:0:
153,0,59697,5,0,1:0:0:0:
182,164,59834,1,0,1:0:0:0:
153,0,59971,5,8,1:0:0:0:
182,164,60108,1,0,1:0:0:0:
209,335,60246,6,0,P|238:267|152:291,1,200,2|0,1:3|1:0,0:0:0:0:
37,347,60657,38,0,L|141:360,1,100,4|2,1:0|0:0,0:0:0:0:
318,186,61067,85,8,1:0:0:0:
283,328,61204,1,2,3:2:0:0:
351,377,61341,21,2,1:3:0:0:
282,329,61478,1,0,3:2:0:0:
350,378,61616,5,8,1:0:0:0:
281,330,61752,1,2,3:2:0:0:
317,187,61890,69,0,1:0:0:0:
281,330,62026,1,2,3:2:0:0:
316,188,62163,5,8,1:0:0:0:
280,331,62301,1,0,3:2:0:0:
348,380,62438,5,2,1:3:0:0:
279,332,62575,1,0,1:0:0:0:
315,189,62712,1,0,1:0:0:0:
399,168,62849,5,2,1:2:0:0:
460,230,63123,5,2,1:2:0:0:
460,230,63191,1,0,1:0:0:0:
460,230,63260,1,8,1:0:0:0:
419,87,63397,1,0,1:0:0:0:
237,54,63534,5,2,1:3:0:0:
326,62,63671,1,0,1:0:0:0:
399,3,63808,1,8,1:0:0:0:
488,11,63945,1,0,1:0:0:0:
315,189,64082,5,0,1:0:0:0:
233,210,64219,1,0,1:0:0:0:
164,162,64356,1,0,1:0:0:0:
48,205,64493,5,0,1:0:0:0:
23,285,64630,1,2,1:2:0:0:
24,286,64767,1,0,1:2:0:0:
24,286,64904,1,0,1:2:0:0:
164,162,65041,38,0,L|149:64,1,100,4|2,1:0|3:2,0:0:0:0:
211,258,65452,85,8,1:0:0:0:
248,103,65589,1,2,3:2:0:0:
330,52,65726,21,2,1:3:0:0:
249,104,65863,1,2,3:2:0:0:
212,259,66000,101,8,1:0:0:0:
250,105,66137,1,2,3:2:0:0:
213,260,66274,101,0,1:0:0:0:
251,106,66411,1,2,3:2:0:0:
213,260,66547,5,8,1:0:0:0:
252,107,66684,1,2,3:2:0:0:
331,53,66821,21,2,1:3:0:0:
253,108,66958,1,0,1:0:0:0:
214,261,67095,1,8,1:0:0:0:
84,352,67232,6,0,B|59:347|57:304|70:260|70:260|107:291|130:322|120:340,1,200,2|2,1:2|1:2,0:0:0:0:
234,371,67643,5,8,1:0:0:0:
314,333,67780,1,2,3:2:0:0:
366,160,67917,5,2,1:3:0:0:
355,249,68054,1,2,1:2:0:0:
365,161,68191,5,8,1:0:0:0:
354,250,68328,1,2,3:2:0:0:
492,347,68465,69,0,1:0:0:0:
405,325,68602,1,0,1:0:0:0:
282,195,68739,5,8,1:0:0:0:
195,173,68876,1,2,1:2:0:0:
117,306,69013,6,0,B|71:286|71:286|217:254,1,200,2|0,1:3|1:0,0:0:0:0:
3,319,69424,54,0,P|-9:271|7:226,1,100,4|0,1:0|3:2,0:0:0:0:
226,78,69835,85,8,1:0:0:0:
84,53,69972,1,2,3:2:0:0:
12,108,70109,21,2,1:3:0:0:
83,52,70246,1,0,3:2:0:0:
11,107,70383,5,8,1:0:0:0:
82,51,70520,1,2,3:2:0:0:
225,77,70657,69,0,1:0:0:0:
81,50,70794,1,2,3:2:0:0:
223,75,70931,5,8,1:0:0:0:
79,48,71068,1,0,3:0:0:0:
9,105,71205,5,2,1:3:0:0:
78,47,71342,1,0,1:0:0:0:
222,74,71479,1,0,1:0:0:0:
264,155,71616,5,2,1:2:0:0:
360,153,71890,5,2,1:2:0:0:
360,153,71958,1,0,1:0:0:0:
360,153,72027,1,8,1:0:0:0:
223,235,72164,1,0,1:0:0:0:
496,302,72301,5,2,1:3:0:0:
412,313,72438,1,0,1:0:0:0:
363,384,72575,1,0,1:0:0:0:
279,373,72712,1,0,1:0:0:0:
77,315,72849,5,0,1:0:0:0:
77,315,72917,1,0,1:0:0:0:
77,315,72986,1,0,1:0:0:0:
126,244,73123,5,4,1:2:0:0:
210,255,73260,1,0,1:0:0:0:
93,169,73397,1,2,1:3:0:0:
93,169,73671,70,0,L|101:120,3,50,2|2|2|2,0:0|0:0|0:0|0:0,0:0:0:0:
165,66,73946,86,0,P|214:71|251:104,1,100,2|2,1:2|2:2,0:0:0:0:
289,27,74222,6,0,P|325:59|335:105,1,89.9999972534181,2|2,2:2|2:2,0:0:0:0:
412,61,74515,102,0,P|420:104|407:142,1,80,2|2,2:2|2:2,0:0:0:0:
491,149,74823,6,0,P|482:182|456:205,1,69.9999978637696,2|2,2:2|2:2,0:0:0:0:
438,287,75150,101,2,3:3:0:0:
376,343,75588,5,2,3:2:0:0:
292,351,76025,101,2,3:2:0:0:
210,316,76462,21,0,1:0:0:0:
176,318,76680,1,2,0:0:0:0:
142,320,76899,1,2,0:1:0:0:
2,330,77117,5,4,1:3:0:0:
36,328,77336,1,2,0:0:0:0:
70,326,77554,1,2,0:1:0:0:
186,242,77773,5,0,1:0:0:0:
152,244,77992,1,2,0:0:0:0:
220,240,78210,1,2,1:1:0:0:
12,254,78428,5,8,1:2:0:0:
46,252,78647,1,2,0:0:0:0:
80,250,78865,1,2,0:1:0:0:
210,316,79084,69,0,1:0:0:0:
176,318,79302,1,2,0:0:0:0:
142,320,79521,1,2,0:1:0:0:
2,330,79739,5,4,1:3:0:0:
36,328,79958,1,2,0:0:0:0:
70,326,80176,1,2,0:1:0:0:
186,242,80395,5,0,1:0:0:0:
152,244,80614,1,2,0:0:0:0:
220,240,80832,1,2,1:1:0:0:
12,254,81052,5,8,1:2:0:0:
46,252,81270,1,2,0:0:0:0:
80,250,81489,1,2,0:1:0:0:
179,154,81707,69,0,1:0:0:0:
203,158,81871,1,2,0:2:0:0:
227,162,82035,1,2,0:1:0:0:
155,151,82199,1,2,1:2:0:0:
25,131,82363,5,4,1:3:0:0:
49,135,82527,1,2,0:2:0:0:
73,139,82691,1,2,0:1:0:0:
1,128,82855,1,2,0:2:0:0:
178,68,83019,5,0,1:0:0:0:
202,72,83183,1,2,0:2:0:0:
226,76,83347,1,2,0:1:0:0:
154,65,83511,1,2,0:2:0:0:
0,42,83675,5,8,1:2:0:0:
24,45,83838,1,2,0:0:0:0:
48,49,84002,1,2,0:1:0:0:
72,53,84166,1,2,0:0:0:0:
179,154,84331,69,0,1:0:0:0:
227,162,84495,1,2,0:2:0:0:
203,158,84576,1,0,1:0:0:0:
155,151,84822,1,2,1:2:0:0:
25,131,84986,5,4,1:3:0:0:
49,135,85150,1,2,0:0:0:0:
73,139,85314,1,2,0:1:0:0:
1,128,85478,1,2,0:0:0:0:
178,68,85642,5,0,1:0:0:0:
202,72,85806,1,2,0:2:0:0:
226,76,85970,1,2,0:1:0:0:
154,65,86134,1,2,0:2:0:0:
0,42,86298,5,8,1:2:0:0:
24,45,86461,1,2,0:2:0:0:
48,49,86625,1,2,0:1:0:0:
72,53,86789,1,2,0:2:0:0:
307,157,86953,69,0,1:0:0:0:
304,137,87084,1,2,0:1:0:0:
298,97,87216,1,2,0:1:0:0:
295,77,87347,1,2,0:0:0:0:
301,117,87478,1,2,1:2:0:0:
427,3,87609,5,4,1:3:0:0:
407,6,87740,1,2,0:1:0:0:
387,9,87871,1,2,0:1:0:0:
367,12,88003,1,2,0:2:0:0:
347,15,88134,1,2,0:2:0:0:
498,76,88265,5,0,1:0:0:0:
501,96,88396,1,2,0:1:0:0:
504,116,88527,1,2,0:1:0:0:
495,56,88658,1,2,1:2:0:0:
507,136,88789,1,2,1:2:0:0:
375,210,88921,5,8,1:2:0:0:
395,207,89052,1,2,0:2:0:0:
415,204,89184,1,2,0:1:0:0:
455,198,89315,1,0,1:2:0:0:
435,201,89446,1,2,0:2:0:0:
307,157,89576,69,0,1:0:0:0:
304,137,89707,1,2,0:1:0:0:
298,97,89839,1,2,0:1:0:0:
295,77,89970,1,2,0:2:0:0:
301,117,90101,1,2,1:2:0:0:
427,3,90232,5,4,1:3:0:0:
407,6,90363,1,2,0:1:0:0:
387,9,90494,1,2,0:1:0:0:
367,12,90626,1,2,0:2:0:0:
347,15,90757,1,2,0:2:0:0:
498,76,90888,5,0,1:0:0:0:
501,96,91019,1,2,0:1:0:0:
504,116,91150,1,2,0:1:0:0:
495,56,91281,1,2,1:2:0:0:
507,136,91412,1,2,1:2:0:0:
395,207,91544,5,8,1:2:0:0:
415,204,91675,1,2,0:2:0:0:
435,201,91806,1,2,0:1:0:0:
375,209,91937,1,0,1:0:0:0:
455,198,92068,1,2,1:2:0:0:
505,360,92199,69,0,1:0:0:0:
500,343,92308,1,2,0:2:0:0:
495,326,92418,1,2,0:1:0:0:
487,364,92527,1,2,0:2:0:0:
482,347,92636,1,2,0:1:0:0:
477,330,92746,1,2,1:2:0:0:
403,337,92855,5,4,1:3:0:0:
386,332,92965,1,2,0:2:0:0:
369,327,93074,1,2,0:1:0:0:
399,355,93183,1,2,0:2:0:0:
382,350,93293,1,2,0:1:0:0:
365,345,93402,1,2,0:2:0:0:
289,336,93511,5,0,1:0:0:0:
271,340,93621,1,2,0:2:0:0:
284,319,93730,1,2,1:1:0:0:
266,323,93839,1,2,0:2:0:0:
279,302,93949,1,2,1:1:0:0:
261,306,94058,1,2,0:2:0:0:
182,361,94166,6,0,L|187:325,2,33.3333333333333,8|2|2,1:2|3:2|0:0,0:0:0:0:
198,253,94494,1,2,1:1:0:0:
109,340,94604,102,0,L|114:304,1,33.3333333333333,2|0,1:1|0:1,0:0:0:0:
36,319,94822,86,0,L|41:283,1,33.3333333333333,0|2,1:0|0:2,0:0:0:0:
125,232,95041,1,2,0:1:0:0:
44,164,95150,5,2,1:2:0:0:
146,138,95259,1,2,1:1:0:0:
59,169,95369,1,2,1:2:0:0:
161,143,95478,6,0,L|202:133,1,33.3333333333333,4|2,1:3|0:2,0:0:0:0:
270,115,95696,2,0,L|311:105,1,33.3333333333333,2|2,0:1|0:2,0:0:0:0:
379,87,95915,2,0,L|420:77,1,33.3333333333333,2|2,0:1|0:2,0:0:0:0:
479,305,96134,6,0,P|471:291|458:281,1,33.3333333333333,0|2,1:0|0:2,0:0:0:0:
387,245,96352,2,0,P|372:238|355:237,1,33.3333333333333,2|2,0:1|0:2,0:0:0:0:
277,250,96571,1,2,1:1:0:0:
218,303,96680,1,2,1:2:0:0:
356,337,96789,70,0,L|278:325,1,66.6666666666667,8|2,1:2|0:0,0:0:0:0:
116,353,97117,5,2,1:1:0:0:
142,245,97227,1,2,1:1:0:0:
109,337,97336,1,2,1:2:0:0:
135,229,97445,6,0,L|127:175,1,50,2|0,0:0|0:0,0:0:0:0:
107,25,97883,5,2,0:1:0:0:
109,41,97992,1,2,0:1:0:0:
111,57,98101,1,2,0:1:0:0:
114,74,98210,1,2,0:1:0:0:
116,90,98319,1,2,0:1:0:0:
135,229,98429,5,8,2:3:0:0:
53,346,98757,6,0,L|117:334,1,57.1428571428571,0|2,1:0|3:2,0:0:0:0:
181,296,98944,2,0,L|239:323,1,57.1428571428571,2|0,3:2|1:2,0:0:0:0:
314,331,99131,2,0,L|345:388,1,57.1428571428571,2|0,3:2|1:0,0:0:0:0:
180,383,99319,1,2,1:2:0:0:
154,202,99412,102,0,L|218:214,1,57.1428571428571,4|2,1:3|3:2,0:0:0:0:
282,252,99599,2,0,L|340:224,1,57.1428571428571,0|2,1:0|1:2,0:0:0:0:
415,217,99787,2,0,L|446:159,1,57.1428571428571,2|0,3:2|1:0,0:0:0:0:
505,277,99974,5,2,1:2:0:0:
496,220,100068,1,0,1:0:0:0:
512,139,100162,1,2,1:2:0:0:
472,97,100255,1,0,1:0:0:0:
441,22,100348,1,2,1:2:0:0:
382,13,100443,1,0,1:2:0:0:
284,46,100536,2,0,L|221:35,1,57.1428571428571,2|2,3:2|1:2,0:0:0:0:
56,25,100724,102,0,L|38:83,1,57.1428571428571,8|2,1:1|3:2,0:0:0:0:
0,146,100911,2,0,L|19:203,1,57.1428571428571,0|2,1:0|1:2,0:0:0:0:
26,275,101099,2,0,L|75:310,1,57.1428571428571,0|2,1:0|3:2,0:0:0:0:
171,245,101286,1,0,1:0:0:0:
246,303,101380,6,0,L|235:361,1,57.1428571428571,0|2,1:0|3:2,0:0:0:0:
275,170,101567,2,0,L|264:228,1,57.1428571428571,0|2,1:0|3:2,0:0:0:0:
304,37,101754,2,0,L|293:95,1,57.1428571428571,0|2,1:0|3:2,0:0:0:0:
482,198,101942,101,0,1:0:0:0:
465,143,102035,1,4,1:3:0:0:
482,198,102129,1,2,1:2:0:0:
407,236,102223,1,0,1:0:0:0:
387,289,102317,1,2,1:2:0:0:
305,275,102410,1,2,1:2:0:0:
257,306,102504,1,0,1:0:0:0:
209,336,102597,1,2,1:2:0:0:
134,298,102691,6,0,L|73:289,1,57.1428571428571,0|2,1:0|1:2,0:0:0:0:
1,279,102878,1,0,1:0:0:0:
1,279,102925,1,0,1:0:0:0:
1,279,102972,1,2,1:2:0:0:
77,289,103066,2,0,L|134:298,2,57.1428571428571,0|2|0,1:0|1:2|1:0,0:0:0:0:
160,226,103347,102,0,L|99:217,1,57.1428571428571,8|0,1:1|0:0,0:0:0:0:
27,207,103534,1,0,1:0:0:0:
27,207,103581,1,0,1:0:0:0:
27,207,103628,1,0,1:0:0:0:
103,217,103721,2,0,L|160:226,2,57.1428571428571,2|2|2,2:0|0:0|0:0,0:0:0:0:
60,45,104002,5,0,1:0:0:0:
40,91,104084,2,0,L|93:83,1,50,0|0,1:0|1:0,0:0:0:0:
194,78,104248,1,2,3:2:0:0:
211,125,104330,2,0,L|162:118,1,50,0|0,1:0|1:0,0:0:0:0:
283,88,104494,1,0,1:0:0:0:
295,92,104576,1,0,1:0:0:0:
341,157,104658,101,0,1:0:0:0:
324,206,104740,2,0,L|373:194,1,50,4|0,1:3|1:0,0:0:0:0:
251,242,104904,1,2,1:2:0:0:
262,290,104986,2,0,L|213:276,1,50,0|0,1:0|1:0,0:0:0:0:
308,356,105150,1,0,3:0:0:0:
315,350,105232,1,2,1:2:0:0:
390,344,105314,5,0,1:0:0:0:
465,357,105396,1,0,1:0:0:0:
382,335,105478,101,0,1:0:0:0:
472,365,105560,1,0,1:0:0:0:
445,284,105642,5,0,1:0:0:0:
448,269,105724,1,2,1:2:0:0:
451,254,105806,1,0,3:0:0:0:
454,239,105888,1,2,3:2:0:0:
463,148,105970,102,0,L|439:98,1,50,8|0,1:0|0:0,0:0:0:0:
443,29,106134,2,0,L|410:36,2,25,0|0|0,1:0|1:0|1:0,0:0:0:0:
321,1,106298,2,0,L|311:55,1,50,0|0,1:0|3:0,0:0:0:0:
249,98,106461,6,0,L|269:101,6,12.5,0|0|0|0|0|0|0,1:0|1:0|1:0|1:0|1:0|0:0|0:0,0:0:0:0:
220,84,106625,102,0,L|195:95,1,25,0|0,1:0|1:0,0:0:0:0:
219,115,106707,2,0,L|194:126,1,25,0|0,1:0|1:0,0:0:0:0:
123,107,106789,1,0,1:2:0:0:
89,99,106871,1,0,1:2:0:0:
113,74,106953,1,0,1:2:0:0:
99,226,107117,6,0,L|93:177,1,50,0|2,1:0|1:2,0:0:0:0:
114,302,107281,1,4,1:3:0:0:
131,304,107362,1,0,1:0:0:0:
207,325,107446,1,0,1:0:0:0:
214,314,107527,1,2,1:2:0:0:
290,266,107609,102,0,L|293:285,6,12.5,0|0|0|0|0|0|0,1:0|1:0|1:0|1:0|1:0|1:0|1:0,0:0:0:0:
305,193,107773,1,0,1:0:0:0:
234,162,107855,1,2,1:2:0:0:
256,177,107937,6,0,L|261:152,4,25,0|0|0|0|0,1:0|1:0|1:0|1:0|1:0,0:0:0:0:
234,162,108183,1,2,1:2:0:0:
236,87,108265,102,0,L|230:62,4,25,0|0|0|0|0,1:0|1:0|1:0|1:0|1:0,0:0:0:0:
256,73,108511,1,2,1:2:0:0:
261,152,108593,6,0,L|256:177,2,25,2|0|0,1:2|1:0|1:0,0:0:0:0:
236,87,108757,102,0,L|230:62,2,25,2|0|0,1:2|1:0|1:0,0:0:0:0:
163,104,108921,6,0,L|139:108,1,25,2|0,1:2|1:0,0:0:0:0:
151,134,109002,2,0,L|126:130,1,25,0|0,1:0|1:0,0:0:0:0:
138,107,109084,2,0,L|114:111,1,25,0|0,1:0|1:0,0:0:0:0:
121,131,109166,2,0,L|96:127,1,25,0|0,1:0|1:0,0:0:0:0:
37,43,109248,6,0,L|14:342,1,300,2|0,1:2|0:0,0:0:0:0:
37,43,109904,6,0,L|25:203,1,160,2|2,2:2|0:0,0:0:0:0:
37,43,110560,102,0,L|30:141,1,89.9999972534181,2|0,0:0|0:0,0:0:0:0:
25,202,110888,1,2,2:2:0:0:
19,272,111052,1,2,0:0:0:0:
13,342,111216,5,6,1:2:0:0:
25,202,111380,1,2,1:2:0:0:
37,43,111543,1,6,1:2:0:0:
14,342,111707,102,0,L|37:43,1,300,4|2,1:0|1:3,0:0:0:0:
14,342,113183,1,0,1:2:0:0:
37,42,113839,1,2,1:3:0:0:
366,161,114166,6,0,L|291:176,1,75.0000028610231,0|0,1:0|0:0,0:0:0:0:
366,161,114330,2,0,L|291:176,1,75.0000028610231,0|0,1:0|0:0,0:0:0:0:
366,161,114822,2,0,L|291:176,1,75.0000028610231,0|0,1:0|0:0,0:0:0:0:
366,161,115150,2,0,L|72:220,1,299.999990844727,2|0,1:3|0:0,0:0:0:0:
71,220,116327,5,2,0:0:0:0:
94,215,116850,5,0,0:0:0:0:
117,210,117225,5,2,0:0:0:0:
139,206,117600,5,2,0:0:0:0:
162,201,117907,69,2,0:0:0:0:
184,197,118215,5,2,0:0:0:0:
207,192,118487,5,2,0:0:0:0:
230,188,118761,5,2,0:0:0:0:
252,183,119016,5,2,0:0:0:0:
275,179,119143,5,2,0:0:0:0:
298,174,119271,101,4,1:2:0:0:
320,170,119388,5,0,1:2:0:0:
343,165,119506,101,4,1:2:0:0:
434,222,119624,54,0,P|450:169|489:152,1,100,4|2,1:1|0:0,0:0:0:0:
366,161,119951,85,8,1:0:0:0:
346,252,120060,1,2,3:2:0:0:
380,287,120169,5,2,1:3:0:0:
346,252,120278,1,2,3:2:0:0:
366,161,120387,101,8,1:0:0:0:
346,252,120496,1,2,3:2:0:0:
366,161,120605,5,0,1:0:0:0:
346,252,120714,1,2,3:2:0:0:
366,161,120823,101,8,1:0:0:0:
346,252,120932,1,2,3:2:0:0:
380,287,121042,5,2,1:3:0:0:
346,252,121151,1,2,1:2:0:0:
366,161,121260,1,2,1:2:0:0:
456,131,121369,2,0,B|498:113|498:113|350:65,1,200,2|2,1:2|3:2,0:0:0:0:
243,50,121696,21,8,1:0:0:0:
324,37,121805,1,2,3:2:0:0:
253,139,121914,6,0,L|149:114,1,100,2|2,1:3|3:2,0:0:0:0:
51,100,122133,5,8,1:0:0:0:
132,87,122242,1,2,3:2:0:0:
66,192,122351,6,0,P|114:200|150:239,1,100,0|0,1:0|1:0,0:0:0:0:
29,266,122569,2,0,P|63:301|111:309,1,100,8|2,1:1|1:2,0:0:0:0:
30,360,122787,6,0,B|166:376|139:286|266:298,1,250,2|0,1:3|0:0,0:0:0:0:
307,179,123114,38,0,P|324:225|368:247,1,100,4|0,1:0|0:0,0:0:0:0:
303,318,123442,5,8,1:0:0:0:
395,337,123551,1,2,3:2:0:0:
440,318,123660,5,2,1:3:0:0:
395,337,123769,1,2,3:2:0:0:
440,318,123878,5,8,1:0:0:0:
395,337,123987,1,2,3:2:0:0:
303,318,124096,5,0,1:0:0:0:
395,337,124205,1,2,3:2:0:0:
303,318,124314,5,8,1:0:0:0:
395,337,124423,1,2,3:2:0:0:
440,318,124533,85,2,1:3:0:0:
395,337,124642,1,2,3:2:0:0:
303,318,124751,1,8,1:0:0:0:
267,241,124860,1,2,1:2:0:0:
148,195,125078,69,0,1:0:0:0:
184,118,125187,1,8,1:0:0:0:
268,101,125296,1,2,3:2:0:0:
371,161,125405,5,2,1:3:0:0:
400,166,125514,1,0,1:0:0:0:
429,172,125623,1,0,1:0:0:0:
458,178,125733,1,0,1:0:0:0:
375,246,125842,5,0,1:0:0:0:
389,245,125942,1,0,1:0:0:0:
403,243,126042,1,0,1:0:0:0:
417,242,126142,1,0,1:0:0:0:
473,305,126242,5,6,1:2:0:0:
473,305,126342,1,0,1:2:0:0:
473,305,126442,1,4,1:2:0:0:
512,349,126547,6,0,L|361:334,1,150.000005722046,4|0,1:0|1:0,0:0:0:0:
243,307,126832,21,2,1:2:0:0:
315,287,126927,1,0,1:0:0:0:
322,260,127022,5,2,1:3:0:0:
315,287,127118,1,0,1:0:0:0:
243,307,127213,101,2,1:2:0:0:
315,287,127308,1,0,1:0:0:0:
243,307,127403,5,2,1:2:0:0:
315,287,127498,1,0,1:0:0:0:
243,307,127594,101,2,1:2:0:0:
315,287,127689,1,0,0:0:0:0:
322,260,127784,5,2,1:3:0:0:
315,287,127880,1,2,1:2:0:0:
243,307,127975,1,2,1:2:0:0:
222,293,128070,2,0,B|201:266|201:266|131:241|131:241|84:254,1,150.000005722046,0|0,1:0|1:0,0:0:0:0:
7,273,128356,5,2,1:2:0:0:
53,282,128451,1,0,1:0:0:0:
100,177,128546,6,0,L|90:255,1,75.0000028610231,2|0,1:3|1:0,0:0:0:0:
185,160,128737,5,2,1:2:0:0:
139,151,128832,1,0,1:0:0:0:
47,71,128927,6,0,P|88:50|121:53,1,75.0000028610231,0|0,1:0|1:0,0:0:0:0:
189,86,129118,2,0,P|209:44|238:27,1,75.0000028610231,2|0,1:2|1:0,0:0:0:0:
342,73,129308,6,0,P|314:18|386:55,1,187.500007152558,2|0,1:3|0:0,0:0:0:0:
457,72,129594,6,0,L|473:221,1,150.000005722046,4|0,1:1|1:0,0:0:0:0:
420,277,129880,37,2,1:2:0:0:
494,292,129975,1,0,1:0:0:0:
509,319,130070,5,2,1:3:0:0:
494,292,130165,1,0,1:0:0:0:
509,319,130261,5,2,1:2:0:0:
494,292,130356,1,0,1:0:0:0:
420,277,130451,5,2,1:2:0:0:
494,292,130546,1,0,1:0:0:0:
420,277,130641,5,2,1:2:0:0:
494,292,130736,1,0,1:0:0:0:
509,319,130832,5,2,1:3:0:0:
494,292,130927,1,0,1:0:0:0:
420,277,131022,1,2,1:2:0:0:
371,338,131118,1,0,1:0:0:0:
310,384,131308,70,0,P|294:350|302:308,2,75.0000028610231,0|2|0,1:0|1:2|1:0,0:0:0:0:
238,269,131594,6,0,P|265:243|308:237,2,75.0000028610231,2|0|2,1:3|0:0|1:2,0:0:0:0:
222,344,131880,1,0,1:0:0:0:
94,315,131975,2,0,L|101:274,2,37.5000014305115,4|0|2,1:2|0:0|1:2,0:0:0:0:
141,217,132166,5,0,1:0:0:0:
71,214,132261,1,2,1:2:0:0:
179,155,132356,1,4,1:1:0:0:
266,122,132519,53,2,0:0:0:0:
329,193,132720,1,2,0:0:0:0:
179,155,132950,1,4,1:0:0:0:
413,216,133194,5,2,0:0:0:0:
329,193,133437,1,2,0:0:0:0:
463,148,133600,1,4,1:0:0:0:
437,290,133809,5,2,0:0:0:0:
413,216,134018,1,2,0:0:0:0:
493,230,134158,1,4,1:0:0:0:
231,312,134353,5,2,0:0:0:0:
244,232,134549,1,2,0:0:0:0:
301,357,134679,1,4,1:0:0:0:
159,347,134860,69,2,0:0:0:0:
231,312,135040,1,2,0:0:0:0:
107,278,135160,1,4,1:2:0:0:
143,141,135326,5,2,3:2:0:0:
143,141,135382,1,4,1:2:0:0:
107,278,135493,1,2,3:3:0:0:
81,203,135604,1,4,1:2:0:0:
3,187,135761,5,2,3:2:0:0:
3,187,135814,1,4,1:2:0:0:
143,141,135919,1,0,3:0:0:0:
117,64,136025,21,4,1:2:0:0:
201,77,136125,1,0,1:0:0:0:
288,145,136225,1,4,1:2:0:0:
376,135,136325,1,2,1:2:0:0:
447,209,136425,6,0,L|487:196,3,37.5000014305115,4|0|0|0,1:2|1:0|1:0|1:0,0:0:0:0:
475,295,136615,2,0,L|444:289,4,18.7500007152558,4|0|0|0|0,1:2|1:0|1:0|1:0|1:0,1:0:0:0:
464,313,136758,6,2,L|470:236,1,77.5,2|0,1:2|0:0,0:2:0:0:
457,383,139758,5,4,1:2:0:0:
