osu file format v14

[General]
AudioFilename: audio.mp3
AudioLeadIn: 0
PreviewTime: 64561
Countdown: 0
SampleSet: Soft
StackLeniency: 0.2
Mode: 0
LetterboxInBreaks: 0
WidescreenStoryboard: 1

[Editor]
Bookmarks: 15785,16059,16333,16607,16881,37697,44350
DistanceSpacing: 1.3
BeatDivisor: 8
GridSize: 4
TimelineZoom: 2.600001

[Metadata]
Title:Take
TitleUnicode:竹
Artist:Risshuu feat. Choko
ArtistUnicode:立秋 feat. ちょこ
Creator:yf_bmp
Version:Yoshino's Extra
Source:
Tags:bamboo masato ishioh 石王マサト bofxvi the bms of fighters xvi arcaea muse dash video game japanese novelty rabbit usagi electronic ウサギ Muziyami Koiyuki wyrio Moecho Gust Yorita Yoshino toybot nika mika xLolicore- My Angel Watame dahkjdas
BeatmapID:2857448
BeatmapSetID:1376486

[Difficulty]
HPDrainRate:5.2
CircleSize:4.2
OverallDifficulty:8.2
ApproachRate:9.2
SliderMultiplier:1.8
SliderTickRate:1

[Events]
//Background and Video events
Video,0,"bga_take.mp4"
0,0,"bg_take.png",0,0
//Break Periods
2,24478,27479
2,109448,110646
//Storyboard Layer 0 (Background)
//Storyboard Layer 1 (Fail)
//Storyboard Layer 2 (Pass)
//Storyboard Layer 3 (Foreground)
//Storyboard Layer 4 (Overlay)
//Storyboard Sound Samples

[TimingPoints]
120,400,4,2,1,80,1,0
920,-133.333333333333,4,2,1,80,0,0
1270,-133.333333333333,4,2,1,5,0,0
1320,-133.333333333333,4,2,1,80,0,0
1720,-200,4,2,1,80,0,0
2120,-80,4,2,1,80,0,0
2520,-200,4,2,1,80,0,0
2920,-66.6666666666667,4,2,1,80,0,0
3320,-200,4,2,1,80,0,0
3720,-57.1428571428571,4,2,1,80,0,0
4920,-200,4,2,1,80,0,0
5320,-66.6666666666667,4,2,1,80,0,0
5720,-200,4,2,1,80,0,0
6120,-66.6666666666667,4,2,1,80,0,0
6553,-66.6666666666667,4,2,1,5,0,0
6600,-66.6666666666667,4,2,1,80,0,0
6920,-83.3333333333333,4,2,1,80,0,0
7320,-66.6666666666667,4,2,1,80,0,0
7720,-83.3333333333333,4,2,1,80,0,0
8120,-66.6666666666667,4,2,1,80,0,0
8520,-66.6666666666667,4,2,1,80,0,0
8920,-57.1428571428571,4,2,1,80,0,0
9320,-66.6666666666667,4,2,1,80,0,0
9720,-57.1428571428571,4,2,1,80,0,0
10520,-50,4,2,1,80,0,0
10920,-57.1428571428571,4,2,1,80,0,0
11320,-50,4,2,1,80,0,0
12520,-66.6666666666667,4,2,1,80,0,0
13320,273.972602739726,4,2,1,80,1,0
13320,-200,4,2,1,80,0,0
13867,-200,4,2,1,5,0,0
14004,-200,4,2,1,80,0,0
15374,-83.3333333333333,4,2,2,80,0,1
17155,-83.3333333333333,4,2,2,80,0,1
17189,-83.3333333333333,4,2,2,80,0,1
17292,-83.3333333333333,4,2,2,80,0,1
17326,-83.3333333333333,4,2,2,80,0,1
17429,-83.3333333333333,4,2,2,80,0,1
17463,-83.3333333333333,4,2,2,80,0,1
17566,-83.3333333333333,4,2,2,80,0,1
21539,-83.3333333333333,4,2,2,80,0,1
21573,-83.3333333333333,4,2,2,80,0,1
21676,-83.3333333333333,4,2,2,80,0,1
21710,-83.3333333333333,4,2,2,80,0,1
21813,-83.3333333333333,4,2,2,80,0,1
21847,-83.3333333333333,4,2,2,80,0,1
21950,-83.3333333333333,4,2,2,80,0,1
22635,-83.3333333333333,4,2,2,80,0,1
23730,-83.3333333333333,4,2,2,80,0,1
23765,-83.3333333333333,4,2,2,5,0,1
24279,333.333333333333,4,2,1,40,1,0
29279,461.538461538462,4,2,1,80,1,0
29740,461.538461538462,4,2,1,80,1,0
33432,-133.333333333333,4,2,1,80,0,0
33894,422.535211267606,4,2,1,80,1,0
37274,-133.333333333333,4,2,1,80,0,0
37697,387.096774193548,4,2,1,80,1,0
40116,-100,4,2,1,20,0,0
40213,-100,4,2,1,80,0,0
40309,-100,4,2,1,20,0,0
40406,-100,4,2,1,80,0,0
41181,363.636363636364,4,2,1,80,1,0
42636,342.857142857143,4,2,1,80,1,0
43064,-100,4,2,1,5,0,0
43150,-100,4,2,1,80,0,0
43236,-100,4,2,1,5,0,0
43321,-100,4,2,1,80,0,0
43407,-100,4,2,1,20,0,0
43493,-100,4,2,1,80,0,0
43578,-100,4,2,1,20,0,0
43664,-100,4,2,1,80,0,0
44350,327.868852459016,4,2,1,80,1,0
44350,-200,4,2,1,80,0,0
44677,-133.333333333333,4,2,1,80,0,0
45005,-100,4,2,1,80,0,0
45989,-80,4,2,1,80,0,0
46973,307.692307692308,4,2,1,80,1,0
49126,-80,4,2,1,80,0,0
49434,300,4,2,1,80,1,0
50634,292.682926829268,4,2,1,80,1,0
51512,-66.6666666666667,4,2,1,80,0,0
51811,279.06976744186,4,2,1,80,1,0
52922,273.972602739726,4,2,1,80,1,0
54017,307.692307692308,4,2,1,80,1,0
54632,-100,4,2,0,80,0,0
55864,273.972602739726,4,2,1,80,1,0
55898,-100,4,2,1,20,0,0
56000,-100,4,2,1,80,0,0
56035,-100,4,2,1,20,0,0
56137,-100,4,2,1,80,0,0
56172,-100,4,2,1,20,0,0
56274,-83.3333333333333,4,2,2,80,0,1
56411,273.972602739726,4,2,2,80,1,1
56411,-83.3333333333333,4,2,2,80,0,1
58054,-83.3333333333333,4,2,2,80,0,1
58089,-83.3333333333333,4,2,2,80,0,1
58191,-83.3333333333333,4,2,2,80,0,1
58226,-83.3333333333333,4,2,2,80,0,1
58328,-83.3333333333333,4,2,2,80,0,1
58363,-83.3333333333333,4,2,2,80,0,1
58465,-83.3333333333333,4,2,2,80,0,1
62438,-83.3333333333333,4,2,2,80,0,1
62472,-83.3333333333333,4,2,2,80,0,1
62575,-83.3333333333333,4,2,2,80,0,1
62609,-83.3333333333333,4,2,2,80,0,1
62712,-83.3333333333333,4,2,2,80,0,1
62746,-83.3333333333333,4,2,2,80,0,1
62849,-83.3333333333333,4,2,2,80,0,1
64630,-100,4,2,1,80,0,0
64664,-100,4,2,1,20,0,0
64767,-100,4,2,1,80,0,0
64801,-100,4,2,1,20,0,0
64904,-100,4,2,1,80,0,0
64938,-100,4,2,1,20,0,0
65041,-83.3333333333333,4,2,2,80,0,1
66821,-83.3333333333333,4,2,2,80,0,1
66856,-83.3333333333333,4,2,2,80,0,1
66958,-83.3333333333333,4,2,2,80,0,1
67004,-83.3333333333333,4,2,2,80,0,1
67095,-83.3333333333333,4,2,2,80,0,1
67130,-83.3333333333333,4,2,2,80,0,1
67232,-83.3333333333333,4,2,2,80,0,1
71205,-83.3333333333333,4,2,2,80,0,1
71239,-83.3333333333333,4,2,2,80,0,1
71342,-83.3333333333333,4,2,2,80,0,1
71376,-83.3333333333333,4,2,2,80,0,1
71479,-83.3333333333333,4,2,2,80,0,1
71513,-83.3333333333333,4,2,2,80,0,1
71616,-83.3333333333333,4,2,2,80,0,1
72301,-83.3333333333333,4,2,2,80,0,1
72849,-83.3333333333333,4,2,1,80,0,1
73632,-133.333333333333,4,2,0,80,0,1
73946,276.497695852535,4,2,1,80,1,0
73946,-133.333333333333,4,2,1,80,0,0
74015,-133.333333333333,4,2,1,5,0,0
74084,-133.333333333333,4,2,1,80,0,0
74153,-133.333333333333,4,2,1,5,0,0
74222,292.682926829268,4,2,1,80,1,0
74222,-133.333333333333,4,2,1,80,0,0
74295,-133.333333333333,4,2,1,5,0,0
74368,-133.333333333333,4,2,1,80,0,0
74441,-133.333333333333,4,2,1,5,0,0
74514,-133.333333333333,4,2,1,80,0,0
74515,307.692307692308,4,2,1,80,1,0
74515,-133.333333333333,4,2,1,80,0,0
74591,-133.333333333333,4,2,1,5,0,0
74668,-133.333333333333,4,2,1,80,0,0
74745,-133.333333333333,4,2,1,5,0,0
74823,327.868852459016,4,2,1,80,1,0
74823,-133.333333333333,4,2,1,80,0,0
74904,-133.333333333333,4,2,1,5,0,0
74986,-133.333333333333,4,2,1,80,0,0
75068,-133.333333333333,4,2,1,5,0,0
75150,-133.333333333333,4,2,1,80,0,0
75314,-133.333333333333,4,2,1,5,0,0
75588,-133.333333333333,4,2,1,80,0,0
76462,327.868852459016,4,2,1,80,1,0
76462,-200,4,2,1,80,0,0
97773,-90.9090909090908,4,2,1,50,0,0
97882,-90.9090909090908,4,2,1,80,0,0
98757,-76.9230769230769,4,2,1,80,0,0
104002,-66.6666666666667,4,2,1,80,0,0
106093,-66.6666666666667,4,2,1,5,0,0
106134,-66.6666666666667,4,2,1,80,0,0
111298,-66.6666666666667,4,2,1,30,0,0
111380,-66.6666666666667,4,2,1,80,0,0
111461,-66.6666666666667,4,2,1,30,0,0
111543,-66.6666666666667,4,2,1,80,0,0
111625,-66.6666666666667,4,2,1,30,0,0
111707,-133.333333333333,4,2,1,80,0,0
115273,-133.333333333333,4,2,1,5,0,0
115806,521.739130434783,4,2,1,80,1,0
116850,375,4,2,1,80,1,0
117600,307.692307692308,4,2,1,80,1,0
118215,272.727272727273,4,2,1,80,1,0
118761,255.31914893617,4,2,1,80,1,0
119271,235.294117647059,4,2,1,80,1,0
119624,218.181818181818,4,2,2,80,1,1
119733,218.181818181818,4,2,2,80,1,1
119733,-100,4,2,2,80,0,1
121042,-100,4,2,2,80,0,1
121069,-100,4,2,2,80,0,1
121151,-100,4,2,2,80,0,1
121178,-100,4,2,2,80,0,1
121260,-100,4,2,2,80,0,1
121287,-100,4,2,2,80,0,1
121369,-100,4,2,2,80,0,1
124533,-100,4,2,2,80,0,1
124560,-100,4,2,2,80,0,1
124642,-100,4,2,2,80,0,1
124669,-100,4,2,2,80,0,1
124751,-100,4,2,2,80,0,1
124778,-100,4,2,2,80,0,1
124860,-100,4,2,2,80,0,1
125842,200,4,2,2,80,1,1
126242,-100,4,2,2,80,0,0
126547,190.47619047619,4,2,2,80,1,1
126547,-100,4,2,2,80,0,1
126642,190.47619047619,4,2,2,80,1,1
127784,-100,4,2,2,80,0,1
127808,-100,4,2,2,80,0,1
127880,-100,4,2,2,80,0,1
127903,-100,4,2,2,80,0,1
127975,-100,4,2,2,80,0,1
127999,-100,4,2,2,80,0,1
128070,-100,4,2,2,80,0,1
132356,218.181818181818,4,2,1,80,1,0
132720,461.538461538462,4,2,1,80,1,0
132951,324.324324324324,4,2,1,80,1,0
132951,-200,4,2,1,80,0,0
133600,279.06976744186,4,2,1,80,1,0
133600,-166.666666666667,4,2,1,80,0,0
134158,260.869565217391,4,2,1,80,1,0
134158,-142.857142857143,4,2,1,80,0,0
134680,240,4,2,1,80,1,0
134680,-125,4,2,1,80,0,0
135160,222.222222222222,4,2,1,80,1,0
135160,-111.111111111111,4,2,1,80,0,0
135604,210.526315789474,4,2,1,80,1,0
136025,200,4,2,1,80,1,0
136425,190.47619047619,4,2,1,80,1,0
136758,750,4,2,1,80,1,0
139570,-100,4,2,1,5,0,0
139758,273.972602739726,4,2,1,80,1,0

[Colours]
Combo1 : 110,247,110
Combo2 : 255,98,89
Combo3 : 114,114,114
Combo4 : 255,227,147
Combo5 : 115,160,255
Combo6 : 196,95,243
Combo7 : 255,92,199
Combo8 : 118,194,33

[HitObjects]
49,300,920,6,0,B|73:309|73:309|159:293|159:293|188:307,1,135.000005149842,2|2,2:1|0:0,0:0:0:0:
283,347,1720,6,0,P|280:326|292:293,1,54,0|2,1:0|0:0,0:0:0:0:
288,359,2040,1,2,0:1:0:0:
294,371,2120,2,0,L|432:358,1,135,0|2,1:0|0:0,0:0:0:0:
512,220,2520,6,0,P|515:199|503:166,1,54,0|2,1:0|0:0,0:0:0:0:
507,232,2840,1,2,0:1:0:0:
501,244,2920,2,0,L|326:225,1,162.00000617981,0|2,1:0|0:0,0:0:0:0:
244,90,3320,6,0,P|241:69|253:36,1,54,0|2,1:0|0:0,0:0:0:0:
249,102,3640,1,2,0:1:0:0:
255,113,3720,2,0,L|449:89,1,189.000001802445,0|2,1:0|0:0,0:0:0:0:
314,154,4120,5,0,1:0:0:0:
337,104,4253,1,2,0:1:0:0:
303,59,4386,1,2,0:0:0:0:
204,206,4520,5,0,1:0:0:0:
284,243,4653,1,2,2:1:0:0:
356,188,4786,1,2,2:2:0:0:
154,94,4920,6,0,L|98:105,1,54,0|2,1:0|0:0,0:0:0:0:
167,92,5240,1,2,0:1:0:0:
178,90,5320,2,0,P|109:26|43:52,1,162.00000617981,0|2,1:0|0:0,0:0:0:0:
42,234,5720,6,0,P|46:264|36:298,1,54,0|2,1:0|0:0,0:0:0:0:
106,181,6040,1,2,0:1:0:0:
163,234,6120,2,0,B|122:240|86:211|86:211|38:182|-3:200,1,162.00000617981,0|0,1:0|0:0,0:0:0:0:
83,364,6520,6,0,P|168:372|200:303,1,162.00000617981,2|2,1:1|0:1,0:0:0:0:
418,342,6920,6,0,P|384:291|328:311,1,129.599996044922,0|2,1:0|0:0,0:0:0:0:
325,293,7240,1,2,0:1:0:0:
320,274,7320,2,0,P|397:259|445:321,1,162.00000617981,0|2,1:0|0:0,0:0:0:0:
193,345,7720,6,0,B|171:282|171:282|198:222,1,129.599996044922,0|2,1:0|0:0,0:0:0:0:
182,215,8040,1,2,0:1:0:0:
164,203,8120,2,0,B|131:279|131:279|155:354,1,162.00000617981,0|2,1:0|0:0,0:0:0:0:
192,117,8520,6,0,B|142:123|142:123|92:87|92:87|43:93,1,162.00000617981,0|2,1:0|0:0,0:0:0:0:
38,74,8840,1,2,0:1:0:0:
33,50,8920,2,0,B|90:42|90:42|149:85|149:85|207:77,1,189.000001802445,0|2,1:0|0:0,0:0:0:0:
350,57,9320,6,0,P|420:77|389:140,1,162.00000617981,0|2,1:0|0:0,0:0:0:0:
314,125,9640,1,2,0:1:0:0:
352,43,9720,2,0,P|430:68|394:153,1,189.000001802445,0|2,1:0|0:0,0:0:0:0:
334,249,10120,6,0,B|362:286|417:291|417:291|363:300|331:336,1,189.000001802445,0|2,1:0|0:0,0:0:0:0:
274,293,10440,1,2,0:1:0:0:
341,240,10520,2,0,B|368:274|425:278|425:278|434:289|434:289|428:300|428:300|375:307|340:345,1,216,0|2,1:0|0:0,0:0:0:0:
118,341,10920,6,0,L|152:155,1,189.000001802445,0|2,1:0|0:0,0:0:0:0:
87,239,11240,1,2,0:1:0:0:
101,350,11320,2,0,L|139:137,1,216,0|2,1:0|0:0,0:0:0:0:
241,329,11720,5,0,1:0:0:0:
275,256,11880,1,2,0:1:0:0:
241,183,12040,1,2,0:0:0:0:
258,147,12120,1,0,1:0:0:0:
274,110,12200,1,2,0:2:0:0:
241,37,12360,1,2,0:0:0:0:
140,138,12520,5,0,1:0:0:0:
0,168,12680,1,2,0:0:0:0:
101,273,12840,1,2,0:0:0:0:
55,288,12919,5,0,1:0:0:0:
140,138,13160,5,2,0:0:0:0:
212,288,13320,2,0,B|207:378|207:378|299:336,1,180,2|0,0:1|0:0,0:0:0:0:
344,328,14004,5,2,0:2:0:0:
396,349,14141,1,2,0:0:0:0:
346,293,14278,5,2,0:0:0:0:
264,312,14415,1,2,0:1:0:0:
348,259,14552,5,2,0:1:0:0:
422,326,14689,1,2,0:1:0:0:
351,224,14826,5,0,0:0:0:0:
241,286,14963,1,0,1:0:0:0:
353,190,15100,5,0,1:0:0:0:
448,303,15237,1,0,1:0:0:0:
354,159,15374,6,0,B|281:150|281:150|214:188|214:188|148:182,1,215.999993408203,4|2,1:1|0:0,0:0:0:0:
63,209,15785,5,8,1:0:0:0:
148,182,15922,1,2,3:2:0:0:
63,301,16059,5,2,1:3:0:0:
63,209,16196,1,2,3:2:0:0:
147,331,16333,5,8,1:0:0:0:
63,301,16470,1,2,3:2:0:0:
202,255,16607,5,0,1:0:0:0:
147,331,16744,1,2,3:2:0:0:
148,182,16881,5,8,1:0:0:0:
202,255,17018,1,2,3:2:0:0:
63,209,17155,6,0,L|63:170,1,26.9999991760254,2|0,1:3|0:0,0:0:0:0:
63,209,17292,2,0,L|29:228,1,26.9999991760254,0|0,1:0|0:0,0:0:0:0:
63,209,17429,2,0,L|96:228,1,26.9999991760254,0|0,1:0|0:0,0:0:0:0:
147,331,17566,6,0,B|197:358|250:323|250:323|317:272|372:317,1,215.999993408203,0|2,1:2|3:2,0:0:0:0:
506,253,17977,2,0,P|462:223|410:230,1,107.999996704102,8|2,1:0|3:2,0:0:0:0:
349,302,18251,5,2,1:3:0:0:
396,376,18388,1,0,1:0:0:0:
259,304,18525,5,8,1:0:0:0:
299,227,18662,1,2,3:2:0:0:
303,377,18799,5,0,1:0:0:0:
303,377,18867,1,0,1:0:0:0:
303,377,18936,1,0,1:0:0:0:
216,380,19073,5,8,1:0:0:0:
299,227,19210,1,2,1:2:0:0:
172,307,19347,6,0,B|113:328|85:299|85:299|69:298|69:298|81:287|81:287|83:250|144:226,1,215.999993408203,2|8,1:3|1:0,0:0:0:0:
225,135,19758,6,0,B|153:153|132:98|132:98|114:46|32:55,1,215.999993408203,4|2,1:1|3:2,0:0:0:0:
142,226,20169,5,8,1:0:0:0:
229,222,20306,1,2,3:2:0:0:
134,50,20443,5,2,1:3:0:0:
47,54,20580,1,2,1:2:0:0:
225,135,20717,5,8,1:0:0:0:
221,48,20854,1,2,3:2:0:0:
51,141,20991,5,0,1:0:0:0:
55,228,21128,1,2,1:2:0:0:
51,141,21265,5,8,1:0:0:0:
55,228,21402,1,2,1:2:0:0:
138,139,21539,6,0,L|184:139,1,26.9999991760254,2|0,1:3|0:0,0:0:0:0:
138,139,21676,2,0,L|138:185,1,26.9999991760254,0|0,1:0|0:0,0:0:0:0:
138,139,21813,2,0,L|138:93,1,26.9999991760254,0|0,1:0|0:0,0:0:0:0:
228,50,21950,6,0,P|329:35|386:120,1,215.999993408203,2|0,1:2|1:0,0:0:0:0:
379,139,22292,1,0,1:0:0:0:
371,156,22361,1,8,1:0:0:0:
387,258,22498,1,0,1:0:0:0:
489,242,22635,5,2,1:3:0:0:
371,156,22772,1,2,1:2:0:0:
387,258,22909,5,2,1:2:0:0:
473,140,23046,1,0,1:0:0:0:
489,242,23183,5,0,1:0:0:0:
489,242,23251,1,0,1:0:0:0:
489,242,23320,1,6,1:2:0:0:
457,321,23456,1,0,1:2:0:0:
373,342,23593,1,4,1:2:0:0:
293,308,23730,1,2,1:3:0:0:
68,51,24278,5,4,1:1:0:0:
39,249,29279,5,2,0:0:0:0:
49,268,29394,1,2,0:1:0:0:
53,290,29509,1,2,0:2:0:0:
52,313,29625,1,2,0:1:0:0:
43,333,29740,6,0,P|102:358|158:325,1,135,0|2,1:0|0:1,0:0:0:0:
180,292,30201,2,0,B|220:273|220:273|259:310,1,90,0|2,1:0|2:1,0:0:0:0:
312,365,30663,2,0,P|364:374|407:336,1,90,0|2,1:0|0:2,0:0:0:0:
469,293,31124,2,0,P|426:304|388:284,1,90,0|2,1:0|0:2,0:0:0:0:
438,225,31586,6,0,L|430:70,1,135,0|2,1:0|0:1,0:0:0:0:
409,61,32047,2,0,B|366:47|366:47|323:79,1,90,0|2,1:0|0:2,0:0:0:0:
271,115,32509,1,0,1:0:0:0:
218,65,32740,1,2,0:2:0:0:
154,98,32970,1,0,1:0:0:0:
94,57,33201,1,2,2:2:0:0:
94,57,33316,1,2,0:1:0:0:
94,57,33432,38,0,B|87:85|87:85|89:90|89:90|82:87|82:87|84:92|84:92|70:134,1,67.5000025749208,0|2,0:0|0:0,0:0:0:0:
64,188,33894,6,0,B|199:209,1,135,0|2,1:0|0:1,0:0:0:0:
232,215,34316,2,0,L|217:310,1,90,0|2,1:0|2:1,0:0:0:0:
141,281,34739,2,0,L|46:266,1,90,0|2,1:0|0:0,0:0:0:0:
67,372,35161,2,0,L|155:357,1,90,0|2,1:0|0:0,0:0:0:0:
217,303,35584,6,0,B|392:321,1,135,0|2,1:0|0:1,0:0:0:0:
377,341,36006,2,0,L|465:326,1,90,0|2,1:0|0:0,0:0:0:0:
470,254,36429,1,0,1:0:0:0:
476,182,36640,1,2,0:0:0:0:
483,110,36851,1,0,1:0:0:0:
484,98,36956,1,2,0:1:0:0:
486,87,37062,1,2,2:0:0:0:
487,75,37167,1,2,2:1:0:0:
488,64,37274,86,0,B|455:71|455:71|452:76|452:76|451:68|451:68|448:72|448:72|433:75,1,67.5000025749208,0|2,0:0|0:0,0:0:0:0:
342,36,37697,5,0,1:0:0:0:
259,0,37890,1,2,0:0:0:0:
259,0,37987,1,2,0:1:0:0:
259,0,38084,2,0,L|139:16,1,90,0|2,1:0|2:1,0:0:0:0:
122,88,38471,2,0,P|76:87|30:136,1,90,0|2,1:0|0:0,0:0:0:0:
108,162,38858,2,0,P|64:146|39:84,1,90,0|2,1:0|0:0,0:0:0:0:
71,277,39245,6,0,P|85:325|130:356,1,90,0|2,1:0|2:2,0:0:0:0:
114,350,39535,1,2,0:1:0:0:
122,358,39632,2,0,P|156:320|161:267,1,90,0|2,1:0|0:1,0:0:0:0:
249,257,40019,5,0,1:0:0:0:
302,329,40213,1,2,0:0:0:0:
388,354,40406,1,0,1:1:0:0:
399,358,40502,1,2,0:1:0:0:
410,359,40599,1,2,0:2:0:0:
421,359,40696,1,2,0:1:0:0:
431,356,40793,70,0,B|431:328|431:328|427:324|427:324|435:324|435:324|431:320|431:320|433:265,1,90,0|2,0:0|0:0,0:0:0:0:
474,190,41181,6,0,L|373:213,1,90,0|2,1:0|0:0,0:0:0:0:
344,193,41453,1,2,0:1:0:0:
335,148,41544,2,0,B|334:115|334:115|347:97|347:97|342:36,1,90,0|2,1:0|2:1,0:0:0:0:
273,5,41908,1,0,1:0:0:0:
188,37,42090,1,2,0:2:0:0:
180,126,42271,1,0,1:1:0:0:
180,126,42453,1,2,0:0:0:0:
87,151,42636,5,0,1:0:0:0:
2,176,42807,1,2,2:0:0:0:
2,176,42893,1,2,0:1:0:0:
2,176,42978,2,0,B|23:216|23:216|13:265,1,90,0|2,1:0|0:0,0:0:0:0:
21,351,43321,1,0,1:0:0:0:
95,299,43493,1,2,0:0:0:0:
175,339,43664,1,0,1:0:0:0:
186,340,43749,1,0,0:0:0:0:
197,340,43835,1,2,0:0:0:0:
209,341,43921,1,0,0:0:0:0:
220,340,44007,86,0,B|240:336|240:336|244:332|244:332|244:340|244:340|248:336|248:336|316:328,1,90,0|2,1:0|0:0,0:0:0:0:
410,353,44350,5,0,1:0:0:0:
410,353,44431,2,0,L|446:360,1,22.5,0|10,1:0|1:2,0:0:0:0:
440,268,44677,5,0,1:0:0:0:
440,268,44759,2,0,L|489:260,1,33.7500012874604,0|8,1:0|1:0,0:0:0:0:
410,183,45005,5,0,1:0:0:0:
410,183,45087,2,0,L|456:142,1,45,0|10,1:0|1:2,0:0:0:0:
332,138,45333,5,0,1:0:0:0:
243,154,45497,5,8,1:0:0:0:
243,154,45579,1,0,1:0:0:0:
243,154,45661,1,0,1:0:0:0:
243,154,45743,2,0,L|222:96,1,45,0|8,1:0|1:2,0:0:0:0:
176,224,45989,5,0,1:0:0:0:
176,224,46071,1,0,1:0:0:0:
176,224,46153,1,8,1:0:0:0:
176,224,46235,1,0,1:0:0:0:
176,224,46317,1,0,1:0:0:0:
176,224,46399,2,0,L|119:177,1,56.25,2|8,1:2|1:2,0:0:0:0:
148,305,46645,22,0,B|128:302|128:302|124:298|124:298|123:306|123:306|120:301|120:301|92:296,1,56.25,0|0,1:0|0:0,0:0:0:0:
72,295,46809,2,0,B|52:292|52:292|48:288|48:288|47:296|47:296|44:291|44:291|16:286,1,56.25,2|0,3:2|0:0,0:0:0:0:
238,365,46973,6,0,L|303:357,2,45,0|0|10,1:0|1:0|1:2,0:0:0:0:
351,350,47280,6,0,L|306:355,2,45,0|2|8,1:0|1:1|1:1,0:0:0:0:
356,274,47588,5,2,1:3:0:0:
358,251,47664,1,2,1:1:0:0:
361,229,47741,1,8,1:2:0:0:
363,206,47818,1,0,1:0:0:0:
366,184,47895,1,2,1:2:0:0:
212,295,48049,5,8,1:1:0:0:
206,273,48125,1,2,1:1:0:0:
201,251,48202,1,0,1:0:0:0:
196,229,48279,1,0,1:0:0:0:
191,207,48356,1,8,1:2:0:0:
343,102,48511,1,0,1:0:0:0:
193,119,48665,5,8,1:1:0:0:
222,85,48741,1,2,1:1:0:0:
264,69,48818,1,0,1:0:0:0:
308,76,48895,1,0,1:0:0:0:
343,102,48972,1,10,1:2:0:0:
272,164,49126,38,0,B|273:188|273:188|269:191|269:191|277:192|277:192|273:197|273:197|277:240,1,56.25,0|0,1:0|3:0,0:0:0:0:
280,249,49280,2,0,B|281:273|281:273|277:276|277:276|285:277|285:277|281:282|281:282|285:325,1,56.25,2|0,3:2|1:0,0:0:0:0:
169,357,49434,5,0,1:0:0:0:
149,353,49509,1,0,1:0:0:0:
130,349,49584,1,10,1:2:0:0:
27,295,49734,5,0,1:0:0:0:
47,291,49809,1,2,1:1:0:0:
66,287,49884,1,8,1:1:0:0:
193,221,50034,5,2,1:3:0:0:
165,195,50109,1,2,1:1:0:0:
133,205,50184,1,8,1:2:0:0:
15,151,50334,5,0,1:0:0:0:
43,125,50409,1,0,1:0:0:0:
75,135,50484,2,0,L|67:70,1,45,0|2,1:0|1:1,0:0:0:0:
133,36,50634,5,0,1:0:0:0:
162,54,50707,1,0,1:0:0:0:
195,62,50780,1,10,1:2:0:0:
229,62,50853,1,0,1:0:0:0:
261,52,50926,1,0,1:0:0:0:
341,118,51073,5,8,1:1:0:0:
348,75,51146,1,2,1:1:0:0:
355,33,51219,1,0,1:0:0:0:
474,171,51365,5,8,1:2:0:0:
481,214,51438,1,0,1:0:0:0:
488,256,51512,6,0,B|460:259|460:259|455:256|455:256|456:263|456:263|452:260|452:260|416:266,1,67.5000025749208,0|0,1:0|3:0,0:0:0:0:
400,268,51658,2,0,B|372:271|372:271|367:268|367:268|368:275|368:275|364:272|364:272|328:278,1,67.5000025749208,2|0,3:2|3:0,0:0:0:0:
275,352,51811,5,0,0:0:0:0:
260,350,51880,1,0,1:0:0:0:
245,349,51950,1,10,1:2:0:0:
230,347,52020,1,2,1:1:0:0:
200,322,52090,5,0,1:0:0:0:
177,324,52159,1,0,1:0:0:0:
155,326,52229,1,8,1:1:0:0:
132,328,52299,1,2,1:1:0:0:
109,330,52369,6,0,P|121:302|119:255,2,60,2|0|0,1:3|1:0|1:0,0:0:0:0:
4,190,52648,6,0,P|22:214|63:236,2,60,0|0|0,1:0|1:0|1:0,0:0:0:0:
219,137,52922,6,0,P|174:143|135:168,1,90,4|8,1:2|1:2,0:0:0:0:
128,176,53127,1,2,1:1:0:0:
121,186,53195,2,0,P|142:131|130:86,1,90,0|8,1:0|1:1,0:0:0:0:
83,42,53469,6,0,L|26:52,3,45,4|0|4|0,1:2|1:0|1:2|1:0,0:0:0:0:
56,128,53743,6,0,L|33:132,6,22.5,0|2|0|0|0|2|0,1:2|1:2|1:2|1:2|1:2|1:2|1:2,0:0:0:0:
33,214,54017,5,4,0:2:0:0:
373,331,54632,5,2,0:0:0:0:
411,249,54786,1,2,0:0:0:0:
328,213,54940,1,2,0:0:0:0:
290,295,55094,1,2,0:0:0:0:
430,311,55247,5,2,0:0:0:0:
387,195,55401,1,2,0:1:0:0:
273,240,55555,1,0,0:0:0:0:
315,355,55709,1,2,0:1:0:0:
387,195,55864,6,0,L|392:160,1,22.5,0|0,1:0|0:0,0:0:0:0:
273,240,56000,2,0,L|278:205,1,22.5,0|0,1:0|0:0,0:0:0:0:
159,285,56137,2,0,L|164:250,1,22.5,0|0,1:0|0:0,0:0:0:0:
45,330,56274,6,0,B|62:268|62:268|55:182|55:182|83:106,1,215.999993408203,4|2,1:1|3:2,0:0:0:0:
160,113,56684,5,8,1:0:0:0:
127,36,56821,1,2,3:2:0:0:
160,113,56958,5,2,1:3:0:0:
222,57,57095,1,2,3:2:0:0:
160,113,57232,5,8,1:0:0:0:
231,154,57369,1,2,3:2:0:0:
160,113,57506,5,0,1:0:0:0:
141,192,57643,1,2,3:2:0:0:
160,113,57780,5,8,1:0:0:0:
77,120,57917,1,2,3:2:0:0:
160,113,58054,6,0,L|204:107,1,26.9999991760254,2|0,1:3|0:0,0:0:0:0:
160,113,58191,2,0,L|142:156,1,26.9999991760254,0|0,1:0|0:0,0:0:0:0:
160,113,58328,2,0,L|129:75,1,26.9999991760254,0|0,1:0|0:0,0:0:0:0:
218,15,58465,6,0,L|432:36,1,215.999993408203,2|2,1:2|3:2,0:0:0:0:
485,105,58876,5,8,1:0:0:0:
400,124,59013,1,2,3:2:0:0:
315,141,59150,5,2,1:3:0:0:
372,206,59287,1,2,3:2:0:0:
457,189,59424,5,8,1:0:0:0:
430,272,59561,1,2,3:2:0:0:
400,124,59698,5,0,1:0:0:0:
400,124,59767,1,0,1:0:0:0:
400,124,59835,1,0,1:0:0:0:
345,289,59972,1,8,1:0:0:0:
315,141,60109,5,0,1:0:0:0:
284,224,60246,2,0,B|223:249|184:202|184:202|146:167|82:180,1,215.999993408203,2|0,1:3|1:0,0:0:0:0:
48,372,60657,6,0,B|6:228|6:228|19:256|66:264,1,215.999993408203,4|0,1:0|3:0,0:0:0:0:
113,98,61068,2,0,P|61:96|12:139,1,107.999996704102,8|2,1:0|3:2,0:0:0:0:
86,180,61342,5,2,1:3:0:0:
170,162,61479,1,0,3:2:0:0:
224,0,61616,5,8,1:0:0:0:
140,18,61753,1,2,3:2:0:0:
170,162,61890,5,0,1:0:0:0:
254,144,62027,1,2,3:2:0:0:
140,18,62164,5,8,1:0:0:0:
56,36,62301,1,0,3:2:0:0:
170,162,62438,6,0,L|183:211,1,26.9999991760254,2|0,1:3|0:0,0:0:0:0:
170,162,62575,2,0,L|157:113,1,26.9999991760254,0|0,1:0|0:0,0:0:0:0:
170,162,62712,2,0,L|121:175,1,26.9999991760254,0|0,1:0|0:0,0:0:0:0:
224,0,62849,6,0,B|262:33|262:33|374:21|374:21|427:62,1,215.999993408203,2|2,1:2|1:2,0:0:0:0:
432,66,63191,1,0,1:0:0:0:
446,76,63260,1,8,1:0:0:0:
510,18,63397,1,0,1:0:0:0:
446,76,63534,5,2,1:3:0:0:
490,155,63671,1,0,1:0:0:0:
442,226,63808,5,8,1:0:0:0:
398,147,63945,1,0,1:0:0:0:
486,305,64082,5,0,1:0:0:0:
422,364,64219,1,0,1:0:0:0:
335,357,64356,1,0,1:0:0:0:
300,277,64493,1,0,1:0:0:0:
203,326,64630,6,0,L|210:295,1,22.5,2|0,1:3|0:0,0:0:0:0:
232,214,64767,2,0,L|239:183,1,22.5,0|0,1:0|0:0,0:0:0:0:
261,102,64904,2,0,L|268:71,1,22.5,0|0,1:0|0:0,0:0:0:0:
206,4,65041,6,0,P|123:-15|66:94,1,215.999993408203,4|2,1:0|3:2,0:0:0:0:
123,144,65452,5,8,1:0:0:0:
103,228,65589,1,2,3:2:0:0:
177,273,65726,5,2,1:3:0:0:
242,217,65863,1,2,3:2:0:0:
209,137,66000,5,8,1:0:0:0:
103,228,66137,1,2,3:2:0:0:
242,217,66274,5,0,1:0:0:0:
123,144,66411,1,2,3:2:0:0:
177,273,66548,5,8,1:0:0:0:
209,137,66685,1,2,3:2:0:0:
103,228,66821,6,0,L|65:244,1,26.9999991760254,2|0,1:3|0:0,0:0:0:0:
103,228,66958,2,0,L|108:187,1,26.9999991760254,0|0,1:0|0:0,0:0:0:0:
103,228,67095,2,0,L|135:252,1,26.9999991760254,8|0,1:0|0:0,0:0:0:0:
226,320,67232,6,0,B|334:337|334:337|318:227,1,215.999993408203,2|2,1:2|1:2,0:0:0:0:
434,101,67643,5,8,1:0:0:0:
461,184,67780,1,2,3:2:0:0:
318,231,67917,5,2,1:3:0:0:
376,166,68054,1,2,1:2:0:0:
488,267,68191,5,8,1:0:0:0:
403,249,68328,1,2,3:2:0:0:
461,184,68465,5,0,1:0:0:0:
461,184,68534,1,0,1:0:0:0:
461,184,68602,1,0,1:0:0:0:
488,267,68739,5,8,1:0:0:0:
376,166,68876,1,2,1:2:0:0:
345,314,69013,6,0,B|291:321|291:321|193:282|193:282|134:298,1,215.999993408203,2|0,1:3|1:0,0:0:0:0:
83,128,69424,6,0,B|111:86|157:97|157:97|178:164|96:226,1,215.999993408203,4|0,1:0|3:2,0:0:0:0:
54,318,69835,5,8,1:0:0:0:
138,296,69972,1,2,3:2:0:0:
222,274,70109,5,2,1:3:0:0:
138,296,70246,1,0,3:2:0:0:
114,211,70383,5,8,1:0:0:0:
138,296,70520,1,2,3:2:0:0:
160,380,70657,5,0,1:0:0:0:
138,296,70794,1,2,3:2:0:0:
200,235,70931,5,8,1:0:0:0:
284,258,71068,1,0,3:0:0:0:
114,211,71205,6,0,L|64:194,1,26.9999991760254,2|0,1:3|0:0,0:0:0:0:
114,211,71342,2,0,L|97:261,1,26.9999991760254,0|0,1:0|0:0,0:0:0:0:
114,211,71479,2,0,L|126:170,1,26.9999991760254,0|0,1:0|0:0,0:0:0:0:
42,87,71616,6,0,B|76:81|96:52|96:52|167:92|167:92|196:61|226:66,1,215.999993408203,2|2,1:2|1:2,0:0:0:0:
247,73,71958,1,0,1:0:0:0:
261,88,72027,5,8,1:0:0:0:
294,190,72164,1,0,1:0:0:0:
396,157,72301,5,2,1:3:0:0:
363,55,72438,1,0,1:0:0:0:
261,88,72575,5,0,1:0:0:0:
396,157,72712,1,0,1:0:0:0:
372,257,72849,5,0,1:0:0:0:
367,273,72917,1,0,1:0:0:0:
361,289,72986,1,0,1:0:0:0:
489,250,73123,1,4,1:2:0:0:
512,380,73260,1,0,1:0:0:0:
434,335,73397,1,2,1:3:0:0:
137,196,73632,6,0,L|87:206,3,38.5714300428119,2|0|2|0,0:0|0:0|0:0|0:0,0:0:0:0:
72,211,73946,6,0,P|62:178|72:143,1,67.5000025749208,2|2,1:2|2:2,0:0:0:0:
28,74,74222,6,0,P|61:64|97:71,1,67.5000025749208,2|2,2:2|2:2,0:0:0:0:
167,30,74515,6,0,P|176:62|169:95,1,67.5000025749208,2|2,2:2|2:2,0:0:0:0:
210,169,74823,6,0,P|177:178|144:171,1,67.5000025749208,2|2,2:2|2:2,0:0:0:0:
94,70,75150,5,2,3:3:0:0:
169,95,75588,5,2,3:2:0:0:
144,171,76025,5,2,0:0:0:0:
69,146,76462,5,0,1:0:0:0:
94,70,76680,1,2,0:0:0:0:
170,95,76899,1,2,0:1:0:0:
221,196,77117,5,4,1:3:0:0:
196,272,77335,1,2,0:0:0:0:
120,247,77554,1,2,0:1:0:0:
170,95,77773,5,0,1:0:0:0:
246,120,77991,1,2,0:0:0:0:
221,196,78210,1,2,1:1:0:0:
120,247,78428,5,8,1:2:0:0:
44,222,78646,1,2,0:0:0:0:
69,146,78865,1,2,0:1:0:0:
221,196,79084,5,0,1:0:0:0:
300,211,79303,1,2,0:0:0:0:
379,226,79522,1,2,0:1:0:0:
473,162,79740,5,4,1:3:0:0:
394,147,79959,1,2,0:0:0:0:
315,132,80178,1,2,0:1:0:0:
364,305,80396,5,0,1:0:0:0:
379,226,80615,1,2,0:0:0:0:
394,147,80834,1,2,1:1:0:0:
330,53,81051,5,8,1:2:0:0:
315,132,81270,1,2,0:0:0:0:
300,211,81489,1,2,0:1:0:0:
364,305,81707,6,0,L|355:367,1,45,0|2,1:0|0:2,0:0:0:0:
285,290,82035,1,2,0:1:0:0:
285,290,82199,1,2,1:2:0:0:
206,275,82363,6,0,L|215:213,1,45,4|2,1:3|0:2,0:0:0:0:
285,290,82691,1,2,0:1:0:0:
285,290,82855,1,2,0:2:0:0:
270,369,83019,6,0,L|208:360,1,45,0|2,1:0|0:2,0:0:0:0:
285,290,83347,1,2,0:1:0:0:
285,290,83511,1,2,0:2:0:0:
300,211,83675,6,0,L|362:220,1,45,8|2,1:2|0:0,0:0:0:0:
285,290,84003,1,2,0:1:0:0:
285,290,84167,1,2,0:0:0:0:
110,283,84330,5,0,1:0:0:0:
125,362,84494,1,2,0:2:0:0:
125,362,84576,1,0,1:0:0:0:
125,362,84658,2,0,L|187:353,1,45,2|2,0:1|1:2,0:0:0:0:
174,189,84986,5,4,1:3:0:0:
95,204,85150,1,2,0:0:0:0:
95,204,85314,2,0,L|104:266,1,45,2|2,0:1|0:0,0:0:0:0:
261,255,85642,5,0,1:0:0:0:
246,176,85806,1,2,0:2:0:0:
246,176,85970,2,0,L|184:185,1,45,2|2,0:1|0:2,0:0:0:0:
197,349,86298,5,8,1:2:0:0:
276,334,86462,1,2,0:2:0:0:
276,334,86626,2,0,L|267:272,1,45,2|2,0:1|0:2,0:0:0:0:
301,176,86953,6,0,L|293:228,1,36,0|2,1:0|0:1,0:0:0:0:
379,191,87216,2,0,L|371:243,1,36,2|2,0:1|0:0,0:0:0:0:
457,206,87478,1,2,1:2:0:0:
331,20,87609,6,0,L|279:12,1,36,4|2,1:3|0:1,0:0:0:0:
316,98,87872,2,0,L|264:90,1,36,2|2,0:1|0:2,0:0:0:0:
301,176,88134,1,2,0:2:0:0:
487,50,88265,6,0,L|495:-2,1,36,0|2,1:0|0:1,0:0:0:0:
409,35,88528,2,0,L|417:-17,1,36,2|2,0:1|1:2,0:0:0:0:
331,20,88790,1,2,1:2:0:0:
457,206,88921,6,0,L|509:214,1,36,8|2,1:2|0:2,0:0:0:0:
472,128,89184,2,0,L|524:136,1,36,2|0,0:1|1:2,0:0:0:0:
487,50,89446,1,2,0:2:0:0:
389,256,89576,6,0,L|337:264,1,36,0|2,1:0|0:1,0:0:0:0:
301,189,89839,2,0,L|353:181,1,36,2|2,0:1|0:2,0:0:0:0:
311,266,90101,1,2,1:2:0:0:
363,58,90232,6,0,L|371:110,1,36,4|2,1:3|0:1,0:0:0:0:
296,146,90495,2,0,L|288:94,1,36,2|2,0:1|0:2,0:0:0:0:
373,136,90757,1,2,0:2:0:0:
165,84,90888,6,0,L|217:76,1,36,0|2,1:0|0:1,0:0:0:0:
253,151,91151,2,0,L|201:159,1,36,2|2,0:1|1:2,0:0:0:0:
243,74,91413,1,2,1:2:0:0:
191,282,91543,6,0,L|183:230,1,36,8|2,1:2|0:2,0:0:0:0:
258,194,91806,2,0,L|266:246,1,36,2|0,0:1|1:0,0:0:0:0:
181,204,92068,1,2,1:2:0:0:
201,360,92199,5,0,1:0:0:0:
163,349,92308,1,2,0:2:0:0:
125,338,92418,1,2,0:1:0:0:
125,338,92527,5,2,0:2:0:0:
163,349,92637,1,2,0:1:0:0:
201,360,92746,1,2,1:2:0:0:
17,310,92855,5,4,1:3:0:0:
45,282,92964,1,2,0:2:0:0:
74,255,93074,1,2,0:1:0:0:
74,255,93183,5,2,0:2:0:0:
45,282,93293,1,2,0:1:0:0:
17,310,93402,1,2,0:2:0:0:
152,175,93511,6,0,L|112:160,1,30,0|2,1:0|0:2,0:0:0:0:
162,213,93729,2,0,L|194:185,1,30,2|2,1:1|0:2,0:0:0:0:
171,252,93948,2,0,L|131:237,1,30,2|2,1:1|0:2,0:0:0:0:
201,360,94166,5,8,1:2:0:0:
163,349,94275,1,2,3:2:0:0:
125,338,94385,1,2,0:0:0:0:
201,360,94494,5,2,1:1:0:0:
163,349,94603,5,2,1:1:0:0:
125,338,94713,1,0,0:1:0:0:
280,322,94822,6,0,L|270:260,1,60,0|2,1:0|0:1,0:0:0:0:
341,239,95150,1,2,1:2:0:0:
377,225,95259,1,2,1:1:0:0:
403,254,95369,1,2,1:2:0:0:
371,264,95478,6,0,L|361:202,1,60,4|2,1:3|0:1,0:0:0:0:
426,350,95915,1,2,0:2:0:0:
462,206,96134,6,0,L|452:144,1,60,0|2,1:0|0:1,0:0:0:0:
426,350,96571,1,2,1:1:0:0:
458,328,96680,1,2,1:2:0:0:
426,305,96789,6,0,P|395:305|361:328,1,60,8|2,1:2|0:0,0:0:0:0:
300,369,97117,1,2,1:1:0:0:
280,334,97227,1,2,1:1:0:0:
296,298,97336,1,2,1:2:0:0:
270,269,97445,1,2,0:0:0:0:
256,192,97500,12,8,98429,2:3:0:0:
32,120,98757,6,0,L|39:186,1,66.8571397966659,0|2,1:0|3:2,0:0:0:0:
103,273,98944,1,2,3:2:0:0:
84,255,99038,2,0,L|76:321,1,66.8571397966659,0|2,1:2|3:2,0:0:0:0:
177,359,99225,1,0,1:0:0:0:
203,349,99319,1,2,1:2:0:0:
229,339,99412,6,0,P|266:340|305:376,1,66.8571397966659,4|2,1:3|3:2,0:0:0:0:
371,255,99600,1,0,1:0:0:0:
345,245,99693,6,0,P|308:246|269:282,1,66.8571397966659,2|2,1:2|3:2,0:0:0:0:
495,368,99881,1,0,1:0:0:0:
480,345,99974,1,2,1:2:0:0:
469,320,100068,5,0,1:0:0:0:
463,293,100162,1,2,1:2:0:0:
462,266,100255,1,0,1:0:0:0:
464,239,100349,1,2,1:2:0:0:
472,213,100443,2,0,P|487:168|476:132,1,66.8571397966659,0|2,1:2|3:2,0:0:0:0:
429,75,100630,1,2,1:2:0:0:
407,58,100724,6,0,L|333:74,1,66.8571397966659,8|2,1:1|3:2,0:0:0:0:
266,6,100911,1,0,1:0:0:0:
246,24,101005,1,2,1:2:0:0:
224,41,101099,2,0,L|150:25,1,66.8571397966659,0|2,1:0|3:2,0:0:0:0:
35,127,101286,1,0,1:0:0:0:
57,144,101380,6,0,P|99:140|128:113,1,66.8571397966659,0|2,1:0|3:2,0:0:0:0:
110,248,101567,2,0,P|144:223|155:185,1,66.8571397966659,0|2,1:0|3:2,0:0:0:0:
207,311,101754,2,0,P|224:272|215:234,1,66.8571397966659,0|2,1:0|3:2,0:0:0:0:
310,350,101942,1,0,1:0:0:0:
327,329,102035,5,4,1:3:0:0:
353,322,102129,1,2,1:2:0:0:
378,329,102223,1,0,1:0:0:0:
398,346,102316,1,2,1:2:0:0:
418,363,102409,1,2,1:2:0:0:
443,370,102503,1,0,1:0:0:0:
469,363,102597,1,2,1:2:0:0:
486,342,102690,5,0,1:0:0:0:
488,314,102785,1,2,1:2:0:0:
473,291,102878,2,0,P|467:267|471:249,2,33.4285698983329,0|0|2,1:0|1:0|1:2,0:0:0:0:
401,212,103066,1,0,1:0:0:0:
405,185,103159,1,2,1:2:0:0:
409,158,103253,1,0,1:0:0:0:
413,131,103347,5,8,1:1:0:0:
417,104,103441,1,0,1:0:0:0:
421,77,103534,2,0,L|462:72,2,33.4285698983329,0|0|0,1:0|1:0|1:0,0:0:0:0:
345,41,103675,2,0,B|293:47|293:47|243:21|243:21|174:29,1,167.142849491665,0|2,1:0|0:0,0:0:0:0:
25,172,104002,5,0,1:0:0:0:
58,175,104083,1,0,1:0:0:0:
87,160,104165,1,0,1:0:0:0:
105,131,104247,1,0,1:0:0:0:
104,98,104330,2,0,P|69:94|35:67,1,67.5000025749208,0|2,1:0|3:2,0:0:0:0:
171,184,104494,2,0,P|206:180|240:153,1,67.5000025749208,0|0,1:0|1:0,0:0:0:0:
36,368,104658,5,4,1:3:0:0:
54,340,104740,1,0,1:0:0:0:
73,312,104822,1,0,1:0:0:0:
91,284,104904,1,0,1:0:0:0:
110,256,104986,1,0,1:0:0:0:
138,274,105068,1,2,1:2:0:0:
166,293,105150,1,0,3:0:0:0:
194,311,105232,1,2,1:2:0:0:
222,329,105314,5,0,1:0:0:0:
253,340,105395,1,0,1:0:0:0:
287,342,105477,1,0,1:0:0:0:
319,333,105559,1,0,1:0:0:0:
350,321,105641,1,0,1:0:0:0:
384,318,105723,1,2,1:2:0:0:
417,324,105806,2,0,L|400:404,1,67.5000025749208,0|2,3:0|3:2,0:0:0:0:
440,245,105970,6,0,L|519:262,1,67.5000025749208,8|0,1:0|0:0,0:0:0:0:
337,302,106134,2,0,L|296:293,4,33.7500012874604,0|0|0|0|0,1:0|1:0|1:0|1:0|1:0,0:0:0:0:
360,222,106380,2,0,L|378:142,2,67.5000025749208,0|0|0,3:0|1:0|1:0,0:0:0:0:
309,92,106625,6,0,L|268:101,4,33.7500012874604,0|0|0|0|0,1:0|1:0|1:0|1:0|1:0,0:0:0:0:
299,59,106871,1,2,1:2:0:0:
289,27,106953,2,0,L|379:39,1,67.5000025749208,0|2,1:0|3:2,0:0:0:0:
237,174,107117,1,0,1:0:0:0:
203,172,107198,1,2,1:2:0:0:
172,159,107280,5,4,1:3:0:0:
147,136,107362,1,0,1:0:0:0:
131,107,107444,1,0,1:0:0:0:
125,74,107526,1,2,1:2:0:0:
130,41,107609,2,0,L|167:48,4,33.7500012874604,0|0|0|0|0,1:0|1:0|1:0|1:0|1:0,0:0:0:0:
7,120,107855,1,2,1:2:0:0:
29,146,107937,6,0,L|66:139,4,33.7500012874604,0|0|0|0|0,1:0|1:0|1:0|1:0|1:0,0:0:0:0:
111,239,108183,1,2,1:2:0:0:
133,213,108265,2,0,L|170:220,4,33.7500012874604,0|0|0|0|0,1:0|1:0|1:0|1:0|1:0,0:0:0:0:
17,320,108511,1,2,1:2:0:0:
39,346,108593,6,0,L|126:329,1,67.5000025749208,2|0,1:2|1:0,0:0:0:0:
138,326,108757,2,0,L|225:309,1,67.5000025749208,2|0,1:2|1:0,0:0:0:0:
220,320,108880,1,0,0:0:0:0:
232,328,108921,2,0,L|230:372,6,33.7500012874604,2|0|0|0|0|0|0,1:2|1:0|1:0|1:0|1:0|1:0|1:0,0:0:0:0:
313,293,109248,1,2,1:2:0:0:
313,293,111216,5,6,1:2:0:0:
336,307,111380,5,2,1:2:0:0:
382,335,111543,5,6,1:2:0:0:
455,370,111707,6,0,L|444:231,1,135.000005149842,4|2,1:0|0:0,0:0:0:0:
494,132,112199,2,0,B|481:122|465:115|465:115|466:139|473:148,1,67.5000025749208,2|2,2:1|0:0,0:0:0:0:
388,59,112527,2,0,B|395:50|396:26|396:26|380:33|357:49,1,67.5000025749208,2|2,1:3|0:0,0:0:0:0:
377,171,112855,2,0,B|364:161|348:154|348:154|349:178|356:187,1,67.5000025749208,2|2,0:1|0:0,0:0:0:0:
261,96,113183,2,0,B|268:87|269:63|269:63|253:70|230:86,1,67.5000025749208,0|2,1:2|0:0,0:0:0:0:
264,213,113511,2,0,B|251:203|235:196|235:196|236:220|243:229,1,67.5000025749208,2|0,0:1|0:0,0:0:0:0:
13,121,113839,6,0,P|68:88|136:118,1,135.000005149842,2|2,1:3|0:1,0:0:0:0:
112,227,114330,2,0,P|149:173|130:111,1,135.000005149842,0|2,1:0|0:0,0:0:0:0:
118,292,114822,2,0,P|109:260|112:227,1,67.5000025749208,2|2,2:1|0:0,0:0:0:0:
154,370,115150,1,2,1:3:0:0:
154,370,116327,5,2,0:0:0:0:
154,370,116850,5,0,0:0:0:0:
154,370,117225,5,2,0:0:0:0:
154,370,117600,5,2,0:0:0:0:
154,370,117907,5,2,0:0:0:0:
154,370,118215,5,2,0:0:0:0:
154,370,118487,5,2,0:0:0:0:
154,370,118761,5,2,0:0:0:0:
154,370,119016,5,2,0:0:0:0:
240,300,119143,1,2,0:0:0:0:
162,289,119271,5,4,1:2:0:0:
232,375,119388,1,0,1:2:0:0:
162,289,119506,1,4,1:2:0:0:
252,220,119624,6,0,L|452:262,1,180,4|2,1:1|3:2,0:0:0:0:
482,93,119951,2,0,L|493:183,1,90,8|2,1:0|3:2,0:0:0:0:
377,70,120169,2,0,L|388:160,1,90,2|2,1:3|3:2,0:0:0:0:
270,48,120387,2,0,L|281:138,1,90,8|2,1:0|3:2,0:0:0:0:
163,26,120605,2,0,L|174:116,1,90,0|0,1:0|3:0,0:0:0:0:
56,4,120823,2,0,L|67:94,1,90,8|0,1:0|3:0,0:0:0:0:
22,189,121042,6,0,L|37:164,1,22.5,2|0,1:3|0:0,0:0:0:0:
22,189,121151,2,0,L|-7:188,1,22.5,2|0,1:2|0:0,0:0:0:0:
22,189,121260,2,0,L|36:214,1,22.5,2|0,1:2|0:0,0:0:0:0:
29,306,121369,6,0,L|215:332,1,180,2|2,1:2|3:2,0:0:0:0:
226,170,121696,6,0,P|190:207|193:250,1,90,8|2,1:0|3:2,0:0:0:0:
319,344,121914,2,0,P|303:294|266:275,1,90,2|2,1:3|3:2,0:0:0:0:
125,337,122133,2,0,P|167:349|207:330,1,90,8|2,1:0|3:2,0:0:0:0:
226,170,122351,6,0,P|190:207|193:250,1,90,0|0,1:0|1:0,0:0:0:0:
319,344,122569,1,8,1:1:0:0:
374,285,122678,1,2,1:2:0:0:
374,285,122733,1,0,1:0:0:0:
374,285,122787,2,0,L|361:156,1,90,2|0,1:3|1:0,0:0:0:0:
286,179,123005,1,0,1:1:0:0:
472,106,123114,6,0,P|385:101|361:0,1,180,4|0,1:1|3:0,0:0:0:0:
272,31,123442,2,0,P|221:24|188:80,1,90,8|2,1:0|3:2,0:0:0:0:
286,179,123660,2,0,P|282:135|247:110,1,90,2|2,1:3|3:2,0:0:0:0:
152,239,123878,2,0,P|192:221|205:179,1,90,8|2,1:0|3:2,0:0:0:0:
52,128,124096,2,0,P|80:160|124:160,1,90,0|2,1:0|3:2,0:0:0:0:
127,0,124314,2,0,P|105:36|118:77,1,90,8|2,1:0|3:2,0:0:0:0:
272,31,124533,6,0,L|268:-3,1,22.5,2|0,1:3|0:0,0:0:0:0:
272,31,124642,2,0,L|306:27,1,22.5,2|0,3:2|0:0,0:0:0:0:
272,31,124751,2,0,L|276:65,1,22.5,8|0,1:0|0:0,0:0:0:0:
241,172,124860,6,0,B|292:156|292:156|366:183|366:183|420:169,1,180,2|0,1:2|1:0,0:0:0:0:
509,248,125187,2,0,B|459:260|459:260|404:236,1,90,8|2,1:0|3:2,0:0:0:0:
426,101,125405,2,0,B|476:89|476:89|531:113,1,90,2|0,1:3|1:0,0:0:0:0:
509,248,125623,2,0,L|490:366,1,90,0|0,1:0|1:0,0:0:0:0:
426,101,125842,2,0,L|407:-17,1,90,0|0,1:0|1:0,0:0:0:0:
351,226,126042,2,0,L|332:344,1,90,0|0,1:0|1:0,0:0:0:0:
269,360,126242,5,6,1:2:0:0:
269,360,126342,1,0,1:2:0:0:
269,360,126442,1,4,1:2:0:0:
196,307,126547,6,0,B|114:345|114:345|18:307,1,180,4|0,1:0|1:0,0:0:0:0:
6,242,126784,1,0,1:0:0:0:
6,242,126832,2,0,L|16:138,1,90,2|0,1:2|1:0,0:0:0:0:
105,208,127022,2,0,L|115:104,1,90,2|0,1:3|1:0,0:0:0:0:
204,174,127213,2,0,L|214:70,1,90,2|0,1:2|1:0,0:0:0:0:
303,140,127403,2,0,L|313:36,1,90,2|0,1:2|1:0,0:0:0:0:
402,106,127594,2,0,L|412:2,1,90,2|0,1:2|1:0,0:0:0:0:
454,199,127784,6,0,L|464:236,1,22.5,2|0,1:3|0:0,0:0:0:0:
454,199,127880,2,0,L|481:171,1,22.5,2|0,1:2|0:0,0:0:0:0:
454,199,127975,2,0,L|416:189,1,22.5,2|0,1:2|0:0,0:0:0:0:
400,325,128070,6,0,L|194:272,1,180,0|0,1:0|1:0,0:0:0:0:
138,302,128308,1,0,1:0:0:0:
138,302,128356,2,0,B|123:347|123:347|145:390,1,90,2|0,1:2|1:0,0:0:0:0:
103,237,128546,5,2,1:3:0:0:
76,170,128642,2,0,L|27:187,2,45,0|0|2,1:0|1:0|1:2,0:0:0:0:
41,105,128832,1,0,1:0:0:0:
145,175,128927,5,0,1:0:0:0:
179,109,129022,2,0,L|136:93,2,45,0|0|2,1:0|1:0|1:2,0:0:0:0:
207,43,129213,2,0,L|164:27,2,45,0|0|2,1:0|1:0|1:3,0:0:0:0:
219,175,129403,2,0,P|240:226|250:259,1,90,0|0,1:0|1:0,0:0:0:0:
272,328,129594,6,0,B|319:344|354:307|354:307|400:266|445:285,1,180,4|0,1:1|1:0,0:0:0:0:
474,220,129880,6,0,P|465:167|432:138,1,90,2|0,1:2|1:0,0:0:0:0:
455,72,130070,2,0,P|402:81|373:114,1,90,2|0,1:3|1:0,0:0:0:0:
307,91,130261,2,0,P|316:144|349:173,1,90,2|0,1:2|1:0,0:0:0:0:
326,239,130451,5,2,1:2:0:0:
352,305,130546,2,0,P|384:293|406:298,2,45,0|0|2,1:0|1:0|1:2,0:0:0:0:
314,367,130737,1,0,1:0:0:0:
242,376,130832,1,2,1:3:0:0:
183,334,130927,2,0,P|198:300|196:281,2,45,0|0|2,1:0|1:0|1:2,0:0:0:0:
110,342,131118,6,0,P|46:331|57:225,1,180,0|0,1:0|1:0,0:0:0:0:
103,159,131403,6,0,P|110:97|71:55,1,90,2|0,1:2|1:0,0:0:0:0:
108,3,131594,1,2,1:3:0:0:
40,29,131689,2,0,L|-8:39,4,45,0|0|2|0|0,1:0|1:0|1:2|1:0|1:0,0:0:0:0:
108,3,131975,2,0,B|145:-6|145:-6|225:17,1,90,4|2,1:2|1:2,0:0:0:0:
322,69,132165,2,0,B|285:60|285:60|205:83,1,90,0|2,1:0|1:2,0:0:0:0:
159,124,132356,1,4,1:1:0:0:
97,74,132519,5,2,0:0:0:0:
84,152,132720,5,2,0:0:0:0:
159,124,132951,6,0,P|160:167|142:203,2,67.5,4|2|2,1:0|0:0|0:0,0:0:0:0:
91,240,133600,6,0,P|137:269|157:312,2,80.9999975280763,4|2|2,1:0|0:0|0:0,0:0:0:0:
167,365,134158,6,0,P|204:341|265:348,2,94.499997116089,4|2|2,1:0|0:0|0:0,0:0:0:0:
328,367,134680,6,0,P|326:322|367:265,2,108,4|2|2,1:0|0:0|0:0,0:0:0:0:
412,216,135160,6,0,P|373:195|340:124,2,121.499996292114,4|2|2,1:1|3:2|3:2,0:0:0:0:
333,47,135604,6,0,P|295:69|204:55,1,135,4|2,1:1|3:2,0:0:0:0:
184,46,135814,2,0,P|112:65|89:102,1,90,4|0,1:2|3:0,0:0:0:0:
82,152,136025,5,4,1:1:0:0:
101,226,136125,1,0,1:0:0:0:
175,207,136225,1,0,1:0:0:0:
156,133,136325,1,2,1:2:0:0:
82,152,136425,2,0,L|34:146,4,45,0|0|0|0|0,1:0|1:0|1:0|1:0|1:0,0:0:0:0:
101,226,136710,1,0,1:0:0:0:
108,257,136758,38,2,B|55:314|55:314|97:329|131:378|131:378|230:276|230:276|205:225|158:210|158:210|255:117|255:117|323:149|335:209,1,675,2|0,1:2|0:0,0:2:0:0:
316,276,139758,1,4,1:2:0:0:
