osu file format v14

[General]
AudioFilename: audio.mp3
AudioLeadIn: 0
PreviewTime: 64561
Countdown: 0
SampleSet: Soft
StackLeniency: 0.2
Mode: 0
LetterboxInBreaks: 0
WidescreenStoryboard: 1

[Editor]
Bookmarks: 1720,1960,4920,6920,8520,10120,11720,13320,15374,19758,24279,29278,33893,37696,41181,45661,51804,56274,60657,65041,68465,69424,73946,77773,81707,85642,90888,94822,98757,102691,106625,110560,115806,119624,122351,124860,127403,128927,131975,139758
DistanceSpacing: 1.5
BeatDivisor: 4
GridSize: 4
TimelineZoom: 2.400002

[Metadata]
Title:Take
TitleUnicode:竹
Artist:Risshuu feat. Choko
ArtistUnicode:立秋 feat. ちょこ
Creator:yf_bmp
Version:Ta~ke take take take take take tatata~
Source:
Tags:bamboo masato ishioh 石王マサト bofxvi the bms of fighters xvi arcaea muse dash video game japanese novelty rabbit usagi electronic ウサギ Muziyami Koiyuki wyrio Moecho Gust Yorita Yoshino toybot nika mika xLolicore- My Angel Watame dahkjdas
BeatmapID:2844963
BeatmapSetID:1376486

[Difficulty]
HPDrainRate:5.7
CircleSize:4.2
OverallDifficulty:9.5
ApproachRate:9.8
SliderMultiplier:1.8
SliderTickRate:1

[Events]
//Background and Video events
Video,0,"bga_take.mp4"
0,0,"bg_take.png",0,0
//Break Periods
2,24478,28679
//Storyboard Layer 0 (Background)
//Storyboard Layer 1 (Fail)
//Storyboard Layer 2 (Pass)
//Storyboard Layer 3 (Foreground)
//Storyboard Layer 4 (Overlay)
//Storyboard Sound Samples

[TimingPoints]
120,400,4,2,1,80,1,0
920,-40,4,2,1,80,0,0
1270,-40,4,2,1,5,0,0
1320,-40,4,2,1,80,0,0
1720,-62.5,4,2,1,80,0,0
2120,-66.6666666666667,4,2,1,80,0,0
2520,-62.5,4,2,1,80,0,0
2920,-66.6666666666667,4,2,1,80,0,0
3320,-62.5,4,2,1,80,0,0
3720,-66.6666666666667,4,2,1,80,0,0
4920,-55.5555555555556,4,2,1,80,0,0
5160,-66.6666666666667,4,2,1,80,0,0
5720,-55.5555555555556,4,2,1,80,0,0
5960,-66.6666666666667,4,2,1,80,0,0
6553,-66.6666666666667,4,2,1,5,0,0
6600,-50,4,2,1,80,0,0
6920,-62.5,4,2,1,80,0,0
7320,-66.6666666666667,4,2,1,80,0,0
7720,-62.5,4,2,1,80,0,0
8120,-66.6666666666667,4,2,1,80,0,0
8520,-52.6315789473684,4,2,1,80,0,0
8760,-66.6666666666667,4,2,1,80,0,0
9320,-47.6190476190476,4,2,1,80,0,0
9720,-66.6666666666667,4,2,1,80,0,0
10120,-43.4782608695652,4,2,1,80,0,0
10520,-66.6666666666667,4,2,1,80,0,0
10920,-38.4615384615385,4,2,1,80,0,0
11320,-66.6666666666667,4,2,1,80,0,0
11720,-133.333333333333,4,2,1,80,0,0
13320,273.972602739726,4,2,1,80,1,0
13936,-100,4,2,1,5,0,0
14004,-100,4,2,1,80,0,0
15374,-66.6666666666667,4,2,1,80,0,0
15785,-40,4,2,1,80,0,0
18251,-66.6666666666667,4,2,1,80,0,0
18525,-40,4,2,1,80,0,0
18799,-66.6666666666667,4,2,1,80,0,0
19073,-40,4,2,1,80,0,0
22635,-66.6666666666667,4,2,2,80,0,0
23730,-66.6666666666667,4,2,1,80,0,0
23765,-66.6666666666667,4,2,1,5,0,0
24279,333.333333333333,4,2,1,40,1,0
29279,461.538461538462,4,2,1,80,1,0
29279,-133.333333333333,4,2,1,80,0,0
29740,461.538461538462,4,2,1,80,1,0
31586,-90.9090909090909,4,2,1,80,0,0
32047,-100,4,2,1,80,0,0
33432,-200,4,2,1,80,0,0
33894,422.535211267606,4,2,1,80,1,0
35584,-90.9090909090909,4,2,1,80,0,0
36006,-100,4,2,1,80,0,0
37697,387.096774193548,4,2,1,80,1,0
39245,-83.3333333333333,4,2,1,80,0,0
39535,-100,4,2,1,80,0,0
40019,-76.9230769230769,4,2,1,80,0,0
40116,-76.9230769230769,4,2,1,20,0,0
40213,-76.9230769230769,4,2,1,80,0,0
40309,-76.9230769230769,4,2,1,35,0,0
40406,-100,4,2,1,80,0,0
40600,-133.333333333333,4,2,1,80,0,0
40793,-66.6666666666667,4,2,1,80,0,0
41181,363.636363636364,4,2,1,80,1,0
42636,342.857142857143,4,2,1,80,1,0
42636,-83.3333333333333,4,2,1,80,0,0
42893,-100,4,2,1,80,0,0
43064,-100,4,2,1,5,0,0
43150,-100,4,2,1,80,0,0
43236,-100,4,2,1,5,0,0
43321,-66.6666666666667,4,2,1,80,0,0
43407,-66.6666666666667,4,2,1,20,0,0
43493,-66.6666666666667,4,2,1,80,0,0
43578,-66.6666666666667,4,2,1,20,0,0
43664,-100,4,2,1,80,0,0
44007,-47.6190476190476,4,2,1,80,0,0
44350,327.868852459016,4,2,1,80,1,0
44350,-80,4,2,1,80,0,0
46645,-40,4,2,1,80,0,0
46973,307.692307692308,4,2,1,80,1,0
48819,-50,4,2,1,80,0,0
49126,-33.3333333333333,4,2,1,80,0,0
49434,300,4,2,1,80,1,0
49884,-66.6666666666667,4,2,1,80,0,0
50184,-50,4,2,1,80,0,0
50334,-57.1428571428571,4,2,1,80,0,0
50634,292.682926829268,4,2,1,80,1,0
50634,-33.3333333333333,4,2,1,80,0,0
50926,-57.1428571428571,4,2,1,80,0,0
51512,-28.5714285714286,4,2,1,80,0,0
51811,279.06976744186,4,2,1,80,1,0
52922,273.972602739726,4,2,1,80,1,0
52922,-50,4,2,1,80,0,0
53743,-33.3333333333333,4,2,1,80,0,0
54017,307.692307692308,4,2,1,80,1,0
54632,-100,4,2,0,80,0,0
55864,273.972602739726,4,2,1,80,1,0
56411,273.972602739726,4,2,1,80,1,0
72301,-100,4,2,2,80,0,0
72849,-66.6666666666667,4,2,1,80,0,0
73946,276.497695852535,4,2,1,80,1,0
73946,-55.5555555555556,4,2,1,80,0,0
74015,-55.5555555555556,4,2,1,5,0,0
74084,-62.5,4,2,1,80,0,0
74153,-62.5,4,2,1,5,0,0
74222,292.682926829268,4,2,1,80,1,0
74222,-71.4285714285714,4,2,1,80,0,0
74295,-71.4285714285714,4,2,1,5,0,0
74368,-83.3333333333333,4,2,1,80,0,0
74441,-83.3333333333333,4,2,1,5,0,0
74515,307.692307692308,4,2,1,80,1,0
74515,-100,4,2,1,80,0,0
74591,-100,4,2,1,5,0,0
74668,-125,4,2,1,80,0,0
74745,-125,4,2,1,5,0,0
74823,327.868852459016,4,2,1,80,1,0
74823,-166.666666666667,4,2,1,80,0,0
74904,-166.666666666667,4,2,1,5,0,0
74986,-250,4,2,1,80,0,0
75068,-250,4,2,1,5,0,0
75150,-1000,4,2,1,80,0,0
75314,-1000,4,2,1,5,0,0
75588,-1000,4,2,1,80,0,0
76462,327.868852459016,4,2,1,80,1,0
94604,-93.4579439252336,4,2,1,80,0,0
94822,-100,4,2,1,80,0,0
97445,-400,4,2,1,80,0,0
97773,-400,4,2,1,50,0,0
97882,-400,4,2,1,80,0,0
98757,-55.5555555555556,4,2,1,80,0,0
100724,-62.5,4,2,1,80,0,0
100911,-71.4285714285714,4,2,1,80,0,0
101099,-83.3333333333333,4,2,1,80,0,0
101380,-55.5555555555556,4,2,1,80,0,0
103716,-100,4,2,1,80,0,0
104002,-50,4,2,1,80,0,0
105150,-66.6666666666667,4,2,1,80,0,0
105314,-50,4,2,1,80,0,0
105806,-66.6666666666667,4,2,1,80,0,0
105970,-40,4,2,1,80,0,0
106093,-40,4,2,1,5,0,0
106134,-50,4,2,1,80,0,0
107117,-66.6666666666667,4,2,1,80,0,0
107281,-50,4,2,1,80,0,0
109248,-66.6666666666667,4,2,1,80,0,0
111216,-50,4,2,1,80,0,0
111298,-50,4,2,1,30,0,0
111380,-66.6666666666667,4,2,1,80,0,0
111461,-66.6666666666667,4,2,1,30,0,0
111543,-100,4,2,1,80,0,0
111625,-100,4,2,1,30,0,0
111707,-83.3333333333333,4,2,1,80,0,0
114330,-100,4,2,1,80,0,0
114822,-83.3333333333333,4,2,1,80,0,0
115150,-30.3030303030303,4,2,1,80,0,0
115273,-33.3333333333333,4,2,1,5,0,0
115806,521.739130434783,4,2,1,80,1,0
116850,375,4,2,1,80,1,0
117600,307.692307692308,4,2,1,80,1,0
118215,272.727272727273,4,2,1,80,1,0
118761,255.31914893617,4,2,1,80,1,0
119271,235.294117647059,4,2,1,80,1,0
119624,218.181818181818,4,2,1,80,1,0
119733,218.181818181818,4,2,1,80,1,0
122787,-66.6666666666667,4,2,1,80,0,0
123114,-100,4,2,1,80,0,0
125842,200,4,2,1,80,1,0
126547,190.47619047619,4,2,1,80,1,0
126642,190.47619047619,4,2,1,80,1,0
132356,218.181818181818,4,2,1,80,1,0
132720,461.538461538462,4,2,1,80,1,0
132951,324.324324324324,4,2,1,80,1,0
133600,279.06976744186,4,2,1,80,1,0
134158,260.869565217391,4,2,1,80,1,0
134680,240,4,2,1,80,1,0
135160,222.222222222222,4,2,1,80,1,0
135604,210.526315789474,4,2,1,80,1,0
136025,200,4,2,1,80,1,0
136425,190.47619047619,4,2,1,80,1,0
136758,750,4,2,1,80,1,0
136758,-1000,4,2,1,80,0,0
139695,-1000,4,2,1,5,0,0
139758,273.972602739726,4,2,1,80,1,0

[Colours]
Combo1 : 64,187,73
Combo2 : 255,98,89
Combo3 : 114,114,114
Combo4 : 255,227,147
Combo5 : 115,160,255
Combo6 : 196,95,243
Combo7 : 255,92,199
Combo8 : 118,194,33

[HitObjects]
256,360,920,102,0,B|256:356|256:356|252:352|252:352|260:352|260:352|256:348|256:348|256:296|256:296|252:292|252:292|260:292|260:292|256:288|256:288|256:236|256:236|252:232|252:232|260:232|260:232|256:228|256:228|256:176|256:176|252:172|252:172|260:172|260:172|256:168|256:168|256:116|256:116|252:112|252:112|260:112|260:112|256:108|256:108|256:56|256:56|252:52|252:52|260:52|260:52|256:48|256:48|256:32,1,393.75,2|0,2:1|0:0,0:0:0:0:
256,24,1320,5,2,0:0:0:0:
72,304,1720,102,0,B|72:300|72:300|68:296|68:296|76:296|76:296|72:292|72:292|72:240|72:240|68:236|68:236|76:236|76:236|72:232|72:232|72:180|72:180|68:176|68:176|76:176|76:176|72:172|72:172|72:164,1,172.8,0|2,1:0|0:0,0:0:0:0:
36,100,2040,5,2,0:1:0:0:
0,108,2120,2,0,B|0:124|0:124|4:128|4:128|-4:128|-4:128|0:132|0:132|0:152,1,54.0000020599366,0|2,1:0|0:1,0:0:0:0:
72,380,2360,1,2,0:0:0:0:
176,280,2520,102,0,B|176:276|176:276|172:272|172:272|180:272|180:272|176:268|176:268|176:216|176:216|172:212|172:212|180:212|180:212|176:208|176:208|176:156|176:156|172:152|172:152|180:152|180:152|176:148|176:148|176:140,1,172.8,0|2,1:0|0:0,0:0:0:0:
140,76,2840,5,2,0:1:0:0:
104,84,2920,2,0,B|104:100|104:100|108:104|108:104|100:104|100:104|104:108|104:108|104:128,1,54.0000020599366,0|2,1:0|0:1,0:0:0:0:
176,356,3160,1,2,0:0:0:0:
256,208,3320,102,0,B|256:204|256:204|252:200|252:200|260:200|260:200|256:196|256:196|256:144|256:144|252:140|252:140|260:140|260:140|256:136|256:136|256:84|256:84|252:80|252:80|260:80|260:80|256:76|256:76|256:68,1,172.8,0|2,1:0|0:0,0:0:0:0:
220,4,3640,5,2,0:1:0:0:
184,12,3720,2,0,B|184:28|184:28|188:32|188:32|180:32|180:32|184:36|184:36|184:60,1,54.0000020599366,0|2,1:0|0:1,0:0:0:0:
256,284,3960,1,2,0:0:0:0:
436,116,4120,5,0,1:0:0:0:
360,192,4253,1,2,0:1:0:0:
344,300,4386,1,2,0:0:0:0:
288,372,4520,5,0,1:0:0:0:
200,356,4653,1,2,2:1:0:0:
112,384,4786,1,2,2:2:0:0:
72,304,4920,70,0,B|72:300|72:300|68:296|68:296|76:296|76:296|72:292|72:292|72:240|72:240|68:236|68:236|76:236|76:236|72:232|72:232|72:180|72:180|68:176|68:176|76:176|76:176|72:172|72:172|72:132,1,194.399994067383,0|2,1:0|0:0,0:0:0:0:
64,92,5240,5,2,0:1:0:0:
16,112,5320,2,0,B|16:128|16:128|20:132|20:132|12:132|12:132|16:136|16:136|16:160,1,54.0000020599366,0|2,1:0|0:1,0:0:0:0:
20,364,5560,1,2,0:0:0:0:
184,228,5720,102,0,B|184:224|184:224|180:220|180:220|188:220|188:220|184:216|184:216|184:164|184:164|180:160|180:160|188:160|188:160|184:156|184:156|184:104|184:104|180:100|180:100|188:100|188:100|184:96|184:96|184:56,1,194.399994067383,0|2,1:0|0:0,0:0:0:0:
176,16,6040,5,2,0:1:0:0:
128,36,6120,2,0,B|128:52|128:52|132:56|132:56|124:56|124:56|128:60|128:60|128:80,1,54.0000020599366,0|2,1:0|0:1,0:0:0:0:
136,292,6370,1,2,0:0:0:0:
312,220,6520,6,0,P|320:232|324:248,1,22.5000008583069,2|0,1:1|2:1,0:0:0:0:
300,312,6600,2,0,B|340:304|352:248|352:248|352:296|372:308,1,144,2|2,2:2|0:1,0:0:0:0:
444,336,6840,1,2,0:1:0:0:
452,324,6920,86,0,B|450:320|450:320|446:317|446:317|453:315|453:315|448:312|448:312|435:262|435:262|430:259|430:259|438:257|438:257|433:254|433:254|419:204|419:204|415:201|415:201|422:199|422:199|417:196|417:196|415:188,1,172.8,0|2,1:0|0:0,0:0:0:0:
408,164,7240,5,2,0:1:0:0:
388,96,7320,2,0,B|372:91|372:91|367:94|367:94|369:86|369:86|364:89|364:89|346:84,1,54.0000020599366,0|2,1:0|0:1,0:0:0:0:
256,180,7560,1,2,0:0:0:0:
60,324,7720,102,0,B|62:320|62:320|66:317|66:317|59:315|59:315|64:312|64:312|77:262|77:262|82:259|82:259|74:257|74:257|79:254|79:254|93:204|93:204|97:201|97:201|90:199|90:199|95:196|95:196|97:188,1,172.8,0|2,1:0|0:0,0:0:0:0:
104,164,8040,5,2,0:1:0:0:
124,96,8120,2,0,B|140:91|140:91|145:94|145:94|143:86|143:86|148:89|148:89|166:83,1,54.0000020599366,0|2,1:0|0:1,0:0:0:0:
256,180,8360,1,2,0:0:0:0:
356,372,8520,102,0,B|355:368|355:368|351:364|351:364|359:363|359:363|354:360|354:360|350:308|350:308|346:304|346:304|354:303|354:303|349:300|349:300|345:248|345:248|340:244|340:244|348:244|348:244|344:240|344:240|341:200,1,205.199994520569,0|2,1:0|0:0,0:0:0:0:
340,176,8840,5,2,0:1:0:0:
332,104,8920,2,0,B|317:95|317:95|312:96|312:96|316:89|316:89|310:91|310:91|295:82,1,54.0000020599366,0|2,1:0|0:1,0:0:0:0:
256,248,9160,1,2,0:0:0:0:
0,252,9320,102,0,B|11:226|11:226|9:221|9:221|17:224|17:224|15:219|15:219|37:172|37:172|35:166|35:166|42:170|42:170|40:164|40:164|62:117|62:117|60:112|60:112|67:115|67:115|65:110|65:110|81:77,1,226.799993078614,0|2,1:0|0:0,0:0:0:0:
96,48,9640,5,2,0:1:0:0:
164,24,9720,2,0,B|180:19|180:19|185:21|185:21|183:13|183:13|188:17|188:17|205:12,1,54.0000020599366,0|2,1:0|0:1,0:0:0:0:
256,316,9960,1,2,0:0:0:0:
512,252,10120,102,0,B|510:248|510:248|504:246|504:246|512:243|512:243|506:241|506:241|484:193|484:193|479:192|479:192|486:188|486:188|481:186|481:186|459:139|459:139|454:137|454:137|461:134|461:134|456:132|456:132|434:85|434:85|428:83|428:83|436:79|436:79|430:77|430:77|425:67,1,248.400004737854,0|2,1:0|0:0,0:0:0:0:
408,36,10440,5,2,0:1:0:0:
340,12,10520,2,0,B|323:7|323:7|318:9|318:9|320:1|320:1|315:5|315:5|298:0,1,54.0000020599366,0|2,1:0|0:1,0:0:0:0:
256,384,10760,1,2,0:0:0:0:
256,384,10920,102,0,B|256:344|256:344|252:340|252:340|260:340|260:340|256:336|256:336|256:284|256:284|252:280|252:280|260:280|260:280|256:276|256:276|256:224|256:224|252:220|252:220|260:220|260:220|256:216|256:216|256:164|256:164|252:160|252:160|260:160|260:160|256:156|256:156|256:148,1,280.799987145997,0|2,1:0|0:0,0:0:0:0:
256,108,11240,5,2,0:1:0:0:
256,32,11320,2,0,B|256:48|256:48|252:52|252:52|260:52|260:52|256:56|256:56|256:80,1,54.0000020599366,0|2,1:0|0:1,0:0:0:0:
256,384,11560,1,2,0:0:0:0:
256,376,11720,5,0,1:0:0:0:
256,284,11880,2,0,L|256:240,1,27.0000010299683,2|0,0:1|0:0,0:0:0:0:
352,260,12040,5,2,0:0:0:0:
352,260,12120,1,0,1:0:0:0:
352,260,12195,1,2,0:2:0:0:
256,184,12360,5,2,0:0:0:0:
144,156,12520,5,0,1:0:0:0:
104,56,12680,2,0,L|104:12,1,27.0000010299683,2|0,0:1|0:0,0:0:0:0:
256,22,12840,69,2,0:0:0:0:
256,22,12920,1,0,1:0:0:0:
256,22,13000,1,2,0:0:0:0:
408,56,13160,5,2,0:1:0:0:
256,360,13320,70,0,B|256:356|256:356|252:352|252:352|260:352|260:352|256:348|256:348|256:296|256:296|252:292|252:292|260:292|260:292|256:288|256:288|256:236|256:236|252:232|252:232|260:232|260:232|256:228|256:228|256:176|256:176|252:172|252:172|260:172|260:172|256:168|256:168|256:116|256:116|252:112|252:112|260:112|260:112|256:108|256:108|256:56|256:56|252:52|252:52|260:52|260:52|256:48|256:48|256:20,1,405,2|0,0:1|0:0,0:0:0:0:
236,223,14004,21,2,0:2:0:0:
264,155,14141,1,2,0:0:0:0:
268,229,14278,1,2,0:0:0:0:
136,172,14415,5,2,0:1:0:0:
256,192,14552,1,2,0:1:0:0:
376,212,14689,1,2,0:1:0:0:
192,96,14826,5,0,0:0:0:0:
284,320,14963,1,0,1:0:0:0:
336,56,15100,5,0,1:0:0:0:
68,252,15237,1,0,1:0:0:0:
460,140,15374,5,4,1:1:0:0:
460,140,15648,1,2,0:0:0:0:
332,368,15785,22,0,B|332:364|332:364|328:359|328:359|336:360|336:360|333:356|333:356|337:304|337:304|333:299|333:299|341:300|341:300|338:296|338:296|342:244|342:244|339:240|339:240|347:240|347:240|343:236|343:236|348:176,1,225,8|2,1:0|3:2,0:0:0:0:
416,376,16059,2,0,B|416:372|416:372|412:367|412:367|420:368|420:368|417:364|417:364|421:312|421:312|417:307|417:307|425:308|425:308|422:304|422:304|426:252|426:252|423:248|423:248|431:248|431:248|427:244|427:244|432:184,1,225,2|2,1:3|3:2,0:0:0:0:
100,272,16333,6,0,B|99:268|99:268|103:263|103:263|95:264|95:264|98:260|98:260|94:208|94:208|98:203|98:203|90:204|90:204|93:200|93:200|89:148|89:148|92:144|92:144|84:144|84:144|88:140|88:140|83:80,1,225,8|2,1:0|3:2,0:0:0:0:
16,280,16607,2,0,B|15:276|15:276|19:271|19:271|11:272|11:272|14:268|14:268|10:216|10:216|14:211|14:211|6:212|6:212|9:208|9:208|5:156|5:156|8:152|8:152|0:152|0:152|4:148|4:148|0:88,1,225,0|2,1:0|3:2,0:0:0:0:
332,368,16881,102,0,B|332:364|332:364|328:359|328:359|336:360|336:360|333:356|333:356|337:304|337:304|333:299|333:299|341:300|341:300|338:296|338:296|342:244|342:244|339:240|339:240|347:240|347:240|343:236|343:236|348:176,1,225,8|2,1:0|3:2,0:0:0:0:
256,384,17155,85,2,1:3:0:0:
240,256,17292,1,0,1:0:0:0:
272,128,17429,1,0,1:0:0:0:
256,0,17566,5,0,1:2:0:0:
256,0,17840,1,2,3:2:0:0:
492,32,17977,6,0,B|488:31|488:31|483:35|483:35|484:27|484:27|480:30|480:30|428:26|428:26|423:30|423:30|424:22|424:22|420:25|420:25|368:21|368:21|364:24|364:24|364:16|364:16|360:20|360:20|356:80,1,225,8|2,1:0|3:2,0:0:0:0:
344,276,18251,5,2,1:3:0:0:
140,192,18388,2,0,B|147:192|147:192|152:189|152:189|151:197|151:197|155:193|155:193|215:198,1,67.5000025749208,0|0,1:0|1:0,0:0:0:0:
144,116,18525,102,0,B|148:117|148:117|153:113|153:113|152:121|152:121|156:118|156:118|208:122|208:122|213:118|213:118|212:126|212:126|216:123|216:123|268:127|268:127|272:124|272:124|272:132|272:132|276:128|276:128|272:188,1,225,8|2,1:0|3:2,0:0:0:0:
84,364,18799,6,0,B|84:356|84:356|81:351|81:351|89:352|89:352|85:348|85:348|90:288,1,67.5000025749208,0|0,1:0|1:0,0:0:0:0:
164,312,18936,2,0,B|163:319|163:319|166:324|166:324|158:323|158:323|162:327|162:327|157:387,1,67.5000025749208,0|0,1:0|1:0,0:0:0:0:
8,360,19073,102,0,B|9:356|9:356|5:351|5:351|13:352|13:352|10:348|10:348|14:296|14:296|10:291|10:291|18:292|18:292|15:288|15:288|19:236|19:236|16:232|16:232|24:232|24:232|20:228|20:228|80:232,1,225,8|2,1:0|1:2,0:0:0:0:
8,24,19347,2,0,B|9:28|9:28|5:33|5:33|13:32|13:32|10:36|10:36|14:88|14:88|10:93|10:93|18:92|18:92|15:96|15:96|19:148|19:148|16:152|16:152|24:152|24:152|20:156|20:156|80:152,1,225,2|0,1:3|1:0,0:0:0:0:
276,140,19621,1,8,1:0:0:0:
232,384,19758,85,4,1:1:0:0:
232,384,20032,1,2,3:2:0:0:
488,304,20169,38,0,B|487:312|487:312|491:316|491:316|483:316|483:316|487:320|487:320|483:360|483:360|487:364|487:364|479:364|479:364|483:368|483:368|431:364|431:364|427:360|427:360|435:360|435:360|431:356|431:356|435:316|435:316|431:312|431:312|439:312|439:312|435:308|435:308|436:300,1,225,8|2,1:0|3:2,0:0:0:0:
168,340,20443,2,0,B|160:339|160:339|156:343|156:343|156:335|156:335|152:339|152:339|112:335|112:335|108:339|108:339|108:331|108:331|104:335|104:335|108:283|108:283|112:279|112:279|112:287|112:287|116:283|116:283|156:287|156:287|160:283|160:283|160:291|160:291|164:287|164:287|172:288,1,225,2|2,1:3|1:2,0:0:0:0:
328,136,20717,2,0,B|327:128|327:128|331:124|331:124|323:124|323:124|327:120|327:120|323:80|323:80|327:76|327:76|319:76|319:76|323:72|323:72|271:76|271:76|267:80|267:80|275:80|275:80|271:84|271:84|275:124|275:124|271:128|271:128|279:128|279:128|275:132|275:132|276:140,1,225,8|2,1:0|3:2,0:0:0:0:
344,328,20991,102,0,B|336:329|336:329|332:325|332:325|332:333|332:333|328:329|328:329|288:333|288:333|284:329|284:329|284:337|284:337|280:333|280:333|284:385|284:385|288:389|288:389|288:381|288:381|292:385|292:385|332:381|332:381|336:385|336:385|336:377|336:377|340:381|340:381|348:380,1,225,0|2,1:0|1:2,0:0:0:0:
428,204,21265,2,0,B|437:204|437:204|440:208|440:208|441:200|441:200|444:205|444:205|485:207|485:207|488:212|488:212|488:204|488:204|491:209|491:209|496:157|496:157|492:152|492:152|491:160|491:160|488:155|488:155|449:153|449:153|445:148|445:148|444:156|444:156|441:152|441:152|433:152,1,225,8|2,1:0|1:2,0:0:0:0:
256,0,21539,101,2,1:3:0:0:
240,128,21676,1,0,1:0:0:0:
272,256,21813,1,0,1:0:0:0:
256,384,21950,101,2,1:2:0:0:
256,384,22224,1,0,1:0:0:0:
256,384,22292,1,0,1:0:0:0:
256,384,22361,38,0,B|260:384|260:384|264:379|264:379|264:387|264:387|268:383|268:383|320:378|320:378|324:373|324:373|324:382|324:382|328:378|328:378|380:373|380:373|383:369|383:369|384:377|384:377|388:372|388:372|381:313,1,225,8|0,1:0|1:0,0:0:0:0:
128,204,22635,102,0,B|128:197|128:197|125:192|125:192|133:193|133:193|129:189|129:189|134:129,1,67.5000025749208,2|0,1:3|0:0,0:0:0:0:
244,64,22772,2,0,B|251:64|251:64|256:61|256:61|255:69|255:69|259:65|259:65|319:70,1,67.5000025749208,2|0,1:2|0:0,0:0:0:0:
384,180,22909,2,0,B|384:187|384:187|387:192|387:192|379:191|379:191|383:195|383:195|378:255,1,67.5000025749208,2|0,1:2|0:0,0:0:0:0:
268,320,23046,2,0,B|261:320|261:320|256:323|256:323|257:315|257:315|253:319|253:319|193:314,1,67.5000025749208,0|0,1:0|0:0,0:0:0:0:
168,76,23183,6,0,B|153:57|153:57|147:56|147:56|153:51|153:51|148:50|148:50|133:31,1,67.5000025749208,0|0,1:0|1:0,0:0:0:0:
344,308,23320,2,0,B|358:326|358:326|364:327|364:327|358:332|358:332|363:333|363:333|378:352,1,67.5000025749208,6|0,1:2|1:0,0:0:0:0:
372,104,23456,2,0,B|390:89|390:89|391:83|391:83|396:89|396:89|397:84|397:84|416:69,1,67.5000025749208,0|0,1:2|0:0,0:0:0:0:
140,280,23593,2,0,B|121:294|121:294|120:300|120:300|115:294|115:294|114:299|114:299|95:314,1,67.5000025749208,4|0,1:2|0:0,0:0:0:0:
256,192,23730,6,0,L|262:152,1,33.7500012874604,2|0,1:3|0:0,0:0:0:0:
256,192,24278,5,4,1:1:0:0:
464,372,29279,6,0,L|458:321,1,33.7500012874604,2|2,0:0|0:1,0:0:0:0:
449,266,29509,2,0,L|443:215,1,33.7500012874604,2|2,0:2|0:1,0:0:0:0:
435,160,29740,5,0,1:0:0:0:
349,176,29970,1,2,0:0:0:0:
338,149,30086,1,2,0:1:0:0:
324,174,30201,1,0,1:0:0:0:
241,145,30432,1,2,2:1:0:0:
188,76,30663,69,0,1:0:0:0:
108,116,30893,1,2,0:2:0:0:
24,88,31124,1,0,1:0:0:0:
104,48,31355,1,2,0:2:0:0:
188,80,31586,6,0,B|235:87|240:132|240:132|192:156|180:112,1,148.50000453186,0|2,1:0|0:1,0:0:0:0:
104,44,32047,2,0,P|130:14|179:2,1,90,0|2,1:0|0:2,0:0:0:0:
164,244,32509,22,0,P|129:259|63:244,1,90,0|2,1:0|0:2,0:0:0:0:
376,316,32970,70,0,L|384:271,1,45,0|2,1:0|0:1,0:0:0:0:
456,288,33201,2,0,L|444:348,1,45,2|2,2:2|0:1,0:0:0:0:
248,352,33432,22,0,B|244:340|256:333|256:333|268:340|264:352,1,45,0|2,0:0|0:0,0:0:0:0:
0,276,33894,6,0,P|44:288|80:248,1,90,0|2,1:0|0:0,0:0:0:0:
88,216,34210,1,2,0:1:0:0:
116,256,34316,1,0,1:0:0:0:
256,280,34527,1,2,2:1:0:0:
316,152,34739,85,0,1:0:0:0:
400,180,34950,1,2,0:0:0:0:
480,140,35161,1,0,1:0:0:0:
396,112,35372,1,2,0:0:0:0:
448,276,35584,102,0,B|455:229|500:224|500:224|524:272|480:284,1,148.50000453186,0|2,1:0|0:1,0:0:0:0:
460,320,36006,1,0,1:0:0:0:
332,240,36217,1,2,0:0:0:0:
480,140,36429,6,0,P|436:160|396:144,1,90,0|2,1:0|0:0,0:0:0:0:
324,128,36746,1,0,0:0:0:0:
324,132,36851,22,0,P|322:111|312:88,1,45,0|2,1:0|0:1,0:0:0:0:
240,112,37063,2,0,P|241:132|252:156,1,45,2|2,2:0|2:1,0:0:0:0:
268,352,37274,102,0,B|272:328|256:310|256:310|240:328|244:352,1,90,0|2,0:0|0:0,0:0:0:0:
512,192,37696,101,0,1:0:0:0:
416,58,37890,1,2,0:0:0:0:
405,85,37987,1,2,0:1:0:0:
391,60,38084,1,0,1:0:0:0:
318,207,38277,1,2,2:1:0:0:
113,87,38471,21,0,1:0:0:0:
277,75,38664,1,2,0:0:0:0:
188,0,38858,1,0,1:0:0:0:
200,164,39051,1,2,0:0:0:0:
40,72,39245,86,0,B|0:80|4:120|4:120|40:128|48:96,1,107.999996704102,0|2,1:0|2:2,0:0:0:0:
113,87,39535,1,2,0:1:0:0:
84,40,39632,1,0,1:0:0:0:
0,236,39826,1,2,0:1:0:0:
204,168,40019,101,0,1:0:0:0:
44,116,40213,6,0,P|60:140|72:168,1,58.4999973220826,2|0,0:0|0:0,0:0:0:0:
176,236,40406,22,0,P|155:243|138:257,1,45,0|2,1:1|0:1,0:1:0:0:
60,312,40600,70,0,P|67:328|69:346,1,33.7500012874604,2|2,0:2|0:1,0:1:0:0:
248,352,40793,22,0,B|244:333|252:315|252:315|256:299|256:299|252:295|252:295|260:295|260:295|256:291|256:291|260:315|260:315|268:333|264:351,1,135.000005149842,0|2,0:0|0:0,0:0:0:0:
508,184,41180,85,0,1:0:0:0:
436,348,41362,1,2,0:0:0:0:
425,375,41453,1,2,0:1:0:0:
411,350,41544,1,0,1:0:0:0:
308,200,41726,1,2,2:1:0:0:
4,200,41908,5,0,1:0:0:0:
87,9,42090,1,2,0:2:0:0:
204,184,42271,1,0,1:1:0:0:
16,88,42453,1,2,0:0:0:0:
172,112,42636,6,0,B|138:90|109:124|109:124|120:144|146:138,1,107.999996704102,0|2,1:0|2:0,0:0:0:0:
204,184,42893,1,2,0:1:0:0:
204,108,42978,2,0,P|196:92|160:84,1,45,0|0,1:0|0:0,0:0:0:0:
88,208,43150,2,0,P|96:224|132:232,1,45,2|0,0:0|0:0,0:0:0:0:
288,224,43321,5,0,1:0:0:0:
128,240,43493,2,0,L|212:232,1,67.5000025749208,2|0,0:0|0:0,0:0:0:0:
338,299,43664,70,0,L|382:303,1,45,0|0,1:0|0:0,0:0:0:0:
506,319,43836,2,0,L|422:311,1,45,2|0,0:0|0:0,0:0:0:0:
256,352,44007,102,0,B|248:348|248:348|252:340|252:340|264:348|264:348|260:340|260:340|256:332|256:332|256:288|256:288|252:284|252:284|260:284|260:284|256:280|256:280|256:228|256:228|252:224|252:224|260:224|260:224|256:220|256:220|256:160,1,188.999994232178,0|2,1:0|0:0,0:0:0:0:
352,36,44350,5,0,1:0:0:0:
408,28,44431,1,0,1:0:0:0:
456,56,44513,2,0,L|464:-12,1,56.25,10|2,1:2|3:1,1:2:0:0:
432,196,44677,5,0,1:0:0:0:
376,204,44758,1,0,1:0:0:0:
328,176,44841,1,8,1:0:0:0:
40,8,45005,5,0,1:0:0:0:
32,64,45086,1,0,1:0:0:0:
60,112,45169,2,0,L|-8:120,1,56.25,10|2,1:2|3:1,1:2:0:0:
180,80,45332,5,0,1:0:0:0:
188,136,45415,1,0,1:0:0:0:
160,184,45496,1,8,1:0:0:0:
168,240,45579,1,0,1:0:0:0:
212,276,45661,70,0,L|136:288,1,56.25,0|0,1:0|1:0,0:0:0:0:
32,304,45825,2,0,L|20:220,1,56.25,8|2,1:2|3:1,0:0:0:0:
180,80,45989,5,0,1:0:0:0:
236,88,46070,1,0,1:0:0:0:
284,60,46153,1,8,1:0:0:0:
340,68,46236,1,0,1:0:0:0:
380,108,46317,6,0,B|388:116|388:116|380:172,1,56.25,0|2,1:0|1:2,0:0:0:0:
436,220,46481,2,0,B|428:228|428:228|436:284,1,56.25,8|2,1:2|3:1,0:0:0:0:
256,352,46645,54,0,B|252:348|252:348|252:344|252:344|260:348|260:348|260:344|260:344|256:340|256:340|256:288|256:288|252:284|252:284|260:284|260:284|256:280|256:280|256:228|256:228|252:224|252:224|260:224|260:224|256:220|256:220|256:160,1,225,0|2,1:0|3:2,0:0:0:0:
200,360,46973,37,0,1:0:0:0:
256,360,47049,1,0,1:0:0:0:
312,360,47126,1,10,1:2:0:0:
304,340,47203,1,2,3:1:0:0:
308,320,47280,5,0,1:0:0:0:
256,296,47357,1,2,1:1:0:0:
204,320,47434,1,8,1:1:0:0:
304,240,47588,5,2,1:3:0:0:
308,184,47665,1,2,1:1:0:0:
340,136,47742,1,8,1:2:0:0:
344,80,47819,1,0,1:0:0:0:
312,36,47896,1,2,1:2:0:0:
256,24,47973,1,0,1:0:0:0:
200,36,48049,1,8,1:1:0:0:
168,80,48126,1,2,1:1:0:0:
172,136,48203,1,0,1:0:0:0:
204,184,48280,1,0,1:0:0:0:
208,240,48357,1,8,1:2:0:0:
376,276,48511,69,0,1:0:0:0:
496,48,48665,1,8,1:1:0:0:
496,48,48742,1,2,1:1:0:0:
496,48,48819,6,0,B|453:59|453:59|450:47|450:47|441:62|441:62|456:70|456:70,1,90,0|0,1:0|1:0,0:0:0:0:
368,144,48973,2,0,B|356:186|356:186|368:189|368:189|353:198|353:198|345:183|345:183,1,90,10|0,1:2|1:0,0:0:0:0:
256,352,49126,70,0,B|256:348|256:348|252:344|252:344|260:344|260:344|256:340|256:340|256:288|256:288|252:284|252:284|260:284|260:284|256:280|256:280|256:228|256:228|252:224|252:224|260:224|260:224|256:220|256:220|256:168|256:168|252:164|252:164|260:164|260:164|256:160|256:160|256:100,1,270.000010299683,0|2,1:0|3:2,0:0:0:0:
256,72,49357,1,0,1:0:0:0:
200,84,49434,53,0,1:0:0:0:
144,92,49509,1,0,1:0:0:0:
92,68,49584,1,10,1:2:0:0:
112,48,49659,1,2,3:1:0:0:
116,20,49734,5,0,1:0:0:0:
60,12,49809,1,2,1:1:0:0:
8,36,49884,2,0,L|17:103,1,67.5000025749208,8|0,1:1|3:0,0:0:0:0:
4,264,50034,69,2,1:3:0:0:
56,288,50109,1,2,1:1:0:0:
112,280,50184,2,0,L|98:187,1,90,8|0,1:2|3:0,0:0:0:0:
188,176,50334,2,0,B|201:148|252:152|251:227|194:273|194:273|232:264|272:266,1,236.250002253056,0|2,1:0|1:1,0:0:0:0:
320,184,50634,6,0,B|335:134|370:167|374:207|345:246|321:199,1,135.000005149842,0|0,1:0|1:0,0:0:0:0:
440,172,50780,2,0,B|455:122|490:155|494:195|465:234|441:187,1,135.000005149842,10|0,1:2|1:0,0:0:0:0:
256,98,50926,1,0,1:0:0:0:
120,344,51073,1,8,1:1:0:0:
112,288,51146,1,2,1:1:0:0:
140,240,51219,6,0,B|135:198|135:198|96:208,1,78.7500007510185,0|0,1:0|1:0,0:0:0:0:
24,300,51365,2,0,B|-1:332|-1:332|33:353,1,78.7500007510185,8|0,1:2|1:0,0:0:0:0:
256,352,51512,54,0,B|252:348|252:348|252:344|252:344|260:348|260:348|260:344|260:344|256:340|256:340|256:288|256:288|252:284|252:284|260:284|260:284|256:280|256:280|256:228|256:228|252:224|252:224|260:224|260:224|256:220|256:220|256:168|256:168|252:164|252:164|260:164|260:164|256:160|256:160|256:108|256:108|252:104|252:104|260:104|260:104|256:100|256:100|256:80,1,315.000003004074,0|2,1:0|3:2,0:0:0:0:
256,60,51707,1,0,1:0:0:0:
192,8,51804,69,0,1:0:0:0:
152,32,51880,1,0,1:0:0:0:
136,76,51950,1,10,1:2:0:0:
144,120,52020,1,2,1:1:0:0:
176,152,52090,1,0,1:0:0:0:
216,176,52159,1,0,1:0:0:0:
232,220,52229,1,8,1:1:0:0:
224,264,52299,1,2,1:1:0:0:
188,297,52369,5,2,1:3:0:0:
112,322,52462,5,0,1:0:0:0:
44,276,52555,101,0,1:0:0:0:
37,196,52648,5,0,1:0:0:0:
96,140,52741,101,0,1:0:0:0:
176,152,52834,5,0,1:0:0:0:
218,221,52922,53,4,1:2:0:0:
218,221,52990,1,0,1:0:0:0:
218,221,53058,2,0,P|264:236|320:200,1,90,8|2,1:2|1:1,0:0:0:0:
336,64,53195,2,0,P|344:44|360:24,2,45,0|0|0,1:0|1:0|1:0,0:0:0:0:
444,164,53332,2,0,P|464:172|484:188,2,45,8|0|0,1:1|1:0|1:0,0:0:0:0:
254,104,53469,6,0,L|240:16,1,90,4|0,1:2|1:0,0:0:0:0:
392,248,53606,2,0,B|408:264|413:286|413:286|405:309|382:318,1,90,4|0,1:2|1:0,0:0:0:0:
104,240,53743,6,0,B|100:224|112:207|112:207|130:208|142:221,3,67.5000025749208,0|2|0|0,1:2|1:2|1:2|1:2,0:0:0:0:
156,292,53880,2,0,B|171:296|180:315|180:315|170:330|153:334,3,67.5000025749208,0|2|0|0,1:2|1:2|1:2|1:2,0:0:0:0:
88,308,54017,69,4,0:2:0:0:
104,148,54632,5,2,0:0:0:0:
104,148,54786,1,2,0:0:0:0:
104,148,54940,1,2,0:0:0:0:
104,148,55093,1,2,0:0:0:0:
95,141,55247,5,2,0:0:0:0:
93,112,55401,5,2,0:1:0:0:
120,61,55555,69,0,0:0:0:0:
224,1,55709,5,2,0:1:0:0:
365,31,55863,5,0,1:0:0:0:
453,151,56000,5,0,1:0:0:0:
378,324,56137,69,0,1:0:0:0:
276,88,56274,53,4,1:1:0:0:
276,88,56547,1,2,3:2:0:0:
212,368,56684,21,8,1:0:0:0:
300,368,56821,1,2,3:2:0:0:
216,296,56958,5,2,1:3:0:0:
296,296,57095,1,2,3:2:0:0:
200,224,57232,101,8,1:0:0:0:
312,224,57369,1,2,3:2:0:0:
216,156,57506,5,0,1:0:0:0:
296,156,57643,1,2,3:2:0:0:
220,84,57780,101,8,1:0:0:0:
292,84,57917,1,2,3:2:0:0:
256,20,58054,5,2,1:3:0:0:
256,20,58191,1,0,1:0:0:0:
256,20,58328,1,0,1:0:0:0:
16,192,58465,69,2,1:2:0:0:
16,192,58739,1,2,3:2:0:0:
152,180,58876,1,8,1:0:0:0:
288,172,59013,1,2,3:2:0:0:
140,52,59150,5,2,1:3:0:0:
16,192,59287,1,2,3:2:0:0:
152,180,59424,1,8,1:0:0:0:
288,172,59561,1,2,3:2:0:0:
140,52,59698,38,0,L|144:104,1,45,0|0,1:0|1:0,0:0:0:0:
152,180,59835,2,0,L|156:232,1,45,0|0,1:0|1:0,0:0:0:0:
164,308,59972,5,8,1:0:0:0:
220,156,60109,1,0,1:0:0:0:
268,0,60246,5,2,1:3:0:0:
324,192,60383,1,2,1:2:0:0:
384,384,60520,1,0,1:0:0:0:
408,96,60657,5,4,1:0:0:0:
408,96,60931,1,0,3:0:0:0:
196,232,61068,5,8,1:0:0:0:
444,204,61205,1,2,3:2:0:0:
220,68,61342,5,2,1:3:0:0:
220,68,61479,1,0,3:2:0:0:
220,68,61616,1,8,1:0:0:0:
336,44,61753,1,2,3:2:0:0:
104,96,61890,37,0,1:0:0:0:
104,268,62027,1,2,3:2:0:0:
256,4,62164,5,8,1:0:0:0:
108,92,62301,1,0,3:2:0:0:
408,268,62438,5,2,1:3:0:0:
408,96,62575,1,0,1:0:0:0:
256,0,62712,1,0,1:0:0:0:
256,384,62849,5,2,1:2:0:0:
256,384,63123,1,2,1:2:0:0:
256,384,63191,1,0,1:0:0:0:
256,384,63260,1,8,1:0:0:0:
256,184,63397,1,0,1:0:0:0:
328,248,63534,5,2,1:3:0:0:
176,236,63671,1,0,1:0:0:0:
328,248,63808,1,8,1:0:0:0:
176,236,63945,1,0,1:0:0:0:
252,139,64082,6,0,L|258:200,1,45,0|0,1:0|1:0,0:0:0:0:
268,344,64219,2,0,L|262:283,1,45,0|0,1:0|1:0,0:0:0:0:
252,139,64356,37,0,1:0:0:0:
268,344,64493,1,0,1:0:0:0:
504,168,64630,5,2,1:2:0:0:
336,204,64767,1,0,1:2:0:0:
176,180,64904,1,0,1:2:0:0:
8,216,65041,5,4,1:0:0:0:
8,216,65315,1,2,3:2:0:0:
308,368,65452,53,8,1:0:0:0:
204,368,65589,1,2,3:2:0:0:
304,296,65726,5,2,1:3:0:0:
208,296,65863,1,2,3:2:0:0:
320,224,66000,101,8,1:0:0:0:
192,224,66137,1,2,3:2:0:0:
300,156,66274,5,0,1:0:0:0:
208,156,66411,1,2,3:2:0:0:
296,84,66548,101,8,1:0:0:0:
216,84,66685,1,2,3:2:0:0:
256,20,66822,5,2,1:3:0:0:
256,20,66959,1,0,1:0:0:0:
256,20,67096,1,8,1:0:0:0:
496,192,67232,69,2,1:2:0:0:
416,80,67369,1,0,1:0:0:0:
416,80,67438,1,0,1:0:0:0:
416,80,67506,1,2,1:2:0:0:
360,204,67643,1,8,1:0:0:0:
224,212,67780,1,2,3:2:0:0:
372,332,67917,5,2,1:3:0:0:
280,88,68054,1,2,1:2:0:0:
280,88,68123,1,0,1:0:0:0:
280,88,68191,1,8,1:0:0:0:
496,192,68328,1,2,3:2:0:0:
372,332,68465,38,0,L|368:280,1,45,0|0,1:0|1:0,0:0:0:0:
360,204,68602,2,0,L|356:152,1,45,0|0,1:0|1:0,0:0:0:0:
348,76,68739,5,8,1:0:0:0:
296,256,68876,1,2,1:2:0:0:
432,240,69013,5,2,1:3:0:0:
208,180,69150,1,2,1:2:0:0:
448,68,69287,1,0,1:0:0:0:
296,352,69424,5,4,1:0:0:0:
296,352,69698,1,0,3:2:0:0:
132,212,69835,5,8,1:0:0:0:
380,184,69972,1,2,3:2:0:0:
220,316,70109,5,2,1:3:0:0:
220,316,70246,1,0,3:2:0:0:
220,316,70383,1,8,1:0:0:0:
336,340,70520,1,2,3:2:0:0:
104,288,70657,37,0,1:0:0:0:
104,116,70794,1,2,3:2:0:0:
256,380,70931,5,8,1:0:0:0:
108,292,71068,1,0,3:0:0:0:
408,116,71205,5,2,1:3:0:0:
408,288,71342,1,0,1:0:0:0:
256,384,71479,1,0,1:0:0:0:
256,0,71616,5,2,1:2:0:0:
256,0,71890,1,2,1:2:0:0:
256,0,71958,1,0,1:0:0:0:
256,0,72027,1,8,1:0:0:0:
256,200,72164,1,0,1:0:0:0:
184,136,72301,6,0,L|168:96,1,22.5,2|0,1:3|0:0,0:0:0:0:
336,148,72438,2,0,L|354:108,1,22.5,0|0,1:0|0:0,0:0:0:0:
184,136,72575,1,0,1:0:0:0:
336,148,72712,1,0,1:0:0:0:
260,267,72849,6,0,P|256:243|256:195,1,67.5000025749208,0|0,1:0|1:0,0:0:0:0:
284,16,72986,2,0,B|276:16|276:16|268:88,1,67.5000025749208,0|0,1:0|1:0,0:0:0:0:
260,267,73123,37,4,1:2:0:0:
376,0,73260,1,0,1:0:0:0:
436,220,73397,1,2,1:3:0:0:
436,220,73671,5,2,0:0:0:0:
452,236,73739,1,2,0:0:0:0:
476,224,73808,1,2,0:0:0:0:
472,204,73876,1,2,0:0:0:0:
448,200,73946,6,0,P|418:225|401:262,1,80.9999975280763,2|0,1:2|0:0,0:0:0:0:
284,80,74084,6,0,P|289:115|310:144,1,72,2|0,2:2|0:0,0:0:0:0:
130,146,74222,70,0,P|159:157|191:155,1,62.9999980773926,2|0,2:2|0:0,0:0:0:0:
114,300,74368,6,0,P|135:283|146:258,1,53.9999983520508,2|0,2:2|0:0,0:0:0:0:
221,383,74515,6,0,P|219:360|207:342,1,45,2|0,2:2|0:0,0:0:0:0:
337,331,74668,6,0,P|321:324|303:326,1,36,2|0,2:2|0:0,0:0:0:0:
342,222,74823,70,0,P|332:229|327:242,1,26.9999991760254,2|0,2:2|0:0,0:0:0:0:
263,171,74986,6,0,P|265:179|271:186,1,18,2|0,2:2|0:0,0:0:0:0:
186,201,75150,6,0,P|191:202|195:202,1,9,2|0,3:3|0:0,0:0:0:0:
183,274,75588,5,2,3:2:0:0:
212,312,76025,69,2,3:2:0:0:
0,384,76462,5,0,1:0:0:0:
108,332,76680,1,2,0:0:0:0:
56,224,76899,1,2,0:1:0:0:
172,84,77117,5,4,1:3:0:0:
256,0,77335,1,2,0:0:0:0:
340,84,77554,1,2,0:1:0:0:
456,224,77773,5,0,1:0:0:0:
404,332,77992,1,2,0:0:0:0:
512,384,78210,1,2,1:1:0:0:
340,276,78429,69,8,1:2:0:0:
256,191,78647,2,0,L|172:276,1,120,2|2,0:0|0:1,0:0:0:0:
0,0,79084,5,0,1:0:0:0:
56,160,79302,1,2,0:0:0:0:
108,52,79521,1,2,0:1:0:0:
172,300,79739,5,4,1:3:0:0:
340,300,79959,1,2,0:0:0:0:
256,384,80177,1,2,0:1:0:0:
456,160,80395,5,0,1:0:0:0:
512,0,80614,1,2,0:0:0:0:
404,52,80832,1,2,1:1:0:0:
172,108,81051,69,8,1:2:0:0:
340,108,81270,2,0,L|256:193,1,120,2|2,0:0|0:1,0:0:0:0:
0,32,81707,5,0,1:0:0:0:
88,12,81871,1,2,0:2:0:0:
108,100,82035,1,2,0:1:0:0:
196,80,82199,1,2,1:2:0:0:
304,148,82363,5,4,1:3:0:0:
324,236,82527,1,2,0:2:0:0:
236,256,82691,1,2,0:1:0:0:
256,344,82855,1,2,0:2:0:0:
80,384,83019,5,0,1:0:0:0:
60,296,83183,1,2,0:2:0:0:
148,276,83347,1,2,0:1:0:0:
128,188,83511,1,2,0:2:0:0:
196,80,83675,69,8,1:2:0:0:
284,60,83839,1,2,0:0:0:0:
304,148,84002,2,0,L|403:125,1,90,2|2,0:1|0:0,0:0:0:0:
500,196,84330,5,0,1:0:0:0:
412,216,84494,1,2,0:2:0:0:
412,216,84576,1,0,1:0:0:0:
432,304,84658,1,2,0:1:0:0:
344,324,84822,1,2,1:2:0:0:
236,256,84986,5,4,1:3:0:0:
148,276,85150,1,2,0:0:0:0:
168,364,85314,1,2,0:1:0:0:
80,384,85478,1,2,0:0:0:0:
40,208,85642,5,0,1:0:0:0:
128,188,85806,1,2,0:2:0:0:
108,100,85970,1,2,0:1:0:0:
196,80,86134,1,2,0:2:0:0:
372,40,86298,69,8,1:2:0:0:
284,60,86462,1,2,0:2:0:0:
304,148,86625,2,0,L|205:171,1,90,2|2,0:1|0:2,0:0:0:0:
0,16,86953,5,0,1:0:0:0:
72,24,87084,1,2,0:1:0:0:
64,96,87216,1,2,0:1:0:0:
56,168,87347,1,2,0:0:0:0:
128,176,87478,1,2,1:2:0:0:
144,32,87609,5,4,1:3:0:0:
216,40,87740,1,2,0:1:0:0:
208,112,87872,1,2,0:1:0:0:
200,184,88003,1,2,0:2:0:0:
272,192,88134,1,2,0:2:0:0:
288,48,88265,5,0,1:0:0:0:
360,56,88396,1,2,0:1:0:0:
352,128,88528,1,2,0:1:0:0:
344,200,88659,1,2,1:2:0:0:
416,208,88790,1,2,1:2:0:0:
504,72,88921,69,8,1:2:0:0:
496,144,89053,1,2,0:2:0:0:
488,216,89184,1,2,0:1:0:0:
480,288,89314,2,0,L|471:370,1,72,0|2,1:2|0:2,0:0:0:0:
408,280,89576,5,0,1:0:0:0:
336,272,89707,1,2,0:1:0:0:
344,200,89839,1,2,0:1:0:0:
352,128,89970,1,2,0:2:0:0:
280,120,90101,1,2,1:2:0:0:
264,264,90232,5,4,1:3:0:0:
192,256,90363,1,2,0:1:0:0:
200,184,90495,1,2,0:1:0:0:
208,112,90626,1,2,0:2:0:0:
136,104,90757,1,2,0:2:0:0:
120,248,90888,5,0,1:0:0:0:
48,240,91019,1,2,0:1:0:0:
56,168,91151,1,2,0:1:0:0:
64,96,91282,1,2,1:2:0:0:
72,24,91413,1,2,1:2:0:0:
216,40,91544,69,8,1:2:0:0:
208,112,91676,1,2,0:2:0:0:
200,184,91807,1,2,0:1:0:0:
192,256,91937,2,0,L|110:247,1,72,0|2,1:0|1:2,0:0:0:0:
56,4,92199,5,0,1:0:0:0:
116,0,92309,1,2,0:2:0:0:
120,64,92418,1,2,0:1:0:0:
60,68,92527,1,2,0:2:0:0:
0,72,92636,1,2,0:1:0:0:
4,132,92746,1,2,1:2:0:0:
68,188,92855,5,4,1:3:0:0:
128,184,92965,1,2,0:2:0:0:
132,248,93074,1,2,0:1:0:0:
72,252,93183,1,2,0:2:0:0:
12,256,93292,1,2,0:1:0:0:
16,316,93402,1,2,0:2:0:0:
80,372,93511,5,0,1:0:0:0:
140,368,93620,1,2,0:2:0:0:
136,308,93729,1,2,1:1:0:0:
196,304,93839,1,2,0:2:0:0:
256,300,93948,1,2,1:1:0:0:
316,296,94057,1,2,0:2:0:0:
380,356,94166,69,8,1:2:0:0:
376,292,94276,1,2,3:2:0:0:
372,228,94386,1,2,0:0:0:0:
312,232,94494,1,2,1:1:0:0:
252,236,94604,2,0,L|256:308,1,64.1999980407715,2|0,1:1|0:1,0:0:0:0:
440,352,94822,5,0,1:0:0:0:
380,356,94932,1,2,0:2:0:0:
376,292,95041,1,2,0:1:0:0:
436,288,95150,1,2,1:2:0:0:
496,284,95259,1,2,1:1:0:0:
492,224,95369,1,2,1:2:0:0:
428,168,95478,5,4,1:3:0:0:
368,172,95588,1,2,0:2:0:0:
364,108,95697,1,2,0:1:0:0:
424,104,95806,1,2,0:2:0:0:
484,100,95915,1,2,0:1:0:0:
480,40,96025,1,2,0:2:0:0:
360,48,96134,5,0,1:0:0:0:
300,52,96243,1,2,0:2:0:0:
304,112,96352,1,2,0:1:0:0:
244,116,96462,1,2,0:2:0:0:
184,120,96571,1,2,1:1:0:0:
180,60,96680,1,2,1:2:0:0:
60,68,96789,69,8,1:2:0:0:
0,72,96899,1,2,0:2:0:0:
4,132,97008,1,2,0:0:0:0:
8,192,97117,5,2,1:1:0:0:
72,248,97226,1,2,1:1:0:0:
132,304,97336,1,2,1:2:0:0:
17,311,97445,6,0,L|64:320,1,45,2|0,0:0|0:0,0:0:0:0:
64,328,97882,5,2,0:1:0:0:
64,336,97992,1,2,0:1:0:0:
64,344,98101,1,2,0:1:0:0:
64,352,98210,1,2,0:1:0:0:
64,360,98320,1,2,0:1:0:0:
136,380,98429,69,8,2:3:0:0:
136,380,98757,54,0,B|148:336|148:336|193:328,1,92.5714257463729,0|2,1:0|3:2,0:0:0:0:
456,256,98944,2,0,B|476:260|476:260|372:308,1,92.5714257463729,2|0,3:2|1:2,0:0:0:0:
320,368,99131,2,0,L|292:256,1,92.5714257463729,2|0,3:2|1:0,0:0:0:0:
260,128,99319,1,2,1:2:0:0:
136,277,99412,6,0,B|148:321|148:321|193:328,1,92.5714257463729,4|2,1:3|3:2,0:0:0:0:
456,256,99600,2,0,B|476:260|476:260|372:308,1,92.5714257463729,0|2,1:0|1:2,0:0:0:0:
237,217,99787,2,0,L|265:105,1,92.5714257463729,2|0,3:2|1:0,0:0:0:0:
288,0,99974,1,2,1:2:0:0:
472,116,100068,101,0,1:0:0:0:
348,84,100162,1,2,1:2:0:0:
224,56,100255,2,0,L|108:72,1,92.5714257463729,0|2,1:0|1:2,0:0:0:0:
16,184,100443,2,0,L|132:200,1,92.5714257463729,0|2,1:2|3:2,0:0:0:0:
237,217,100630,1,2,1:2:0:0:
368,240,100724,6,0,B|392:244|392:244|324:260,1,82.2857142857143,8|2,1:1|3:2,0:0:0:0:
264,304,100911,2,0,L|192:296,1,71.9999978027344,0|2,1:0|1:2,0:0:0:0:
104,340,101099,2,0,B|115:365|115:365|156:372,1,61.7142838309152,0|2,1:0|3:2,0:0:0:0:
252,384,101286,1,0,1:0:0:0:
376,380,101380,102,0,B|364:336|364:336|319:328,1,92.5714257463729,0|2,1:0|3:2,0:0:0:0:
56,256,101567,2,0,B|36:260|36:260|140:308,1,92.5714257463729,0|2,1:0|3:2,0:0:0:0:
192,368,101754,2,0,L|220:256,1,92.5714257463729,0|2,1:0|3:2,0:0:0:0:
252,128,101942,1,0,1:0:0:0:
376,277,102035,6,0,B|364:321|364:321|319:328,1,92.5714257463729,4|2,1:3|1:2,0:0:0:0:
56,256,102223,2,0,B|36:260|36:260|140:308,1,92.5714257463729,0|2,1:0|1:2,0:0:0:0:
275,217,102410,2,0,L|247:105,1,92.5714257463729,2|0,1:2|1:0,0:0:0:0:
224,4,102597,1,2,1:2:0:0:
56,96,102691,102,0,B|100:108|100:108|141:85,1,92.5714257463729,0|2,1:0|1:2,0:0:0:0:
88,8,102878,1,0,1:0:0:0:
88,8,102925,1,0,1:0:0:0:
88,8,102972,1,2,1:2:0:0:
228,0,103066,6,0,L|212:116,1,92.5714257463729,0|2,1:0|1:2,0:0:0:0:
275,217,103253,1,0,1:0:0:0:
128,232,103347,102,0,B|104:236|104:236|172:252,1,92.5714257463729,8|2,1:1|1:2,0:0:0:0:
248,304,103534,1,0,1:0:0:0:
248,304,103581,1,0,1:0:0:0:
248,304,103628,1,0,1:0:0:0:
164,368,103721,6,0,B|164:352|159:343|159:343|176:336|176:356,2,51.4285714285714,2|2|2,2:0|0:0|0:0,0:0:0:0:
48,296,104002,101,0,1:0:0:0:
76,348,104084,1,0,1:0:0:0:
72,268,104166,1,0,1:0:0:0:
68,188,104248,1,0,1:0:0:0:
64,108,104330,2,0,P|74:83|156:72,1,90,0|2,1:0|3:2,0:0:0:0:
288,216,104494,5,0,1:0:0:0:
312,276,104576,1,0,1:0:0:0:
300,336,104658,101,4,1:3:0:0:
248,304,104740,1,0,1:0:0:0:
328,308,104822,1,0,1:0:0:0:
408,312,104904,1,0,1:0:0:0:
488,316,104986,2,0,P|508:292|496:220,1,90,0|2,1:0|1:2,0:0:0:0:
448,128,105150,6,0,P|427:145|365:134,1,67.5000025749208,0|2,3:0|1:2,0:0:0:0:
228,72,105314,101,0,1:0:0:0:
196,20,105396,1,0,1:0:0:0:
200,100,105478,1,0,1:0:0:0:
204,180,105560,1,0,1:0:0:0:
208,260,105642,2,0,P|184:280|112:268,1,90,0|2,1:0|1:2,0:0:0:0:
8,344,105806,6,0,P|13:310|42:278,1,67.5000025749208,0|2,3:0|3:2,0:0:0:0:
64,116,105970,102,0,P|108:156|32:152,1,168.75,8|0,1:0|2:0,0:0:0:0:
24,152,106134,2,0,P|24:129|32:108,3,45,0|0|0|0,1:0|1:0|1:0|1:0,0:0:0:0:
20,172,106298,6,0,P|53:201|96:193,1,90,0|0,1:0|3:0,0:0:0:0:
288,220,106462,2,0,P|292:232|288:252,4,22.5,0|0|0|0|0,1:0|1:0|1:0|1:0|1:0,0:0:0:0:
444,328,106625,102,0,P|460:328|492:340,1,45,0|0,1:0|1:0,0:0:0:0:
452,268,106707,2,0,P|472:260|496:260,1,45,0|0,1:0|1:0,0:0:0:0:
432,212,106789,1,0,1:0:0:0:
408,160,106871,1,2,1:2:0:0:
416,104,106953,2,0,B|427:86|448:76|448:76|472:76|492:88,1,90,0|2,1:0|3:2,0:0:0:0:
340,264,107117,6,0,L|332:188,1,67.5000025749208,0|2,1:0|1:2,0:0:0:0:
232,16,107281,101,4,1:3:0:0:
244,88,107363,1,0,1:0:0:0:
208,152,107445,1,0,1:0:0:0:
176,216,107527,1,2,1:2:0:0:
187,286,107609,2,0,P|204:292|212:292,6,22.5,0|0|0|0|0|0|0,1:0|1:0|1:0|1:0|1:0|1:0|1:0,0:0:0:0:
260,356,107773,6,0,B|232:360|224:380|224:380|212:364|180:368,1,90,0|2,1:0|1:2,0:0:0:0:
12,136,107937,102,0,P|12:152|0:184,1,45,0|0,1:0|1:0,0:0:0:0:
80,144,108019,2,0,P|88:164|88:188,1,45,0|0,1:0|1:0,0:0:0:0:
140,112,108101,1,0,1:0:0:0:
204,84,108183,1,2,1:2:0:0:
272,92,108265,6,0,P|280:78|285:44,1,45,0|0,1:0|1:0,0:0:0:0:
334,119,108347,2,0,P|350:105|362:84,1,45,0|0,1:0|1:0,0:0:0:0:
370,176,108429,1,0,1:0:0:0:
412,233,108511,1,2,1:2:0:0:
474,259,108593,102,0,P|484:280|486:302,2,45,2|0|0,1:2|1:0|1:0,0:0:0:0:
264,204,108757,2,0,P|266:181|275:161,2,45,2|0|0,1:2|1:0|1:0,0:0:0:0:
96,312,108921,6,0,P|98:334|107:354,1,45,2|0,1:2|1:0,0:0:0:0:
152,272,109002,2,0,P|164:290|183:303,1,45,0|0,1:0|1:0,0:0:0:0:
184,232,109084,2,0,P|204:241|226:243,1,45,0|0,1:0|1:0,0:0:0:0:
192,196,109166,2,0,P|214:193|234:184,1,45,0|0,1:0|1:0,0:0:0:0:
188,172,109248,70,0,B|218:90|156:30|156:30|161:24|161:24|156:6|156:6|144:21|144:21|146:28|146:28|57:49|54:150,1,371.250014162064,2|2,1:2|0:0,0:0:0:0:
78,133,109904,102,0,B|80:61|144:45|144:45|143:40|143:40|151:29|151:29|155:43|155:43|151:47|151:47|196:90|174:150,2,270.000010299683,2|2|2,2:2|0:0|0:0,0:0:0:0:
112,208,110724,1,0,0:0:0:0:
148,140,110888,6,0,B|159:110|136:89|136:89|138:87|138:87|136:80|136:80|132:85|132:85|132:88|132:88|100:95|100:132,1,135.000005149842,2|2,2:2|0:0,0:0:0:0:
109,133,111216,102,0,B|111:104|131:97|131:97|147:110|137:138,1,90,6|0,1:2|0:0,0:0:0:0:
132,137,111380,6,0,B|146:118|128:110|128:110|108:111|114:134,1,67.5000025749208,2|0,1:2|0:0,0:0:0:0:
123,134,111543,102,0,P|123:118|127:134,1,45,6|0,1:2|0:0,0:0:0:0:
212,304,111707,70,0,B|212:300|212:300|209:295|209:295|216:296|216:296|213:292|213:292|219:240|219:240|216:236|216:236|224:236|224:236|220:232|220:232|227:180|227:180|223:176|223:176|231:177|231:177|228:172|228:172|234:121,1,215.999993408203,4|2,1:0|0:0,0:0:0:0:
512,352,112199,6,0,B|511:344|511:344|514:339|514:339|506:340|506:340|510:336|510:336|503:284|503:284|507:280|507:280|499:281|499:281|502:276|502:276|496:224,1,107.999996704102,2|2,2:1|0:0,0:0:0:0:
428,364,112527,2,0,B|427:356|427:356|430:351|430:351|422:352|422:352|426:348|426:348|419:296|419:296|423:292|423:292|415:293|415:293|418:288|418:288|412:236,1,107.999996704102,2|2,1:3|0:0,0:0:0:0:
344,376,112855,2,0,B|343:368|343:368|346:363|346:363|338:364|338:364|342:360|342:360|335:308|335:308|339:304|339:304|331:305|331:305|334:300|334:300|328:248,1,107.999996704102,2|2,0:1|0:0,0:0:0:0:
405,204,113183,102,0,B|404:196|404:196|407:191|407:191|399:192|399:192|403:188|403:188|396:136|396:136|400:132|400:132|392:133|392:133|395:128|395:128|389:76,1,107.999996704102,0|2,1:2|0:0,0:0:0:0:
384,44,113511,1,2,0:1:0:0:
480,152,113675,1,0,0:0:0:0:
320,176,113839,21,2,1:3:0:0:
208,0,114002,1,2,0:0:0:0:
200,76,114166,1,2,0:1:0:0:
384,44,114330,2,0,P|320:28|280:136,1,180,0|2,1:0|0:0,0:0:0:0:
296,256,114822,102,0,B|297:264|297:264|294:269|294:269|302:268|302:268|298:272|298:272|305:324|305:324|301:328|301:328|309:327|309:327|306:332|306:332|312:384,1,107.999996704102,2|2,0:1|0:0,0:0:0:0:
373,266,115150,102,0,B|403:270|403:270|266:315|266:315|231:348,1,222.75000212431,2|0,1:3|0:0,0:0:0:0:
256,28,116327,53,2,0:0:0:0:
256,32,116849,5,0,0:0:0:0:
256,36,117225,69,2,0:0:0:0:
256,40,117600,5,2,0:0:0:0:
256,44,117907,5,2,0:0:0:0:
256,48,118215,5,2,0:0:0:0:
256,52,118487,69,2,0:0:0:0:
256,56,118761,5,2,0:0:0:0:
256,128,119016,5,2,0:0:0:0:
256,132,119143,1,2,0:0:0:0:
164,188,119271,21,4,1:2:0:0:
336,168,119388,1,0,1:2:0:0:
156,168,119506,5,4,1:2:0:0:
339,147,119623,1,4,1:1:0:0:
92,212,119842,5,2,3:2:0:0:
196,328,119951,5,8,1:0:0:0:
36,360,120060,1,2,3:2:0:0:
172,256,120169,101,2,1:3:0:0:
32,284,120278,1,2,3:2:0:0:
116,344,120387,5,8,1:0:0:0:
116,344,120496,1,2,3:2:0:0:
132,192,120605,101,0,1:0:0:0:
128,112,120714,1,2,3:2:0:0:
44,208,120823,5,8,1:0:0:0:
20,132,120932,1,2,3:2:0:0:
56,4,121042,101,2,1:3:0:0:
136,104,121151,1,2,1:2:0:0:
8,124,121260,1,2,1:2:0:0:
264,84,121369,37,2,1:2:0:0:
264,84,121587,1,2,3:2:0:0:
128,12,121696,2,0,P|105:50|111:94,1,90,8|2,1:0|3:2,0:0:0:0:
268,212,121914,5,2,1:3:0:0:
200,12,122023,1,2,3:2:0:0:
56,164,122133,2,0,P|93:186|137:181,1,90,8|2,1:0|3:2,0:0:0:0:
20,20,122351,5,0,1:0:0:0:
20,20,122405,1,0,1:0:0:0:
20,20,122460,2,0,L|24:68,1,45,0|0,1:0|1:0,0:0:0:0:
32,144,122569,1,8,1:1:0:0:
104,240,122678,6,0,P|97:220|68:208,1,45,2|0,1:2|1:0,0:0:0:0:
0,308,122787,2,0,B|13:278|40:280|40:280|44:312|72:328|72:328|84:312|104:312,1,135.000005149842,2|0,1:3|1:0,0:0:0:0:
236,384,123005,1,0,1:1:0:0:
252,136,123114,5,4,1:1:0:0:
252,136,123333,1,0,3:0:0:0:
476,44,123442,37,8,1:0:0:0:
452,208,123551,1,2,3:2:0:0:
386,45,123660,5,2,1:3:0:0:
424,208,123769,1,2,3:2:0:0:
316,96,123878,5,8,1:0:0:0:
316,96,123987,1,2,3:2:0:0:
308,288,124096,5,0,1:0:0:0:
322,146,124205,1,2,3:2:0:0:
364,339,124314,5,8,1:0:0:0:
327,171,124424,1,2,3:2:0:0:
228,312,124533,5,2,1:3:0:0:
398,194,124642,1,2,3:2:0:0:
199,240,124751,37,8,1:0:0:0:
434,318,124860,2,0,P|444:300|448:268,2,45,2|0|0,1:2|1:0|1:0,0:0:0:0:
288,380,125078,5,0,1:0:0:0:
148,304,125187,2,0,P|103:309|59:300,1,90,8|2,1:0|3:2,0:0:0:0:
248,84,125405,2,0,P|254:128|245:172,1,90,2|0,1:3|1:0,0:0:0:0:
12,116,125623,1,0,1:0:0:0:
12,116,125733,1,0,1:0:0:0:
104,224,125842,5,0,1:0:0:0:
152,144,125942,1,0,1:0:0:0:
92,80,126042,1,0,1:0:0:0:
140,0,126142,1,0,1:0:0:0:
28,40,126242,5,6,1:2:0:0:
136,56,126342,1,0,1:2:0:0:
244,72,126442,1,4,1:2:0:0:
352,88,126542,5,4,1:0:0:0:
352,88,126737,21,0,1:0:0:0:
352,88,126784,1,0,1:0:0:0:
352,88,126832,2,0,B|350:80|350:80|346:76|346:76|354:75|354:75|349:72|349:72|344:32|344:32|339:29|339:29|347:28|347:28|343:24|343:24|341:16,1,90,2|0,1:2|1:0,0:0:0:0:
396,384,127022,2,0,B|394:376|394:376|390:372|390:372|398:371|398:371|393:368|393:368|388:328|388:328|383:325|383:325|391:324|391:324|387:320|387:320|385:312,1,90,2|0,1:3|1:0,0:0:0:0:
364,168,127213,2,0,B|365:175|365:175|369:179|369:179|361:180|361:180|366:183|366:183|371:223|371:223|376:226|376:226|368:227|368:227|372:231|372:231|374:239,1,90,2|0,1:2|1:0,0:0:0:0:
476,372,127403,6,0,B|475:365|475:365|471:361|471:361|479:360|479:360|474:357|474:357|469:317|469:317|464:314|464:314|472:313|472:313|468:309|468:309|466:301,1,90,2|0,1:2|1:0,0:0:0:0:
292,244,127594,2,0,B|291:237|291:237|287:233|287:233|295:232|295:232|290:229|290:229|285:189|285:189|280:186|280:186|288:185|288:185|284:181|284:181|282:173,1,90,2|0,1:2|0:0,0:0:0:0:
440,76,127784,101,2,1:3:0:0:
336,20,127880,1,2,1:2:0:0:
260,104,127975,5,2,1:2:0:0:
164,44,128070,1,0,1:0:0:0:
164,44,128261,53,0,1:0:0:0:
164,44,128308,1,0,1:0:0:0:
164,44,128356,2,0,P|120:52|76:48,1,90,2|0,1:2|1:0,0:0:0:0:
252,128,128546,1,2,1:3:0:0:
8,200,128642,5,0,1:0:0:0:
8,200,128689,1,0,1:0:0:0:
8,200,128737,2,0,P|52:208|96:204,1,90,2|0,1:2|1:0,0:0:0:0:
172,44,128927,2,0,L|168:148,1,90,0|0,1:0|1:0,0:0:0:0:
168,152,129070,1,0,1:0:0:0:
168,152,129118,1,2,1:2:0:0:
208,244,129213,2,0,P|232:244|260:232,1,45,0|0,1:0|1:0,0:0:0:0:
132,284,129308,6,0,P|103:312|76:356,1,90,2|0,1:3|1:0,0:0:0:0:
256,316,129499,1,0,1:0:0:0:
252,128,129594,1,4,1:1:0:0:
252,128,129737,38,0,P|256:100|256:84,2,45,0|0|0,1:0|1:0|1:0,0:0:0:0:
252,128,129880,2,0,P|207:133|163:125,1,90,2|0,1:2|1:0,0:0:0:0:
336,40,130070,1,2,1:3:0:0:
352,192,130166,1,0,1:0:0:0:
492,112,130261,2,0,P|463:146|444:186,1,90,2|0,1:2|1:0,0:0:0:0:
432,328,130451,5,2,1:2:0:0:
352,280,130546,2,0,L|348:228,2,45,0|0|2,1:0|1:0|1:2,0:0:0:0:
284,340,130737,1,0,1:0:0:0:
152,372,130832,6,0,L|148:324,1,45,2|0,1:3|1:0,0:0:0:0:
108,304,130927,2,0,L|104:352,1,45,0|0,1:0|1:0,0:0:0:0:
140,228,131023,5,2,1:2:0:0:
28,300,131118,1,0,1:0:0:0:
60,224,131213,6,0,P|61:174|48:116,1,90,0|0,1:2|1:0,0:0:0:0:
48,116,131332,2,0,L|84:112,3,22.5,0|0|0|2,1:0|1:0|1:0|1:2,0:0:0:0:
176,32,131499,6,0,L|172:-4,3,22.5,0|0|0|0,1:0|1:0|1:0|1:0,0:0:0:0:
168,48,131594,2,0,P|169:85|176:112,1,60,2|0,1:3|1:0,0:0:0:0:
348,92,131721,2,0,P|346:54|340:28,1,60,0|2,1:0|1:2,0:0:0:0:
252,16,131832,38,0,L|258:77,1,45,0|0,1:0|1:0,0:0:0:0:
260,95,131927,2,0,L|266:156,1,45,0|4,1:0|1:2,0:0:0:0:
292,368,132070,5,2,1:2:0:0:
268,175,132166,1,0,1:0:0:0:
188,284,132261,1,2,1:2:0:0:
377,261,132356,5,4,1:1:0:0:
368,336,132519,1,2,0:0:0:0:
392,264,132720,1,2,0:0:0:0:
440,100,132950,5,4,1:0:0:0:
412,8,133194,1,2,0:0:0:0:
408,104,133437,1,2,0:0:0:0:
248,296,133600,69,4,1:0:0:0:
124,288,133809,1,2,0:0:0:0:
240,240,134018,1,2,0:0:0:0:
140,104,134158,5,4,1:0:0:0:
40,0,134353,1,2,0:0:0:0:
72,144,134549,1,2,0:0:0:0:
152,352,134680,5,4,1:0:0:0:
0,328,134860,1,2,0:0:0:0:
112,220,135040,1,2,0:0:0:0:
408,344,135160,5,4,1:2:0:0:
312,328,135271,1,2,3:0:0:0:
312,328,135326,1,2,3:2:0:0:
312,328,135382,1,4,1:2:0:0:
216,312,135493,1,2,3:3:0:0:
424,256,135604,69,4,1:2:0:0:
308,276,135709,1,2,3:0:0:0:
308,276,135761,1,2,3:2:0:0:
308,276,135814,1,4,1:2:0:0:
192,296,135919,1,0,3:0:0:0:
296,104,136025,5,4,1:2:0:0:
324,236,136125,1,0,1:0:0:0:
272,128,136225,5,4,1:2:0:0:
388,188,136325,1,2,1:2:0:0:
256,228,136425,22,0,L|256:272,3,45,4|0|0|0,1:2|1:0|1:0|1:0,0:0:0:0:
256,280,136615,6,0,L|256:316,5,22.5,4|0|0|0|0|0,1:2|1:0|1:0|1:0|1:0|1:0,1:0:0:0:
256,288,136758,6,2,L|256:358,1,70.5,2|0,1:2|0:0,0:2:0:0:
256,24,139758,5,4,1:2:0:0:
