osu file format v14

[General]
AudioFilename: audio.mp3
AudioLeadIn: 0
PreviewTime: 64561
Countdown: 0
SampleSet: Soft
StackLeniency: 0.2
Mode: 0
LetterboxInBreaks: 0
WidescreenStoryboard: 1

[Editor]
DistanceSpacing: 1.3
BeatDivisor: 4
GridSize: 4
TimelineZoom: 2.400002

[Metadata]
Title:Take
TitleUnicode:竹
Artist:Risshuu feat. Choko
ArtistUnicode:立秋 feat. ちょこ
Creator:yf_bmp
Version:Normal
Source:
Tags:bamboo masato ishioh 石王マサト bofxvi the bms of fighters xvi arcaea muse dash video game japanese novelty rabbit usagi electronic ウサギ Muziyami Koiyuki wyrio Moecho Gust Yorita Yoshino toybot nika mika xLolicore- My Angel Watame dahkjdas
BeatmapID:2848364
BeatmapSetID:1376486

[Difficulty]
HPDrainRate:4
CircleSize:3.5
OverallDifficulty:3.5
ApproachRate:5.7
SliderMultiplier:1.4
SliderTickRate:1

[Events]
//Background and Video events
Video,0,"bga_take.mp4"
0,0,"bg_take.png",0,0
//Break Periods
2,24478,28125
2,115350,118470
//Storyboard Layer 0 (Background)
//Storyboard Layer 1 (Fail)
//Storyboard Layer 2 (Pass)
//Storyboard Layer 3 (Foreground)
//Storyboard Layer 4 (Overlay)
//Storyboard Sound Samples

[TimingPoints]
120,400,4,2,1,80,1,0
1270,-100,4,2,1,5,0,0
1320,-100,4,2,1,80,0,0
13320,273.972602739726,4,2,1,80,1,0
13320,-133.333333333333,4,2,1,80,0,0
13936,-133.333333333333,4,2,1,5,0,0
14004,-133.333333333333,4,2,1,80,0,0
23765,-133.333333333333,4,2,1,5,0,0
24279,333.333333333333,4,2,1,40,1,0
29279,461.538461538462,4,2,1,80,1,0
29279,-90.9090909090909,4,2,1,80,0,0
29740,461.538461538462,4,2,1,80,1,0
29740,-90.9090909090909,4,2,1,80,0,0
33432,-100,4,2,1,80,0,0
33893,-111.111111111111,4,2,1,80,0,0
33894,422.535211267606,4,2,1,80,1,0
37697,387.096774193548,4,2,1,80,1,0
41181,363.636363636364,4,2,1,80,1,0
41181,-105.263157894737,4,2,1,80,0,0
42635,-111.111111111111,4,2,1,80,0,0
42636,342.857142857143,4,2,1,80,1,0
43064,-100,4,2,1,5,0,0
43150,-100,4,2,1,80,0,0
43236,-100,4,2,1,5,0,0
43321,-100,4,2,1,80,0,0
44350,327.868852459016,4,2,1,80,1,0
44350,-117.647058823529,4,2,1,80,0,0
46973,307.692307692308,4,2,1,80,1,0
46973,-117.647058823529,4,2,1,80,0,0
49434,300,4,2,1,80,1,0
49434,-125,4,2,1,80,0,0
50634,292.682926829268,4,2,1,80,1,0
50634,-125,4,2,1,80,0,0
51811,279.06976744186,4,2,1,80,1,0
51811,-133.333333333333,4,2,1,80,0,0
52922,273.972602739726,4,2,1,80,1,0
52922,-133.333333333333,4,2,1,80,0,0
54017,307.692307692308,4,2,1,80,1,0
54017,-117.647058823529,4,2,1,80,0,0
54632,-117.647058823529,4,2,0,80,0,0
55864,273.972602739726,4,2,1,80,1,0
55864,-133.333333333333,4,2,1,80,0,0
56411,273.972602739726,4,2,1,80,1,0
56411,-133.333333333333,4,2,1,80,0,0
73946,276.497695852535,4,2,1,80,1,0
74015,-100,4,2,1,5,0,0
74084,-100,4,2,1,80,0,0
74153,-100,4,2,1,5,0,0
74222,292.682926829268,4,2,1,80,1,0
74295,-100,4,2,1,5,0,0
74368,-100,4,2,1,80,0,0
74441,-100,4,2,1,5,0,0
74515,307.692307692308,4,2,1,80,1,0
74591,-100,4,2,1,5,0,0
74668,-100,4,2,1,80,0,0
74745,-100,4,2,1,5,0,0
74823,327.868852459016,4,2,1,80,1,0
74823,-117.647058823529,4,2,1,80,0,0
74904,-117.647058823529,4,2,1,5,0,0
74986,-117.647058823529,4,2,1,80,0,0
75068,-117.647058823529,4,2,1,5,0,0
75150,-117.647058823529,4,2,1,80,0,0
75314,-117.647058823529,4,2,1,5,0,0
75601,-117.647058823529,4,2,1,80,0,0
76462,327.868852459016,4,2,1,80,1,0
76462,-117.647058823529,4,2,1,80,0,0
97773,-117.647058823529,4,2,1,50,0,0
97882,-117.647058823529,4,2,1,80,0,0
111298,-117.647058823529,4,2,1,30,0,0
111380,-117.647058823529,4,2,1,80,0,0
111461,-117.647058823529,4,2,1,30,0,0
111543,-117.647058823529,4,2,1,80,0,0
111625,-117.647058823529,4,2,1,30,0,0
111707,-117.647058823529,4,2,1,80,0,0
115273,-117.647058823529,4,2,1,5,0,0
115806,521.739130434783,4,2,1,80,1,0
116850,375,4,2,1,80,1,0
117600,307.692307692308,4,2,1,80,1,0
118215,272.727272727273,4,2,1,80,1,0
118761,255.31914893617,4,2,1,80,1,0
119271,235.294117647059,4,2,1,80,1,0
119624,218.181818181818,4,2,1,80,1,0
119624,-181.818181818182,4,2,1,80,0,0
119733,218.181818181818,4,2,1,80,1,0
119733,-181.818181818182,4,2,1,80,0,0
125842,200,4,2,1,80,1,0
125842,-181.818181818182,4,2,1,80,0,0
126547,190.47619047619,4,2,1,80,1,0
126642,190.47619047619,4,2,1,80,1,0
126642,-200,4,2,1,80,0,0
132356,218.181818181818,4,2,1,80,1,0
132356,-181.818181818182,4,2,1,80,0,0
132720,461.538461538462,4,2,1,80,1,0
132951,324.324324324324,4,2,1,80,1,0
132951,-117.647058823529,4,2,1,80,0,0
133600,279.06976744186,4,2,1,80,1,0
133600,-133.333333333333,4,2,1,80,0,0
134158,260.869565217391,4,2,1,80,1,0
134158,-142.857142857143,4,2,1,80,0,0
134680,240,4,2,1,80,1,0
134680,-153.846153846154,4,2,1,80,0,0
135160,222.222222222222,4,2,1,80,1,0
135160,-166.666666666667,4,2,1,80,0,0
135604,210.526315789474,4,2,1,80,1,0
135604,-181.818181818182,4,2,1,80,0,0
136025,200,4,2,1,80,1,0
136025,-200,4,2,1,80,0,0
136425,190.47619047619,4,2,1,80,1,0
136425,-222.222222222222,4,2,1,80,0,0
136758,750,4,2,1,80,1,0
136758,-80,4,2,1,80,0,0
139383,-80,4,2,1,5,0,0
139758,273.972602739726,4,2,1,80,1,0

[Colours]
Combo1 : 64,187,73
Combo2 : 255,98,89
Combo3 : 114,114,114
Combo4 : 255,227,147
Combo5 : 115,160,255
Combo6 : 196,95,243
Combo7 : 255,92,199
Combo8 : 118,194,33

[HitObjects]
24,364,1720,102,0,B|24:360|24:360|20:356|20:356|28:356|28:356|24:352|24:352|24:260|24:260|28:256|28:256|20:256|20:256|24:252|24:252|24:246,1,140,0|0,1:0|1:0,0:0:0:0:
108,364,2520,2,0,B|108:360|108:360|104:356|104:356|112:356|112:356|108:352|108:352|108:260|108:260|112:256|112:256|104:256|104:256|108:252|108:252|108:246,1,140,0|0,1:0|1:0,0:0:0:0:
192,364,3320,2,0,B|192:360|192:360|188:356|188:356|196:356|196:356|192:352|192:352|192:260|192:260|196:256|196:256|188:256|188:256|192:252|192:252|192:246,1,140,0|0,1:0|1:0,0:0:0:0:
272,132,4120,22,0,P|296:128|320:108,2,46.6666666666667,0|2|2,1:0|0:1|0:0,0:0:0:0:
240,168,4520,2,0,P|255:186|284:197,2,46.6666666666667,0|2|2,1:0|2:1|2:2,0:0:0:0:
192,164,4920,86,0,B|192:160|192:160|196:156|196:156|188:156|188:156|192:152|192:152|192:60|192:60|188:56|188:56|196:56|196:56|192:52|192:52|192:46,1,140,0|0,1:0|1:0,0:0:0:0:
108,164,5720,2,0,B|108:160|108:160|112:156|112:156|104:156|104:156|108:152|108:152|108:60|108:60|104:56|104:56|112:56|112:56|108:52|108:52|108:46,1,140,0|0,1:0|1:0,0:0:0:0:
24,164,6520,38,0,B|24:96,1,56,0|2,1:0|2:1,0:0:0:0:
64,240,6920,70,0,B|66:243|66:243|64:248|64:248|71:244|71:244|70:250|70:250|116:330|116:330|121:331|121:331|114:335|114:335|120:336|120:336|123:342,1,140,0|0,1:0|1:0,0:0:0:0:
140,196,7720,2,0,B|142:199|142:199|140:204|140:204|147:200|147:200|146:206|146:206|192:286|192:286|197:287|197:287|190:291|190:291|196:292|196:292|199:298,1,140,0|0,1:0|1:0,0:0:0:0:
332,340,8520,6,0,B|334:336|334:336|332:331|332:331|339:335|339:335|338:329|338:329|384:249|384:249|389:248|389:248|382:244|382:244|388:243|388:243|391:237,1,140,0|0,1:0|1:0,0:0:0:0:
408,384,9320,2,0,B|410:380|410:380|408:375|408:375|415:379|415:379|414:373|414:373|460:293|460:293|465:292|465:292|458:288|458:288|464:287|464:287|467:281,1,140,0|0,1:0|1:0,0:0:0:0:
448,144,10120,102,0,B|444:142|444:142|439:143|439:143|443:136|443:136|437:138|437:138|357:92|357:92|356:86|356:86|352:93|352:93|351:88|351:88|345:85,1,140,0|0,1:0|1:0,0:0:0:0:
492,68,10920,2,0,B|488:66|488:66|483:67|483:67|487:60|487:60|481:62|481:62|401:16|401:16|400:10|400:10|396:17|396:17|395:12|395:12|389:9,1,140,0|0,1:0|1:0,0:0:0:0:
252,28,11720,54,0,B|268:84|236:80|254:138,2,112,0|2|2,1:0|0:0|0:0,0:0:0:0:
140,28,12680,2,0,B|124:84|156:80|137:138,1,112,2|2,0:1|0:0,0:0:0:0:
196,244,13320,1,2,0:1:0:0:
196,244,14963,6,0,B|172:256|172:256|147:249,2,52.5000020027161,0|0|0,1:0|1:0|1:0,0:0:0:0:
228,228,15374,5,4,1:1:0:0:
148,92,15785,6,0,B|138:86|138:86|116:5|116:5|106:0,1,105.000004005432,8|2,1:0|1:3,0:0:0:0:
26,23,16333,2,0,B|21:31|21:31|42:112|42:112|37:122,1,105.000004005432,8|0,1:0|1:0,0:0:0:0:
66,204,16881,2,0,B|112:191|112:191|115:186|115:186|120:189|120:189|164:177,1,105.000004005432,8|2,1:0|1:3,0:0:0:0:
240,128,17429,2,0,L|258:190,1,52.5000020027161,0|0,1:0|1:2,0:0:0:0:
372,352,17977,5,8,1:0:0:0:
392,272,18251,2,0,P|416:256|444:260,2,52.5000020027161,2|0|8,1:3|1:0|1:0,0:0:0:0:
312,292,18799,2,0,P|286:279|275:252,2,52.5000020027161,0|0|8,1:0|1:0|1:0,0:0:0:0:
284,372,19347,1,2,1:3:0:0:
136,276,19758,5,4,1:1:0:0:
148,92,20169,6,0,B|138:86|138:86|116:5|116:5|106:0,1,105.000004005432,8|2,1:0|1:3,0:0:0:0:
26,23,20717,2,0,B|21:31|21:31|42:112|42:112|37:122,1,105.000004005432,8|0,1:0|1:0,0:0:0:0:
66,204,21265,2,0,B|112:191|112:191|115:186|115:186|120:189|120:189|164:177,1,105.000004005432,8|2,1:0|1:3,0:0:0:0:
254,178,21813,2,0,L|240:128,1,52.5000020027161,0|2,1:0|1:2,0:0:0:0:
412,72,22361,5,8,1:0:0:0:
492,52,22635,2,0,P|508:28|504:0,2,52.5000020027161,2|2|2,1:3|1:2|1:2,0:0:0:0:
472,132,23183,2,0,P|485:158|512:169,2,52.5000020027161,0|6|0,1:0|1:2|1:2,0:0:0:0:
412,72,23731,1,2,1:3:0:0:
256,192,24278,5,4,0:1:0:0:
32,336,29279,6,0,P|37:302|56:265,1,77.0000023498536,2|2,0:0|0:2,0:0:0:0:
108,200,29740,2,0,P|147:222|220:212,1,115.50000352478,0|2,1:0|0:1,0:0:0:0:
232,200,30201,6,0,P|227:166|208:129,1,77.0000023498536,0|2,1:0|2:1,0:0:0:0:
156,68,30663,2,0,L|56:80,2,77.0000023498536,0|2|0,1:0|0:2|1:0,0:0:0:0:
220,20,31355,1,2,0:2:0:0:
300,4,31586,6,0,P|278:43|288:116,1,115.50000352478,0|2,1:0|0:1,0:0:0:0:
292,128,32047,2,0,P|298:163|320:204,1,77.0000023498536,0|2,1:0|0:2,0:0:0:0:
368,268,32509,2,0,L|460:264,2,77.0000023498536,0|2|0,1:0|0:2|1:0,0:0:0:0:
232,360,33432,6,0,B|240:344|256:336|256:336|272:344|280:360,1,70,0|2,0:0|0:0,0:0:0:0:
364,352,33894,6,0,P|408:352|480:388,1,105,0|2,1:0|0:1,0:0:0:0:
476,356,34316,2,0,P|468:320|472:284,1,70,0|2,1:0|2:1,0:0:0:0:
476,208,34739,6,0,P|442:213|404:244,1,70,0|2,1:0|0:0,0:0:0:0:
332,232,35161,2,0,L|340:140,1,70,0|2,1:0|0:0,0:0:0:0:
344,84,35584,1,0,1:0:0:0:
208,116,36006,6,0,P|169:138|100:128,1,105,0|0,1:0|0:0,0:0:0:0:
112,152,36429,2,0,L|120:236,1,70,0|2,1:0|0:0,0:0:0:0:
104,308,36851,2,0,P|140:300|188:304,1,70,0|2,1:0|2:0,0:0:0:0:
244,360,37274,6,0,B|244:344|256:328|256:328|268:344|268:360,1,70,0|2,0:0|0:0,0:0:0:0:
340,300,37697,5,0,1:0:0:0:
416,192,37987,2,0,B|420:220|399:240|399:240|372:236|356:212,1,105,2|2,0:1|2:1,0:0:0:0:
360,136,38471,2,0,L|372:40,2,70,0|2|0,1:0|0:0|1:0,0:0:0:0:
256,4,39245,1,0,1:0:0:0:
192,120,39535,6,0,B|196:176|176:160|180:224,1,105,2|2,0:1|0:1,0:0:0:0:
257,236,40019,2,0,P|266:202|267:167,2,70,0|2|0,1:0|0:0|1:1,0:0:0:0:
268,360,40793,6,0,B|268:344|256:328|256:328|244:344|244:360,1,70,0|2,0:0|0:0,0:0:0:0:
164,344,41181,6,0,P|141:349|88:336,1,66.4999982242585,0|2,1:0|0:0,0:0:0:0:
60,300,41544,2,0,P|54:277|68:224,1,66.4999982242585,0|2,1:0|2:1,0:0:0:0:
108,204,41908,6,0,P|131:209|184:196,1,66.4999982242585,0|2,1:0|0:0,0:0:0:0:
224,188,42271,2,0,P|246:195|300:183,1,66.4999982242585,0|2,1:0|0:0,0:0:0:0:
340,201,42635,5,0,1:0:0:0:
336,328,42893,2,0,P|390:325|424:284,1,105,2|2,0:1|2:0,0:0:0:0:
416,240,43321,2,0,P|416:212|432:156,2,70,0|2|0,1:0|0:0|1:0,0:0:0:0:
256,284,44007,6,0,B|256:260|256:260|260:256|260:256|252:256|252:256|256:252|256:252|256:225,1,70,0|2,1:0|0:0,0:0:0:0:
192,164,44350,6,0,B|160:168|160:168|133:160,1,59.5000011348725,0|10,1:0|1:2,0:0:0:0:
112,140,44677,2,0,B|108:108|108:108|115:81,1,59.5000011348725,0|8,1:0|1:1,0:0:0:0:
256,104,45169,6,0,L|256:45,1,59.5000011348725,10|0,3:2|1:0,0:0:0:0:
397,81,45661,6,0,B|404:108|404:108|400:140,1,59.5000011348725,0|8,1:0|1:2,0:0:0:0:
379,160,45988,2,0,B|352:168|352:168|320:164,1,59.5000011348725,0|8,1:0|1:1,0:0:0:0:
256,284,46481,1,8,1:2:0:0:
256,284,46645,6,0,B|256:264|256:264|260:260|260:260|252:260|252:260|256:256|256:256|256:232,1,59.5000011348725,0|2,1:0|3:2,0:0:0:0:
180,228,46973,6,0,B|148:224|148:224|121:232,1,59.5000011348725,0|10,1:0|1:2,0:0:0:0:
100,252,47280,2,0,B|96:284|96:284|103:311,1,59.5000011348725,0|8,1:0|1:1,0:0:0:0:
226,384,47742,6,0,L|285:384,1,59.5000011348725,8|2,1:2|1:2,0:0:0:0:
409,311,48203,6,0,B|416:284|416:284|412:252,1,59.5000011348725,0|8,1:0|1:2,0:0:0:0:
391,232,48510,2,0,B|364:224|364:224|332:228,1,59.5000011348725,0|8,1:0|1:1,0:0:0:0:
256,136,48973,1,8,1:2:0:0:
256,136,49126,6,0,B|256:116|256:116|260:112|260:112|252:112|252:112|256:108|256:108|256:84,1,59.5000011348725,0|2,1:0|3:2,0:0:0:0:
328,112,49434,6,0,B|357:116|357:116|382:109,1,56,0|10,1:0|1:2,0:0:0:0:
404,89,49734,2,0,B|407:59|407:59|400:34,1,56,0|8,1:0|1:1,0:0:0:0:
284,0,50184,2,0,L|228:0,1,56,8|0,1:2|1:0,0:0:0:0:
112,34,50634,6,0,B|105:59|105:59|108:89,1,56,0|8,1:0|1:2,0:0:0:0:
130,109,50926,2,0,B|155:116|155:116|184:112,1,56,0|8,1:0|1:1,0:0:0:0:
256,136,51219,6,0,L|256:68,1,56,0|8,1:0|1:2,0:0:0:0:
256,60,51512,6,0,B|256:44|256:44|260:40|260:40|252:40|252:40|256:36|256:36|256:8,1,56,0|2,1:0|3:2,0:0:0:0:
332,12,51811,6,0,P|381:26|404:92,1,105.000004005432,0|0,0:0|1:0,0:0:0:0:
380,204,52369,2,0,P|401:210|420:204,4,35.0000013351441,2|0|0|0|0,1:3|1:0|1:0|1:0|1:0,0:0:0:0:
396,248,52922,1,4,1:2:0:0:
416,383,53195,6,0,P|385:386|361:373,1,52.5000020027161,0|8,1:0|1:1,0:0:0:0:
340,375,53469,2,0,P|339:342|332:315,2,52.5000020027161,4|4|0,1:2|1:2|1:2,0:0:0:0:
204,368,54017,5,4,0:2:0:0:
204,368,55864,6,0,B|180:356|180:356|155:363,2,52.5000020027161,0|0|0,1:0|1:0|1:0,0:0:0:0:
236,384,56274,5,4,1:1:0:0:
128,268,56684,6,0,B|118:262|118:262|96:181|96:181|86:176,1,105.000004005432,8|2,1:0|1:3,0:0:0:0:
44,296,57232,2,0,B|34:290|34:290|12:209|12:209|2:204,1,105.000004005432,8|0,1:0|1:0,0:0:0:0:
72,96,57780,2,0,B|82:90|82:90|104:9|104:9|114:4,1,105.000004005432,8|2,1:0|1:3,0:0:0:0:
156,124,58328,2,0,L|174:62,1,52.5000020027161,0|2,1:0|1:2,0:0:0:0:
344,0,58876,5,8,1:0:0:0:
444,76,59150,2,0,B|476:60|476:60|492:64,2,52.5000020027161,2|2|8,1:3|3:2|1:0,0:0:0:0:
328,120,59698,2,0,B|325:155|325:155|314:167,2,52.5000020027161,0|0|8,1:0|1:0|1:0,0:0:0:0:
344,0,60246,1,2,1:3:0:0:
416,176,60657,5,4,1:0:0:0:
320,340,61068,6,0,B|330:334|330:334|352:253|352:253|362:248,1,105.000004005432,8|2,1:0|1:3,0:0:0:0:
404,368,61616,2,0,B|414:362|414:362|436:281|436:281|446:276,1,105.000004005432,8|0,1:0|1:0,0:0:0:0:
376,168,62164,2,0,B|366:162|366:162|344:81|344:81|334:76,1,105.000004005432,8|2,1:0|1:3,0:0:0:0:
292,196,62712,2,0,L|274:134,1,52.5000020027161,0|2,1:0|1:2,0:0:0:0:
156,0,63260,5,8,1:0:0:0:
56,76,63534,2,0,B|24:60|24:60|8:64,2,52.5000020027161,2|0|8,1:3|1:0|1:0,0:0:0:0:
172,120,64082,2,0,B|174:155|174:155|185:167,2,52.5000020027161,0|0|0,1:0|1:0|1:0,0:0:0:0:
156,0,64630,1,2,1:3:0:0:
84,176,65041,5,4,1:0:0:0:
28,336,65452,6,0,B|34:326|34:326|115:304|115:304|120:294,1,105.000004005432,8|2,1:0|1:3,0:0:0:0:
0,252,66000,2,0,B|6:242|6:242|87:220|87:220|92:210,1,105.000004005432,8|0,1:0|1:0,0:0:0:0:
200,280,66548,2,0,B|206:290|206:290|287:312|287:312|292:322,1,105.000004005432,8|2,1:0|1:3,0:0:0:0:
172,364,67096,2,0,L|234:382,1,52.5000020027161,8|2,1:0|1:2,0:0:0:0:
360,248,67643,5,8,1:0:0:0:
240,212,67917,2,0,B|204:200|204:200|176:208,2,52.5000020027161,2|2|8,1:3|1:2|1:0,0:0:0:0:
328,124,68465,2,0,B|340:88|340:88|332:60,2,52.5000020027161,0|0|8,1:0|1:0|1:0,0:0:0:0:
360,248,69013,1,2,1:3:0:0:
228,112,69424,5,4,1:0:0:0:
56,56,69835,6,0,B|62:66|62:66|143:88|143:88|148:98,1,105.000004005432,8|2,1:0|1:3,0:0:0:0:
28,140,70383,2,0,B|34:150|34:150|115:172|115:172|120:182,1,105.000004005432,8|0,1:0|1:0,0:0:0:0:
228,112,70931,6,0,B|234:102|234:102|315:80|315:80|320:70,1,105.000004005432,8|2,1:0|1:3,0:0:0:0:
200,28,71479,2,0,L|262:10,1,52.5000020027161,0|2,1:0|1:2,0:0:0:0:
388,144,72026,5,8,1:0:0:0:
268,180,72300,2,0,B|232:192|232:192|204:184,2,52.5000020027161,2|0|0,1:3|1:0|1:0,0:0:0:0:
356,268,72848,2,0,B|368:304|368:304|360:332,2,52.5000020027161,0|0|4,1:0|1:0|1:2,0:0:0:0:
388,144,73396,5,2,1:3:0:0:
256,384,73946,5,2,1:2:0:0:
256,384,75150,2,0,B|268:304|244:300|254:220,2,163.625003120899,2|2|0,3:3|3:2|0:0,0:0:0:0:
76,380,76462,6,0,P|62:349|64:300,1,79.3333348464966,0|2,1:0|0:0,0:0:0:0:
132,268,76899,1,2,0:1:0:0:
68,224,77117,2,0,L|-24:240,2,79.3333348464966,4|2|2,1:3|0:0|0:1,0:0:0:0:
140,188,77773,6,0,P|144:156|136:96,1,79.3333348464966,0|2,1:0|0:0,0:0:0:0:
124,32,78211,1,2,1:1:0:0:
60,84,78429,2,0,B|104:104|140:76|128:68|164:40|207:61,1,158.666669692993,8|2,1:2|0:1,0:0:0:0:
284,80,79084,6,0,P|284:48|273:2,1,79.3333348464966,0|2,1:0|0:0,0:0:0:0:
356,4,79522,1,2,0:1:0:0:
424,44,79740,2,0,P|460:52|508:32,2,79.3333348464966,4|2|2,1:3|0:0|0:1,0:0:0:0:
396,120,80396,6,0,P|400:152|392:212,1,79.3333348464966,0|2,1:0|0:0,0:0:0:0:
380,276,80834,1,2,1:1:0:0:
316,224,81052,2,0,B|360:204|396:232|384:240|420:268|463:246,1,158.666669692993,8|2,1:2|0:1,0:0:0:0:
504,316,81707,5,0,1:0:0:0:
328,340,82199,1,2,1:2:0:0:
328,340,82363,2,0,B|260:344|260:344|268:280,1,119.000002269745,4|2,1:3|0:1,0:0:0:0:
272,176,83019,1,0,1:0:0:0:
444,232,83511,5,2,0:2:0:0:
444,232,83675,2,0,B|388:232|388:232|380:240|380:240|328:240,1,119.000002269745,8|2,1:2|0:1,0:0:0:0:
356,188,84166,1,2,0:0:0:0:
344,132,84330,6,0,P|352:80|380:52,2,89.2500017023087,0|0|2,1:0|1:0|1:2,0:0:0:0:
312,184,84986,2,0,P|266:192|196:156,1,119.000002269745,4|2,1:3|0:1,0:0:0:0:
128,256,85642,1,0,1:0:0:0:
60,92,86134,1,2,0:2:0:0:
60,92,86298,2,0,B|128:88|128:88|120:152,1,119.000002269745,8|2,1:2|0:1,0:0:0:0:
48,232,86953,5,0,1:0:0:0:
192,356,87478,2,0,P|188:332|194:309,1,47.600000907898,2|4,1:2|1:3,0:0:0:0:
288,204,88002,5,2,0:2:0:0:
364,260,88265,2,0,P|412:264|472:248,1,95.2000018157959,0|2,1:0|0:1,0:0:0:0:
480,212,88658,2,0,P|476:188|480:156,1,47.600000907898,2|2,1:2|1:2,0:0:0:0:
472,116,88921,2,0,P|399:136|331:120,1,142.800002723694,8|0,1:2|1:2,0:0:0:0:
284,40,89576,5,0,1:0:0:0:
288,232,90101,1,2,1:2:0:0:
288,232,90232,2,0,P|240:229|195:215,1,95.2000018157959,4|2,1:3|0:1,0:0:0:0:
128,152,90757,5,2,0:2:0:0:
128,152,90888,2,0,P|80:148|20:164,1,95.2000018157959,0|2,1:0|0:1,0:0:0:0:
12,200,91281,2,0,P|16:224|12:256,1,47.600000907898,2|2,1:2|1:2,0:0:0:0:
20,296,91544,2,0,P|92:275|160:291,1,142.800002723694,8|0,1:2|1:0,0:0:0:0:
192,324,92068,2,0,P|196:340|192:376,1,47.600000907898,2|0,1:2|1:0,0:0:0:0:
376,296,92746,6,0,P|381:314|389:333,1,39.6666674232483,2|4,1:2|1:3,0:0:0:0:
464,108,93511,2,0,P|490:151|524:176,2,79.3333348464966,0|2|2,1:0|1:1|1:1,0:0:0:0:
440,32,94166,1,8,1:2:0:0:
388,140,94494,2,0,P|392:168|404:188,1,39.6666674232483,2|2,1:1|1:1,0:0:0:0:
332,228,94822,2,0,P|375:267|439:290,1,119.000002269745,0|2,1:0|1:2,0:0:0:0:
428,328,95259,2,0,P|450:334|476:332,2,39.6666674232483,2|2|4,1:1|1:2|1:3,0:0:0:0:
191,343,96134,6,0,P|270:356|348:348,1,158.666669692993,0|2,1:0|1:1,0:0:0:0:
351,307,96680,2,0,P|351:288|345:269,1,39.6666674232483,2|8,1:2|1:2,0:0:0:0:
256,188,97117,6,0,L|256:236,2,39.6666674232483,2|2|2,1:1|1:1|1:2,0:0:0:0:
256,148,97445,1,2,0:0:0:0:
112,36,98757,6,0,P|145:35|179:30,1,68.0000012969971,0|2,1:0|3:2,0:0:0:0:
204,16,99131,1,2,3:2:0:0:
181,115,99412,1,4,1:3:0:0:
181,115,99599,2,0,P|175:149|175:182,1,68.0000012969971,2|2,1:2|3:2,0:0:0:0:
144,280,100068,6,0,P|110:279|76:285,2,68.0000012969971,0|0|0,1:0|1:0|1:2,0:0:0:0:
244,256,100723,2,0,P|277:256|311:250,2,68.0000012969971,8|0|0,1:1|1:0|1:0,0:0:0:0:
216,356,101380,6,0,L|288:360,1,68.0000012969971,0|2,1:0|1:2,0:0:0:0:
314,361,101754,1,2,1:2:0:0:
400,304,102035,5,4,1:3:0:0:
400,304,102222,2,0,L|392:228,1,68.0000012969971,2|2,1:2|1:2,0:0:0:0:
380,136,102691,6,0,P|379:102|385:68,2,68.0000012969971,0|0|0,1:0|1:0|1:0,0:0:0:0:
300,195,103346,2,0,P|268:252|264:300,1,102.000001945496,8|0,1:1|1:0,0:0:0:0:
400,344,104002,6,0,B|372:344|372:344|372:316|372:316|344:316|344:316|344:276,1,119.000002269745,0|0,1:0|1:0,0:0:0:0:
456,244,104658,2,0,B|428:244|428:244|428:216|428:216|400:216|400:216|400:176,1,119.000002269745,4|0,1:3|1:0,0:0:0:0:
512,144,105314,2,0,B|484:144|484:144|484:116|484:116|456:116|456:116|456:76,1,119.000002269745,0|0,1:0|1:0,0:0:0:0:
344,124,105970,6,0,B|316:124|316:124|316:152|316:152|288:152|288:152|288:188|288:188|260:188|260:188|260:220,1,178.500003404617,8|0,1:0|1:0,0:0:0:0:
236,244,106625,6,0,B|208:244|208:244|208:216|208:216|180:216|180:216|180:176,1,119.000002269745,0|0,1:0|1:0,0:0:0:0:
64,152,107281,2,0,B|92:152|92:152|92:124|92:124|120:124|120:124|120:84,1,119.000002269745,4|0,1:3|1:0,0:0:0:0:
240,64,107937,2,0,B|212:64|212:64|212:36|212:36|184:36|184:36|184:-4,1,119.000002269745,0|0,1:0|1:0,0:0:0:0:
304,8,108593,6,0,B|332:8|332:8|332:36|332:36|360:36|360:36|360:72|360:72|388:72|388:72|388:104,1,178.500003404617,2|0,1:2|1:0,0:0:0:0:
412,128,109248,5,2,1:2:0:0:
256,192,109412,12,2,110888,2:2:0:0:
256,192,111707,5,4,1:0:0:0:
144,52,112199,5,2,2:1:0:0:
32,96,112527,1,2,1:3:0:0:
144,132,112855,1,2,0:1:0:0:
32,176,113183,1,0,1:2:0:0:
144,212,113511,1,2,0:1:0:0:
32,256,113839,6,0,B|92:252|92:252|156:268|159:338,1,178.500003404617,2|0,1:3|1:0,0:0:0:0:
256,188,114822,1,2,2:1:0:0:
256,308,115150,1,2,1:3:0:0:
52,328,119624,5,4,1:1:0:0:
4,224,119951,6,0,P|36:216|88:216,1,77.0000023498536,8|2,1:0|1:3,0:0:0:0:
108,144,120387,2,0,P|140:152|192:152,1,77.0000023498536,8|0,1:0|1:0,0:0:0:0:
192,228,120823,2,0,P|224:220|276:220,1,77.0000023498536,8|2,1:0|1:3,0:0:0:0:
336,184,121259,2,0,P|343:206|342:231,1,38.5000011749268,2|2,1:2|1:2,0:0:0:0:
428,300,121696,6,0,P|420:268|420:216,1,77.0000023498536,8|2,1:0|1:3,0:0:0:0:
488,188,122133,2,0,P|487:149|478:112,1,77.0000023498536,8|0,1:0|1:0,0:0:0:0:
404,100,122569,2,0,P|396:68|396:16,1,77.0000023498536,8|2,1:1|1:3,0:0:0:0:
320,4,123004,2,0,P|297:11|273:10,1,38.5000011749268,0|4,1:1|1:1,0:0:0:0:
188,80,123442,6,0,L|100:72,1,77.0000023498536,8|2,1:0|1:3,0:0:0:0:
86,146,123878,2,0,L|-2:138,1,77.0000023498536,8|0,1:0|1:0,0:0:0:0:
1,215,124314,2,0,L|89:223,1,77.0000023498536,8|2,1:0|1:3,0:0:0:0:
92,300,124751,2,0,L|136:304,1,38.5000011749268,8|2,1:0|1:2,0:0:0:0:
228,368,125187,6,0,L|220:280,1,77.0000023498536,8|2,1:0|1:3,0:0:0:0:
294,266,125623,2,0,L|286:178,1,77.0000023498536,0|0,1:0|1:0,0:0:0:0:
363,181,126042,2,0,L|371:269,1,77.0000023498536,0|6,1:0|1:2,0:0:0:0:
448,272,126442,2,0,L|452:316,1,38.5000011749268,4|4,1:2|1:0,0:0:0:0:
504,212,126832,6,0,P|508:184|492:144,1,70,2|2,1:2|1:3,0:0:0:0:
448,112,127213,2,0,P|444:84|460:44,1,70,2|2,1:2|1:2,0:0:0:0:
416,8,127594,2,0,L|332:16,1,70,2|2,1:2|1:3,0:0:0:0:
328,68,127975,2,0,P|334:83|337:101,1,35,2|0,1:2|1:0,0:0:0:0:
276,188,128356,6,0,P|248:192|208:176,1,70,2|2,1:2|1:3,0:0:0:0:
176,132,128737,2,0,P|148:128|108:144,1,70,2|2,1:2|1:2,0:0:0:0:
72,100,129118,2,0,L|80:16,1,70,2|2,1:2|1:3,0:0:0:0:
132,12,129499,2,0,P|147:18|165:21,1,35,0|4,1:0|1:1,0:0:0:0:
268,32,129880,6,0,P|264:66|256:100,1,70,2|2,1:2|1:3,0:0:0:0:
216,140,130261,2,0,P|219:174|227:208,1,70,2|2,1:2|1:2,0:0:0:0:
268,248,130641,2,0,L|196:252,1,70,2|2,1:2|1:3,0:0:0:0:
140,256,131023,2,0,P|136:273|134:294,1,35,2|0,1:2|1:0,0:0:0:0:
208,368,131404,6,0,P|240:372|280:364,1,70,2|2,1:2|1:3,0:0:0:0:
316,324,131784,2,0,P|348:319|388:327,1,70,2|4,1:2|1:2,0:0:0:0:
432,356,132165,1,0,1:0:0:0:
436,300,132356,5,4,1:1:0:0:
436,80,132951,6,0,P|385:150|373:249,1,178.500003404617,4|2,1:0|0:0,0:0:0:0:
442,291,133600,6,0,P|360:284|272:321,1,157.500006008148,4|2,1:0|0:0,0:0:0:0:
260,384,134158,6,0,P|228:313|156:260,1,146.999995513916,4|2,1:0|0:0,0:0:0:0:
104,288,134680,6,0,P|145:230|155:148,1,136.499993751526,4|2,1:0|0:0,0:0:0:0:
116,120,135160,6,0,P|180:126|249:96,1,125.999996154785,4|2,1:1|3:3,0:0:0:0:
248,56,135604,6,0,P|273:111|329:153,1,115.50000352478,4|0,1:1|3:0,0:0:0:0:
352,132,136025,6,0,P|320:175|313:237,1,105,4|2,1:1|1:2,0:0:0:0:
332,244,136425,6,0,P|296:239|258:256,1,78.7499975967408,0|0,1:0|1:0,0:0:0:0:
248,272,136758,6,2,P|95:205|340:64,1,612.5,2|0,1:2|0:0,0:2:0:0:
256,352,139758,5,4,1:2:0:0:
