osu file format v14

[General]
AudioFilename: audio.mp3
AudioLeadIn: 0
PreviewTime: 64561
Countdown: 0
SampleSet: Soft
StackLeniency: 0.5
Mode: 0
LetterboxInBreaks: 0
WidescreenStoryboard: 1

[Editor]
DistanceSpacing: 1
BeatDivisor: 6
GridSize: 8
TimelineZoom: 2.400002

[Metadata]
Title:Take
TitleUnicode:竹
Artist:Risshuu feat. Choko
ArtistUnicode:立秋 feat. ちょこ
Creator:yf_bmp
Version:Muz's Hyper
Source:
Tags:bamboo masato ishioh 石王マサト bofxvi the bms of fighters xvi arcaea muse dash video game japanese novelty rabbit usagi electronic ウサギ Muziyami Koiyuki wyrio Moecho Gust Yorita Yoshino toybot nika mika xLolicore- My Angel Watame dahkjdas
BeatmapID:2887638
BeatmapSetID:1376486

[Difficulty]
HPDrainRate:4.5
CircleSize:3.7
OverallDifficulty:5
ApproachRate:7
SliderMultiplier:1.6
SliderTickRate:1

[Events]
//Background and Video events
Video,0,"bga_take.mp4"
0,0,"bg_take.png",0,0
//Break Periods
2,24478,28379
//Storyboard Layer 0 (Background)
//Storyboard Layer 1 (Fail)
//Storyboard Layer 2 (Pass)
//Storyboard Layer 3 (Foreground)
//Storyboard Layer 4 (Overlay)
//Storyboard Sound Samples

[TimingPoints]
120,400,4,2,1,80,1,0
1720,-125,4,2,1,80,0,0
13320,273.972602739726,4,2,1,80,1,0
13320,-166.666666666667,4,2,1,80,0,0
13867,-166.666666666667,4,2,1,30,0,0
14004,-125,4,2,1,80,0,0
24279,333.333333333333,4,2,1,40,1,0
29279,461.538461538462,4,2,1,80,1,0
29279,-83.3333333333333,4,2,1,80,0,0
29740,461.538461538462,4,2,1,80,1,0
29740,-83.3333333333333,4,2,1,80,0,0
33432,-90.9090909090909,4,2,1,80,0,0
33894,422.535211267606,4,2,1,80,1,0
33894,-90.9090909090909,4,2,1,80,0,0
37274,-83.3333333333333,4,2,1,80,0,0
37697,387.096774193548,4,2,1,80,1,0
40793,-76.9230769230769,4,2,1,80,0,0
41181,363.636363636364,4,2,1,80,1,0
41181,-105.263157894737,4,2,1,80,0,0
42635,-111.111111111111,4,2,1,80,0,0
42636,342.857142857143,4,2,1,80,1,0
44350,327.868852459016,4,2,1,80,1,0
44350,-111.111111111111,4,2,1,80,0,0
46973,307.692307692308,4,2,1,80,1,0
46973,-117.647058823529,4,2,1,80,0,0
49434,300,4,2,1,80,1,0
49434,-125,4,2,1,80,0,0
50634,292.682926829268,4,2,1,80,1,0
50634,-125,4,2,1,80,0,0
51811,279.06976744186,4,2,1,80,1,0
51811,-133.333333333333,4,2,1,80,0,0
52922,273.972602739726,4,2,1,80,1,0
52922,-133.333333333333,4,2,1,80,0,0
54017,307.692307692308,4,2,1,80,1,0
54017,-117.647058823529,4,2,1,80,0,0
54632,-117.647058823529,4,2,0,80,0,0
55864,273.972602739726,4,2,1,80,1,0
55864,-125,4,2,1,80,0,0
56411,273.972602739726,4,2,1,80,1,0
56411,-125,4,2,1,80,0,0
73946,276.497695852535,4,2,1,80,1,0
74222,292.682926829268,4,2,1,80,1,0
74515,307.692307692308,4,2,1,80,1,0
74823,327.868852459016,4,2,1,80,1,0
74823,-166.666666666667,4,2,1,80,0,0
76462,327.868852459016,4,2,1,80,1,0
76462,-125,4,2,1,80,0,0
109248,-166.666666666667,4,2,1,80,0,0
111298,-166.666666666667,4,2,1,30,0,0
111380,-125,4,2,1,80,0,0
111461,-125,4,2,1,30,0,0
111543,-125,4,2,1,80,0,0
111625,-125,4,2,1,30,0,0
111707,-125,4,2,1,80,0,0
115232,-125,4,2,1,5,0,0
115806,521.739130434783,4,2,1,80,1,0
116850,375,4,2,1,80,1,0
117600,307.692307692308,4,2,1,80,1,0
118215,272.727272727273,4,2,1,80,1,0
118761,255.31914893617,4,2,1,80,1,0
119016,-166.666666666667,4,2,1,80,0,0
119271,235.294117647059,4,2,1,80,1,0
119271,-166.666666666667,4,2,1,80,0,0
119624,218.181818181818,4,2,1,80,1,0
119624,-181.818181818182,4,2,1,80,0,0
119733,218.181818181818,4,2,1,80,1,0
119733,-166.666666666667,4,2,1,80,0,0
125842,200,4,2,1,80,1,0
125842,-181.818181818182,4,2,1,80,0,0
126547,190.47619047619,4,2,1,80,1,0
126547,-200,4,2,1,80,0,0
126642,190.47619047619,4,2,1,80,1,0
126642,-200,4,2,1,80,0,0
132356,218.181818181818,4,2,1,80,1,0
132356,-181.818181818182,4,2,1,80,0,0
132720,461.538461538462,4,2,1,80,1,0
132951,324.324324324324,4,2,1,80,1,0
132951,-117.647058823529,4,2,1,80,0,0
133600,279.06976744186,4,2,1,80,1,0
133600,-133.333333333333,4,2,1,80,0,0
134158,260.869565217391,4,2,1,80,1,0
134158,-142.857142857143,4,2,1,80,0,0
134680,240,4,2,1,80,1,0
134680,-153.846153846154,4,2,1,80,0,0
135160,222.222222222222,4,2,1,80,1,0
135160,-166.666666666667,4,2,1,80,0,0
135604,210.526315789474,4,2,1,80,1,0
135604,-181.818181818182,4,2,1,80,0,0
136025,200,4,2,1,80,1,0
136025,-200,4,2,1,80,0,0
136425,190.47619047619,4,2,1,80,1,0
136425,-222.222222222222,4,2,1,80,0,0
136758,750,4,2,1,80,1,0
136758,-80,4,2,1,80,0,0
139383,-80,4,2,1,5,0,0
139758,273.972602739726,4,2,1,80,1,0

[Colours]
Combo1 : 64,187,73
Combo2 : 255,98,89
Combo3 : 114,114,114
Combo4 : 255,227,147
Combo5 : 115,160,255
Combo6 : 196,95,243
Combo7 : 255,92,199
Combo8 : 118,194,33

[HitObjects]
200,181,1720,102,0,B|203:131|203:131|208:124|208:124|200:125|200:125|205:118|205:118|208:63,1,128,0|0,1:0|1:0,0:0:0:0:
288,154,2360,1,2,0:0:0:0:
288,154,2520,2,0,B|291:104|291:104|296:97|296:97|288:98|288:98|293:91|293:91|296:36,1,128,0|0,1:0|1:0,0:0:0:0:
376,127,3160,1,2,0:0:0:0:
376,127,3320,2,0,B|379:77|379:77|384:70|384:70|376:71|376:71|381:64|381:64|384:9,1,128,0|0,1:0|1:0,0:0:0:0:
464,100,3960,1,2,0:0:0:0:
464,100,4120,2,0,B|465:85|465:85|463:77|463:77|465:55,2,42.6666666666667,0|2|2,1:0|0:1|0:0,0:0:0:0:
489,144,4520,2,0,B|488:159|488:159|490:167|490:167|488:189,2,42.6666666666667,0|2|2,1:0|2:1|2:2,0:0:0:0:
437,141,4920,102,0,B|434:91|434:91|429:84|429:84|437:85|437:85|432:78|432:78|429:23,1,128,0|0,1:0|1:0,0:0:0:0:
358,180,5560,1,2,0:0:0:0:
358,180,5720,2,0,B|355:130|355:130|350:123|350:123|358:124|358:124|353:117|353:117|350:62,1,128,0|0,1:0|1:0,0:0:0:0:
431,310,6520,6,0,B|432:295|432:295|430:287|430:287|432:256|432:256|429:249|429:249|429:234,1,76.8,2|2,1:1|0:1,0:0:0:0:
405,193,6920,102,0,B|408:143|408:143|413:136|413:136|405:137|405:137|410:130|410:130|413:75,1,128,0|0,1:0|1:0,0:0:0:0:
305,175,7560,1,2,0:0:0:0:
305,175,7720,2,0,B|308:125|308:125|313:118|313:118|305:119|305:119|310:112|310:112|313:57,1,128,0|0,1:0|1:0,0:0:0:0:
207,175,8360,1,2,0:0:0:0:
207,175,8520,2,0,B|204:125|204:125|199:118|199:118|207:119|207:119|202:112|202:112|199:57,1,128,0|0,1:0|1:0,0:0:0:0:
107,193,9160,1,2,0:0:0:0:
107,193,9320,2,0,B|104:143|104:143|99:136|99:136|107:137|107:137|102:130|102:130|99:75,1,128,0|0,1:0|1:0,0:0:0:0:
169,267,9960,1,2,0:0:0:0:
169,267,10120,6,0,B|219:264|219:264|226:259|226:259|225:267|225:267|232:262|232:262|287:259,1,128,0|0,1:0|1:0,0:0:0:0:
343,359,10760,1,2,0:0:0:0:
343,359,10920,2,0,B|293:356|293:356|286:351|286:351|287:359|287:359|280:354|280:354|225:351,1,128,0|0,1:0|1:0,0:0:0:0:
367,277,11720,2,0,B|395:259|407:240|407:240|403:236|403:236|414:236|414:236|410:232|410:232|416:209|413:180,1,128,0|0,1:0|1:0,0:0:0:0:
285,170,12520,2,0,B|257:152|245:133|245:133|249:129|249:129|238:129|238:129|242:125|242:125|236:102|239:73,1,128,0|0,1:0|1:0,0:0:0:0:
370,24,13320,6,0,B|452:30|452:30|456:26|456:26|455:34|455:34|459:30|459:30|503:32|503:32|474:69,1,191.999994140625,2|0,0:1|0:0,0:0:0:0:
498,146,14004,2,0,B|493:178|493:178|504:211,2,64,2|2|2,0:2|0:0|0:0,0:0:0:0:
420,130,14415,2,0,B|388:125|388:125|355:136,1,64,2|2,0:1|0:1,0:0:0:0:
301,187,14689,2,0,B|269:192|269:192|236:181,1,64,2|0,0:1|0:0,0:0:0:0:
177,134,14963,2,0,B|182:102|182:102|171:69,2,64,0|0|0,1:0|1:0|1:0,0:0:0:0:
164,210,15374,6,0,B|121:238|121:238|120:243|120:243|116:236|116:236|114:242|114:242|75:266|75:266|69:264|69:264|75:272|75:272|69:270|69:270|20:300,1,192,4|8,1:1|1:0,0:0:0:0:
90,360,16059,2,0,B|135:332|135:332|138:325|138:325|141:332|141:332|145:324|145:324|188:298,1,128,2|8,1:3|1:0,0:0:0:0:
214,380,16607,2,0,B|259:352|259:352|262:345|262:345|265:352|265:352|269:344|269:344|312:318,1,128,0|8,1:0|1:0,0:0:0:0:
262,240,17155,2,0,B|265:223|256:210|256:210|246:223|248:240,2,64,2|0|0,1:3|1:0|1:0,0:0:0:0:
262,240,17566,6,0,B|234:194|234:194|227:191|227:191|234:188|234:188|226:184|226:184|200:141,1,128,0|2,1:2|3:2,0:0:0:0:
157,69,17977,1,8,1:0:0:0:
281,108,18251,2,0,B|253:62|253:62|246:59|246:59|253:56|253:56|245:52|245:52|219:9,1,128,2|8,1:3|1:0,0:0:0:0:
334,181,18799,2,0,B|361:135|361:135|368:132|368:132|361:129|361:129|369:125|369:125|395:82,1,128,0|8,1:0|1:0,0:0:0:0:
443,14,19210,1,2,1:2:0:0:
443,14,19347,2,0,P|498:24|489:101,1,128,2|8,1:3|1:0,0:0:0:0:
453,154,19758,6,0,B|458:205|458:205|462:208|462:208|454:208|454:208|458:213|458:213|462:258|462:258|457:263|457:263|467:261|467:261|463:265|463:265|467:323,1,192,4|8,1:1|1:0,0:0:0:0:
377,249,20443,2,0,B|382:300|382:300|378:308|378:308|385:307|385:307|381:314|381:314|387:375,1,128,2|8,1:3|1:0,0:0:0:0:
290,188,20991,2,0,B|294:215|294:215|290:221|290:221|294:252,1,64,0|2,1:0|1:2,0:0:0:0:
256,325,21265,2,0,B|229:329|229:329|223:325|223:325|192:329,1,64,8|2,1:0|1:2,0:0:0:0:
119,291,21539,2,0,B|115:264|115:264|119:258|119:258|115:227,1,64,2|0,1:3|1:0,0:0:0:0:
153,154,21813,2,0,B|180:150|180:150|186:154|186:154|217:150,1,64,0|2,1:0|1:2,0:0:0:0:
72,152,22224,6,0,B|66:136|66:136|64:108,2,32,0|0|8,1:0|1:0|1:0,0:0:0:0:
115,228,22498,1,0,1:0:0:0:
115,228,22635,2,0,B|87:228|87:228|82:233|82:233|51:235,1,64,2|2,1:3|1:2,0:0:0:0:
20,312,22909,2,0,B|47:312|47:312|52:317|52:317|83:319,1,64,2|0,1:2|1:0,0:0:0:0:
157,354,23183,6,0,B|163:370|163:370|164:384,2,32,0|0|6,1:0|1:0|1:2,0:0:0:0:
186,276,23456,2,0,B|215:274|215:274|220:269|220:269|247:268,1,64,0|4,1:2|1:2,0:0:0:0:
332,263,23731,1,2,1:3:0:0:
256,192,24278,5,4,1:1:0:0:
180,261,29279,6,0,B|198:257|198:257|208:260|208:260|227:256,3,47.9999985351563,2|2|2|2,0:0|0:1|0:2|0:1,0:0:0:0:
261,273,29740,6,0,B|303:288|303:288|346:267|346:267|400:285,1,143.999995605469,0|2,1:0|0:1,0:0:0:0:
428,264,30201,2,0,B|439:232|439:232|435:162,1,95.9999970703126,0|2,1:0|2:1,0:0:0:0:
455,95,30663,1,0,1:0:0:0:
407,154,30893,1,2,0:2:0:0:
348,106,31124,1,0,1:0:0:0:
396,47,31355,1,2,0:2:0:0:
325,17,31586,6,0,B|281:28|281:28|240:3|240:3|185:16,1,143.999995605469,0|2,1:0|0:1,0:0:0:0:
154,28,32047,2,0,B|165:60|165:60|161:130,1,95.9999970703126,0|2,1:0|0:2,0:0:0:0:
171,198,32509,1,0,1:0:0:0:
127,261,32740,1,2,0:2:0:0:
186,309,32970,2,0,B|190:327|190:327|187:337|187:337|191:356,3,47.9999985351563,0|2|2|2,1:0|0:1|2:2|0:1,0:0:0:0:
226,368,33432,6,0,B|240:344|256:336|256:336|272:344|285:367,1,88.000002685547,0|2,0:0|0:0,0:0:0:0:
350,326,33894,6,0,B|399:322|399:322|427:339|427:339|476:334,1,132.00000402832,0|2,1:0|0:1,0:0:0:0:
506,307,34316,2,0,B|495:284|495:284|501:207,1,88.000002685547,0|2,1:0|2:1,0:0:0:0:
455,155,34739,2,0,B|432:166|432:166|355:160,1,88.000002685547,0|2,1:0|0:0,0:0:0:0:
303,206,35161,2,0,B|314:229|314:229|308:306,1,88.000002685547,0|2,1:0|0:0,0:0:0:0:
281,365,35584,6,0,B|232:361|232:361|204:378|204:378|154:373,1,132.00000402832,0|2,1:0|0:1,0:0:0:0:
158,333,36006,2,0,B|169:310|169:310|163:233,1,88.000002685547,0|2,1:0|0:0,0:0:0:0:
85,257,36429,2,0,B|74:280|74:280|80:357,1,88.000002685547,0|2,1:0|0:0,0:0:0:0:
154,373,36851,2,0,B|170:369|170:369|179:372|179:372|196:368,3,44.0000013427735,0|2|2|2,1:0|0:1|2:0|2:1,0:0:0:0:
244,360,37274,6,0,B|244:344|256:314|256:314|268:344|268:360,1,95.9999970703126,0|2,0:0|0:0,0:0:0:0:
346,364,37697,6,0,B|392:385|423:366|423:366|410:355|387:348,1,120,0|2,1:0|0:1,0:0:0:0:
353,327,38084,2,0,P|342:280|350:244,1,80,0|2,1:0|2:1,0:0:0:0:
414,122,38471,2,0,P|379:153|343:165,1,80,0|2,1:0|0:0,0:0:0:0:
207,172,38858,2,0,P|251:186|279:210,1,80,0|2,1:0|0:0,0:0:0:0:
286,110,39245,6,0,B|307:85|292:52|292:52|254:66|249:91,1,120,0|2,1:0|0:1,0:0:0:0:
209,92,39632,2,0,B|223:76|213:54|213:54|188:63|184:79,1,80,0|2,1:0|0:1,0:0:0:0:
207,172,40019,2,0,P|199:212|176:253,1,80,0|2,1:0|0:0,0:0:0:0:
159,323,40406,2,0,B|176:331|176:331|193:347,3,40,0|2|2|2,1:1|0:1|0:2|0:1,0:0:0:0:
244,360,40793,6,0,B|244:344|256:310|256:310|268:344|268:360,1,103.999995239258,0|2,0:0|0:0,0:0:0:0:
348,350,41181,6,0,B|379:329|379:329|467:337,1,113.999996955872,0|2,1:0|0:1,0:0:0:0:
477,300,41544,2,0,B|456:269|456:269|462:229,1,75.9999979705811,0|2,1:0|2:1,0:0:0:0:
453,147,41908,2,0,L|371:139,1,75.9999979705811,0|2,1:0|0:2,0:0:0:0:
342,63,42271,2,0,L|417:55,1,75.9999979705811,0|2,1:1|0:0,0:0:0:0:
507,78,42636,5,0,1:0:0:0:
453,147,42807,1,2,2:0:0:0:
461,230,42978,2,0,P|431:260|418:303,1,80,0|2,1:0|0:0,0:0:0:0:
414,383,43321,2,0,P|375:373|345:344,1,80,0|2,1:0|0:0,0:0:0:0:
260,363,43664,2,0,B|255:344|255:344|256:316,3,40,0|0|2|0,1:0|0:0|0:0|0:0,0:0:0:0:
256,295,44007,6,0,B|256:268|256:268|260:264|260:264|251:264|251:264|256:259|256:259|256:229,1,80,0|2,1:0|0:0,0:0:0:0:
213,156,44350,6,0,L|160:161,2,35.9999989013672,0|0|10,1:0|1:0|1:2,0:0:0:0:
299,156,44677,2,0,L|352:161,2,35.9999989013672,0|0|8,1:0|1:0|1:0,0:0:0:0:
256,88,45005,2,0,L|256:16,1,71.9999978027344,0|10,1:0|1:2,0:0:0:0:
171,0,45333,2,0,L|171:72,1,71.9999978027344,0|8,1:0|1:0,0:0:0:0:
101,124,45661,5,0,1:0:0:0:
98,210,45825,1,8,1:2:0:0:
170,255,45989,2,0,B|178:289|178:289|168:332,1,71.9999978027344,0|8,1:0|1:0,0:0:0:0:
256,344,46317,2,0,L|256:384,2,35.9999989013672,0|2|8,1:0|1:2|1:2,0:0:0:0:
256,264,46645,6,0,B|256:241|256:241|260:237|260:237|251:237|251:237|256:232|256:232|256:205,1,71.9999978027344,0|2,1:0|3:2,0:0:0:0:
296,134,46973,6,0,L|351:125,2,34.0000006484985,0|0|10,1:0|1:0|1:2,0:0:0:0:
216,134,47280,2,0,L|161:125,2,34.0000006484985,0|2|8,1:0|1:1|1:1,0:0:0:0:
256,64,47588,2,0,L|256:24,3,34.0000006484985,2|2|8|0,1:3|1:1|1:2|1:0,0:0:0:0:
256,0,47896,2,0,L|332:7,1,68.0000012969971,2|8,1:2|1:1,0:0:0:0:
382,65,48203,6,0,P|422:55|432:88,1,68.0000012969971,0|8,1:0|1:2,0:0:0:0:
390,160,48511,2,0,P|349:150|339:183,1,68.0000012969971,0|8,1:0|1:1,0:0:0:0:
272,217,48819,2,0,P|272:241|275:263,2,34.0000006484985,0|0|10,1:0|1:0|1:2,0:0:0:0:
256,136,49126,6,0,B|256:113|256:113|260:109|260:109|251:109|251:109|256:104|256:104|256:77,1,68.0000012969971,0|2,1:0|3:2,0:0:0:0:
199,15,49434,6,0,L|166:11,2,32,0|0|10,1:0|1:0|1:2,0:0:0:0:
175,94,49734,2,0,L|142:98,2,32,0|2|8,1:0|1:1|1:1,0:0:0:0:
182,176,50034,2,0,L|174:226,2,32,2|2|8,1:3|1:1|1:2,0:0:0:0:
256,136,50334,2,0,L|268:216,1,64,0|0,1:0|0:0,0:0:0:0:
347,227,50634,6,0,L|380:231,2,32,0|0|10,1:0|1:0|1:2,0:0:0:0:
348,144,50926,2,0,L|381:140,2,32,0|0|8,1:0|1:0|1:1,0:0:0:0:
256,136,51219,2,0,L|264:186,2,32,0|0|8,1:0|1:0|1:2,0:0:0:0:
256,56,51512,6,0,B|256:38|256:38|260:34|260:34|251:34|251:34|256:29|256:29|256:0,1,64,0|2,1:0|3:2,0:0:0:0:
344,16,51811,6,0,B|372:24|372:24|407:19,1,60.0000022888184,0|10,0:0|1:2,0:0:0:0:
482,54,52090,2,0,B|461:74|461:74|447:107,1,60.0000022888184,0|8,1:0|1:1,0:0:0:0:
380,154,52369,6,0,B|375:137|375:137|359:117,5,40.000001525879,2|0|0|0|0|0,1:3|1:0|1:0|1:0|1:0|1:0,0:0:0:0:
400,191,52922,6,0,L|397:269,1,60.0000022888184,4|8,1:2|1:2,0:0:0:0:
487,307,53195,2,0,L|484:229,1,60.0000022888184,0|8,1:0|1:1,0:0:0:0:
407,341,53469,2,0,L|329:338,1,60.0000022888185,4|4,1:2|1:2,0:0:0:0:
268,336,53743,6,0,L|267:311,8,15.0000005722046,0|2|0|0|0|2|0|0|4,1:2|1:2|1:2|1:2|1:2|1:2|1:2|1:2|0:2,0:0:0:0:
262,240,54632,1,2,0:0:0:0:
256,157,55247,1,2,0:0:0:0:
250,74,55864,2,0,B|245:42|245:42|256:9,2,64,0|0|0,1:0|1:0|1:0,0:0:0:0:
324,111,56274,6,0,B|375:106|375:106|378:109|378:109|377:101|377:101|383:105|383:105|428:100|428:100|432:95|432:95|432:105|432:105|435:99|435:99|492:93,1,192,4|8,1:1|1:0,0:0:0:0:
357,196,56958,2,0,B|409:190|409:190|416:194|416:194|414:186|414:186|422:190|422:190|472:184,1,128,0|8,1:0|1:0,0:0:0:0:
337,282,57506,2,0,B|389:276|389:276|396:280|396:280|394:272|394:272|402:276|402:276|452:270,1,128,0|8,1:0|1:0,0:0:0:0:
262,328,58054,2,0,B|265:311|256:298|256:298|246:311|248:328,2,64,0|0|8,1:0|0:0|1:0,0:0:0:0:
262,328,58465,6,0,B|209:322|209:322|202:326|202:326|204:318|204:318|196:322|196:322|146:316,1,128,2|2,1:2|3:2,0:0:0:0:
61,304,58876,1,8,1:0:0:0:
237,241,59150,2,0,B|184:235|184:235|177:239|177:239|179:231|179:231|171:235|171:235|121:229,1,128,2|8,1:3|1:0,0:0:0:0:
212,154,59698,2,0,B|159:148|159:148|152:152|152:152|154:144|154:144|146:148|146:148|96:142,1,128,0|8,1:0|1:0,0:0:0:0:
11,132,60109,1,0,1:0:0:0:
11,132,60246,2,0,P|61:111|66:41,1,128,2|0,1:3|1:0,0:0:0:0:
0,1,60657,6,0,B|52:6|52:6|59:2|59:2|59:12|59:12|65:6|65:6|115:12,1,128,4|0,1:0|3:0,0:0:0:0:
201,23,61068,1,8,1:0:0:0:
357,84,61342,2,0,B|387:82|387:82|397:88|397:88|430:86,1,64,2|0,1:3|3:2,0:0:0:0:
400,168,61616,2,0,B|377:169|377:169|367:163|367:163|337:165,1,64,8|2,1:0|3:2,0:0:0:0:
278,105,61890,6,0,B|276:75|276:75|282:65|282:65|280:32,1,64,0|2,1:0|3:2,0:0:0:0:
201,23,62164,2,0,B|202:45|202:45|196:55|196:55|198:85,1,64,8|0,1:0|3:2,0:0:0:0:
121,153,62438,2,0,B|123:123|123:123|117:113|117:113|119:80,1,64,2|0,1:3|1:0,0:0:0:0:
206,169,62712,1,0,1:0:0:0:
206,169,62849,2,0,B|204:191|204:191|210:201|210:201|208:231,1,64,2|0,1:2|0:0,0:0:0:0:
178,307,63123,6,0,L|179:349,2,32,2|0|8,1:2|1:0|1:0,0:0:0:0:
128,242,63397,1,0,1:0:0:0:
127,242,63534,2,0,P|100:257|66:262,1,64,2|0,1:3|1:0,0:0:0:0:
3,210,63808,2,0,P|3:178|16:146,1,64,8|0,1:0|1:0,0:0:0:0:
93,118,64082,6,0,P|120:134|141:161,1,64,0|0,1:0|1:0,0:0:0:0:
205,211,64356,2,0,P|232:194|253:167,1,64,0|0,1:0|1:0,0:0:0:0:
237,86,64630,2,0,P|205:81|177:65,2,64,2|0|0,1:3|1:0|1:0,0:0:0:0:
315,116,65041,6,0,B|311:167|311:167|314:170|314:170|306:169|306:169|310:175|310:175|306:220|306:220|300:224|300:224|310:224|310:224|305:227|305:227|300:285,1,192,4|8,1:0|1:0,0:0:0:0:
397,148,65726,2,0,B|392:198|392:198|397:206|397:206|388:204|388:204|392:211|392:211|388:264,1,128,2|8,1:3|1:0,0:0:0:0:
481,180,66274,2,0,B|475:229|475:229|480:237|480:237|472:236|472:236|476:242|476:242|471:295,1,128,0|8,1:0|1:0,0:0:0:0:
467,99,66821,2,0,B|465:82|475:69|475:69|484:82|481:99,2,64,2|0|8,1:3|1:0|1:0,0:0:0:0:
467,99,67232,6,0,B|414:93|414:93|407:97|407:97|409:89|409:89|401:93|401:93|351:87,1,128,2|2,1:2|1:2,0:0:0:0:
266,75,67643,1,8,1:0:0:0:
103,162,67917,2,0,B|156:156|156:156|163:160|163:160|161:152|161:152|169:156|169:156|219:150,1,128,2|8,1:3|1:0,0:0:0:0:
372,249,68465,2,0,B|319:243|319:243|312:247|312:247|314:239|314:239|306:243|306:243|256:237,1,128,0|8,1:0|1:0,0:0:0:0:
189,286,68876,1,2,1:2:0:0:
189,286,69013,6,0,P|161:339|203:382,1,128,2|0,1:3|1:0,0:0:0:0:
279,346,69424,2,0,B|331:341|331:341|338:345|338:345|338:335|338:335|344:341|344:341|394:335,1,128,4|0,1:0|3:2,0:0:0:0:
474,355,69835,2,0,B|477:322|477:322|461:284,1,64,8|2,1:0|3:2,0:0:0:0:
393,250,70109,1,2,1:3:0:0:
393,250,70246,2,0,B|390:217|390:217|406:179,2,64,0|8|2,3:2|1:0|3:2,0:0:0:0:
392,335,70657,6,0,B|376:342|376:342|315:338,1,64,0|2,1:0|3:2,0:0:0:0:
259,293,70931,2,0,B|252:277|252:277|256:216,1,64,8|0,1:0|3:0,0:0:0:0:
301,160,71205,2,0,B|317:153|317:153|378:157,1,64,2|0,1:3|1:0,0:0:0:0:
434,202,71479,2,0,B|441:218|441:218|437:279,1,64,0|2,1:0|1:2,0:0:0:0:
441,118,71890,6,0,B|447:102|447:102|449:74,2,32,2|0|8,1:2|1:0|1:0,0:0:0:0:
363,156,72164,1,0,1:0:0:0:
363,156,72301,2,0,B|360:128|360:128|355:123|355:123|351:94,1,64,2|0,1:3|1:0,0:0:0:0:
274,62,72575,2,0,B|271:89|271:89|266:94|266:94|262:123,1,64,0|0,1:0|1:0,0:0:0:0:
296,199,72849,6,0,B|290:215|290:215|289:229,2,32,0|0|0,1:0|1:0|1:0,0:0:0:0:
212,188,73123,2,0,B|184:185|184:185|179:180|179:180|150:176,1,64,4|0,1:2|1:0,0:0:0:0:
67,165,73397,1,2,1:3:0:0:
256,384,73946,5,2,1:2:0:0:
256,384,75150,2,0,B|271:352|271:352|240:306|240:306|256:267,2,127.99999609375,2|2|2,3:3|3:2|0:0,0:0:0:0:
162,357,76462,6,0,P|122:344|70:355,1,85.3333333333333,0|2,1:0|0:0,0:0:0:0:
1,384,76899,1,2,0:1:0:0:
10,299,77117,2,0,P|1:260|8:214,2,85.3333333333333,4|2|2,1:3|0:0|0:1,0:0:0:0:
79,350,77773,6,0,P|121:343|162:357,1,85.3333333333333,0|2,1:0|0:0,0:0:0:0:
238,318,78210,1,2,1:1:0:0:
169,267,78429,2,0,B|178:175|132:197|141:100,1,170.666666666667,8|2,1:2|0:1,0:0:0:0:
196,37,79084,6,0,P|238:32|284:43,1,85.3333333333333,0|2,1:0|0:0,0:0:0:0:
363,61,79522,1,2,0:1:0:0:
308,126,79740,2,0,P|299:171|297:222,2,85.3333333333333,4|2|2,1:3|0:0|0:1,0:0:0:0:
279,41,80396,6,0,P|238:32|196:37,1,85.3333333333333,0|2,1:0|0:0,0:0:0:0:
141,101,80833,1,0,0:0:0:0:
186,172,81052,2,0,B|282:181|260:135|352:144,1,170.666666666667,8|2,1:2|0:1,0:0:0:0:
427,182,81707,6,0,L|508:189,1,64,0|2,1:0|0:2,0:0:0:0:
512,265,82035,1,2,0:1:0:0:
512,265,82199,1,2,1:2:0:0:
487,337,82363,2,0,L|406:344,1,64,4|2,1:3|0:2,0:0:0:0:
364,257,82691,2,0,L|445:264,1,64,2|2,0:1|0:2,0:0:0:0:
340,338,83019,6,0,L|259:331,1,64,0|2,1:0|0:2,0:0:0:0:
207,367,83347,2,0,L|172:293,1,64,2|2,0:1|0:2,0:0:0:0:
115,266,83675,2,0,L|161:199,1,64,8|2,1:2|0:0,0:0:0:0:
156,136,84002,1,2,0:1:0:0:
156,136,84166,1,2,0:0:0:0:
220,178,84330,6,0,P|268:163|294:128,2,96,0|0|2,1:0|1:0|1:2,0:0:0:0:
151,213,84986,1,4,1:3:0:0:
151,213,85150,1,2,0:0:0:0:
86,171,85314,2,0,P|54:177|9:167,1,64,2|2,0:1|0:0,0:0:0:0:
53,101,85642,6,0,P|85:95|130:105,1,64,0|2,1:0|0:2,0:0:0:0:
162,37,85970,2,0,P|183:61|197:105,1,64,2|2,0:1|0:2,0:0:0:0:
271,99,86298,2,0,P|260:129|229:163,1,64,8|2,1:2|0:2,0:0:0:0:
271,225,86625,1,2,0:1:0:0:
271,225,86789,1,2,0:2:0:0:
201,256,86953,6,0,P|188:303|190:362,2,102.4,0|2|2,1:0|0:1|1:2,0:0:0:0:
182,218,87609,2,0,B|165:164|113:147|113:147|73:176|71:237,1,204.8,4|2,1:3|0:2,0:0:0:0:
66,277,88265,2,0,P|92:317|109:374,1,102.4,0|2,1:0|0:1,0:0:0:0:
146,381,88658,2,0,P|164:365|194:356,1,51.2,2|2,1:2|1:2,0:0:0:0:
230,351,88921,2,0,P|299:364|397:343,1,153.6,8|0,1:2|1:2,0:0:0:0:
446,302,89576,6,0,P|459:255|457:196,2,102.4,0|2|2,1:0|0:1|1:2,0:0:0:0:
406,313,90232,2,0,B|389:366|337:383|337:383|297:354|295:293,1,204.8,4|2,1:3|0:2,0:0:0:0:
257,277,90888,2,0,P|255:228|271:171,1,102.4,0|2,1:0|0:1,0:0:0:0:
290,141,91281,2,0,P|274:123|265:93,1,51.2,2|2,1:2|1:2,0:0:0:0:
267,56,91543,2,0,P|197:41|114:66,1,153.6,8|0,1:2|1:0,0:0:0:0:
85,85,92068,1,2,1:2:0:0:
85,85,92199,6,0,L|81:129,5,42.6666666666667,0|2|2|2|2|2,1:0|0:2|0:1|0:2|0:1|1:2,0:0:0:0:
50,157,92855,2,0,L|54:201,5,42.6666666666667,4|2|2|2|2|2,1:3|0:2|0:1|0:2|0:1|0:2,0:0:0:0:
81,232,93511,6,0,P|48:257|-4:265,2,85.3333333333333,0|2|2,1:0|1:1|1:1,0:0:0:0:
147,285,94166,2,0,P|188:279|237:298,1,85.3333333333333,8|2,1:2|0:0,0:0:0:0:
255,327,94494,2,0,P|249:347|248:369,2,42.6666666666667,2|2|0,1:1|1:1|0:1,0:0:0:0:
297,325,94822,5,0,1:0:0:0:
337,249,95041,2,0,P|364:251|390:257,3,42.6666666666667,2|2|2|2,0:1|1:2|1:1|1:2,0:0:0:0:
420,266,95478,1,4,1:3:0:0:
373,157,95696,2,0,P|346:159|320:165,3,42.6666666666667,2|2|2|2,0:1|0:2|0:1|0:2,0:0:0:0:
288,174,96133,5,0,1:0:0:0:
206,148,96352,1,2,0:1:0:0:
124,174,96571,2,0,P|120:153|124:127,2,42.6666666666667,2|0|8,1:1|1:2|1:2,0:0:0:0:
177,239,97008,2,0,P|197:235|223:239,3,42.6666666666667,2|2|2|2,0:0|1:1|1:1|1:2,0:0:0:0:
256,264,97445,5,2,0:0:0:0:
256,104,97882,2,0,L|256:48,5,42.6666666666667,2|2|2|2|2|8,0:1|0:1|0:1|0:1|0:1|2:3,0:0:0:0:
355,18,98757,6,0,L|434:25,1,73.1428571428571,0|2,1:0|3:2,0:0:0:0:
467,30,99038,2,0,L|469:78,3,36.5714285714286,0|2|0|2,1:2|3:2|1:0|1:2,0:0:0:0:
496,95,99412,2,0,L|491:181,1,73.1428571428571,4|0,1:3|1:0,0:0:0:0:
488,208,99693,2,0,L|441:214,3,36.5714285714286,2|2|0|2,1:2|3:2|1:0|1:2,0:0:0:0:
411,217,100068,6,0,L|328:212,2,73.1428571428571,0|0|0,1:0|1:0|1:2,0:0:0:0:
432,294,100630,2,0,L|515:289,2,73.1428571428571,2|2|2,1:2|3:2|1:2,0:0:0:0:
390,363,101192,2,0,L|352:360,1,36.5714285714286,2|0,3:2|1:0,0:0:0:0:
315,375,101380,6,0,L|241:372,1,73.1428571428571,0|0,1:0|1:0,0:0:0:0:
203,301,101754,2,0,L|129:304,1,73.1428571428571,0|0,1:0|1:0,0:0:0:0:
102,333,102035,1,4,1:3:0:0:
102,333,102129,2,0,B|71:350|71:350|25:336,1,73.1428571428571,2|2,1:2|1:2,0:0:0:0:
7,309,102410,2,0,B|18:272|18:272|1:241,1,73.1428571428571,2|2,1:2|1:2,0:0:0:0:
35,220,102691,6,0,L|30:134,1,73.1428571428571,0|0,1:0|1:0,0:0:0:0:
104,114,103066,2,0,B|97:95|81:87|81:87|92:75|90:52,1,73.1428571428571,0|0,1:0|1:0,0:0:0:0:
122,34,103347,2,0,B|141:37|156:27|156:27|161:43|182:53,1,73.1428571428571,8|0,1:1|1:0,0:0:0:0:
182,90,103628,2,0,B|169:105|170:123|170:123|154:119|135:132,1,73.1428571428571,0|2,1:0|0:0,0:0:0:0:
173,202,104002,6,0,L|214:205,3,32,0|0|0|0,1:0|1:0|1:0|1:0,0:0:0:0:
240,188,104330,1,0,1:0:0:0:
339,292,104658,2,0,L|298:295,3,32,4|0|0|0,1:3|1:0|1:0|1:0,0:0:0:0:
272,278,104986,1,0,1:0:0:0:
255,87,105314,6,0,L|296:90,3,32,0|0|0|0,1:0|1:0|1:0|1:0,0:0:0:0:
322,73,105642,1,0,1:0:0:0:
453,155,105970,2,0,L|459:228,2,64,8|0|0,1:0|1:0|1:0,0:0:0:0:
489,87,106461,1,0,1:0:0:0:
451,19,106625,6,0,L|410:22,3,32,0|0|0|2,1:0|1:0|1:0|1:2,0:0:0:0:
383,5,106953,1,0,1:0:0:0:
238,61,107281,2,0,L|261:95,3,32,4|0|0|2,1:3|1:0|1:0|1:2,0:0:0:0:
260,127,107609,1,0,1:0:0:0:
381,225,107937,6,0,L|398:187,3,32,0|0|0|2,1:0|1:0|1:0|1:2,0:0:0:0:
427,173,108265,1,0,1:0:0:0:
316,60,108593,2,0,L|283:63,3,32,2|0|2|0,1:2|1:0|1:2|1:0,0:0:0:0:
255,87,108921,2,0,P|195:95|155:71,1,96,2|0,1:2|1:0,0:0:0:0:
141,49,109248,5,2,1:2:0:0:
256,192,109330,12,2,110560,0:0:0:0:
248,102,110888,6,0,B|251:88|256:79|256:79|261:88|264:102,1,47.9999985351563,2|2,2:2|0:0,0:0:0:0:
252,192,111216,5,6,1:2:0:0:
256,188,111380,5,2,1:2:0:0:
260,192,111543,5,6,1:2:0:0:
256,196,111707,6,0,B|203:190|203:190|200:184|200:184|200:194|200:194|196:189|196:189|153:185|153:185|148:188|148:188|149:180|149:180|145:184|145:184|92:179,1,192,4|2,1:0|2:1,0:0:0:0:
223,275,112527,2,0,B|171:269|171:269|164:273|164:273|166:265|166:265|158:269|158:269|108:263,1,128,2|2,1:3|0:1,0:0:0:0:
184,354,113183,2,0,B|132:348|132:348|125:352|125:352|127:344|127:344|119:348|119:348|69:342,1,128,0|2,1:2|0:1,0:0:0:0:
166,270,113839,2,0,B|218:264|218:264|225:268|225:268|223:260|223:260|231:264|231:264|281:258,1,128,2|2,1:3|0:1,0:0:0:0:
369,243,114330,6,0,P|426:208|428:144,1,128,0|2,1:0|0:0,0:0:0:0:
352,131,114822,1,2,2:1:0:0:
352,131,114986,1,2,0:0:0:0:
352,131,115150,6,0,L|317:139,1,32,2|0,1:3|0:0,0:0:0:0:
256,192,116327,12,2,118761,0:0:0:0:
217,169,119016,6,0,B|221:144|221:144|214:104,1,47.9999985351563,2|2,0:0|0:0,0:0:0:0:
252,83,119271,2,0,B|248:58|248:58|255:18,2,47.9999985351563,4|0|0,1:2|1:0|1:0,0:0:0:0:
297,101,119624,6,0,B|351:94|351:94|358:99|358:99|356:90|356:90|362:94|362:94|417:88,1,132.00000402832,4|8,1:1|1:0,0:0:0:0:
363,177,120169,2,0,B|402:172|402:172|407:175|407:175|405:169|405:169|410:171|410:171|450:167,1,95.9999970703126,2|8,1:3|1:0,0:0:0:0:
401,258,120605,2,0,B|440:253|440:253|445:256|445:256|443:250|443:250|448:252|448:252|488:248,1,95.9999970703126,0|8,1:0|1:0,0:0:0:0:
439,336,121042,2,0,B|442:353|432:358|432:358|423:353|425:336,2,47.9999985351563,2|2|2,1:3|1:2|1:2,0:0:0:0:
425,338,121369,6,0,B|370:331|370:331|364:336|364:336|366:327|366:327|360:331|360:331|288:323,1,143.999995605469,2|8,1:2|1:0,0:0:0:0:
322,249,121914,2,0,B|282:244|282:244|277:247|277:247|279:241|279:241|274:243|274:243|234:239,1,95.9999970703126,2|8,1:3|1:0,0:0:0:0:
234,378,122351,2,0,B|194:373|194:373|189:376|189:376|191:370|191:370|186:372|186:372|146:368,1,95.9999970703126,0|8,1:0|1:1,0:0:0:0:
127,276,122787,2,0,B|165:279|165:279|169:276|169:276|168:283|168:283|173:280|173:280|212:284,1,95.9999970703126,2|0,1:3|1:1,0:0:0:0:
236,240,123114,6,0,B|240:200|240:200|237:195|237:195|243:197|243:197|241:192|241:192|245:152,1,95.9999970703126,4|0,1:1|3:0,0:0:0:0:
249,106,123442,1,8,1:0:0:0:
156,194,123660,2,0,B|160:154|160:154|157:149|157:149|163:151|163:151|161:146|161:146|165:106,1,95.9999970703126,2|8,1:3|1:0,0:0:0:0:
76,148,124096,2,0,B|80:108|80:108|77:103|77:103|83:105|83:105|81:100|81:100|85:60,1,95.9999970703126,0|8,1:0|1:0,0:0:0:0:
7,214,124533,2,0,B|4:231|12:236|12:236|23:231|20:215,2,47.9999985351563,2|2|8,1:3|3:2|1:0,0:0:0:0:
20,215,124860,6,0,P|65:235|79:292,1,95.9999970703126,2|0,1:2|1:0,0:0:0:0:
67,321,125187,1,8,1:0:0:0:
145,375,125405,2,0,B|184:379|184:379|189:376|189:376|187:382|187:382|192:380|192:380|232:384,1,95.9999970703126,2|0,1:3|1:0,0:0:0:0:
241,288,125842,2,0,B|204:292|204:292|200:289|200:289|201:295|201:295|197:292|197:292|161:296,1,88.000002685547,0|0,1:0|1:0,0:0:0:0:
109,225,126242,2,0,B|91:228|91:228|84:233|84:233|62:236,2,44.0000013427735,6|0|4,1:2|1:2|1:2,0:0:0:0:
137,191,126547,6,0,B|189:196|189:196|194:192|194:192|193:201|193:201|197:197|197:197|248:203,1,120,4|0,1:0|1:0,0:0:0:0:
249,168,126927,1,0,1:0:0:0:
249,168,127022,2,0,B|252:136|252:136|250:132|250:132|255:133|255:133|253:129|253:129|256:96,1,80,2|2,1:3|1:2,0:0:0:0:
347,40,127403,2,0,B|344:73|344:73|346:77|346:77|341:76|341:76|343:80|343:80|340:112,1,80,2|2,1:2|1:2,0:0:0:0:
191,37,127784,2,0,B|193:22|193:22|199:14|199:14|201:-1,2,40,2|2|2,1:3|1:2|1:2,0:0:0:0:
161,64,128070,6,0,B|164:96|164:96|162:100|162:100|167:99|167:99|165:103|165:103|168:136,1,80,0|0,1:0|1:0,0:0:0:0:
171,176,128356,1,2,1:2:0:0:
98,266,128546,2,0,B|95:233|95:233|97:229|97:229|92:230|92:230|94:226|94:226|91:194,1,80,2|2,1:3|1:2,0:0:0:0:
53,179,128832,1,0,1:0:0:0:
53,179,128927,2,0,B|50:146|50:146|52:142|52:142|47:143|47:143|49:139|49:139|46:107,1,80,0|2,1:0|1:2,0:0:0:0:
0,39,129308,2,0,P|41:26|81:33,1,80,2|0,1:3|1:0,0:0:0:0:
110,53,129594,6,0,B|142:56|142:56|146:54|146:54|145:59|145:59|149:57|149:57|182:60,1,80,4|0,1:1|1:0,0:0:0:0:
222,61,129880,1,2,1:2:0:0:
313,28,130070,2,0,B|310:60|310:60|312:64|312:64|307:63|307:63|309:67|309:67|306:100,1,80,2|2,1:3|1:2,0:0:0:0:
290,179,130451,2,0,B|258:176|258:176|254:178|254:178|255:173|255:173|251:175|251:175|218:172,1,80,2|2,1:2|1:2,0:0:0:0:
193,204,130737,1,0,1:0:0:0:
193,204,130832,2,0,B|160:207|160:207|156:205|156:205|157:210|157:210|153:208|153:208|121:211,1,80,2|2,1:3|1:2,0:0:0:0:
80,215,131118,5,0,1:0:0:0:
39,283,131308,2,0,B|24:285|24:285|16:291|16:291|1:293,2,40,0|2|0,1:0|1:2|1:0,0:0:0:0:
69,308,131594,2,0,B|102:311|102:311|106:309|106:309|105:314|105:314|109:312|109:312|141:315,1,80,2|2,1:3|1:2,0:0:0:0:
193,376,131975,2,0,L|240:373,1,40,4|2,1:2|1:2,0:0:0:0:
267,353,132165,2,0,L|314:356,1,40,0|2,1:0|1:2,0:0:0:0:
334,380,132356,5,4,1:1:0:0:
433,313,132951,6,0,P|486:280|463:222,1,136.000002593994,4|0,1:0|0:0,0:0:0:0:
477,208,133600,6,0,P|489:154|439:132,1,120.000004577637,4|0,1:0|0:0,0:0:0:0:
419,136,134158,6,0,P|392:92|344:110,1,111.999996582031,4|0,1:0|0:0,0:0:0:0:
343,95,134680,6,0,P|296:83|277:127,1,103.999995239258,4|0,1:0|0:0,0:0:0:0:
262,124,135160,6,0,P|224:146|240:187,1,95.9999970703126,4|4,1:1|1:2,0:0:0:0:
231,204,135604,6,0,P|221:243|258:259,1,88.000002685547,4|4,1:1|1:2,0:0:0:0:
263,277,136025,6,0,P|281:308|316:294,1,80,4|0,1:1|1:0,0:0:0:0:
338,296,136425,6,0,P|370:303|383:272,1,71.9999978027344,0|0,1:0|1:0,0:0:0:0:
382,254,136758,6,2,P|186:70|224:335,1,700,2|0,1:2|0:0,0:0:0:0:
454,82,139758,5,4,1:2:0:0:
