osu file format v14

[General]
AudioFilename: audio.mp3
AudioLeadIn: 0
PreviewTime: 64561
Countdown: 0
SampleSet: Soft
StackLeniency: 0.7
Mode: 0
LetterboxInBreaks: 0
WidescreenStoryboard: 1

[Editor]
DistanceSpacing: 0.6
BeatDivisor: 4
GridSize: 32
TimelineZoom: 2.400002

[Metadata]
Title:Take
TitleUnicode:竹
Artist:Risshuu feat. Choko
ArtistUnicode:立秋 feat. ちょこ
Creator:yf_bmp
Version:Moecho's Another
Source:
Tags:bamboo masato ishioh 石王マサト bofxvi the bms of fighters xvi arcaea muse dash video game japanese novelty rabbit usagi electronic ウサギ Muziyami Koiyuki wyrio Moecho Gust Yorita Yoshino toybot nika mika xLolicore- My Angel Watame dahkjdas
BeatmapID:2954182
BeatmapSetID:1376486

[Difficulty]
HPDrainRate:6
CircleSize:4
OverallDifficulty:8
ApproachRate:9
SliderMultiplier:1.8
SliderTickRate:1

[Events]
//Background and Video events
Video,0,"bga_take.mp4"
0,0,"bg_take.png",0,0
//Break Periods
2,24479,28679
//Storyboard Layer 0 (Background)
//Storyboard Layer 1 (Fail)
//Storyboard Layer 2 (Pass)
//Storyboard Layer 3 (Foreground)
//Storyboard Layer 4 (Overlay)
//Storyboard Sound Samples

[TimingPoints]
120,400,4,2,1,80,1,0
920,-40,4,2,1,80,0,0
1270,-40,4,2,1,5,0,0
1320,-100,4,2,1,80,0,0
1720,-62.5,4,2,1,80,0,0
2120,-66.6666666666667,4,2,1,80,0,0
2520,-62.5,4,2,1,80,0,0
2920,-66.6666666666667,4,2,1,80,0,0
3320,-62.5,4,2,1,80,0,0
3720,-66.6666666666667,4,2,1,80,0,0
4120,-66.6666666666667,4,2,1,80,0,0
4920,-55.5555555555556,4,2,1,80,0,0
5160,-66.6666666666667,4,2,1,80,0,0
5720,-55.5555555555556,4,2,1,80,0,0
5960,-66.6666666666667,4,2,1,80,0,0
6600,-40,4,2,1,80,0,0
6920,-62.5,4,2,1,80,0,0
7320,-66.6666666666667,4,2,1,80,0,0
7720,-62.5,4,2,1,80,0,0
8120,-66.6666666666667,4,2,1,80,0,0
8520,-52.6315789473684,4,2,1,80,0,0
8760,-66.6666666666667,4,2,1,80,0,0
9320,-47.6190476190476,4,2,1,80,0,0
9720,-66.6666666666667,4,2,1,80,0,0
10120,-43.4782608695652,4,2,1,80,0,0
10520,-66.6666666666667,4,2,1,80,0,0
10920,-38.4615384615385,4,2,1,80,0,0
11320,-66.6666666666667,4,2,1,80,0,0
11720,-133.333333333333,4,2,1,80,0,0
13320,273.972602739726,4,2,1,80,1,0
13936,-100,4,2,1,5,0,0
14004,-200,4,2,1,80,0,0
14415,-133.333333333333,4,2,1,80,0,0
14689,-100,4,2,1,80,0,0
14963,-100,4,2,1,80,0,0
15374,-80,4,2,1,80,0,0
15785,-50,4,2,1,80,0,0
16059,-80,4,2,1,80,0,0
16333,-50,4,2,1,80,0,0
17155,-80,4,2,1,80,0,0
17429,-50,4,2,1,80,0,0
17566,-80,4,2,1,80,0,0
17977,-50,4,2,1,80,0,0
18251,-133.333333333333,4,2,1,80,0,0
18525,-50,4,2,1,80,0,0
18799,-133.333333333333,4,2,1,80,0,0
19073,-50,4,2,1,80,0,0
19347,-80,4,2,1,80,0,0
20169,-50,4,2,1,80,0,0
20443,-80,4,2,1,80,0,0
20717,-50,4,2,1,80,0,0
21539,-80,4,2,1,80,0,0
22361,-50,4,2,1,80,0,0
22635,-80,4,2,2,80,0,0
22909,-50,4,2,2,80,0,0
23183,-133.333333333333,4,2,2,80,0,0
23456,-50,4,2,2,80,0,0
23730,-66.6666666666667,4,2,1,80,0,0
24279,333.333333333333,4,2,1,40,1,0
29279,461.538461538462,4,2,1,80,1,0
29279,-133.333333333333,4,2,1,80,0,0
29740,461.538461538462,4,2,1,80,1,0
29740,-76.9230769230769,4,2,1,80,0,0
31586,-90.9090909090909,4,2,1,80,0,0
32047,-100,4,2,1,80,0,0
33432,-76.9230769230769,4,2,1,80,0,0
33894,422.535211267606,4,2,1,80,1,0
35584,-90.9090909090909,4,2,1,80,0,0
36006,-100,4,2,1,80,0,0
37274,-76.9230769230769,4,2,1,80,0,0
37697,387.096774193548,4,2,1,80,1,0
39245,-90.9090909090909,4,2,1,80,0,0
39535,-100,4,2,1,80,0,0
40793,-76.9230769230769,4,2,1,80,0,0
41181,363.636363636364,4,2,1,80,1,0
41181,-76.9230769230769,4,2,1,80,0,0
41544,-100,4,2,1,80,0,0
42636,342.857142857143,4,2,1,80,1,0
42636,-90.9090909090909,4,2,1,80,0,0
42893,-100,4,2,1,80,0,0
44007,-76.9230769230769,4,2,1,80,0,0
44350,327.868852459016,4,2,1,80,1,0
44350,-80,4,2,1,80,0,0
46645,-50,4,2,1,80,0,0
46973,307.692307692308,4,2,1,80,1,0
46973,-80,4,2,1,80,0,0
49126,-50,4,2,1,80,0,0
49434,300,4,2,1,80,1,0
49434,-80,4,2,1,80,0,0
50634,292.682926829268,4,2,1,80,1,0
50634,-80,4,2,1,80,0,0
51512,-50,4,2,1,80,0,0
51811,279.06976744186,4,2,1,80,1,0
51811,-80,4,2,1,80,0,0
52922,273.972602739726,4,2,1,80,1,0
52922,-80,4,2,1,80,0,0
53469,-200,4,2,1,80,0,0
53743,-50,4,2,1,80,0,0
54017,307.692307692308,4,2,1,80,1,0
54324,-200,4,2,1,80,0,0
54478,-200,4,2,1,80,0,0
54632,-200,4,2,0,80,0,0
55864,273.972602739726,4,2,1,80,1,0
56274,-80,4,2,1,80,0,0
56411,273.972602739726,4,2,1,80,1,0
56684,-50,4,2,1,80,0,0
56958,-80,4,2,1,80,0,0
57232,-50,4,2,1,80,0,0
58054,-80,4,2,1,80,0,0
58465,-80,4,2,1,80,0,0
58876,-50,4,2,1,80,0,0
59150,-133.333333333333,4,2,1,80,0,0
59424,-50,4,2,1,80,0,0
59698,-133.333333333333,4,2,1,80,0,0
59972,-50,4,2,1,80,0,0
60246,-80,4,2,1,80,0,0
61068,-50,4,2,1,80,0,0
61342,-80,4,2,1,80,0,0
61616,-50,4,2,1,80,0,0
62438,-80,4,2,1,80,0,0
63260,-50,4,2,1,80,0,0
63534,-80,4,2,1,80,0,0
63808,-50,4,2,1,80,0,0
64082,-133.333333333333,4,2,1,80,0,0
64356,-50,4,2,1,80,0,0
65041,-80,4,2,1,80,0,0
65452,-50,4,2,1,80,0,0
65726,-80,4,2,1,80,0,0
66000,-50,4,2,1,80,0,0
66821,-80,4,2,1,80,0,0
67643,-50,4,2,1,80,0,0
67917,-133.333333333333,4,2,1,80,0,0
68191,-50,4,2,1,80,0,0
68465,-133.333333333333,4,2,1,80,0,0
68739,-50,4,2,1,80,0,0
69013,-80,4,2,1,80,0,0
69835,-50,4,2,1,80,0,0
70109,-80,4,2,1,80,0,0
70383,-50,4,2,1,80,0,0
71205,-80,4,2,1,80,0,0
72027,-50,4,2,1,80,0,0
72301,-80,4,2,2,80,0,0
72575,-50,4,2,2,80,0,0
72849,-133.333333333333,4,2,1,80,0,0
73123,-50,4,2,1,80,0,0
73671,-66.6666666666667,4,2,1,80,0,0
73808,-133.333333333333,4,2,1,80,0,0
73946,276.497695852535,4,2,1,80,1,0
73946,-133.333333333333,4,2,1,80,0,0
74222,292.682926829268,4,2,1,80,1,0
74515,307.692307692308,4,2,1,80,1,0
74823,327.868852459016,4,2,1,80,1,0
75150,-100,4,2,1,80,0,0
76462,327.868852459016,4,2,1,80,1,0
77117,-200,4,2,1,80,0,0
97445,-100,4,2,1,80,0,0
97773,-100,4,2,1,50,0,0
97882,-57.1428571428571,4,2,1,80,0,0
98757,-66.6666666666667,4,2,1,80,0,0
98944,-133.333333333333,4,2,1,80,0,0
99412,-66.6666666666667,4,2,1,80,0,0
99693,-133.333333333333,4,2,1,80,0,0
100068,-66.6666666666667,4,2,1,80,0,0
100349,-133.333333333333,4,2,1,80,0,0
100630,-66.6666666666667,4,2,1,80,0,0
101005,-100,4,2,1,80,0,0
101380,-66.6666666666667,4,2,1,80,0,0
101567,-133.333333333333,4,2,1,80,0,0
102035,-66.6666666666667,4,2,1,80,0,0
102316,-133.333333333333,4,2,1,80,0,0
102691,-66.6666666666667,4,2,1,80,0,0
102972,-133.333333333333,4,2,1,80,0,0
103253,-66.6666666666667,4,2,1,80,0,0
103628,-100,4,2,1,80,0,0
104002,-66.6666666666667,4,2,1,80,0,0
104330,-100,4,2,1,80,0,0
104494,-50,4,2,1,80,0,0
104658,-66.6666666666667,4,2,1,80,0,0
104986,-100,4,2,1,80,0,0
105150,-50,4,2,1,80,0,0
105314,-66.6666666666667,4,2,1,80,0,0
105642,-100,4,2,1,80,0,0
105806,-50,4,2,1,80,0,0
105970,-66.6666666666667,4,2,1,80,0,0
106134,-66.6666666666667,4,2,1,80,0,0
106953,-100,4,2,1,80,0,0
107117,-50,4,2,1,80,0,0
107281,-66.6666666666667,4,2,1,80,0,0
107773,-133.333333333333,4,2,1,80,0,0
107937,-66.6666666666667,4,2,1,80,0,0
110560,-100,4,2,1,80,0,0
111707,-80,4,2,1,80,0,0
112199,-50,4,2,1,80,0,0
112527,-80,4,2,1,80,0,0
112855,-50,4,2,1,80,0,0
113839,-80,4,2,1,80,0,0
114330,-80,4,2,1,80,0,0
114822,-50,4,2,1,80,0,0
115806,521.739130434783,4,2,1,80,1,0
116327,-400,4,2,1,80,0,0
116850,375,4,2,1,80,1,0
117225,-266.666666666667,4,2,1,80,0,0
117600,307.692307692308,4,2,1,80,1,0
117907,-200,4,2,1,80,0,0
118215,272.727272727273,4,2,1,80,1,0
118487,-160,4,2,1,80,0,0
118761,255.31914893617,4,2,1,80,1,0
119271,235.294117647059,4,2,1,80,1,0
119624,218.181818181818,4,2,1,80,1,0
119624,-80,4,2,1,80,0,0
119733,218.181818181818,4,2,1,80,1,0
119951,-50,4,2,1,80,0,0
120169,-80,4,2,1,80,0,0
120387,-50,4,2,1,80,0,0
121042,-80,4,2,1,80,0,0
121696,-50,4,2,1,80,0,0
121914,-133.333333333333,4,2,1,80,0,0
122133,-50,4,2,1,80,0,0
122351,-133.333333333333,4,2,1,80,0,0
122569,-50,4,2,1,80,0,0
122787,-80,4,2,1,80,0,0
123442,-50,4,2,1,80,0,0
123660,-80,4,2,1,80,0,0
123878,-50,4,2,1,80,0,0
124533,-80,4,2,1,80,0,0
125187,-50,4,2,1,80,0,0
125405,-80,4,2,1,80,0,0
125623,-50,4,2,1,80,0,0
125842,200,4,2,1,80,1,0
125842,-133.333333333333,4,2,1,80,0,0
126042,-50,4,2,1,80,0,0
126547,190.47619047619,4,2,1,80,1,0
126547,-100,4,2,1,80,0,0
126642,190.47619047619,4,2,1,80,1,0
126832,-80,4,2,1,80,0,0
128070,-100,4,2,1,80,0,0
128356,-80,4,2,1,80,0,0
129594,-100,4,2,1,80,0,0
129880,-80,4,2,1,80,0,0
131118,-100,4,2,1,80,0,0
131784,-80,4,2,1,80,0,0
131975,-80,4,2,1,80,0,0
132356,218.181818181818,4,2,1,80,1,0
132519,-160,4,2,1,80,0,0
132720,461.538461538462,4,2,1,80,1,0
132951,324.324324324324,4,2,1,80,1,0
133194,-119.402985074627,4,2,1,80,0,0
133600,279.06976744186,4,2,1,80,1,0
133809,-119.402985074627,4,2,1,80,0,0
134158,260.869565217391,4,2,1,80,1,0
134353,-119.402985074627,4,2,1,80,0,0
134680,240,4,2,1,80,1,0
134860,-119.402985074627,4,2,1,80,0,0
135160,222.222222222222,4,2,1,80,1,0
135326,-119.402985074627,4,2,1,80,0,0
135604,210.526315789474,4,2,1,80,1,0
135761,-119.402985074627,4,2,1,80,0,0
136025,200,4,2,1,80,1,0
136175,-119.402985074627,4,2,1,80,0,0
136425,190.47619047619,4,2,1,80,1,0
136567,-119.402985074627,4,2,1,80,0,0
136758,750,4,2,1,80,1,0
136758,-1000,4,2,1,80,0,0
139758,273.972602739726,4,2,1,80,1,0

[Colours]
Combo1 : 64,187,73
Combo2 : 255,98,89
Combo3 : 114,114,114
Combo4 : 255,227,147
Combo5 : 115,160,255
Combo6 : 196,95,243
Combo7 : 255,92,199
Combo8 : 118,194,33

[HitObjects]
256,361,920,102,0,B|256:357|256:357|252:353|252:353|260:353|260:353|256:349|256:349|256:297|256:297|252:293|252:293|260:293|260:293|256:289|256:289|256:237|256:237|252:233|252:233|260:233|260:233|256:229|256:229|256:177|256:177|252:173|252:173|260:173|260:173|256:169|256:169|256:117|256:117|252:113|252:113|260:113|260:113|256:109|256:109|256:57|256:57|252:53|252:53|260:53|260:53|256:49|256:49|256:33,1,393.75,2|0,2:1|0:0,0:0:0:0:
256,23,1320,1,2,0:0:0:0:
75,240,1720,6,0,B|74:236|74:236|69:232|69:232|77:231|77:231|73:228|73:228|66:176|66:176|61:173|61:173|69:172|69:172|64:168|64:168|57:117|57:117|53:113|53:113|61:112|61:112|56:109|56:109|55:101,1,172.8,0|2,1:0|0:0,0:0:0:0:
124,65,2040,1,2,0:1:0:0:
132,73,2120,38,0,L|185:80,1,54.0000020599366,0|2,1:0|0:1,0:0:0:0:
149,151,2360,1,2,0:0:0:0:
75,240,2520,70,0,B|74:236|74:236|69:232|69:232|77:231|77:231|73:228|73:228|66:176|66:176|61:173|61:173|69:172|69:172|64:168|64:168|57:117|57:117|53:113|53:113|61:112|61:112|56:109|56:109|55:101,1,172.8,0|2,1:0|0:0,0:0:0:0:
124,65,2840,1,2,0:1:0:0:
132,73,2920,38,0,L|139:126,1,54.0000020599366,0|2,1:0|0:1,0:0:0:0:
150,202,3160,1,2,0:0:0:0:
75,240,3320,70,0,B|74:236|74:236|69:232|69:232|77:231|77:231|73:228|73:228|66:176|66:176|61:173|61:173|69:172|69:172|64:168|64:168|57:117|57:117|53:113|53:113|61:112|61:112|56:109|56:109|55:101,1,172.8,0|2,1:0|0:0,0:0:0:0:
124,65,3640,1,2,0:1:0:0:
132,73,3720,38,0,L|125:20,1,54.0000020599366,0|2,1:0|0:1,0:0:0:0:
46,26,3960,1,2,0:0:0:0:
210,90,4120,85,0,1:0:0:0:
218,98,4253,1,2,0:1:0:0:
226,106,4386,1,2,0:0:0:0:
277,44,4520,21,0,1:0:0:0:
281,48,4653,1,2,2:1:0:0:
285,52,4786,1,2,2:2:0:0:
353,84,4920,70,0,B|356:84|356:84|361:81|361:81|360:89|360:89|364:85|364:85|416:92|416:92|420:89|420:89|419:97|419:97|424:94|424:94|475:101|475:101|480:97|480:97|479:105|479:105|483:102|483:102|523:107,1,194.399994067383,0|2,1:0|0:0,0:0:0:0:
512,186,5240,1,2,0:1:0:0:
504,194,5320,38,0,L|451:187,1,54.0000020599366,0|2,1:0|0:1,0:0:0:0:
376,174,5560,1,2,0:0:0:0:
353,84,5720,70,0,B|356:84|356:84|361:81|361:81|360:89|360:89|364:85|364:85|416:92|416:92|420:89|420:89|419:97|419:97|424:94|424:94|475:101|475:101|480:97|480:97|479:105|479:105|483:102|483:102|523:107,1,194.399994067383,0|2,1:0|0:0,0:0:0:0:
512,186,6040,1,2,0:1:0:0:
504,194,6120,38,0,L|511:247,1,54.0000020599366,0|2,1:0|0:1,0:0:0:0:
436,262,6360,1,0,0:0:0:0:
324,234,6520,85,2,1:1:0:0:
316,226,6600,2,0,B|283:251|283:251|299:295|299:295|348:293|348:293|357:251,1,180,2|2,2:2|0:1,0:0:0:0:
384,182,6840,1,2,0:1:0:0:
376,174,6920,102,0,B|377:170|377:170|382:166|382:166|374:165|374:165|378:162|378:162|385:110|385:110|390:107|390:107|382:106|382:106|387:102|387:102|394:51|394:51|398:47|398:47|390:46|390:46|395:43|395:43|396:35,1,172.8,0|2,1:0|0:0,0:0:0:0:
325,9,7240,1,2,0:1:0:0:
317,17,7320,38,0,L|264:24,1,54.0000020599366,0|2,1:0|0:1,0:0:0:0:
188,41,7560,1,2,0:0:0:0:
376,174,7720,70,0,B|377:170|377:170|382:166|382:166|374:165|374:165|378:162|378:162|385:110|385:110|390:107|390:107|382:106|382:106|387:102|387:102|394:51|394:51|398:47|398:47|390:46|390:46|395:43|395:43|396:35,1,172.8,0|2,1:0|0:0,0:0:0:0:
325,9,8040,1,2,0:1:0:0:
317,17,8120,38,0,L|310:70,1,54.0000020599366,0|2,1:0|0:1,0:0:0:0:
296,147,8360,1,2,0:0:0:0:
376,174,8520,70,0,B|377:170|377:170|381:166|381:166|373:164|373:164|378:162|378:162|385:110|385:110|389:106|389:106|381:105|381:105|386:102|386:102|393:50|393:50|398:47|398:47|390:46|390:46|394:42|394:42|399:3,1,205.199994520569,0|2,1:0|0:0,0:0:0:0:
476,0,8840,1,2,0:1:0:0:
484,8,8920,38,0,L|477:61,1,54.0000020599366,0|2,1:0|0:1,0:0:0:0:
468,140,9160,1,2,0:0:0:0:
211,31,9320,70,0,B|239:28|239:28|243:31|243:31|242:22|242:22|246:26|246:26|298:19|298:19|303:22|303:22|301:14|301:14|306:18|306:18|358:11|358:11|362:14|362:14|361:6|361:6|365:10|365:10|402:4,1,226.799993078614,0|2,1:0|0:0,0:0:0:0:
476,0,9640,1,2,0:1:0:0:
484,8,9720,38,0,L|477:61,1,54.0000020599366,0|2,1:0|0:1,0:0:0:0:
468,140,9960,1,2,0:0:0:0:
373,201,10120,70,0,B|373:196|373:196|369:191|369:191|377:193|377:193|373:188|373:188|381:136|381:136|378:132|378:132|386:133|386:133|382:128|382:128|390:77|390:77|386:72|386:72|394:74|394:74|391:69|391:69|398:18|398:18|394:13|394:13|403:14|403:14|399:9|399:9|400:-2,1,248.400004737854,0|2,1:0|0:0,0:0:0:0:
476,0,10440,1,2,0:1:0:0:
484,8,10520,38,0,L|477:61,1,54.0000020599366,0|2,1:0|0:1,0:0:0:0:
468,140,10760,1,2,0:0:0:0:
166,37,10920,70,0,B|205:31|205:31|210:34|210:34|209:26|209:26|213:30|213:30|265:23|265:23|269:26|269:26|268:18|268:18|272:21|272:21|324:14|324:14|328:18|328:18|327:10|327:10|332:13|332:13|383:6|383:6|388:9|388:9|387:1|387:1|391:5|391:5|399:4,1,280.799987145997,0|2,1:0|0:0,0:0:0:0:
476,0,11240,1,2,0:1:0:0:
484,8,11320,38,0,L|477:61,1,54.0000020599366,0|2,1:0|0:1,0:0:0:0:
468,140,11560,1,2,0:0:0:0:
256,218,11720,85,0,1:0:0:0:
243,139,11880,2,0,L|296:147,1,54.0000020599366,2|2,0:1|0:0,0:0:0:0:
300,151,12120,1,0,1:0:0:0:
304,155,12200,2,0,L|295:101,1,54.0000020599366,2|2,0:2|0:0,0:0:0:0:
468,140,12520,21,0,1:0:0:0:
398,200,12680,2,0,L|406:253,1,54.0000020599366,2|2,0:1|0:0,0:0:0:0:
398,245,12920,1,0,1:0:0:0:
390,237,13000,2,0,L|337:229,1,54.0000020599366,2|2,0:0|0:1,0:0:0:0:
256,361,13320,70,0,B|256:357|256:357|252:353|252:353|260:353|260:353|256:349|256:349|256:297|256:297|252:293|252:293|260:293|260:293|256:289|256:289|256:237|256:237|252:233|252:233|260:233|260:233|256:229|256:229|256:177|256:177|252:173|252:173|260:173|260:173|256:169|256:169|256:117|256:117|252:113|252:113|260:113|260:113|256:109|256:109|256:57|256:57|252:53|252:53|260:53|260:53|256:49|256:49|256:21,1,405,2|0,0:1|0:0,0:0:0:0:
331,20,14004,21,2,0:2:0:0:
248,30,14141,2,0,L|203:36,1,45,2|2,0:0|0:0,0:0:0:0:
394,115,14415,6,0,L|403:48,1,67.5000025749208,2|2,0:1|0:1,0:0:0:0:
472,89,14689,2,0,L|484:0,1,90,2|0,0:1|0:0,0:0:0:0:
331,20,14963,85,0,1:0:0:0:
306,29,15100,1,0,1:0:0:0:
277,61,15237,1,0,1:0:0:0:
177,224,15374,102,0,B|180:196|180:196|184:193|184:193|175:191|175:191|180:188|180:188|188:136|188:136|192:132|192:132|184:132|184:132|189:128|189:128|197:77|197:77|201:74|201:74|193:72|193:72|198:70|198:70|203:37,1,225,4|2,1:1|0:0,0:0:0:0:
375,260,15785,102,0,B|375:257|375:257|372:251|372:251|380:252|380:252|376:248|376:248|383:196|383:196|380:192|380:192|388:193|388:193|385:188|385:188|392:138|392:138|388:132|388:132|396:133|396:133|393:130|393:130|394:114,1,180,8|2,1:0|3:2,0:0:0:0:
241,353,16059,86,0,B|242:343|242:343|239:338|239:338|247:339|247:339|243:335|243:335|250:283|250:283|247:279|247:279|255:280|255:280|252:275|252:275|254:263,1,112.5,2|2,1:3|3:2,0:0:0:0:
451,299,16333,38,0,B|451:296|451:296|448:290|448:290|456:291|456:291|452:287|452:287|459:235|459:235|456:231|456:231|464:232|464:232|461:227|461:227|468:177|468:177|464:171|464:171|472:172|472:172|469:169|469:169|470:153,1,180,8|2,1:0|3:2,0:0:0:0:
158,369,16607,102,0,B|158:366|158:366|155:360|155:360|163:361|163:361|159:357|159:357|166:305|166:305|163:301|163:301|171:302|171:302|168:297|168:297|175:247|175:247|171:241|171:241|179:242|179:242|176:239|176:239|177:223,1,180,0|2,1:0|3:2,0:0:0:0:
375,260,16881,6,0,B|375:257|375:257|372:251|372:251|380:252|380:252|376:248|376:248|383:196|383:196|380:192|380:192|388:193|388:193|385:188|385:188|392:138|392:138|388:132|388:132|396:133|396:133|393:130|393:130|394:114,1,180,8|2,1:0|3:2,0:0:0:0:
241,353,17155,70,0,B|242:343|242:343|239:338|239:338|247:339|247:339|243:335|243:335|250:283|250:283|247:279|247:279|255:280|255:280|252:275|252:275|254:263,2,112.5,2|0|0,1:3|1:0|1:0,0:0:0:0:
348,371,17566,38,0,B|345:343|345:343|341:340|341:340|350:338|350:338|345:335|345:335|337:283|337:283|333:279|333:279|341:279|341:279|336:275|336:275|328:224|328:224|324:221|324:221|332:219|332:219|327:217|327:217|322:184,1,225,0|2,1:2|3:2,0:0:0:0:
131,288,17977,102,0,B|131:285|131:285|134:279|134:279|126:280|126:280|130:276|130:276|123:224|123:224|126:220|126:220|118:221|118:221|121:216|121:216|114:166|114:166|118:160|118:160|110:161|110:161|113:158|113:158|112:142,1,180,8|2,1:0|3:2,0:0:0:0:
254,264,18251,102,0,L|249:230,2,33.7500012874604,2|0|0,1:3|1:0|1:0,0:0:0:0:
55,331,18525,22,0,B|55:328|55:328|58:322|58:322|50:323|50:323|54:319|54:319|47:267|47:267|50:263|50:263|42:264|42:264|45:259|45:259|38:209|38:209|42:203|42:203|34:204|34:204|37:201|37:201|36:185,1,180,8|2,1:0|3:2,0:0:0:0:
198,173,18799,86,0,L|193:139,2,33.7500012874604,0|0|0,1:0|1:0|1:0,0:0:0:0:
131,288,19073,6,0,B|131:285|131:285|134:279|134:279|126:280|126:280|130:276|130:276|123:224|123:224|126:220|126:220|118:221|118:221|121:216|121:216|114:166|114:166|118:160|118:160|110:161|110:161|113:158|113:158|112:142,1,180,8|2,1:0|1:2,0:0:0:0:
335,273,19347,86,0,B|334:263|334:263|337:258|337:258|329:259|329:259|333:255|333:255|326:203|326:203|329:199|329:199|321:200|321:200|324:195|324:195|322:183,2,112.5,2|0|8,1:3|1:0|1:0,0:0:0:0:
512,377,19758,38,0,B|484:374|484:374|481:370|481:370|479:379|479:379|476:374|476:374|424:366|424:366|420:362|420:362|420:370|420:370|416:365|416:365|365:357|365:357|362:353|362:353|360:361|360:361|358:356|358:356|325:351,1,225,4|2,1:1|3:2,0:0:0:0:
428,125,20169,102,0,B|425:125|425:125|419:128|419:128|420:120|420:120|416:124|416:124|364:117|364:117|360:120|360:120|361:112|361:112|356:115|356:115|306:108|306:108|300:112|300:112|301:104|301:104|298:107|298:107|282:106,1,180,8|2,1:0|3:2,0:0:0:0:
425,286,20443,86,0,B|415:285|415:285|410:288|410:288|411:280|411:280|407:284|407:284|355:277|355:277|351:280|351:280|352:272|352:272|347:275|347:275|335:273,1,112.5,2|2,1:3|1:2,0:0:0:0:
468,50,20717,38,0,B|465:50|465:50|459:53|459:53|460:45|460:45|456:49|456:49|404:42|404:42|400:45|400:45|401:37|401:37|396:40|396:40|346:33|346:33|340:37|340:37|341:29|341:29|338:32|338:32|322:31,1,180,8|2,1:0|3:2,0:0:0:0:
54,234,20991,102,0,B|54:231|54:231|57:225|57:225|49:226|49:226|53:222|53:222|46:170|46:170|49:166|49:166|41:167|41:167|44:162|44:162|37:112|37:112|41:106|41:106|33:107|33:107|36:104|36:104|35:88,1,180,0|2,1:0|1:2,0:0:0:0:
102,0,21265,6,0,B|102:3|102:3|99:9|99:9|107:8|107:8|103:12|103:12|110:64|110:64|107:68|107:68|115:67|115:67|112:72|112:72|119:122|119:122|115:128|115:128|123:127|123:127|120:130|120:130|121:146,1,180,8|2,1:0|1:2,0:0:0:0:
236,245,21539,70,0,B|226:244|226:244|221:247|221:247|222:239|222:239|218:243|218:243|166:236|166:236|162:239|162:239|163:231|163:231|158:234|158:234|146:232,2,112.5,2|0|0,1:3|1:0|1:0,0:0:0:0:
128,152,21950,38,0,B|156:155|156:155|159:159|159:159|161:150|161:150|164:155|164:155|216:163|216:163|220:167|220:167|220:159|220:159|224:164|224:164|275:172|275:172|278:176|278:176|280:168|280:168|282:173|282:173|315:178,1,225,2|0,1:2|1:0,0:0:0:0:
316,178,22292,1,0,1:0:0:0:
316,178,22361,102,0,B|319:178|319:178|325:175|325:175|324:183|324:183|328:179|328:179|380:186|380:186|384:183|384:183|383:191|383:191|388:188|388:188|438:195|438:195|444:191|444:191|443:199|443:199|446:196|446:196|462:197,1,180,8|0,1:0|1:0,0:0:0:0:
239,80,22635,86,0,B|249:81|249:81|254:78|254:78|253:86|253:86|257:82|257:82|309:89|309:89|313:86|313:86|312:94|312:94|317:91|317:91|329:93,1,112.5,2|2,1:3|1:2,0:0:0:0:
335,262,22909,38,0,B|338:262|338:262|344:259|344:259|343:267|343:267|347:263|347:263|399:270|399:270|403:267|403:267|402:275|402:275|407:272|407:272|457:279|457:279|463:275|463:275|462:283|462:283|465:280|465:280|481:281,1,180,2|0,1:2|1:0,0:0:0:0:
408,352,23183,86,0,L|442:357,2,33.7500012874604,0|0|6,1:0|1:0|1:2,0:0:0:0:
255,338,23456,22,0,B|255:335|255:335|259:329|259:329|251:329|251:329|255:325|255:325|255:273|255:273|259:269|259:269|251:269|251:269|255:265|255:265|255:214|255:214|259:209|259:209|251:209|251:209|255:206|255:206|256:190,2,180,0|4|2,1:2|1:2|1:3,0:0:0:0:
256,192,24279,37,4,1:1:0:0:
256,192,29279,118,0,P|253:175|249:159,1,33.7500012874604,2|2,0:0|0:1,0:0:0:0:
296,255,29509,2,0,P|309:244|319:231,1,33.7500012874604,2|2,0:2|0:1,0:0:0:0:
179,211,29740,70,0,B|177:204|177:204|172:200|172:200|180:199|180:199|176:196|176:196|169:144|169:144|164:141|164:141|172:140|172:140|167:136|167:136|160:85|160:85|156:81|156:81|164:80|164:80|159:77|159:77|158:72,1,175.499991966248,0|2,1:0|0:1,0:0:0:0:
238,80,30201,2,0,B|248:81|248:81|253:78|253:78|252:86|252:86|256:82|256:82|308:89|308:89|312:86|312:86|311:94|311:94|316:91|316:91|331:93,1,116.999994644165,0|2,1:0|2:1,0:0:0:0:
467,28,30663,53,0,1:0:0:0:
461,104,30893,1,2,0:2:0:0:
393,143,31124,1,0,1:0:0:0:
465,108,31355,1,2,0:2:0:0:
320,171,31586,102,0,P|246:182|178:211,1,148.50000453186,0|2,1:0|0:1,0:0:0:0:
191,284,32047,2,0,P|149:298|112:323,1,90,0|2,1:0|0:2,0:0:0:0:
0,254,32509,5,0,1:0:0:0:
0,254,32740,1,2,0:2:0:0:
24,375,32970,102,0,P|27:352|33:330,1,45,0|2,1:0|0:1,0:0:0:0:
103,367,33201,2,0,P|106:344|112:322,1,45,2|2,2:2|0:1,0:0:0:0:
0,254,33432,54,0,B|10:252|10:252|15:255|15:255|14:247|14:247|18:251|18:251|70:244|70:244|74:247|74:247|73:239|73:239|78:242|78:242|93:240,1,116.999994644165,0|2,0:0|0:0,0:0:0:0:
219,384,33894,54,0,P|231:317|248:252,1,135,0|2,1:0|0:1,0:0:0:0:
179,211,34316,2,0,P|137:229|94:239,1,90,0|2,1:0|2:1,0:0:0:0:
0,49,34739,5,0,1:0:0:0:
6,125,34950,1,2,0:0:0:0:
74,164,35161,1,0,1:0:0:0:
2,129,35372,1,2,0:0:0:0:
94,239,35584,102,0,P|168:250|236:279,1,148.50000453186,0|2,1:0|0:1,0:0:0:0:
307,248,36006,2,0,P|349:262|386:287,1,90,0|2,1:0|0:0,0:0:0:0:
498,218,36429,5,0,1:0:0:0:
498,218,36640,1,2,0:0:0:0:
474,339,36851,102,0,P|471:316|465:294,1,45,0|2,1:0|0:1,0:0:0:0:
395,331,37063,2,0,P|392:308|386:286,1,45,2|2,2:0|2:1,0:0:0:0:
498,218,37274,54,0,B|496:208|496:208|499:203|499:203|491:204|491:204|495:200|495:200|488:148|488:148|491:144|491:144|483:145|483:145|486:140|486:140|484:125,1,116.999994644165,0|2,0:0|0:0,0:0:0:0:
254,28,37697,54,0,P|321:16|386:-1,1,135,0|2,1:0|0:1,0:0:0:0:
427,68,38084,2,0,P|408:109|398:152,1,90,0|2,1:0|2:1,0:0:0:0:
405,313,38471,5,0,1:0:0:0:
399,237,38664,1,2,0:0:0:0:
331,198,38858,1,0,1:0:0:0:
403,233,39051,1,2,0:0:0:0:
325,118,39245,102,0,P|251:129|183:158,1,148.50000453186,0|2,1:0|0:1,0:0:0:0:
195,231,39632,2,0,P|153:245|116:270,1,90,0|2,1:0|0:1,0:0:0:0:
0,211,40019,5,0,1:0:0:0:
0,211,40213,1,2,0:0:0:0:
28,322,40406,102,0,P|31:299|37:277,1,45,0|2,1:1|0:1,0:1:0:0:
107,314,40600,2,0,P|110:291|116:269,1,45,2|2,0:2|0:1,0:1:0:0:
184,157,40793,54,0,B|174:159|174:159|169:156|169:156|170:164|170:164|166:160|166:160|114:167|114:167|110:164|110:164|111:172|111:172|106:169|106:169|91:171,1,116.999994644165,0|2,0:0|0:0,0:0:0:0:
328,232,41181,6,0,B|330:225|330:225|335:221|335:221|327:220|327:220|331:217|331:217|338:165|338:165|343:162|343:162|335:161|335:161|340:157|340:157|347:106|347:106|351:102|351:102|343:101|343:101|348:98|348:98|349:93,1,175.499991966248,0|2,1:0|0:1,0:0:0:0:
280,52,41544,38,0,P|238:70|195:80,1,90,0|2,1:0|2:1,0:0:0:0:
16,56,41908,5,0,1:0:0:0:
22,132,42090,1,2,0:2:0:0:
90,171,42271,1,0,1:1:0:0:
18,136,42453,1,2,0:0:0:0:
184,157,42636,102,0,P|258:168|326:197,1,148.50000453186,0|2,1:0|0:1,0:0:0:0:
314,270,42978,2,0,P|356:284|393:309,1,90,0|2,1:0|0:0,0:0:0:0:
510,250,43321,5,0,1:0:0:0:
510,250,43493,1,2,0:0:0:0:
481,361,43664,102,0,P|478:338|472:316,1,45,0|0,1:0|0:0,0:0:0:0:
402,353,43836,2,0,P|399:330|393:308,1,45,2|0,0:0|0:0,0:0:0:0:
496,156,44007,54,0,B|498:166|498:166|495:171|495:171|503:170|503:170|499:174|499:174|506:226|506:226|503:230|503:230|511:229|511:229|508:234|508:234|510:249,1,116.999994644165,0|2,1:0|0:0,0:0:0:0:
320,336,44350,22,0,L|264:328,2,56.25,0|0|10,1:0|1:0|1:2,0:0:0:0:
417,139,44677,2,0,L|361:131,2,56.25,0|0|8,1:0|1:0|1:0,0:0:0:0:
189,316,45005,2,0,L|181:260,2,56.25,0|0|10,1:0|1:0|1:2,0:0:0:0:
281,190,45333,37,0,1:0:0:0:
289,182,45497,70,0,L|281:126,1,56.25,8|0,1:0|1:0,0:0:0:0:
211,166,45661,37,0,1:0:0:0:
207,170,45743,1,0,1:0:0:0:
203,174,45825,1,8,1:2:0:0:
114,155,45989,70,0,L|122:211,3,56.25,0|0|8|0,1:0|1:0|1:0|1:0,0:0:0:0:
181,260,46317,2,0,L|237:268,2,56.25,0|2|8,1:0|1:2|1:2,0:0:0:0:
68,384,46645,102,0,B|67:376|67:376|62:372|62:372|70:371|70:371|66:368|66:368|59:316|59:316|54:313|54:313|62:312|62:312|57:308|57:308|50:257|50:257|46:253|46:253|54:252|54:252|49:249|49:249|48:241,1,180,0|2,1:0|3:2,0:0:0:0:
0,91,46973,6,0,L|56:99,2,56.25,0|0|10,1:0|1:0|1:2,0:0:0:0:
181,260,47280,2,0,L|237:268,2,56.25,0|2|8,1:0|1:1|1:1,0:0:0:0:
56,296,47588,2,0,L|48:240,3,56.25,2|2|8|0,1:3|1:1|1:2|1:0,0:0:0:0:
122,210,47896,2,0,L|114:154,3,56.25,2|0|8|2,1:2|1:0|1:1|1:1,0:0:0:0:
0,91,48203,2,0,L|56:99,2,56.25,0|0|8,1:0|1:0|1:2,0:0:0:0:
197,177,48511,37,0,1:0:0:0:
205,185,48665,70,0,L|261:193,1,56.25,8|2,1:1|1:1,0:0:0:0:
311,87,48819,2,0,L|319:143,2,56.25,0|0|10,1:0|1:0|1:2,0:0:0:0:
463,240,49126,102,0,B|462:232|462:232|457:229|457:229|465:228|465:228|461:224|461:224|454:173|454:173|449:169|449:169|457:168|457:168|452:165|452:165|445:113|445:113|441:110|441:110|449:109|449:109|444:105|444:105|443:97,1,180,0|2,1:0|3:2,0:0:0:0:
419,21,49357,1,0,1:0:0:0:
415,17,49434,6,0,L|471:25,2,56.25,0|0|10,1:0|1:0|1:2,0:0:0:0:
319,143,49734,2,0,L|375:151,2,56.25,0|2|8,1:0|1:1|1:1,0:0:0:0:
443,96,50034,37,2,1:3:0:0:
447,100,50109,1,2,1:1:0:0:
451,104,50184,1,8,1:2:0:0:
284,0,50334,70,0,L|340:8,3,56.25,0|0|0|2,1:0|0:0|0:0|1:1,0:0:0:0:
211,60,50634,2,0,L|203:4,3,56.25,0|0|10|0,1:0|1:0|1:2|1:0,0:0:0:0:
287,75,50926,37,0,1:0:0:0:
207,64,51073,70,0,L|151:56,1,56.25,8|2,1:1|1:1,0:0:0:0:
93,104,51219,37,0,1:0:0:0:
89,108,51292,1,0,1:0:0:0:
85,112,51365,1,8,1:2:0:0:
7,80,51512,54,0,B|8:88|8:88|13:91|13:91|5:92|5:92|9:96|9:96|16:147|16:147|21:151|21:151|13:152|13:152|18:155|18:155|25:207|25:207|29:210|29:210|21:211|21:211|26:215|26:215|27:223,1,180,0|2,1:0|3:2,0:0:0:0:
7,295,51731,1,0,0:0:0:0:
3,299,51811,6,0,L|59:307,3,56.25,0|0|10|2,0:0|1:0|1:2|1:1,0:0:0:0:
136,321,52090,2,0,L|128:265,1,56.25,0|0,1:0|1:0,0:0:0:0:
132,261,52229,2,0,L|124:205,1,56.25,8|2,1:1|1:1,0:0:0:0:
239,150,52369,22,0,L|164:139,2,75,2|0|0,1:3|1:0|1:0,0:0:0:0:
360,324,52648,2,0,L|285:313,2,75,0|0|0,1:0|1:0|1:0,0:0:0:0:
497,168,52922,5,4,1:2:0:0:
428,262,53058,70,0,L|420:206,1,56.25,8|2,1:2|1:1,0:0:0:0:
493,172,53195,2,0,L|508:283,1,112.5,0|8,1:0|1:1,0:0:0:0:
337,244,53469,6,0,L|314:240,1,22.5,4|0,1:2|1:0,0:0:0:0:
318,236,53606,2,0,L|341:240,1,22.5,4|0,1:2|1:0,0:0:0:0:
428,262,53743,86,0,B|427:254|427:254|422:251|422:251|430:250|430:250|426:246|426:246|419:195|419:195|414:191|414:191|422:190|422:190|417:187|417:187|410:135|410:135|406:132|406:132|414:131|414:131|409:127|409:127|408:119,1,180,0|0,1:2|1:2,0:0:0:0:
256,192,54017,53,4,0:2:0:0:
256,192,54324,86,0,L|256:147,1,45
256,64,54632,69,2,0:0:0:0:
172,100,54940,1,2,0:0:0:0:
172,100,55093,1,2,0:0:0:0:
140,184,55247,2,0,L|95:184,1,45,2|2,0:0|0:1,0:0:0:0:
172,264,55555,2,0,L|137:293,1,45,0|2,0:0|0:1,0:0:0:0:
256,296,55863,21,0,1:0:0:0:
340,264,56000,1,0,1:0:0:0:
372,184,56137,1,0,1:0:0:0:
477,187,56274,102,0,B|474:159|474:159|470:156|470:156|479:154|479:154|474:151|474:151|466:99|466:99|462:95|462:95|470:95|470:95|465:91|465:91|457:40|457:40|453:37|453:37|461:35|461:35|456:33|456:33|451:0,1,225,4|2,1:1|3:2,0:0:0:0:
279,223,56684,102,0,B|279:220|279:220|282:214|282:214|274:215|274:215|278:211|278:211|271:159|271:159|274:155|274:155|266:156|266:156|269:151|269:151|262:101|262:101|266:95|266:95|258:96|258:96|261:93|261:93|260:77,1,180,8|2,1:0|3:2,0:0:0:0:
385,273,56958,86,0,B|384:263|384:263|387:258|387:258|379:259|379:259|383:255|383:255|376:203|376:203|379:199|379:199|371:200|371:200|374:195|374:195|372:183,1,112.5,2|2,1:3|3:2,0:0:0:0:
203,262,57232,38,0,B|203:259|203:259|206:253|206:253|198:254|198:254|202:250|202:250|195:198|195:198|198:194|198:194|190:195|190:195|193:190|193:190|186:140|186:140|190:134|190:134|182:135|182:135|185:132|185:132|184:116,1,180,8|2,1:0|3:2,0:0:0:0:
496,332,57506,102,0,B|496:329|496:329|499:323|499:323|491:324|491:324|495:320|495:320|488:268|488:268|491:264|491:264|483:265|483:265|486:260|486:260|479:210|479:210|483:204|483:204|475:205|475:205|478:202|478:202|477:186,1,180,0|2,1:0|3:2,0:0:0:0:
279,223,57780,6,0,B|279:220|279:220|282:214|282:214|274:215|274:215|278:211|278:211|271:159|271:159|274:155|274:155|266:156|266:156|269:151|269:151|262:101|262:101|266:95|266:95|258:96|258:96|261:93|261:93|260:77,1,180,8|2,1:0|3:2,0:0:0:0:
385,273,58054,70,0,B|384:263|384:263|387:258|387:258|379:259|379:259|383:255|383:255|376:203|376:203|379:199|379:199|371:200|371:200|374:195|374:195|372:183,2,112.5,2|0|0,1:3|1:0|1:0,0:0:0:0:
274,330,58465,38,0,B|277:302|277:302|281:299|281:299|272:297|272:297|277:294|277:294|285:242|285:242|289:238|289:238|281:238|281:238|286:234|286:234|294:183|294:183|298:180|298:180|290:178|290:178|295:176|295:176|300:143,1,225,2|2,1:2|3:2,0:0:0:0:
107,341,58876,102,0,B|107:338|107:338|104:332|104:332|112:333|112:333|108:329|108:329|115:277|115:277|112:273|112:273|120:274|120:274|117:269|117:269|124:219|124:219|120:213|120:213|128:214|128:214|125:211|125:211|126:195,1,180,8|2,1:0|3:2,0:0:0:0:
347,376,59150,102,0,L|352:342,2,33.7500012874604,2|0|2,1:3|1:0|3:2,0:0:0:0:
183,384,59424,22,0,B|183:381|183:381|180:375|180:375|188:376|188:376|184:372|184:372|191:320|191:320|188:316|188:316|196:317|196:317|193:312|193:312|200:262|200:262|196:256|196:256|204:257|204:257|201:254|201:254|202:238,1,180,8|2,1:0|3:2,0:0:0:0:
385,273,59698,86,0,L|390:239,2,33.7500012874604,0|0|0,1:0|1:0|1:0,0:0:0:0:
107,341,59972,6,0,B|107:338|107:338|104:332|104:332|112:333|112:333|108:329|108:329|115:277|115:277|112:273|112:273|120:274|120:274|117:269|117:269|124:219|124:219|120:213|120:213|128:214|128:214|125:211|125:211|126:195,1,180,8|0,1:0|1:0,0:0:0:0:
450,384,60246,86,0,B|451:374|451:374|448:369|448:369|456:370|456:370|452:366|452:366|459:314|459:314|456:310|456:310|464:311|464:311|461:306|461:306|463:294,2,112.5,2|2|0,1:3|1:2|1:0,0:0:0:0:
183,384,60657,38,0,B|211:381|211:381|214:377|214:377|216:386|216:386|219:381|219:381|271:373|271:373|275:369|275:369|275:377|275:377|279:372|279:372|330:364|330:364|333:360|333:360|335:368|335:368|337:363|337:363|370:358,1,225,4|0,1:0|3:0,0:0:0:0:
213,115,61068,102,0,B|216:115|216:115|222:118|222:118|221:110|221:110|225:114|225:114|277:107|277:107|281:110|281:110|280:102|280:102|285:105|285:105|335:98|335:98|341:102|341:102|340:94|340:94|343:97|343:97|359:96,1,180,8|2,1:0|3:2,0:0:0:0:
270,293,61342,86,0,B|280:292|280:292|285:295|285:295|284:287|284:287|288:291|288:291|340:284|340:284|344:287|344:287|343:279|343:279|348:282|348:282|360:280,1,112.5,2|0,1:3|3:2,0:0:0:0:
173,40,61616,38,0,B|176:40|176:40|182:43|182:43|181:35|181:35|185:39|185:39|237:32|237:32|241:35|241:35|240:27|240:27|245:30|245:30|295:23|295:23|301:27|301:27|300:19|300:19|303:22|303:22|319:21,1,180,8|2,1:0|3:2,0:0:0:0:
494,243,61890,102,0,B|494:240|494:240|491:234|491:234|499:235|499:235|495:231|495:231|502:179|502:179|499:175|499:175|507:176|507:176|504:171|504:171|511:121|511:121|507:115|507:115|515:116|515:116|512:113|512:113|513:97,1,180,0|2,1:0|3:2,0:0:0:0:
446,9,62164,6,0,B|446:12|446:12|449:18|449:18|441:17|441:17|445:21|445:21|438:73|438:73|441:77|441:77|433:76|433:76|436:81|436:81|429:131|429:131|433:137|433:137|425:136|425:136|428:139|428:139|427:155,1,180,8|0,1:0|3:2,0:0:0:0:
270,293,62438,70,0,B|280:292|280:292|285:295|285:295|284:287|284:287|288:291|288:291|340:284|340:284|344:287|344:287|343:279|343:279|348:282|348:282|360:280,2,112.5,2|0|0,1:3|1:0|1:0,0:0:0:0:
434,161,62849,38,0,B|406:164|406:164|403:168|403:168|401:159|401:159|398:164|398:164|346:172|346:172|342:176|342:176|342:168|342:168|338:173|338:173|287:181|287:181|284:185|284:185|282:177|282:177|280:182|280:182|247:187,1,225,2|2,1:2|1:2,0:0:0:0:
246,187,63191,1,0,1:0:0:0:
246,187,63260,102,0,B|243:187|243:187|237:184|237:184|238:192|238:192|234:188|234:188|182:195|182:195|178:192|178:192|179:200|179:200|174:197|174:197|124:204|124:204|118:200|118:200|119:208|119:208|116:205|116:205|100:206,1,180,8|0,1:0|1:0,0:0:0:0:
308,89,63534,86,0,B|298:90|298:90|293:87|293:87|294:95|294:95|290:91|290:91|238:98|238:98|234:95|234:95|235:103|235:103|230:100|230:100|218:102,1,112.5,2|0,1:3|1:0,0:0:0:0:
169,279,63808,38,0,B|166:279|166:279|160:276|160:276|161:284|161:284|157:280|157:280|105:287|105:287|101:284|101:284|102:292|102:292|97:289|97:289|47:296|47:296|41:292|41:292|42:300|42:300|39:297|39:297|23:298,1,180,8|0,1:0|1:0,0:0:0:0:
98,369,64082,86,0,L|64:374,2,33.7500012874604,0|0|0,1:0|1:0|1:0,0:0:0:0:
256,339,64356,22,0,B|256:336|256:336|252:330|252:330|260:330|260:330|256:326|256:326|256:274|256:274|252:270|252:270|260:270|260:270|256:266|256:266|256:215|256:215|252:210|252:210|260:210|260:210|256:207|256:207|256:192,1,180,0|0,1:0|1:0,0:0:0:0:
263,108,64630,5,2,1:2:0:0:
263,108,64767,1,0,1:2:0:0:
263,108,64904,1,0,1:2:0:0:
146,203,65041,102,0,B|149:175|149:175|153:172|153:172|144:170|144:170|149:167|149:167|157:115|157:115|161:111|161:111|153:111|153:111|158:107|158:107|166:56|166:56|170:53|170:53|162:51|162:51|167:49|167:49|172:16,1,225,4|2,1:0|3:2,0:0:0:0:
375,260,65452,102,0,B|375:257|375:257|372:251|372:251|380:252|380:252|376:248|376:248|383:196|383:196|380:192|380:192|388:193|388:193|385:188|385:188|392:138|392:138|388:132|388:132|396:133|396:133|393:130|393:130|394:114,1,180,8|2,1:0|3:2,0:0:0:0:
241,353,65726,86,0,B|242:343|242:343|239:338|239:338|247:339|247:339|243:335|243:335|250:283|250:283|247:279|247:279|255:280|255:280|252:275|252:275|254:263,1,112.5,2|2,1:3|3:2,0:0:0:0:
451,299,66000,38,0,B|451:296|451:296|448:290|448:290|456:291|456:291|452:287|452:287|459:235|459:235|456:231|456:231|464:232|464:232|461:227|461:227|468:177|468:177|464:171|464:171|472:172|472:172|469:169|469:169|470:153,1,180,8|2,1:0|3:2,0:0:0:0:
127,348,66274,102,0,B|127:345|127:345|124:339|124:339|132:340|132:340|128:336|128:336|135:284|135:284|132:280|132:280|140:281|140:281|137:276|137:276|144:226|144:226|140:220|140:220|148:221|148:221|145:218|145:218|146:202,1,180,0|2,1:0|3:2,0:0:0:0:
375,260,66548,6,0,B|375:257|375:257|372:251|372:251|380:252|380:252|376:248|376:248|383:196|383:196|380:192|380:192|388:193|388:193|385:188|385:188|392:138|392:138|388:132|388:132|396:133|396:133|393:130|393:130|394:114,1,180,8|2,1:0|3:2,0:0:0:0:
241,353,66822,70,0,B|242:343|242:343|239:338|239:338|247:339|247:339|243:335|243:335|250:283|250:283|247:279|247:279|255:280|255:280|252:275|252:275|254:263,2,112.5,2|0|8,1:3|1:0|1:0,0:0:0:0:
348,371,67233,38,0,B|345:343|345:343|341:340|341:340|350:338|350:338|345:335|345:335|337:283|337:283|333:279|333:279|341:279|341:279|336:275|336:275|328:224|328:224|324:221|324:221|332:219|332:219|327:217|327:217|322:184,1,225,2|2,1:2|1:2,0:0:0:0:
131,288,67644,102,0,B|131:285|131:285|134:279|134:279|126:280|126:280|130:276|130:276|123:224|123:224|126:220|126:220|118:221|118:221|121:216|121:216|114:166|114:166|118:160|118:160|110:161|110:161|113:158|113:158|112:142,1,180,8|2,1:0|3:2,0:0:0:0:
254,264,67917,102,0,L|249:230,2,33.7500012874604,2|0|2,1:3|1:0|1:2,0:0:0:0:
55,331,68192,22,0,B|55:328|55:328|58:322|58:322|50:323|50:323|54:319|54:319|47:267|47:267|50:263|50:263|42:264|42:264|45:259|45:259|38:209|38:209|42:203|42:203|34:204|34:204|37:201|37:201|36:185,1,180,8|2,1:0|3:2,0:0:0:0:
198,173,68466,86,0,L|193:139,2,33.7500012874604,0|0|0,1:0|1:0|1:0,0:0:0:0:
131,288,68740,6,0,B|131:285|131:285|134:279|134:279|126:280|126:280|130:276|130:276|123:224|123:224|126:220|126:220|118:221|118:221|121:216|121:216|114:166|114:166|118:160|118:160|110:161|110:161|113:158|113:158|112:142,1,180,8|2,1:0|1:2,0:0:0:0:
335,273,69014,86,0,B|334:263|334:263|337:258|337:258|329:259|329:259|333:255|333:255|326:203|326:203|329:199|329:199|321:200|321:200|324:195|324:195|322:183,2,112.5,2|2|0,1:3|1:2|1:0,0:0:0:0:
511,134,69425,38,0,B|483:131|483:131|480:127|480:127|478:136|478:136|475:131|475:131|423:123|423:123|419:119|419:119|419:127|419:127|415:122|415:122|364:114|364:114|361:110|361:110|359:118|359:118|357:113|357:113|324:108,1,225,4|0,1:0|3:2,0:0:0:0:
363,353,69836,102,0,B|360:353|360:353|354:356|354:356|355:348|355:348|351:352|351:352|299:345|299:345|295:348|295:348|296:340|296:340|291:343|291:343|241:336|241:336|235:340|235:340|236:332|236:332|233:335|233:335|217:334,1,180,8|2,1:0|3:2,0:0:0:0:
512,216,70110,86,0,B|502:215|502:215|497:218|497:218|498:210|498:210|494:214|494:214|442:207|442:207|438:210|438:210|439:202|439:202|434:205|434:205|422:203,1,112.5,2|0,1:3|3:2,0:0:0:0:
508,372,70384,38,0,B|505:372|505:372|499:375|499:375|500:367|500:367|496:371|496:371|444:364|444:364|440:367|440:367|441:359|441:359|436:362|436:362|386:355|386:355|380:359|380:359|381:351|381:351|378:354|378:354|362:353,1,180,8|2,1:0|3:2,0:0:0:0:
135,322,70658,102,0,B|135:319|135:319|138:313|138:313|130:314|130:314|134:310|134:310|127:258|127:258|130:254|130:254|122:255|122:255|125:250|125:250|118:200|118:200|122:194|122:194|114:195|114:195|117:192|117:192|116:176,1,180,0|2,1:0|3:2,0:0:0:0:
183,88,70932,6,0,B|183:91|183:91|180:97|180:97|188:96|188:96|184:100|184:100|191:152|191:152|188:156|188:156|196:155|196:155|193:160|193:160|200:210|200:210|196:216|196:216|204:215|204:215|201:218|201:218|202:234,1,180,8|0,1:0|3:0,0:0:0:0:
135,322,71206,70,0,B|125:321|125:321|120:324|120:324|121:316|121:316|117:320|117:320|65:313|65:313|61:316|61:316|62:308|62:308|57:311|57:311|45:309,2,112.5,2|0|0,1:3|1:0|1:0,0:0:0:0:
22,214,71617,38,0,B|50:217|50:217|53:221|53:221|55:212|55:212|58:217|58:217|110:225|110:225|114:229|114:229|114:221|114:221|118:226|118:226|169:234|169:234|172:238|172:238|174:230|174:230|176:235|176:235|209:240,1,225,2|2,1:2|1:2,0:0:0:0:
209,240,71959,1,0,1:0:0:0:
209,240,72028,102,0,B|212:240|212:240|218:237|218:237|217:245|217:245|221:241|221:241|273:248|273:248|277:245|277:245|276:253|276:253|281:250|281:250|331:257|331:257|337:253|337:253|336:261|336:261|339:258|339:258|355:259,1,180,8|0,1:0|1:0,0:0:0:0:
73,133,72302,86,0,B|83:134|83:134|88:131|88:131|87:139|87:139|91:135|91:135|143:142|143:142|147:139|147:139|146:147|146:147|151:144|151:144|163:146,1,112.5,2|0,1:3|1:0,0:0:0:0:
135,322,72576,38,0,B|138:322|138:322|144:319|144:319|143:327|143:327|147:323|147:323|199:330|199:330|203:327|203:327|202:335|202:335|207:332|207:332|257:339|257:339|263:335|263:335|262:343|262:343|265:340|265:340|281:341,1,180,0|0,1:0|1:0,0:0:0:0:
444,252,72850,86,0,L|478:257,2,33.7500012874604,0|0|0,1:0|1:0|1:0,0:0:0:0:
256,4,73123,22,0,B|256:7|256:7|260:13|260:13|252:13|252:13|256:17|256:17|256:69|256:69|260:73|260:73|252:73|252:73|256:77|256:77|256:128|256:128|260:133|260:133|252:133|252:133|256:136|256:136|256:150,1,180,4|0,1:2|1:0,0:0:0:0:
260,237,73397,37,2,1:3:0:0:
260,237,73671,38,0,L|326:246,1,67.5000025749208,2|2,0:0|0:0,0:0:0:0:
215,300,73808,2,0,L|182:304,1,33.7500012874604,2|2,0:0|0:0,0:0:0:0:
340,317,73946,6,0,L|331:251,1,67.5000025749208,2|2,1:2|2:2,0:0:0:0:
169,139,74222,2,0,L|181:228,1,90,2|2,2:2|2:2,0:0:0:0:
420,345,74515,2,0,L|408:256,1,90,2|2,2:2|2:2,0:0:0:0:
319,161,74823,2,0,L|331:250,1,90,2|2,2:2|2:2,0:0:0:0:
215,300,75150,53,2,3:3:0:0:
139,309,75588,1,2,3:2:0:0:
74,347,76025,1,2,3:2:0:0:
74,347,76462,101,0,1:0:0:0:
74,269,76680,1,2,0:0:0:0:
74,192,76899,1,2,0:1:0:0:
438,347,77117,5,4,1:3:0:0:
438,269,77335,1,2,0:0:0:0:
438,192,77554,1,2,0:1:0:0:
256,347,77773,5,0,1:0:0:0:
256,269,77991,1,2,0:0:0:0:
256,192,78210,1,2,1:1:0:0:
438,347,78429,69,8,1:2:0:0:
256,269,78648,1,2,0:0:0:0:
74,192,78866,1,2,0:1:0:0:
74,347,79084,5,0,1:0:0:0:
74,269,79302,1,2,0:0:0:0:
74,192,79521,1,2,0:1:0:0:
438,347,79740,5,4,1:3:0:0:
438,269,79958,1,2,0:0:0:0:
438,192,80177,1,2,0:1:0:0:
256,347,80396,5,0,1:0:0:0:
256,269,80614,1,2,0:0:0:0:
256,192,80833,1,2,1:1:0:0:
74,192,81052,69,8,1:2:0:0:
256,269,81270,1,2,0:0:0:0:
438,347,81489,1,2,0:1:0:0:
438,192,81707,5,0,1:0:0:0:
438,115,81871,1,2,0:2:0:0:
438,37,82035,2,0,L|393:37,1,45,2|2,0:1|1:2,0:0:0:0:
256,192,82363,5,4,1:3:0:0:
256,115,82527,1,2,0:2:0:0:
256,37,82691,2,0,L|211:37,1,45,2|2,0:1|0:2,0:0:0:0:
74,192,83019,5,0,1:0:0:0:
74,115,83183,1,2,0:2:0:0:
74,37,83347,1,2,0:1:0:0:
165,115,83511,69,2,0:2:0:0:
74,192,83675,2,0,L|119:192,1,45,8|2,1:2|0:0,0:0:0:0:
211,37,84002,2,0,L|256:37,1,45,2|2,0:1|0:0,0:0:0:0:
438,192,84330,6,0,L|438:147,1,45,0|2,1:0|0:2,0:0:0:0:
440,73,84576,1,0,1:0:0:0:
438,37,84658,2,0,L|393:37,1,45,2|2,0:1|1:2,0:0:0:0:
256,192,84986,5,4,1:3:0:0:
256,115,85150,1,2,0:0:0:0:
256,37,85314,2,0,L|211:37,1,45,2|2,0:1|0:0,0:0:0:0:
74,192,85642,5,0,1:0:0:0:
74,115,85806,1,2,0:2:0:0:
74,37,85970,1,2,0:1:0:0:
165,115,86134,69,2,0:2:0:0:
74,37,86298,2,0,L|119:37,1,45,8|2,1:2|0:2,0:0:0:0:
211,192,86625,2,0,L|256:192,1,45,2|2,0:1|0:2,0:0:0:0:
438,347,86953,6,0,L|402:347,1,36,0|2,1:0|0:1,0:0:0:0:
438,269,87216,2,0,L|402:269,1,36,2|2,0:1|0:0,0:0:0:0:
438,192,87478,1,2,1:2:0:0:
256,347,87609,6,0,L|220:347,1,36,4|2,1:3|0:1,0:0:0:0:
256,269,87872,2,0,L|220:269,2,36,2|2|2,0:1|0:2|0:2,0:0:0:0:
74,347,88265,6,0,L|110:347,2,36,0|2|2,1:0|0:1|0:1,0:0:0:0:
74,269,88658,1,2,1:2:0:0:
74,192,88789,1,2,1:2:0:0:
220,192,88921,70,0,L|256:192,2,36,8|2|2,1:2|0:2|0:1,0:0:0:0:
220,269,89314,2,0,L|256:269,1,36,0|2,1:2|0:2,0:0:0:0:
438,192,89576,6,0,L|402:192,1,36,0|2,1:0|0:1,0:0:0:0:
438,115,89839,2,0,L|402:115,1,36,2|2,0:1|0:2,0:0:0:0:
438,37,90101,1,2,1:2:0:0:
256,192,90232,6,0,L|220:192,1,36,4|2,1:3|0:1,0:0:0:0:
256,115,90494,2,0,L|220:115,2,36,2|2|2,0:1|0:2|0:2,0:0:0:0:
74,192,90888,6,0,L|110:192,2,36,0|2|2,1:0|0:1|0:1,0:0:0:0:
74,115,91281,1,2,1:2:0:0:
74,37,91412,1,2,1:2:0:0:
220,37,91544,70,0,L|256:37,2,36,8|2|2,1:2|0:2|0:1,0:0:0:0:
256,115,91937,1,0,1:0:0:0:
256,192,92068,1,2,1:2:0:0:
74,192,92199,6,0,L|110:192,2,30,0|2|2,1:0|0:2|0:1,0:0:0:0:
74,115,92527,2,0,L|110:115,1,30,2|2,0:2|0:1,0:0:0:0:
74,37,92746,1,2,1:2:0:0:
226,192,92855,6,0,L|256:192,2,30,4|2|2,1:3|0:2|0:1,0:0:0:0:
226,115,93183,2,0,L|262:115,2,30,2|2|2,0:2|0:1|0:2,0:0:0:0:
438,37,93511,6,0,L|408:37,1,30,0|2,1:0|0:2,0:0:0:0:
438,115,93729,2,0,L|408:115,1,30,2|2,1:1|0:2,0:0:0:0:
438,192,93948,2,0,L|408:192,1,30,2|2,1:1|0:2,0:0:0:0:
256,37,94166,70,0,L|220:37,2,30,8|2|2,1:2|3:2|0:0,0:0:0:0:
256,115,94494,1,2,1:1:0:0:
256,192,94604,2,0,L|220:192,1,30,2|0,1:1|0:1,0:0:0:0:
74,192,94822,6,0,L|104:192,2,30,0|2|2,1:0|0:2|0:1,0:0:0:0:
81,274,95150,1,2,1:2:0:0:
81,274,95259,1,2,1:1:0:0:
81,274,95369,1,2,1:2:0:0:
74,347,95478,6,0,L|104:347,1,30,4|2,1:3|0:2,0:0:0:0:
226,269,95696,2,0,L|256:269,1,30,2|2,0:1|0:2,0:0:0:0:
408,192,95915,2,0,L|438:192,1,30,2|2,0:1|0:2,0:0:0:0:
438,346,96134,6,0,L|402:346,1,30,0|2,1:0|0:2,0:0:0:0:
438,269,96352,2,0,L|402:269,1,30,2|2,0:1|0:2,0:0:0:0:
260,351,96571,69,2,1:1:0:0:
260,351,96680,1,2,1:2:0:0:
256,269,96789,2,0,L|226:269,2,30,8|2|2,1:2|0:2|0:0,0:0:0:0:
256,192,97117,1,2,1:1:0:0:
256,192,97227,1,2,1:1:0:0:
256,192,97336,1,2,1:2:0:0:
256,192,97445,102,0,B|255:183|255:183|259:179|259:179|251:179|251:179|255:175|255:175|255:123|255:123|259:119|259:119|251:119|251:119|255:115|255:115|255:63|255:63|259:59|259:59|251:59|251:59|255:55|255:55|255:47,1,180,2|0,0:0|0:0,0:0:0:0:
177,18,97882,102,0,B|177:24|177:24|180:29|180:29|172:29|172:29|177:32|177:32|177:85|177:85|181:88|181:88|173:89|173:89|176:93|176:93|176:100,1,105.000001001358,2|2,0:1|0:1,0:0:0:0:
333,76,98101,6,0,B|333:82|333:82|336:87|336:87|328:87|328:87|333:90|333:90|333:143|333:143|337:146|337:146|329:147|329:147|332:151|332:151|332:158,1,105.000001001358,2|2,0:1|0:1,0:0:0:0:
256,192,98319,102,0,B|256:198|256:198|259:203|259:203|251:203|251:203|256:206|256:206|256:259|256:259|260:262|260:262|252:263|252:263|255:267|255:267|255:274,1,105.000001001358,2|8,0:1|2:3,0:0:0:0:
256,361,98757,22,0,P|223:343|185:344,1,77.1428600856237,0|2,1:0|3:2,0:0:0:0:
123,293,98944,1,2,1:2:0:0:
43,302,99038,2,0,L|4:308,3,38.5714300428119,0|2|0|2,1:2|3:2|3:0|3:2,0:0:0:0:
256,361,99412,22,0,P|223:343|185:344,1,77.1428600856237,4|2,1:3|3:2,0:0:0:0:
123,293,99599,1,0,1:0:0:0:
43,302,99693,2,0,L|48:263,3,38.5714300428119,2|2|0|2,1:2|3:2|3:0|3:2,0:0:0:0:
256,361,100068,86,0,P|223:343|185:344,1,77.1428600856237,0|2,1:0|1:2,0:0:0:0:
123,293,100255,1,0,1:0:0:0:
43,302,100349,2,0,L|37:340,2,38.5714300428119,2|0|2,1:2|3:2|3:2,0:0:0:0:
127,289,100630,54,0,L|137:212,1,77.1428600856237,2|8,1:2|3:1,0:0:0:0:
328,158,100817,2,0,L|317:234,1,77.1428600856237,2|0,3:2|3:0,0:0:0:0:
142,216,101005,6,0,L|192:208,1,51.4285714285714,2|0,3:2|3:0,0:0:0:0:
313,238,101192,2,0,L|262:245,1,51.4285714285714,2|0,3:2|3:0,0:0:0:0:
256,361,101380,38,0,P|289:343|327:344,1,77.1428600856237,0|2,1:0|3:2,0:0:0:0:
389,293,101567,1,0,1:0:0:0:
469,302,101661,2,0,L|463:340,3,38.5714300428119,2|0|2|0,3:2|3:0|3:2|3:0,0:0:0:0:
256,361,102035,22,0,P|289:343|327:344,1,77.1428600856237,4|2,1:3|1:2,0:0:0:0:
389,293,102222,1,0,1:0:0:0:
469,302,102316,2,0,L|507:295,3,38.5714300428119,2|2|0|2,1:2|3:2|3:0|3:2,0:0:0:0:
256,361,102691,86,0,P|289:343|327:344,1,77.1428600856237,0|2,1:0|1:2,0:0:0:0:
389,293,102878,1,0,1:0:0:0:
469,302,102972,2,0,L|474:263,2,38.5714300428119,2|0|2,1:2|3:0|3:2,0:0:0:0:
385,289,103253,54,0,L|395:212,1,77.1428600856237,0|8,3:0|3:1,0:0:0:0:
269,74,103440,2,0,L|258:150,1,77.1428600856237,0|0,3:0|3:0,0:0:0:0:
392,209,103628,6,0,L|341:216,1,51.4285714285714,0|0,3:0|3:0,0:0:0:0:
262,154,103815,2,0,L|312:146,1,51.4285714285714,2|0,3:2|3:0,0:0:0:0:
474,264,104002,38,0,L|484:198,3,67.5000025749208,0|0|0|0,1:0|1:0|1:0|1:0,0:0:0:0:
379,55,104330,22,0,L|372:99,1,45,0|2,3:0|3:2,0:0:0:0:
457,43,104494,2,0,L|444:132,1,90,0|0,3:0|3:0,0:0:0:0:
303,213,104658,86,0,L|313:147,3,67.5000025749208,4|0|0|0,1:3|1:0|1:0|1:0,0:0:0:0:
169,86,104986,22,0,L|162:130,1,45,0|2,3:0|3:2,0:0:0:0:
247,73,105150,2,0,L|234:162,1,90,0|2,3:0|3:2,0:0:0:0:
75,210,105314,86,0,L|85:144,3,67.5000025749208,0|0|0|0,1:0|1:0|1:0|1:0,0:0:0:0:
20,67,105642,22,0,L|13:111,1,45,0|2,3:0|3:2,0:0:0:0:
98,54,105806,2,0,L|85:143,1,90,0|2,3:0|3:2,0:0:0:0:
144,243,105970,22,0,L|210:233,1,67.5000025749208,8|2,3:1|3:2,0:0:0:0:
286,227,106134,2,0,L|281:260,2,33.7500012874604,0|0|0,1:0|1:0|1:0,0:0:0:0:
135,310,106298,6,0,L|144:243,1,67.5000025749208,0|0,3:0|3:0,0:0:0:0:
158,166,106461,2,0,L|183:162,4,16.8750006437302,0|0|0|0|0,1:0|1:0|1:0|1:0|1:0,0:0:0:0:
286,227,106625,38,0,L|296:161,3,67.5000025749208,0|0|0|2,1:0|1:0|1:0|1:2,0:0:0:0:
169,40,106953,22,0,L|162:84,1,45,0|2,3:0|3:2,0:0:0:0:
247,28,107117,2,0,L|234:117,1,90,0|2,3:0|3:2,0:0:0:0:
158,166,107281,85,4,1:3:0:0:
131,169,107363,1,0,1:0:0:0:
104,173,107445,1,0,1:0:0:0:
77,177,107527,1,2,1:2:0:0:
51,181,107609,22,0,L|47:206,4,16.8750006437302,0|0|0|0|0,1:0|1:0|1:0|1:0|1:0,0:0:0:0:
0,125,107773,2,0,L|4:91,1,33.7500012874604,0|2,1:0|1:2,0:0:0:0:
92,56,107937,22,0,L|96:22,2,33.7500012874604,0|0|0,1:0|1:0|1:0,0:0:0:0:
162,84,108101,2,0,L|171:17,1,67.5000025749208,0|2,1:0|1:2,0:0:0:0:
243,61,108265,6,0,L|247:27,2,33.7500012874604,0|0|0,1:0|1:0|1:0,0:0:0:0:
313,89,108429,2,0,L|322:22,1,67.5000025749208,0|2,1:0|1:2,0:0:0:0:
393,66,108593,102,0,L|397:32,2,33.7500012874604,2|0|0,1:2|1:0|1:0,0:0:0:0:
467,67,108757,2,0,L|471:33,2,33.7500012874604,2|0|0,1:2|1:0|1:0,0:0:0:0:
313,89,108921,6,0,L|322:22,1,67.5000025749208,2|0,1:2|1:0,0:0:0:0:
243,61,109084,2,0,L|247:27,2,33.7500012874604,0|0|0,1:0|1:0|1:0,0:0:0:0:
172,17,109248,22,0,B|169:31|169:31|173:36|173:36|165:35|165:35|168:39|168:39|161:91|161:91|164:95|164:95|157:94|157:94|160:99|160:99|153:150|153:150|156:155|156:155|148:154|148:154|152:158|152:158|144:210|144:210|148:214|148:214|140:213|140:213|143:218|143:218|136:269|136:269|139:274|139:274|131:272|131:272|135:277|135:277|128:328|128:328|131:333|131:333|123:332|123:332|127:336|127:336|125:350,1,405.000015449525,2|2,1:2|0:0,0:0:0:0:
36,384,109904,38,0,L|74:116,2,270.000010299683,2|2|2,2:2|0:0|0:0,0:0:0:0:
74,117,110888,54,0,L|118:110,1,45,2|0,2:2|0:0,0:0:0:0:
193,94,111052,2,0,L|237:87,1,45,2|0,0:0|0:0,0:0:0:0:
320,78,111216,21,6,1:2:0:0:
320,78,111380,1,2,1:2:0:0:
320,78,111543,1,6,1:2:0:0:
432,222,111707,102,0,B|429:194|429:194|425:191|425:191|434:189|434:189|429:186|429:186|421:134|421:134|417:130|417:130|425:130|425:130|420:126|420:126|412:75|412:75|408:72|408:72|416:70|416:70|411:68|411:68|406:35,1,225,4|2,1:0|0:0,0:0:0:0:
410,30,112199,102,0,B|407:30|407:30|401:33|401:33|402:25|402:25|398:29|398:29|346:22|346:22|342:25|342:25|343:17|343:17|338:20|338:20|288:13|288:13|282:17|282:17|283:9|283:9|280:12|280:12|264:11,1,180,2|2,2:1|0:0,0:0:0:0:
261,15,112527,86,0,B|262:25|262:25|259:30|259:30|267:29|267:29|263:33|263:33|270:85|270:85|267:89|267:89|275:88|275:88|272:93|272:93|274:105,1,112.5,2|2,1:3|0:0,0:0:0:0:
270,108,112855,38,0,B|273:108|273:108|279:105|279:105|278:113|278:113|282:109|282:109|334:116|334:116|338:113|338:113|337:121|337:121|342:118|342:118|392:125|392:125|398:121|398:121|397:129|397:129|400:126|400:126|416:127,1,180,2|2,0:1|0:0,0:0:0:0:
419,131,113183,102,0,B|419:134|419:134|416:140|416:140|424:139|424:139|420:143|420:143|427:195|427:195|424:199|424:199|432:198|432:198|429:203|429:203|436:253|436:253|432:259|432:259|440:258|440:258|437:261|437:261|438:277,1,180,0|2,1:2|0:0,0:0:0:0:
434,280,113511,6,0,B|431:280|431:280|425:283|425:283|426:275|426:275|422:279|422:279|370:272|370:272|366:275|366:275|367:267|367:267|362:270|362:270|312:263|312:263|306:267|306:267|307:259|307:259|304:262|304:262|288:261,1,180,2|0,0:1|0:0,0:0:0:0:
285,257,113839,70,0,B|284:247|284:247|287:242|287:242|279:243|279:243|283:239|283:239|276:187|276:187|279:183|279:183|271:184|271:184|274:179|274:179|272:167,2,112.5,2|2|2,1:3|0:0|0:0,0:0:0:0:
276,164,114330,22,0,B|304:167|304:167|307:171|307:171|309:162|309:162|312:167|312:167|364:175|364:175|368:179|368:179|368:171|368:171|372:176|372:176|423:184|423:184|426:188|426:188|428:180|428:180|430:185|430:185|463:190,1,225,0|2,1:0|0:0,0:0:0:0:
459,194,114822,6,0,B|459:197|459:197|456:203|456:203|464:202|464:202|460:206|460:206|467:258|467:258|464:262|464:262|472:261|472:261|469:266|469:266|476:316|476:316|472:322|472:322|480:321|480:321|477:324|477:324|478:340,1,180,2|2,0:1|0:0,0:0:0:0:
482,343,115150,37,2,1:3:0:0:
482,343,116327,54,0,L|437:336,1,45,2|0,0:0|0:0,0:0:0:0:
363,323,117225,6,0,L|295:313,1,67.5000025749208,2|2,0:0|0:0,0:0:0:0:
470,169,117907,102,0,L|380:156,1,90,2|2,0:0|0:0,0:0:0:0:
305,143,118487,6,0,L|193:127,1,112.5,2|2,0:0|0:0,0:0:0:0:
29,102,119016,102,0,L|118:114,1,90,2|2,0:0|0:0,0:0:0:0:
201,134,119271,21,4,1:2:0:0:
201,134,119388,1,0,1:2:0:0:
201,134,119506,1,4,1:2:0:0:
335,224,119624,102,0,B|332:196|332:196|328:193|328:193|337:191|337:191|332:188|332:188|324:136|324:136|320:132|320:132|328:132|328:132|323:128|323:128|315:77|315:77|311:74|311:74|319:72|319:72|314:70|314:70|309:37,1,225,4|2,1:1|3:2,0:0:0:0:
413,214,119951,102,0,B|413:211|413:211|416:205|416:205|408:206|408:206|412:202|412:202|405:150|405:150|408:146|408:146|400:147|400:147|403:142|403:142|396:92|396:92|400:86|400:86|392:87|392:87|395:84|395:84|394:68,1,180,8|2,1:0|3:2,0:0:0:0:
487,179,120169,86,0,B|486:169|486:169|489:164|489:164|481:165|481:165|485:161|485:161|478:109|478:109|481:105|481:105|473:106|473:106|476:101|476:101|474:89,1,112.5,2|2,1:3|3:2,0:0:0:0:
413,214,120387,38,0,B|413:211|413:211|416:205|416:205|408:206|408:206|412:202|412:202|405:150|405:150|408:146|408:146|400:147|400:147|403:142|403:142|396:92|396:92|400:86|400:86|392:87|392:87|395:84|395:84|394:68,1,180,8|2,1:0|3:2,0:0:0:0:
335,224,120605,102,0,B|335:221|335:221|338:215|338:215|330:216|330:216|334:212|334:212|327:160|327:160|330:156|330:156|322:157|322:157|325:152|325:152|318:102|318:102|322:96|322:96|314:97|314:97|317:94|317:94|316:78,1,180,0|2,1:0|3:2,0:0:0:0:
254,236,120823,6,0,B|254:233|254:233|257:227|257:227|249:228|249:228|253:224|253:224|246:172|246:172|249:168|249:168|241:169|241:169|244:164|244:164|237:114|237:114|241:108|241:108|233:109|233:109|236:106|236:106|235:90,1,180,8|2,1:0|3:2,0:0:0:0:
174,221,121042,70,0,B|173:211|173:211|176:206|176:206|168:207|168:207|172:203|172:203|165:151|165:151|168:147|168:147|160:148|160:148|163:143|163:143|161:131,2,112.5,2|2|2,1:3|1:2|1:2,0:0:0:0:
241,347,121369,38,0,B|244:319|244:319|248:316|248:316|239:314|239:314|244:311|244:311|252:259|252:259|256:255|256:255|248:255|248:255|253:251|253:251|261:200|261:200|265:197|265:197|257:195|257:195|262:193|262:193|267:160,1,225,2|2,1:2|3:2,0:0:0:0:
318,360,121696,102,0,B|318:357|318:357|315:351|315:351|323:352|323:352|319:348|319:348|326:296|326:296|323:292|323:292|331:293|331:293|328:288|328:288|335:238|335:238|331:232|331:232|339:233|339:233|336:230|336:230|337:214,1,180,8|2,1:0|3:2,0:0:0:0:
414,242,121914,102,0,L|419:208,2,33.7500012874604,2|0|2,1:3|1:0|3:2,0:0:0:0:
475,370,122133,22,0,B|475:367|475:367|472:361|472:361|480:362|480:362|476:358|476:358|483:306|483:306|480:302|480:302|488:303|488:303|485:298|485:298|492:248|492:248|488:242|488:242|496:243|496:243|493:240|493:240|494:224,1,180,8|2,1:0|3:2,0:0:0:0:
397,352,122351,86,0,L|402:318,2,33.7500012874604,0|0|0,1:0|1:0|1:0,0:0:0:0:
318,360,122569,6,0,B|318:357|318:357|315:351|315:351|323:352|323:352|319:348|319:348|326:296|326:296|323:292|323:292|331:293|331:293|328:288|328:288|335:238|335:238|331:232|331:232|339:233|339:233|336:230|336:230|337:214,1,180,8|2,1:1|1:2,0:0:0:0:
242,325,122787,86,0,B|243:315|243:315|240:310|240:310|248:311|248:311|244:307|244:307|251:255|251:255|248:251|248:251|256:252|256:252|253:247|253:247|255:235,2,112.5,2|0|0,1:3|1:0|1:1,0:0:0:0:
67,102,123114,38,0,B|95:99|95:99|98:95|98:95|100:104|100:104|103:99|103:99|155:91|155:91|159:87|159:87|159:95|159:95|163:90|163:90|214:82|214:82|217:78|217:78|219:86|219:86|221:81|221:81|254:76,1,225,4|0,1:1|3:0,0:0:0:0:
132,174,123442,102,0,B|135:174|135:174|141:177|141:177|140:169|140:169|144:173|144:173|196:166|196:166|200:169|200:169|199:161|199:161|204:164|204:164|254:157|254:157|260:161|260:161|259:153|259:153|262:156|262:156|278:155,1,180,8|2,1:0|3:2,0:0:0:0:
166,248,123660,86,0,B|176:247|176:247|181:250|181:250|180:242|180:242|184:246|184:246|236:239|236:239|240:242|240:242|239:234|239:234|244:237|244:237|256:235,1,112.5,2|2,1:3|3:2,0:0:0:0:
132,174,123878,38,0,B|135:174|135:174|141:177|141:177|140:169|140:169|144:173|144:173|196:166|196:166|200:169|200:169|199:161|199:161|204:164|204:164|254:157|254:157|260:161|260:161|259:153|259:153|262:156|262:156|278:155,1,180,8|2,1:0|3:2,0:0:0:0:
414,242,124096,102,0,B|414:239|414:239|411:233|411:233|419:234|419:234|415:230|415:230|422:178|422:178|419:174|419:174|427:175|427:175|424:170|424:170|431:120|431:120|427:114|427:114|435:115|435:115|432:112|432:112|433:96,1,180,0|2,1:0|3:2,0:0:0:0:
368,3,124314,6,0,B|368:6|368:6|371:12|371:12|363:11|363:11|367:15|367:15|360:67|360:67|363:71|363:71|355:70|355:70|358:75|358:75|351:125|351:125|355:131|355:131|347:130|347:130|350:133|350:133|349:149,1,180,8|2,1:0|3:2,0:0:0:0:
414,242,124533,70,0,B|424:241|424:241|429:244|429:244|428:236|428:236|432:240|432:240|484:233|484:233|488:236|488:236|487:228|487:228|492:231|492:231|504:229,2,112.5,2|2|8,1:3|3:2|1:0,0:0:0:0:
433,97,124860,38,0,B|405:100|405:100|402:104|402:104|400:95|400:95|397:100|397:100|345:108|345:108|341:112|341:112|341:104|341:104|337:109|337:109|286:117|286:117|283:121|283:121|281:113|281:113|279:118|279:118|246:123,1,225,2|0,1:2|1:0,0:0:0:0:
204,189,125187,102,0,B|201:189|201:189|195:186|195:186|196:194|196:194|192:190|192:190|140:197|140:197|136:194|136:194|137:202|137:202|132:199|132:199|82:206|82:206|76:202|76:202|77:210|77:210|74:207|74:207|58:208,1,180,8|2,1:0|3:2,0:0:0:0:
0,150,125405,86,0,B|1:140|1:140|-2:135|-2:135|6:136|6:136|2:132|2:132|9:80|9:80|6:76|6:76|14:77|14:77|11:72|11:72|13:60,1,112.5,2|0,1:3|1:0,0:0:0:0:
78,19,125623,38,0,B|94:18|94:18|97:21|97:21|96:13|96:13|102:17|102:17|152:10|152:10|157:13|157:13|156:5|156:5|160:8|160:8|212:1|212:1|216:5|216:5|215:-3|215:-3|221:0|221:0|224:0,1,180,0|0,1:0|1:0,0:0:0:0:
289,40,125842,86,0,L|323:35,2,33.7500012874604,0|0|0,1:0|1:0|1:0,0:0:0:0:
246,123,126042,6,0,B|246:126|246:126|249:132|249:132|241:131|241:131|245:135|245:135|238:187|238:187|241:191|241:191|233:190|233:190|236:195|236:195|229:245|229:245|233:251|233:251|225:250|225:250|228:253|228:253|227:269,1,180,0|0,1:0|1:0,0:0:0:0:
200,348,126242,6,0,B|203:348|203:348|209:351|209:351|208:343|208:343|212:347|212:347|264:340|264:340|268:343|268:343|267:335|267:335|272:338|272:338|322:331|322:331|328:335|328:335|327:327|327:327|330:330|330:330|346:329,2,180,6|0|4,1:2|1:2|1:2,0:0:0:0:
154,222,126547,102,0,B|154:219|154:219|151:213|151:213|159:214|159:214|155:210|155:210|162:158|162:158|159:154|159:154|167:155|167:155|164:150|164:150|171:100|171:100|167:94|167:94|175:95|175:95|172:92|172:92|173:76,1,180,4|0,1:0|1:0,0:0:0:0:
233,212,126832,6,0,B|234:202|234:202|231:197|231:197|239:198|239:198|235:194|235:194|242:142|242:142|239:138|239:138|247:139|247:139|244:134|244:134|246:122,1,112.5,2|0,1:2|1:0,0:0:0:0:
315,211,127022,102,0,B|316:201|316:201|313:196|313:196|321:197|321:197|317:193|317:193|324:141|324:141|321:137|321:137|329:138|329:138|326:133|326:133|328:121,1,112.5,2|0,1:3|1:0,0:0:0:0:
397,210,127213,6,0,B|398:200|398:200|395:195|395:195|403:196|403:196|399:192|399:192|406:140|406:140|403:136|403:136|411:137|411:137|408:132|408:132|410:120,1,112.5,2|0,1:2|1:0,0:0:0:0:
479,209,127403,102,0,B|480:199|480:199|477:194|477:194|485:195|485:195|481:191|481:191|488:139|488:139|485:135|485:135|493:136|493:136|490:131|490:131|492:119,1,112.5,2|0,1:2|1:0,0:0:0:0:
397,210,127594,6,0,B|398:200|398:200|395:195|395:195|403:196|403:196|399:192|399:192|406:140|406:140|403:136|403:136|411:137|411:137|408:132|408:132|410:120,1,112.5,2|0,1:2|1:0,0:0:0:0:
315,211,127784,102,0,B|316:201|316:201|313:196|313:196|321:197|321:197|317:193|317:193|324:141|324:141|321:137|321:137|329:138|329:138|326:133|326:133|328:121,2,112.5,2|2|2,1:3|1:2|1:2,0:0:0:0:
233,212,128070,6,0,B|233:209|233:209|236:203|236:203|228:204|228:204|232:200|232:200|225:148|225:148|228:144|228:144|220:145|220:145|223:140|223:140|216:90|216:90|220:84|220:84|212:85|212:85|215:82|215:82|214:66,1,180,0|0,1:0|1:0,0:0:0:0:
152,198,128356,102,0,B|151:188|151:188|154:183|154:183|146:184|146:184|150:180|150:180|143:128|143:128|146:124|146:124|138:125|138:125|141:120|141:120|139:108,1,112.5,2|0,1:2|1:0,0:0:0:0:
65,183,128546,6,0,B|64:173|64:173|67:168|67:168|59:169|59:169|63:165|63:165|56:113|56:113|59:109|59:109|51:110|51:110|54:105|54:105|52:93,1,112.5,2|0,1:3|1:0,0:0:0:0:
135,104,128737,102,0,B|134:94|134:94|137:89|137:89|129:90|129:90|133:86|133:86|126:34|126:34|129:30|129:30|121:31|121:31|124:26|124:26|122:14,1,112.5,2|0,1:2|1:0,0:0:0:0:
48,89,128927,6,0,B|47:79|47:79|50:74|50:74|42:75|42:75|46:71|46:71|39:19|39:19|42:15|42:15|34:16|34:16|37:11|37:11|35:-1,1,112.5,0|0,1:0|1:0,0:0:0:0:
126,11,129118,102,0,B|136:12|136:12|141:9|141:9|140:17|140:17|144:13|144:13|196:20|196:20|200:17|200:17|199:25|199:25|204:22|204:22|216:24,1,112.5,2|0,1:2|1:0,0:0:0:0:
305,112,129308,6,0,B|295:111|295:111|290:114|290:114|291:106|291:106|287:110|287:110|235:103|235:103|231:106|231:106|232:98|232:98|227:101|227:101|215:99,2,112.5,2|0|0,1:3|1:0|1:0,0:0:0:0:
429,18,129594,102,0,B|426:18|426:18|420:21|420:21|421:13|421:13|417:17|417:17|365:10|365:10|361:13|361:13|362:5|362:5|357:8|357:8|307:1|307:1|301:5|301:5|302:-3|302:-3|299:0|299:0|283:-1,1,180,4|0,1:1|1:0,0:0:0:0:
216,24,129880,6,0,B|204:22|204:22|199:25|199:25|200:17|200:17|196:20|196:20|144:13|144:13|140:17|140:17|141:9|141:9|136:12|136:12|126:11,1,112.5,2|0,1:2|1:0,0:0:0:0:
35,0,130070,102,0,B|37:11|37:11|34:16|34:16|42:15|42:15|39:19|39:19|46:71|46:71|42:75|42:75|50:74|50:74|47:79|47:79|48:89,1,112.5,2|0,1:3|1:0,0:0:0:0:
215,99,130261,6,0,B|217:111|217:111|214:116|214:116|222:115|222:115|219:119|219:119|226:171|226:171|222:175|222:175|230:174|230:174|227:179|227:179|228:189,1,112.5,2|0,1:2|1:0,0:0:0:0:
72,262,130451,102,0,B|82:263|82:263|87:260|87:260|86:268|86:268|90:264|90:264|142:271|142:271|146:268|146:268|145:276|145:276|150:273|150:273|162:275,1,112.5,2|0,1:2|1:0,0:0:0:0:
232,192,130641,6,0,B|242:193|242:193|247:190|247:190|246:198|246:198|250:194|250:194|302:201|302:201|306:198|306:198|305:206|305:206|310:203|310:203|322:205,1,112.5,2|0,1:2|1:0,0:0:0:0:
403,253,130832,102,0,B|402:243|402:243|405:238|405:238|397:239|397:239|401:235|401:235|394:183|394:183|397:179|397:179|389:180|389:180|392:175|392:175|390:163,2,112.5,2|0|2,1:3|1:0|1:2,0:0:0:0:
489,365,131118,102,0,B|486:365|486:365|480:368|480:368|481:360|481:360|477:364|477:364|425:357|425:357|421:360|421:360|422:352|422:352|417:355|417:355|367:348|367:348|361:352|361:352|362:344|362:344|359:347|359:347|343:346,1,180,0|0,1:0|1:0,0:0:0:0:
274,384,131403,1,2,1:2:0:0:
340,350,131499,102,0,B|340:347|340:347|343:341|343:341|335:342|335:342|339:338|339:338|332:286|332:286|335:282|335:282|327:283|327:283|330:278|330:278|323:228|323:228|327:222|327:222|319:223|319:223|322:220|322:220|321:204,1,180,0|0,1:0|1:0,0:0:0:0:
390,164,131784,6,0,B|400:165|400:165|405:162|405:162|404:170|404:170|408:166|408:166|460:173|460:173|464:170|464:170|463:178|463:178|468:175|468:175|480:177,1,112.5,2|0,1:2|1:0,0:0:0:0:
493,266,131975,6,0,B|483:265|483:265|478:268|478:268|479:260|479:260|475:264|475:264|423:257|423:257|419:260|419:260|420:252|420:252|415:255|415:255|403:253,1,112.5,4|2,1:2|1:2,0:0:0:0:
340,350,132165,6,0,B|350:351|350:351|355:348|355:348|354:356|354:356|358:352|358:352|410:359|410:359|414:356|414:356|413:364|413:364|418:361|418:361|430:363,2,112.5,0|2|4,1:0|1:2|1:1,0:0:0:0:
256,361,132519,102,0,B|256:353|256:353|260:349|260:349|252:350|252:350|255:346|255:346|255:294|255:294|259:289|259:289|251:290|251:290|255:286|255:286|256:278,1,104.400003186035,2|2,0:0|0:0,0:0:0:0:
256,14,132951,5,4,1:0:0:0:
256,281,133194,102,0,B|256:273|256:273|260:269|260:269|252:270|252:270|255:266|255:266|255:214|255:214|259:209|259:209|251:210|251:210|255:206|255:206|256:192,1,113.062500431299,2|2,0:0|0:0,0:0:0:0:
256,14,133600,5,4,1:0:0:0:
256,192,133809,102,0,B|256:184|256:184|260:180|260:180|252:181|252:181|255:177|255:177|255:125|255:125|259:120|259:120|251:121|251:121|255:117|255:117|256:103,1,113.062500431299,2|2,0:0|0:0,0:0:0:0:
256,14,134158,5,4,1:0:0:0:
256,103,134353,102,0,B|256:95|256:95|260:91|260:91|252:92|252:92|255:88|255:88|255:36|255:36|259:31|259:31|251:32|251:32|255:28|255:28|256:14,1,113.062500431299,2|2,0:0|0:0,0:0:0:0:
111,149,134679,5,4,1:0:0:0:
111,149,134860,102,0,B|112:141|112:141|116:137|116:137|108:137|108:137|112:134|112:134|119:82|119:82|123:78|123:78|115:77|115:77|120:74|120:74|123:60,1,113.062500431299,2|2,0:0|0:0,0:0:0:0:
377,186,135160,5,4,1:2:0:0:
377,186,135326,102,0,B|375:178|375:178|371:174|371:174|379:174|379:174|375:171|375:171|368:119|368:119|364:115|364:115|372:114|372:114|367:111|367:111|364:97,1,113.062500431299,2|2,3:2|3:2,0:0:0:0:
99,238,135604,5,4,1:2:0:0:
99,238,135761,102,0,B|100:230|100:230|104:226|104:226|96:226|96:226|100:223|100:223|107:171|107:171|111:167|111:167|103:166|103:166|108:163|108:163|111:149,1,113.062500431299,2|0,3:2|3:0,0:0:0:0:
390,275,136025,5,4,1:2:0:0:
390,275,136175,102,0,B|388:267|388:267|384:263|384:263|392:263|392:263|388:260|388:260|381:208|381:208|377:204|377:204|385:203|385:203|380:200|380:200|377:186,1,113.062500431299,2|2,3:2|1:2,0:0:0:0:
87,327,136425,5,4,1:2:0:0:
87,327,136567,102,0,B|88:319|88:319|92:315|92:315|84:315|84:315|88:312|88:312|95:260|95:260|99:256|99:256|91:255|91:255|96:252|96:252|99:238,1,113.062500431299,2|0,3:2|3:0,0:0:0:0:
256,192,136758,12,12,139758,1:2:0:0:
