osu file format v14

[General]
AudioFilename: audio.mp3
AudioLeadIn: 0
PreviewTime: 64561
Countdown: 0
SampleSet: Soft
StackLeniency: 0.2
Mode: 0
LetterboxInBreaks: 0
WidescreenStoryboard: 1

[Editor]
Bookmarks: 920,29279,54017,98757,139758
DistanceSpacing: 1
BeatDivisor: 5
GridSize: 4
TimelineZoom: 2.600002

[Metadata]
Title:Take
TitleUnicode:竹
Artist:Risshuu feat. Choko
ArtistUnicode:立秋 feat. ちょこ
Creator:yf_bmp
Version:Loli & yf's Extra
Source:
Tags:bamboo masato ishioh 石王マサト bofxvi the bms of fighters xvi arcaea muse dash video game japanese novelty rabbit usagi electronic ウサギ Muziyami Koiyuki wyrio Moecho Gust Yorita Yoshino toybot nika mika xLolicore- My Angel Watame dahkjdas
BeatmapID:2923999
BeatmapSetID:1376486

[Difficulty]
HPDrainRate:5.7
CircleSize:4
OverallDifficulty:8.5
ApproachRate:9.8
SliderMultiplier:1.8
SliderTickRate:1

[Events]
//Background and Video events
Video,0,"bga_take.mp4"
0,0,"bg_take.png",0,0
//Break Periods
2,24478,28800
//Storyboard Layer 0 (Background)
//Storyboard Layer 1 (Fail)
//Storyboard Layer 2 (Pass)
//Storyboard Layer 3 (Foreground)
//Storyboard Layer 4 (Overlay)
//Storyboard Sound Samples

[TimingPoints]
120,400,4,2,1,80,1,0
920,-62.5,4,2,1,80,0,0
1270,-62.5,4,2,1,5,0,0
1320,-62.5,4,2,1,80,0,0
1720,-76.9230769230769,4,2,1,80,0,0
4920,-66.6666666666667,4,2,1,80,0,0
6553,-66.6666666666667,4,2,1,5,0,0
6600,-66.6666666666667,4,2,1,80,0,0
6670,-66.6666666666667,4,2,1,80,0,0
6770,-66.6666666666667,4,2,1,80,0,0
6920,-76.9230769230769,4,2,1,80,0,0
8520,-62.5,4,2,1,80,0,0
9320,-58.8235294117647,4,2,1,80,0,0
10120,-55.5555555555556,4,2,1,80,0,0
10920,-52.6315789473684,4,2,1,80,0,0
11720,-76.9230769230769,4,2,1,80,0,0
13320,273.972602739726,4,2,1,80,1,0
13320,-125,4,2,1,80,0,0
13936,-125,4,2,1,5,0,0
14004,-125,4,2,1,80,0,0
14963,-125,4,2,1,80,0,0
15374,-76.9230769230769,4,2,1,80,0,0
19347,-62.5,4,2,1,80,0,0
19758,-76.9230769230769,4,2,1,80,0,0
22635,-76.9230769230769,4,2,2,80,0,0
23730,-38.4615384615385,4,2,1,80,0,0
23765,-38.4615384615385,4,2,1,5,0,0
24279,333.333333333333,4,2,1,40,1,0
29279,461.538461538462,4,2,1,80,1,0
29740,461.538461538462,4,2,1,80,1,0
29740,-133.333333333333,4,2,1,80,0,0
33894,422.535211267606,4,2,1,80,1,0
37697,387.096774193548,4,2,1,80,1,0
37697,-80,4,2,1,80,0,0
40116,-80,4,2,1,20,0,0
40213,-80,4,2,1,80,0,0
40309,-80,4,2,1,20,0,0
40406,-80,4,2,1,80,0,0
41181,363.636363636364,4,2,1,80,1,0
41181,-76.9230769230769,4,2,1,80,0,0
42636,342.857142857143,4,2,1,80,1,0
42636,-76.9230769230769,4,2,1,80,0,0
43064,-76.9230769230769,4,2,1,5,0,0
43150,-76.9230769230769,4,2,1,80,0,0
43236,-76.9230769230769,4,2,1,5,0,0
43321,-76.9230769230769,4,2,1,80,0,0
43407,-76.9230769230769,4,2,1,20,0,0
43493,-76.9230769230769,4,2,1,80,0,0
43578,-76.9230769230769,4,2,1,20,0,0
43664,-76.9230769230769,4,2,1,80,0,0
44007,-76.9230769230769,4,2,1,80,0,0
44350,327.868852459016,4,2,1,80,1,0
45989,-76.9230769230769,4,2,1,80,0,0
46645,-66.6666666666667,4,2,1,80,0,0
46973,307.692307692308,4,2,1,80,1,0
48819,-66.6666666666667,4,2,1,80,0,0
49434,300,4,2,1,80,1,0
49434,-83.3333333333333,4,2,1,80,0,0
49584,-125,4,2,1,80,0,0
50034,-83.3333333333333,4,2,1,80,0,0
50184,-125,4,2,1,80,0,0
50334,-200,4,2,1,80,0,0
50634,292.682926829268,4,2,1,80,1,0
51811,279.06976744186,4,2,1,80,1,0
51811,-133.333333333333,4,2,1,80,0,0
52922,273.972602739726,4,2,1,80,1,0
53058,-83.3333333333333,4,2,1,80,0,0
53195,-100,4,2,1,80,0,0
53469,-66.6666666666667,4,2,1,80,0,0
54017,307.692307692308,4,2,1,80,1,0
54632,-100,4,2,0,80,0,0
55864,273.972602739726,4,2,1,80,1,0
56274,-76.9230769230769,4,2,1,80,0,0
56411,273.972602739726,4,2,1,80,1,0
56684,-76.9230769230769,4,2,1,80,0,0
72301,-76.9230769230769,4,2,2,80,0,0
72849,-76.9230769230769,4,2,1,80,0,0
73946,276.497695852535,4,2,1,80,1,0
74015,-100,4,2,1,5,0,0
74084,-100,4,2,1,80,0,0
74153,-100,4,2,1,5,0,0
74222,292.682926829268,4,2,1,80,1,0
74295,-100,4,2,1,5,0,0
74368,-100,4,2,1,80,0,0
74441,-100,4,2,1,5,0,0
74515,307.692307692308,4,2,1,80,1,0
74591,-100,4,2,1,5,0,0
74668,-100,4,2,1,80,0,0
74745,-100,4,2,1,5,0,0
74823,327.868852459016,4,2,1,80,1,0
74904,-100,4,2,1,5,0,0
74986,-100,4,2,1,80,0,0
75068,-100,4,2,1,5,0,0
75150,-100,4,2,1,80,0,0
75314,-100,4,2,1,5,0,0
75588,-100,4,2,1,80,0,0
75601,-100,4,2,1,80,0,0
76462,327.868852459016,4,2,1,80,1,0
97445,-166.666666666667,4,2,1,80,0,0
97773,-166.666666666667,4,2,1,50,0,0
97882,-100,4,2,1,80,0,0
98757,-76.9230769230769,4,2,1,80,0,0
100724,-100,4,2,1,80,0,0
101380,-76.9230769230769,4,2,1,80,0,0
103628,-100,4,2,1,80,0,0
104002,-76.9230769230769,4,2,1,80,0,0
104658,-71.4285714285714,4,2,1,80,0,0
105314,-66.6666666666667,4,2,1,80,0,0
106093,-100,4,2,1,5,0,0
106134,-100,4,2,1,80,0,0
106953,-76.9230769230769,4,2,1,80,0,0
107609,-71.4285714285714,4,2,1,80,0,0
109248,-151.515151515152,4,2,1,80,0,0
111298,-100,4,2,1,30,0,0
111380,-100,4,2,1,80,0,0
111461,-100,4,2,1,30,0,0
111543,-100,4,2,1,80,0,0
111625,-100,4,2,1,30,0,0
111707,-151.515151515152,4,2,1,80,0,0
113839,-200,4,2,1,80,0,0
115150,-50,4,2,1,80,0,0
115273,-100,4,2,1,5,0,0
115806,521.739130434783,4,2,1,80,1,0
116850,375,4,2,1,80,1,0
117600,307.692307692308,4,2,1,80,1,0
117600,-151.515151515152,4,2,1,80,0,0
118215,272.727272727273,4,2,1,80,1,0
118215,-133.333333333333,4,2,1,80,0,0
118761,255.31914893617,4,2,1,80,1,0
118761,-133.333333333333,4,2,1,80,0,0
119271,235.294117647059,4,2,1,80,1,0
119271,-133.333333333333,4,2,1,80,0,0
119624,218.181818181818,4,2,1,80,1,0
119624,-66.6666666666667,4,2,1,80,0,0
119733,218.181818181818,4,2,1,80,1,0
119733,-66.6666666666667,4,2,1,80,0,0
123442,-83.3333333333333,4,2,1,80,0,0
125405,-66.6666666666667,4,2,1,80,0,0
125842,200,4,2,1,80,1,0
126547,190.47619047619,4,2,1,80,1,0
126547,-66.6666666666667,4,2,1,80,0,0
126642,190.47619047619,4,2,1,80,1,0
126642,-83.3333333333333,4,2,1,80,0,0
129594,-66.6666666666667,4,2,1,80,0,0
129784,-83.3333333333333,4,2,1,80,0,0
131118,-66.6666666666667,4,2,1,80,0,0
131594,-83.3333333333333,4,2,1,80,0,0
131784,-66.6666666666667,4,2,1,80,0,0
132356,218.181818181818,4,2,1,80,1,0
132720,461.538461538462,4,2,1,80,1,0
132951,324.324324324324,4,2,1,80,1,0
133600,279.06976744186,4,2,1,80,1,0
133600,-66.6666666666667,4,2,1,80,0,0
134158,260.869565217391,4,2,1,80,1,0
134158,-62.5,4,2,1,80,0,0
134680,240,4,2,1,80,1,0
134680,-58.8235294117647,4,2,1,80,0,0
135160,222.222222222222,4,2,1,80,1,0
135160,-55.5555555555556,4,2,1,80,0,0
135604,210.526315789474,4,2,1,80,1,0
135604,-55.5555555555556,4,2,1,80,0,0
136025,200,4,2,1,80,1,0
136025,-55.5555555555556,4,2,1,80,0,0
136425,190.47619047619,4,2,1,80,1,0
136425,-55.5555555555556,4,2,1,80,0,0
136758,750,4,2,1,80,1,0
136758,-200,4,2,1,80,0,0
139695,-100,4,2,1,5,0,0
139758,273.972602739726,4,2,1,80,1,0

[Colours]
Combo1 : 110,247,110
Combo2 : 255,98,89
Combo3 : 114,114,114
Combo4 : 255,227,147
Combo5 : 115,160,255
Combo6 : 196,95,243
Combo7 : 255,92,199
Combo8 : 118,194,33

[HitObjects]
464,333,920,6,0,B|466:294|441:270|441:270|442:264|442:264|437:267|437:267|394:235|348:260|348:260|343:260|343:260|342:264|342:264|317:280|312:320,1,252,2|0,2:1|0:0,0:0:0:0:
312,321,1320,1,2,0:0:0:0:
41,340,1720,6,0,B|48:278|48:278|57:274|57:274|63:200,1,140.399993572998,0|2,1:0|0:0,0:0:0:0:
104,136,2040,1,2,0:1:0:0:
49,77,2120,2,0,P|28:74|8:88,1,46.7999978576661,0|2,1:0|0:1,0:0:0:0:
156,68,2360,1,2,0:0:0:0:
285,50,2520,6,0,B|292:112|292:112|301:116|301:116|307:190,1,140.399993572998,0|2,1:0|0:0,0:0:0:0:
352,252,2840,1,2,0:1:0:0:
297,310,2920,2,0,P|275:313|254:299,1,46.7999978576661,0|2,1:0|0:1,0:0:0:0:
404,320,3160,1,2,0:0:0:0:
440,162,3320,6,0,B|378:169|378:169|374:178|374:178|300:184,1,140.399993572998,0|2,1:0|0:0,0:0:0:0:
239,232,3640,1,2,0:1:0:0:
181,177,3720,2,0,P|178:155|192:136,1,46.7999978576661,0|2,1:0|0:1,0:0:0:0:
171,285,3960,1,2,0:0:0:0:
0,352,4120,5,0,1:0:0:0:
155,377,4253,1,2,0:1:0:0:
100,231,4386,1,2,0:0:0:0:
85,319,4520,5,0,1:0:0:0:
85,319,4653,1,2,2:1:0:0:
85,319,4786,1,2,2:2:0:0:
239,359,4920,6,0,B|290:360|290:360|296:358|296:358|296:364|296:364|301:362|301:362|400:365,1,162.00000617981,0|2,1:0|0:0,0:0:0:0:
460,316,5240,1,2,0:1:0:0:
404,260,5320,2,0,L|350:264,1,54.0000020599366,0|2,1:0|0:1,0:0:0:0:
239,359,5560,1,2,0:0:0:0:
239,165,5720,6,0,B|290:163|290:163|296:166|296:166|296:160|296:160|301:162|301:162|400:158,1,162.00000617981,0|2,1:0|0:0,0:0:0:0:
460,204,6040,1,2,0:1:0:0:
404,260,6120,2,0,L|351:255,1,54.0000020599366,0|2,1:0|0:1,0:0:0:0:
239,165,6360,1,0,0:0:0:0:
333,41,6520,6,0,P|365:32|388:46,1,54.0000020599366,2|2,1:1|2:2,0:0:0:0:
407,65,6680,2,0,P|423:116|392:160,1,108.000004119873,0|2,0:0|0:1,0:0:0:0:
320,199,6920,6,0,B|250:193|250:193|243:187|243:187|176:180,1,140.399993572998,0|2,1:0|0:0,0:0:0:0:
122,123,7240,1,2,0:1:0:0:
177,64,7320,2,0,L|182:18,1,46.7999978576661,0|2,1:0|0:1,0:0:0:0:
241,235,7560,1,2,0:0:0:0:
44,308,7720,6,0,B|114:302|114:302|121:296|121:296|187:289,1,140.399993572998,0|2,1:0|0:0,0:0:0:0:
241,235,8040,1,2,0:1:0:0:
182,180,8120,2,0,L|176:133,1,46.7999978576661,0|2,1:0|0:1,0:0:0:0:
116,348,8360,1,2,0:0:0:0:
72,64,8520,6,0,B|67:105|67:105|62:110|62:110|70:111|70:111|65:117|65:117|54:232,1,172.8,0|2,1:0|0:0,0:0:0:0:
41,384,8840,1,2,0:1:0:0:
116,348,8920,2,0,L|173:340,1,57.6,0|2,1:0|0:1,0:0:0:0:
83,145,9160,1,2,0:0:0:0:
248,376,9320,6,0,B|253:329|253:329|258:324|258:324|250:323|250:323|255:316|255:316|267:190,1,183.600003501892,0|2,1:0|0:0,0:0:0:0:
280,48,9640,1,2,0:1:0:0:
204,80,9720,2,0,L|144:87,1,61.2000011672974,0|2,1:0|0:1,0:0:0:0:
234,288,9960,1,2,0:0:0:0:
416,32,10120,6,0,B|410:79|410:79|404:85|404:85|413:86|413:86|408:92|408:92|396:222,1,194.399994067383,0|2,1:0|0:0,0:0:0:0:
380,356,10440,1,2,0:1:0:0:
448,314,10520,2,0,L|512:308,1,64.799998022461,0|2,1:0|0:1,0:0:0:0:
425,117,10760,1,2,0:0:0:0:
33,308,10920,6,0,B|87:304|87:304|91:298|91:298|92:306|92:306|96:302|96:302|234:288,1,205.199994520569,0|2,1:0|0:0,0:0:0:0:
324,178,11240,1,2,0:1:0:0:
248,140,11320,2,0,L|240:212,1,68.399998173523,0|2,1:0|0:1,0:0:0:0:
383,356,11560,1,2,0:0:0:0:
451,314,11720,5,0,1:0:0:0:
348,259,11880,1,2,0:1:0:0:
315,255,11960,1,2,0:0:0:0:
282,251,12040,1,2,0:1:0:0:
304,329,12121,6,0,L|298:375,1,46.7999978576661,0|0,1:1|0:0,0:0:0:0:
459,320,12360,5,2,0:0:0:0:
215,299,12520,1,0,1:0:0:0:
282,124,12680,5,2,0:1:0:0:
325,119,12760,1,2,0:0:0:0:
368,114,12840,1,2,0:1:0:0:
320,208,12921,6,0,L|315:255,1,46.7999978576661,2|0,1:1|0:0,0:0:0:0:
338,21,13160,5,2,0:1:0:0:
326,202,13320,2,0,B|230:195|230:195|227:192|227:192|226:199|226:199|224:195|224:195|114:187|114:187|110:183|110:183|109:190|109:190|105:186|105:186|22:178,1,324,2|0,0:1|0:0,0:0:0:0:
12,176,14004,5,2,0:2:0:0:
12,176,14141,1,2,0:0:0:0:
12,176,14278,1,2,0:0:0:0:
12,176,14415,5,2,0:1:0:0:
138,163,14552,1,2,0:1:0:0:
151,289,14689,1,2,0:1:0:0:
25,302,14826,1,0,0:0:0:0:
81,232,14963,5,0,1:0:0:0:
256,252,15100,1,0,1:0:0:0:
430,271,15237,1,0,1:0:0:0:
464,145,15374,6,0,B|490:110|490:110|426:80|357:148|375:212,1,233.999989288331,4|2,1:1|0:0,0:0:0:0:
420,351,15785,2,0,B|449:353|460:312|460:312|454:272|430:271,1,116.999994644165,8|2,1:0|3:2,0:0:0:0:
288,240,16059,2,0,B|272:264|301:294|301:294|339:309|353:289,1,116.999994644165,2|2,1:3|3:2,0:0:0:0:
456,193,16265,1,0,0:0:0:0:
450,181,16333,2,0,B|436:155|396:165|396:165|364:190|375:212,1,116.999994644165,8|2,1:0|3:2,0:0:0:0:
145,355,16607,6,0,B|158:381|199:371|199:371|230:346|220:324,1,116.999994644165,0|2,1:0|3:2,0:0:0:0:
192,249,16813,1,0,0:0:0:0:
188,238,16881,2,0,B|174:212|134:222|134:222|102:247|113:269,1,116.999994644165,8|2,1:0|3:2,0:0:0:0:
270,262,17155,5,2,1:3:0:0:
68,336,17292,1,0,1:0:0:0:
270,262,17429,1,0,1:0:0:0:
200,371,17566,6,0,B|173:308|173:308|168:306|168:306|175:303|175:303|170:301|170:301|142:234|142:234|136:232|136:232|144:229|144:229|139:227|139:227|117:176,1,233.999989288331,0|2,1:2|3:2,0:0:0:0:
57,15,17977,1,8,1:0:0:0:
276,63,18114,1,2,3:2:0:0:
117,176,18251,2,0,B|97:121|97:121|124:69,1,116.999994644165,2|0,1:3|1:0,0:0:0:0:
133,54,18456,1,0,1:0:0:0:
142,39,18525,1,8,1:0:0:0:
222,216,18662,1,2,3:2:0:0:
28,196,18799,5,0,1:0:0:0:
13,185,18867,1,0,1:0:0:0:
18,168,18936,1,0,1:0:0:0:
36,168,19004,1,0,1:0:0:0:
42,184,19073,1,8,1:0:0:0:
237,139,19210,1,2,1:2:0:0:
432,94,19347,2,0,B|466:74|463:28|463:28|418:21|403:49,2,144,2|0|8,1:3|1:0|1:0,0:0:0:0:
459,169,19758,6,0,B|406:194|338:149|377:118|308:76|249:115,1,233.999989288331,4|2,1:1|3:2,0:0:0:0:
117,193,20169,2,0,B|84:194|67:169|67:169|80:143|117:145,1,116.999994644165,8|2,1:0|3:2,0:0:0:0:
256,220,20443,2,0,B|273:249|260:276|260:276|231:276|214:245,1,116.999994644165,2|2,1:3|1:2,0:0:0:0:
203,99,20648,1,0,0:0:0:0:
209,88,20717,2,0,B|226:59|256:57|256:57|270:81|252:112,1,116.999994644165,8|2,1:0|3:2,0:0:0:0:
141,271,20991,5,0,1:0:0:0:
308,360,21128,1,2,1:2:0:0:
371,271,21265,5,8,1:0:0:0:
204,360,21402,1,2,1:2:0:0:
187,365,21470,1,0,1:0:0:0:
170,358,21539,5,2,1:3:0:0:
39,270,21676,1,0,1:0:0:0:
82,118,21813,1,0,1:0:0:0:
239,109,21950,2,0,P|154:108|102:40,1,175.499991966248,2|0,1:2|0:0,0:0:0:0:
174,8,22224,5,0,1:0:0:0:
190,32,22292,1,0,1:0:0:0:
222,30,22361,1,8,1:0:0:0:
293,257,22498,1,0,1:0:0:0:
442,136,22635,6,0,L|384:129,1,58.4999973220826,2|0,1:3|0:0,0:0:0:0:
239,109,22772,2,0,L|297:116,1,58.4999973220826,2|0,1:2|0:0,0:0:0:0:
354,21,22909,6,0,L|347:79,1,58.4999973220826,2|0,1:2|0:0,0:0:0:0:
334,166,23046,2,0,L|327:224,1,58.4999973220826,0|0,1:0|0:0,0:0:0:0:
311,359,23183,5,0,1:0:0:0:
350,368,23251,1,0,1:0:0:0:
389,355,23320,1,6,1:2:0:0:
412,322,23388,1,0,1:0:0:0:
362,260,23456,6,0,P|333:259|311:278,1,58.4999973220826,0|0,1:2|0:0,0:0:0:0:
448,340,23593,6,0,P|463:365|490:374,1,58.4999973220826,4|0,1:2|0:0,0:0:0:0:
475,226,23730,6,0,P|490:200|484:172,1,58.4999973220826,2|0,1:3|0:0,0:0:0:0:
429,275,24278,5,4,1:1:0:0:
492,264,29279,5,2,0:0:0:0:
496,288,29394,1,2,0:1:0:0:
508,312,29509,1,2,0:2:0:0:
512,336,29625,1,2,0:1:0:0:
352,328,29740,6,0,P|382:304|430:302,1,67.5000025749208,0|2,1:0|0:0,0:0:0:0:
416,304,30086,1,2,0:1:0:0:
428,200,30201,5,0,1:0:0:0:
432,188,30432,1,2,2:1:0:0:
480,76,30663,5,0,1:0:0:0:
492,92,30894,1,2,0:2:0:0:
391,21,31124,5,0,1:0:0:0:
363,33,31355,1,2,0:2:0:0:
363,33,31586,6,0,B|331:37|311:9|311:9|319:37|311:61,1,101.250003862381,0|2,1:0|0:1,0:0:0:0:
304,92,32047,5,0,1:0:0:0:
296,136,32278,1,2,0:2:0:0:
424,236,32509,5,0,1:0:0:0:
348,200,32740,1,2,0:2:0:0:
264,216,32970,1,0,1:0:0:0:
201,274,33086,1,2,0:1:0:0:
256,204,33201,1,2,2:2:0:0:
188,264,33316,1,2,0:1:0:0:
156,260,33432,5,2,0:1:0:0:
256,168,33663,1,2,0:0:0:0:
116,268,33894,6,0,P|80:300|56:336,1,90,0|2,1:0|0:0,0:0:0:0:
48,328,34210,1,2,0:1:0:0:
208,352,34316,5,0,1:0:0:0:
40,308,34527,1,2,2:1:0:0:
48,168,34739,5,0,1:0:0:0:
72,132,34950,1,2,0:0:0:0:
212,72,35161,5,0,1:0:0:0:
220,112,35372,1,2,0:0:0:0:
376,88,35584,6,0,P|372:56|344:-10,1,90,0|2,1:0|0:2,0:0:0:0:
372,92,35901,1,2,0:1:0:0:
468,112,36006,2,0,P|438:99|367:90,1,90,0|2,1:0|0:0,0:0:0:0:
224,0,36429,5,0,1:0:0:0:
132,12,36640,1,2,0:0:0:0:
60,66,36851,1,0,1:0:0:0:
32,148,36957,1,2,0:1:0:0:
60,236,37063,1,2,2:0:0:0:
33,154,37168,1,2,2:1:0:0:
60,112,37274,5,2,0:1:0:0:
104,256,37485,1,2,0:0:0:0:
248,316,37697,6,0,P|188:289|141:253,1,112.5,0|2,1:0|0:0,0:0:0:0:
136,264,37987,1,2,0:1:0:0:
264,216,38084,5,0,1:0:0:0:
120,288,38277,1,2,2:1:0:0:
320,276,38471,1,0,1:0:0:0:
120,332,38664,1,2,0:0:0:0:
184,384,38858,1,0,1:0:0:0:
268,368,39051,1,2,0:0:0:0:
404,264,39245,6,0,P|412:212|424:152,1,112.5,0|2,1:0|2:2,0:0:0:0:
432,148,39535,1,2,0:1:0:0:
428,292,39632,1,0,1:0:0:0:
464,136,39826,1,2,0:1:0:0:
344,192,40019,5,0,1:0:0:0:
340,100,40213,1,2,0:0:0:0:
286,28,40406,1,0,1:1:0:0:
204,0,40503,1,2,0:1:0:0:
116,28,40600,1,2,0:2:0:0:
198,1,40697,1,2,0:1:0:0:
96,72,40793,5,2,0:1:0:0:
240,28,40987,1,2,0:0:0:0:
112,128,41181,6,0,P|65:147|0:156,1,116.999994644165,0|2,1:0|0:0,0:0:0:0:
4,148,41453,1,2,0:1:0:0:
140,108,41544,5,0,1:0:0:0:
24,244,41726,1,2,2:1:0:0:
196,204,41908,2,0,P|253:210|308:231,1,116.999994644165,0|2,1:0|0:2,0:0:0:0:
228,312,42271,1,0,1:1:0:0:
272,112,42453,1,2,0:0:0:0:
196,204,42636,6,0,P|230:219|192:208,1,116.999994644165,0|2,1:0|2:0,0:0:0:0:
184,204,42893,5,2,0:1:0:0:
344,160,42978,1,0,1:0:0:0:
164,240,43150,1,2,0:0:0:0:
380,180,43321,5,0,1:0:0:0:
384,192,43493,1,2,0:0:0:0:
388,204,43664,5,0,1:0:0:0:
336,220,43750,1,0,0:0:0:0:
288,248,43836,1,2,0:0:0:0:
252,288,43921,1,0,0:0:0:0:
188,376,44007,6,0,L|177:318,1,58.4999973220826,0|0,1:0|0:0,0:0:0:0:
164,240,44178,2,0,L|153:182,1,58.4999973220826,2|0,0:0|0:0,0:0:0:0:
52,36,44350,5,0,1:0:0:0:
88,68,44431,1,0,1:0:0:0:
100,116,44513,1,10,1:2:0:0:
204,16,44677,5,0,1:0:0:0:
204,64,44758,1,0,1:0:0:0:
180,106,44840,1,8,1:0:0:0:
316,120,45005,5,0,1:0:0:0:
284,154,45086,1,0,1:0:0:0:
235,167,45168,1,10,1:2:0:0:
304,268,45333,5,0,1:0:0:0:
257,269,45497,5,8,1:0:0:0:
213,243,45579,1,0,1:0:0:0:
133,263,45661,5,0,1:0:0:0:
145,312,45743,1,0,1:0:0:0:
180,344,45824,1,8,1:2:0:0:
72,200,45989,6,0,P|58:225|48:264,1,58.4999973220826,0|0,1:0|1:0,0:0:0:0:
56,336,46153,1,8,1:0:0:0:
56,336,46235,1,0,1:0:0:0:
180,344,46317,5,0,1:0:0:0:
164,344,46371,1,2,0:2:0:0:
148,348,46426,1,2,0:1:0:0:
136,356,46481,1,8,1:2:0:0:
364,312,46645,6,0,P|387:306|440:276,1,67.5000025749208,0|0,1:0|0:0,0:0:0:0:
284,336,46809,2,0,P|239:344|183:336,1,101.250003862381,2|0,3:2|0:0,0:0:0:0:
184,336,46973,6,0,L|192:388,1,45,0|0,1:0|1:0,0:0:0:0:
232,260,47126,2,0,L|224:208,1,45,10|2,1:2|3:1,0:0:0:0:
232,84,47280,5,0,1:0:0:0:
188,56,47357,1,2,1:1:0:0:
168,12,47434,1,8,1:1:0:0:
172,4,47588,5,2,1:3:0:0:
88,32,47665,1,2,1:1:0:0:
112,72,47742,1,8,1:2:0:0:
107,121,47819,1,0,1:2:0:0:
31,167,47896,6,0,L|76:160,1,45,2|0,1:2|1:0,0:0:0:0:
128,320,48049,2,0,L|80:328,1,45,2|0,1:1|1:0,0:0:0:0:
220,212,48203,1,0,1:0:0:0:
220,212,48280,1,0,1:0:0:0:
220,212,48357,5,8,1:2:0:0:
296,172,48511,1,0,1:0:0:0:
382,190,48665,1,8,1:1:0:0:
382,190,48742,1,2,1:1:0:0:
431,246,48819,2,0,P|400:209|378:189,1,67.5000025749208,0|0,1:0|1:0,0:0:0:0:
254,113,48973,2,0,P|285:150|307:170,1,67.5000025749208,10|0,1:2|1:0,0:0:0:0:
306,166,49126,6,0,L|227:152,1,67.5000025749208,0|0,1:0|0:0,0:0:0:0:
27,21,49280,2,0,L|97:35,1,67.5000025749208,2|0,3:2|1:0,0:0:0:0:
200,172,49434,6,0,P|207:214|208:232,1,53.9999983520508,0|0,1:0|1:0,0:0:0:0:
211,234,49584,2,0,L|168:240,1,36,10|2,1:2|3:1,0:0:0:0:
96,360,49734,5,0,1:0:0:0:
116,324,49809,1,2,1:1:0:0:
152,344,49884,1,8,1:1:0:0:
88,112,50034,6,0,P|95:154|96:167,1,53.9999983520508,2|2,1:3|1:1,0:0:0:0:
99,174,50184,2,0,L|56:180,1,36,8|0,1:2|3:0,0:0:0:0:
8,348,50334,6,0,P|47:326|87:320,1,67.5,0|2,1:0|1:1,0:0:0:0:
304,332,50634,5,0,1:0:0:0:
268,312,50707,1,0,1:0:0:0:
248,348,50780,1,10,1:2:0:0:
212,328,50853,1,0,1:0:0:0:
192,364,50926,1,0,1:0:0:0:
168,84,51073,5,8,1:1:0:0:
212,72,51146,1,2,1:1:0:0:
244,104,51219,1,0,1:0:0:0:
244,112,51365,5,8,1:2:0:0:
400,204,51512,5,0,1:0:0:0:
501,170,51609,5,0,1:0:0:0:
474,271,51707,5,0,1:0:0:0:
412,191,51811,5,0,0:0:0:0:
412,191,51880,1,0,1:0:0:0:
412,191,51950,2,0,L|356:184,1,33.7500012874604,10|2,1:2|1:1,0:0:0:0:
378,328,52090,5,0,1:0:0:0:
378,328,52159,1,0,1:0:0:0:
378,328,52229,2,0,L|390:264,1,33.7500012874604,8|2,1:1|1:1,0:0:0:0:
344,124,52369,5,2,1:3:0:0:
308,184,52462,5,0,1:0:0:0:
248,148,52555,5,0,1:0:0:0:
212,208,52648,5,0,1:0:0:0:
152,172,52741,5,0,1:0:0:0:
116,232,52834,5,0,1:0:0:0:
56,196,52922,5,4,1:2:0:0:
56,196,53058,2,0,P|68:164|72:128,1,53.9999983520508,8|2,1:2|1:1,0:0:0:0:
12,64,53195,6,0,L|34:59,2,22.5,0|0|0,1:0|1:0|1:0,0:0:0:0:
216,76,53332,2,0,L|194:80,2,22.5,8|0|0,1:1|1:0|1:0,0:0:0:0:
132,12,53469,6,0,L|108:100,1,67.5000025749208,4|0,1:2|1:0,0:0:0:0:
48,212,53606,2,0,L|72:124,1,67.5000025749208,4|0,1:2|1:0,0:0:0:0:
224,88,53743,2,0,L|190:96,6,33.7500012874604,0|2|0|0|0|0|0,1:2|1:2|1:2|1:2|1:2|1:0|1:0,0:0:0:0:
256,248,54017,5,4,0:2:0:0:
371,358,54632,5,2,0:0:0:0:
364,331,54786,1,2,0:0:0:0:
390,325,54940,1,2,0:0:0:0:
397,351,55093,1,2,0:0:0:0:
387,159,55247,5,2,0:0:0:0:
448,265,55401,1,2,0:1:0:0:
364,246,55555,1,0,0:0:0:0:
471,181,55708,1,2,0:1:0:0:
455,70,55864,5,0,1:0:0:0:
274,142,56000,1,0,1:0:0:0:
287,336,56137,1,0,1:0:0:0:
474,382,56274,2,0,P|394:304|287:336,1,233.999989288331,4|2,1:1|3:2,0:0:0:0:
130,371,56684,5,8,1:0:0:0:
40,342,56821,1,2,3:2:0:0:
180,216,56958,5,2,1:3:0:0:
199,308,57095,1,2,3:2:0:0:
21,250,57232,5,8,1:0:0:0:
91,187,57369,1,2,3:2:0:0:
290,16,57506,5,0,1:0:0:0:
156,140,57643,1,2,3:2:0:0:
161,8,57780,5,8,1:0:0:0:
282,145,57917,1,2,3:2:0:0:
221,76,58054,5,2,1:3:0:0:
221,76,58191,1,0,1:0:0:0:
221,76,58328,1,0,1:0:0:0:
504,121,58465,6,0,B|403:135|445:67|339:84,1,175.499991966248,2|0,1:2|0:0,0:0:0:0:
339,84,58739,1,2,3:2:0:0:
477,42,58876,1,8,1:0:0:0:
401,205,59013,1,2,3:2:0:0:
222,183,59150,1,2,1:3:0:0:
187,5,59287,1,2,3:2:0:0:
204,5,59356,1,0,0:0:0:0:
210,17,59424,5,8,1:0:0:0:
339,84,59561,1,2,3:2:0:0:
468,151,59698,1,0,1:0:0:0:
492,160,59767,1,0,1:0:0:0:
506,139,59835,1,0,1:0:0:0:
492,119,59904,1,0,1:0:0:0:
468,126,59972,5,8,1:0:0:0:
328,239,60109,1,0,1:0:0:0:
188,352,60246,5,2,1:3:0:0:
395,376,60383,1,2,1:2:0:0:
419,169,60520,1,0,1:0:0:0:
211,144,60657,6,0,P|243:249|353:251,1,233.999989288331,4|0,1:0|3:0,0:0:0:0:
437,27,61068,2,0,B|442:145|494:65|501:181,1,175.499991966248,8|0,1:0|0:0,0:0:0:0:
501,192,61342,5,2,1:3:0:0:
419,169,61479,1,0,3:2:0:0:
270,274,61616,5,8,1:0:0:0:
352,251,61753,1,2,3:2:0:0:
295,78,61890,5,0,1:0:0:0:
87,135,62027,1,2,3:2:0:0:
162,2,62164,5,8,1:0:0:0:
219,210,62301,1,0,3:2:0:0:
9,154,62438,5,2,1:3:0:0:
3,140,62506,1,0,0:0:0:0:
3,125,62574,1,0,1:0:0:0:
6,111,62643,1,0,0:0:0:0:
14,99,62711,1,0,1:0:0:0:
190,106,62849,6,0,B|182:169|182:169|178:172|178:172|185:173|185:173|181:177|181:177|161:328,1,233.999989288331,2|2,1:2|1:2,0:0:0:0:
87,361,63191,1,0,1:0:0:0:
70,365,63260,2,0,P|36:318|50:263,1,116.999994644165,8|0,1:0|1:0,0:0:0:0:
178,172,63534,1,2,1:3:0:0:
254,322,63671,2,0,P|252:350|232:371,1,58.4999973220826,0|0,1:0|0:0,0:0:0:0:
50,263,63808,2,0,L|166:252,1,116.999994644165,8|0,1:0|1:0,0:0:0:0:
373,250,64082,6,0,L|383:192,1,58.4999973220826,0|0,1:0|1:0,0:0:0:0:
253,211,64219,6,0,P|278:225|293:250,1,58.4999973220826,0|0,1:0|1:0,0:0:0:0:
445,289,64356,2,0,P|466:270|495:265,1,58.4999973220826,0|0,1:0|0:0,0:0:0:0:
354,326,64493,5,0,1:0:0:0:
383,192,64630,5,2,1:2:0:0:
383,192,64767,1,0,1:2:0:0:
383,192,64904,1,0,1:2:0:0:
256,48,65041,6,0,B|194:24|128:51|174:79|109:124|43:90,1,233.999989288331,4|2,1:0|3:2,0:0:0:0:
85,20,65452,5,8,1:0:0:0:
101,148,65589,1,2,3:2:0:0:
144,219,65726,5,2,1:3:0:0:
160,91,65863,1,2,3:2:0:0:
43,204,66000,5,8,1:0:0:0:
59,332,66137,1,2,3:2:0:0:
288,240,66274,5,0,1:0:0:0:
144,219,66411,1,2,3:2:0:0:
59,332,66547,5,8,1:0:0:0:
203,311,66684,1,2,3:2:0:0:
347,290,66821,5,2,1:3:0:0:
347,290,66958,1,0,1:0:0:0:
347,290,67095,1,8,1:0:0:0:
496,340,67232,6,0,P|432:284|347:290,1,175.499991966248,2|0,1:2|1:0,0:0:0:0:
333,304,67506,1,2,1:2:0:0:
253,167,67643,1,8,1:0:0:0:
391,357,67780,1,2,3:2:0:0:
256,280,67917,2,0,L|277:165,1,116.999994644165,2|2,1:3|1:2,0:0:0:0:
281,153,68123,1,0,1:0:0:0:
284,141,68191,5,8,1:0:0:0:
180,16,68328,1,2,3:2:0:0:
28,76,68465,1,0,1:0:0:0:
26,58,68534,1,0,1:0:0:0:
42,51,68602,1,0,1:0:0:0:
53,64,68671,1,0,1:0:0:0:
45,79,68739,5,8,1:0:0:0:
205,93,68876,1,2,1:2:0:0:
364,107,69013,2,0,P|384:54|348:12,1,116.999994644165,2|2,1:3|1:2,0:0:0:0:
281,153,69287,1,0,1:0:0:0:
201,311,69424,6,0,B|256:308|276:357|276:357|355:365|355:365|382:312,1,233.999989288331,4|0,1:0|3:2,0:0:0:0:
402,180,69835,2,0,B|486:170|486:170|511:189,1,116.999994644165,8|2,1:0|3:2,0:0:0:0:
382,312,70109,1,2,1:3:0:0:
229,214,70246,1,0,3:2:0:0:
229,214,70315,1,0,0:0:0:0:
229,214,70383,2,0,P|200:164|214:108,1,116.999994644165,8|2,1:0|3:2,0:0:0:0:
291,0,70657,5,0,1:0:0:0:
307,6,70726,1,0,0:0:0:0:
313,22,70794,1,2,3:2:0:0:
281,153,70931,1,8,1:0:0:0:
146,163,71068,1,0,3:0:0:0:
11,173,71205,5,2,1:3:0:0:
21,177,71274,1,0,0:0:0:0:
31,181,71342,1,0,1:0:0:0:
41,185,71411,1,0,0:0:0:0:
51,189,71479,1,0,1:0:0:0:
113,384,71616,6,0,B|122:321|122:321|126:318|126:318|119:317|119:317|123:313|123:313|146:163,1,233.999989288331,2|2,1:2|1:2,0:0:0:0:
47,67,71958,1,0,1:0:0:0:
31,72,72027,2,0,B|-2:78|-2:78|74:109,1,116.999994644165,8|0,1:0|1:0,0:0:0:0:
227,162,72301,1,2,1:3:0:0:
322,31,72438,2,0,P|301:13|272:12,1,58.4999973220826,0|0,1:0|0:0,0:0:0:0:
165,47,72575,2,0,L|146:162,1,116.999994644165,0|0,1:0|1:0,0:0:0:0:
113,384,72849,5,0,1:0:0:0:
122,369,72917,1,0,1:0:0:0:
136,359,72986,1,0,1:0:0:0:
152,353,73054,1,0,1:0:0:0:
169,351,73123,1,4,1:2:0:0:
324,335,73260,1,0,1:0:0:0:
479,319,73397,1,2,1:3:0:0:
471,329,73671,6,0,L|477:270,1,58.4999973220826,2|2,0:0|0:0,0:0:0:0:
468,270,73808,2,0,L|474:211,1,58.4999973220826,2|2,0:0|0:0,0:0:0:0:
487,132,73946,5,2,1:2:0:0:
397,109,74084,1,2,2:2:0:0:
386,235,74222,5,2,2:2:0:0:
296,258,74368,1,2,2:2:0:0:
256,148,74514,5,2,2:2:0:0:
166,125,74668,1,2,2:2:0:0:
160,208,74823,5,2,2:2:0:0:
70,231,74986,1,2,2:2:0:0:
0,176,75150,5,2,3:3:0:0:
256,192,75588,1,2,0:0:0:0:
512,208,76025,1,2,0:0:0:0:
503,200,76462,5,0,1:0:0:0:
421,221,76680,1,2,0:0:0:0:
375,149,76899,1,2,0:1:0:0:
308,40,77117,5,4,1:3:0:0:
390,19,77336,1,2,0:0:0:0:
436,91,77554,1,2,0:1:0:0:
316,208,77773,5,0,1:0:0:0:
224,196,77992,1,2,0:0:0:0:
132,184,78210,1,2,1:1:0:0:
5,165,78429,5,8,1:2:0:0:
117,64,78647,2,0,L|132:184,1,120,2|2,0:0|0:1,0:0:0:0:
220,356,79084,5,0,1:0:0:0:
107,328,79303,1,2,0:0:0:0:
187,245,79522,1,2,0:1:0:0:
341,245,79740,5,4,1:3:0:0:
421,328,79959,1,2,0:0:0:0:
308,356,80178,1,2,0:1:0:0:
288,168,80396,5,0,1:0:0:0:
392,180,80615,1,2,0:0:0:0:
496,192,80833,1,2,1:1:0:0:
488,0,81052,5,8,1:2:0:0:
384,63,81270,2,0,B|376:84|376:84|392:180,1,120,2|2,0:0|0:1,0:0:0:0:
273,268,81707,5,0,1:0:0:0:
198,245,81871,1,2,0:2:0:0:
313,138,82035,5,2,0:1:0:0:
330,214,82199,1,2,1:2:0:0:
181,169,82363,5,4,1:3:0:0:
238,115,82527,1,2,0:2:0:0:
256,192,82691,5,2,0:1:0:0:
256,192,82855,1,2,0:2:0:0:
124,221,83019,5,0,1:0:0:0:
49,198,83183,1,2,0:2:0:0:
48,321,83347,5,2,0:1:0:0:
123,298,83511,1,2,0:2:0:0:
388,221,83675,5,8,1:2:0:0:
463,198,83839,1,2,0:0:0:0:
464,321,84003,5,2,0:1:0:0:
389,298,84167,1,2,0:0:0:0:
198,274,84330,5,0,1:0:0:0:
248,352,84494,1,2,0:2:0:0:
256,368,84576,1,0,1:0:0:0:
264,352,84658,1,2,0:1:0:0:
314,274,84822,1,2,1:2:0:0:
208,107,84986,5,4,1:3:0:0:
108,174,85150,1,2,0:0:0:0:
192,191,85314,5,2,0:1:0:0:
124,90,85478,1,2,0:0:0:0:
388,90,85642,5,0,1:0:0:0:
320,191,85806,1,2,0:2:0:0:
404,174,85970,5,2,0:1:0:0:
304,107,86134,1,2,0:2:0:0:
256,8,86298,5,8,1:2:0:0:
228,152,86461,1,2,0:2:0:0:
278,259,86625,5,2,0:1:0:0:
261,348,86788,1,2,0:2:0:0:
120,372,86953,5,0,1:0:0:0:
51,348,87084,1,2,0:1:0:0:
52,274,87216,1,2,0:1:0:0:
122,252,87347,1,2,0:0:0:0:
164,311,87478,1,2,1:2:0:0:
115,356,87609,5,4,1:3:0:0:
64,338,87740,1,2,0:1:0:0:
64,283,87872,1,2,0:1:0:0:
116,267,88003,1,2,0:2:0:0:
148,311,88134,1,2,0:2:0:0:
256,332,88265,5,0,1:0:0:0:
293,310,88396,1,2,0:1:0:0:
301,267,88527,1,2,0:1:0:0:
337,290,88658,1,2,1:2:0:0:
379,285,88789,1,2,1:2:0:0:
496,256,88921,5,8,1:2:0:0:
463,371,89052,1,2,0:2:0:0:
379,285,89183,1,2,0:1:0:0:
412,170,89314,1,0,1:2:0:0:
412,170,89445,1,2,0:2:0:0:
493,132,89576,5,0,1:0:0:0:
457,77,89707,1,2,0:1:0:0:
392,67,89839,1,2,0:1:0:0:
338,103,89970,1,2,0:2:0:0:
325,166,90101,1,2,1:2:0:0:
467,125,90232,5,4,1:3:0:0:
441,85,90363,1,2,0:1:0:0:
394,78,90495,1,2,0:1:0:0:
355,104,90626,1,2,0:2:0:0:
345,150,90757,1,2,0:2:0:0:
292,240,90888,5,0,1:0:0:0:
239,235,91019,1,2,0:1:0:0:
187,230,91150,1,2,0:1:0:0:
135,225,91281,1,2,1:2:0:0:
83,221,91412,1,2,1:2:0:0:
14,180,91543,5,8,1:2:0:0:
179,150,91675,1,2,0:2:0:0:
209,315,91806,1,2,0:1:0:0:
44,345,91937,2,0,B|22:318|22:318|31:282,1,72,0|2,1:0|1:2,0:0:0:0:
96,136,92199,5,0,1:0:0:0:
30,126,92308,1,2,0:2:0:0:
5,65,92418,1,2,0:1:0:0:
46,13,92527,1,2,0:2:0:0:
111,22,92636,1,2,0:1:0:0:
136,83,92746,1,2,1:2:0:0:
161,144,92855,5,4,1:3:0:0:
226,153,92965,1,2,0:2:0:0:
267,101,93074,1,2,0:1:0:0:
242,40,93183,1,2,0:2:0:0:
176,30,93293,1,2,0:1:0:0:
136,83,93402,1,2,0:2:0:0:
96,135,93511,5,0,1:0:0:0:
54,186,93620,1,2,0:2:0:0:
77,247,93730,1,2,1:1:0:0:
143,257,93839,1,2,0:2:0:0:
184,206,93948,1,2,1:1:0:0:
161,144,94058,1,2,0:2:0:0:
136,83,94166,5,8,1:2:0:0:
111,22,94276,1,2,3:2:0:0:
46,13,94385,1,2,0:0:0:0:
5,65,94494,1,2,1:1:0:0:
30,126,94604,1,2,1:1:0:0:
96,136,94713,1,0,0:1:0:0:
416,136,94822,5,0,1:0:0:0:
482,126,94931,1,2,0:2:0:0:
507,65,95041,1,2,0:1:0:0:
466,13,95150,1,2,1:2:0:0:
401,22,95259,1,2,1:1:0:0:
376,83,95369,1,2,1:2:0:0:
351,144,95478,5,4,1:3:0:0:
286,153,95588,1,2,0:2:0:0:
245,101,95697,1,2,0:1:0:0:
270,40,95806,1,2,0:2:0:0:
336,30,95916,1,2,0:1:0:0:
376,83,96025,1,2,0:2:0:0:
416,135,96134,5,0,1:0:0:0:
458,186,96243,1,2,0:2:0:0:
435,247,96353,1,2,0:1:0:0:
369,257,96462,1,2,0:2:0:0:
328,206,96571,1,2,1:1:0:0:
351,144,96681,1,2,1:2:0:0:
376,83,96789,5,8,1:2:0:0:
401,22,96899,1,2,0:2:0:0:
466,13,97008,1,2,0:0:0:0:
507,65,97117,1,2,1:1:0:0:
482,126,97227,1,2,1:1:0:0:
416,136,97336,1,2,1:2:0:0:
256,32,97445,6,0,B|256:56|256:56|252:60|252:60|260:60|260:60|256:64|256:64|256:88|256:88|260:92|260:92|252:92|252:92|256:96|256:96|256:117,1,107.999996704102,2|0,0:0|0:0,0:0:0:0:
209,223,97882,5,2,0:1:0:0:
302,277,97992,1,2,0:1:0:0:
209,277,98101,5,2,0:1:0:0:
302,223,98211,1,2,0:1:0:0:
256,304,98320,5,2,0:1:0:0:
256,196,98429,2,0,L|256:218,1,22.5,8|0,2:3|0:0,0:0:0:0:
104,128,98757,5,0,1:0:0:0:
64,120,98850,1,2,3:2:0:0:
20,136,98944,1,2,3:2:0:0:
0,188,99038,1,0,1:2:0:0:
28,240,99131,1,2,3:2:0:0:
92,252,99225,1,0,1:0:0:0:
140,196,99319,1,2,1:2:0:0:
104,128,99412,5,4,1:3:0:0:
144,136,99505,1,2,3:2:0:0:
188,120,99599,1,0,1:0:0:0:
208,68,99693,1,2,1:2:0:0:
180,16,99786,1,2,3:2:0:0:
116,4,99880,1,0,1:0:0:0:
68,60,99974,1,2,1:2:0:0:
136,68,100068,5,0,1:0:0:0:
136,68,100162,1,2,1:2:0:0:
136,68,100255,1,0,1:0:0:0:
160,0,100349,1,2,1:2:0:0:
209,51,100443,2,0,P|257:55|293:47,1,66.8571397966659,0|2,1:2|3:2,0:0:0:0:
399,41,100630,1,2,1:2:0:0:
331,5,100724,5,8,1:1:0:0:
275,53,100818,1,2,3:2:0:0:
287,117,100912,1,0,1:0:0:0:
339,145,101005,1,2,1:2:0:0:
391,125,101099,1,0,1:0:0:0:
407,81,101193,1,2,3:2:0:0:
399,41,101286,1,0,1:0:0:0:
391,125,101380,5,0,1:0:0:0:
431,117,101473,1,2,3:2:0:0:
475,133,101567,1,0,1:0:0:0:
495,185,101661,1,2,3:2:0:0:
467,237,101754,1,0,1:0:0:0:
403,249,101848,1,2,3:2:0:0:
355,193,101942,1,0,1:0:0:0:
391,125,102035,5,4,1:3:0:0:
384,192,102128,1,2,1:2:0:0:
380,260,102222,1,0,1:0:0:0:
372,328,102316,1,2,1:2:0:0:
328,276,102409,1,2,1:2:0:0:
284,224,102503,1,0,1:0:0:0:
240,172,102597,1,2,1:2:0:0:
176,148,102691,5,0,1:0:0:0:
160,212,102785,1,2,1:2:0:0:
113,165,102878,1,0,1:0:0:0:
113,165,102925,1,0,1:0:0:0:
113,165,102972,1,2,1:2:0:0:
76,220,103066,1,0,1:0:0:0:
76,220,103159,2,0,L|0:204,1,66.8571397966659,2|0,1:2|1:0,0:0:0:0:
76,52,103347,6,0,L|0:68,2,66.8571397966659,8|0|0,1:1|0:0|1:0,0:0:0:0:
90,57,103581,1,0,1:0:0:0:
105,61,103628,2,0,P|112:36|104:0,3,51.4285714285714,0|2|2|2,1:0|2:0|0:0|0:0,0:0:0:0:
296,0,104002,5,0,1:0:0:0:
303,32,104084,1,0,1:0:0:0:
293,65,104166,1,0,1:0:0:0:
273,92,104248,1,0,1:0:0:0:
241,103,104330,2,0,P|209:105|182:87,1,58.4999973220826,0|2,1:0|3:2,0:0:0:0:
407,61,104494,2,0,P|432:47|461:50,1,58.4999973220826,0|0,1:0|1:0,0:0:0:0:
344,172,104658,5,4,1:3:0:0:
333,218,104740,1,0,1:0:0:0:
348,266,104822,1,0,1:0:0:0:
378,305,104904,1,0,1:0:0:0:
423,322,104986,2,0,P|464:324|496:300,3,62.9999980773926,0|2|0|2,1:0|1:2|3:0|1:2,0:0:0:0:
268,272,105314,5,0,1:0:0:0:
243,320,105396,1,0,1:0:0:0:
193,349,105478,1,0,1:0:0:0:
137,360,105560,1,0,1:0:0:0:
83,340,105642,2,0,P|56:320|36:288,1,67.5000025749208,0|2,1:0|1:2,0:0:0:0:
0,184,105806,2,0,P|-3:141|3:110,1,67.5000025749208,0|2,3:0|3:2,0:0:0:0:
116,33,105970,5,8,1:0:0:0:
176,17,106052,1,0,0:0:0:0:
233,42,106134,2,0,L|256:24,1,22.5,0|0,1:0|1:0,0:0:0:0:
263,96,106216,2,0,L|296:92,1,22.5,0|0,1:0|1:0,0:0:0:0:
245,153,106298,1,0,1:0:0:0:
198,192,106380,1,0,3:0:0:0:
135,199,106461,2,0,L|124:232,1,22.5,0|0,1:0|1:0,0:0:0:0:
87,162,106543,2,0,L|56:180,1,22.5,0|0,1:0|0:0,0:0:0:0:
77,100,106626,5,0,1:0:0:0:
23,129,106708,1,0,1:0:0:0:
0,184,106790,1,0,1:0:0:0:
13,244,106872,1,2,1:2:0:0:
57,288,106954,2,0,P|88:300|128:288,1,58.4999973220826,0|2,1:0|3:2,0:0:0:0:
204,128,107117,2,0,P|192:159|204:199,1,58.4999973220826,0|2,1:0|1:2,0:0:0:0:
300,280,107282,5,4,1:3:0:0:
352,248,107364,1,0,1:0:0:0:
412,244,107446,1,0,1:0:0:0:
468,264,107528,1,2,1:2:0:0:
512,308,107609,2,0,P|511:328|507:348,3,31.4999990386963,0|0|0|0,1:0|1:0|1:0|1:0,0:0:0:0:
508,308,107773,6,0,P|504:356|492:392,1,62.9999980773926,0|2,1:0|1:2,0:0:0:0:
294,310,107937,2,0,P|297:290|303:270,2,31.4999990386963,0|0|0,1:0|1:0|1:0,0:0:0:0:
432,140,108101,1,0,1:0:0:0:
468,124,108183,1,2,1:2:0:0:
507,125,108265,2,0,P|512:111|512:88,1,31.4999990386963,0|0,1:0|1:0,0:0:0:0:
476,151,108347,2,0,P|496:148|512:128,1,31.4999990386963,0|0,1:0|1:0,0:0:0:0:
436,156,108429,1,0,1:0:0:0:
397,145,108511,1,2,1:2:0:0:
368,116,108593,6,0,L|392:76,1,31.4999990386963,2|0,1:2|1:0,0:0:0:0:
318,79,108675,2,0,L|332:40,1,31.4999990386963,0|0,1:0|0:0,0:0:0:0:
258,81,108757,2,0,L|248:40,1,31.4999990386963,2|0,1:2|1:0,0:0:0:0:
206,110,108839,2,0,L|184:84,1,31.4999990386963,0|0,1:0|0:0,0:0:0:0:
171,159,108921,2,0,L|192:196,1,31.4999990386963,2|0,1:2|1:0,0:0:0:0:
126,200,109002,2,0,L|128:240,1,31.4999990386963,0|0,1:0|1:0,0:0:0:0:
66,210,109085,2,0,P|22:204|-4:183,1,62.9999980773926,0|0,1:0|1:0,0:0:0:0:
0,36,109249,6,0,P|80:24|96:112,1,178.199999456177,2|0,1:2|0:0,0:0:0:0:
64,204,109905,2,0,P|62:242|73:281,1,59.3999998187256,2|0,2:2|0:0,0:0:0:0:
164,312,110232,2,0,P|166:350|155:389,1,59.3999998187256,2|0,0:0|0:0,0:0:0:0:
0,360,110560,5,2,0:0:0:0:
40,336,110724,1,0,0:0:0:0:
88,344,110888,1,2,2:2:0:0:
128,320,111052,1,2,0:0:0:0:
244,344,111216,5,6,1:2:0:0:
264,347,111380,1,2,1:2:0:0:
282,338,111544,1,6,1:2:0:0:
336,244,111707,6,0,L|348:116,1,118.799999637451,4|2,1:0|0:0,0:0:0:0:
256,176,112200,5,2,2:1:0:0:
336,244,112364,1,2,0:0:0:0:
347,125,112528,1,2,1:3:0:0:
256,176,112691,1,2,0:0:0:0:
336,244,112855,1,2,0:1:0:0:
428,192,113019,1,2,0:0:0:0:
347,125,113183,5,0,1:2:0:0:
336,244,113346,1,2,0:0:0:0:
256,176,113511,1,2,0:1:0:0:
428,192,113675,1,0,0:0:0:0:
347,125,113839,6,0,L|344:72,1,45,2|2,1:3|0:0,0:0:0:0:
340,0,114166,1,2,0:1:0:0:
256,176,114331,6,0,P|216:191|164:181,1,90,0|2,1:0|0:0,0:0:0:0:
140,272,114823,2,0,L|206:278,1,45,2|2,0:1|0:0,0:0:0:0:
304,328,115150,6,0,P|325:368|306:327,1,135,2|0,1:3|0:0,0:0:0:0:
304,328,116327,5,2,0:0:0:0:
304,328,116849,1,0,0:0:0:0:
304,328,117224,1,2,0:0:0:0:
88,260,117600,6,0,L|51:214,1,59.3999998187256,2|0,0:0|0:0,0:0:0:0:
88,260,117907,2,0,L|133:316,1,59.3999998187256,2|0,0:0|0:0,0:0:0:0:
160,228,118138,1,0,0:0:0:0:
160,228,118215,2,0,L|178:179,2,33.7500012874604,2|0|0,0:0|0:0|0:0,0:0:0:0:
264,182,118487,6,0,L|306:234,1,67.5000025749208,2|0,0:0|0:0,0:0:0:0:
264,182,118692,1,0,0:0:0:0:
264,182,118761,2,0,L|212:118,1,67.5000025749208,2|0,0:0|0:0,0:0:0:0:
340,332,119016,5,2,0:0:0:0:
296,320,119143,1,2,0:0:0:0:
280,248,119271,6,0,L|292:296,1,33.7500012874604,4|0,1:2|0:0,0:0:0:0:
272,215,119388,6,0,L|284:263,1,33.7500012874604,0|0,1:2|0:0,0:0:0:0:
264,182,119506,6,0,L|276:230,1,33.7500012874604,4|0,1:2|0:0,0:0:0:0:
265,33,119624,6,0,P|200:74|277:82,1,202.500007724762,4|0,1:1|0:0,0:0:0:0:
344,40,119842,1,2,3:2:0:0:
408,184,119951,5,8,1:0:0:0:
436,108,120060,1,2,3:2:0:0:
276,100,120169,5,2,1:3:0:0:
344,40,120278,1,2,3:2:0:0:
388,188,120387,5,8,1:0:0:0:
436,108,120496,1,2,3:2:0:0:
276,120,120605,5,0,1:0:0:0:
344,40,120714,1,2,3:2:0:0:
368,192,120823,5,8,1:0:0:0:
436,108,120933,1,2,3:2:0:0:
276,140,121042,5,2,1:3:0:0:
280,160,121151,1,2,1:2:0:0:
292,180,121260,1,2,1:2:0:0:
393,205,121369,6,0,P|294:197|211:252,1,202.500007724762,2|0,1:2|0:0,0:0:0:0:
214,262,121587,1,2,3:2:0:0:
104,232,121696,6,0,B|36:203|34:252|-18:236|-8:200|27:217,1,135.000005149842,8|2,1:0|3:2,0:0:0:0:
216,276,121914,5,2,1:3:0:0:
224,384,122023,1,2,3:2:0:0:
40,328,122133,2,0,B|108:298|110:347|162:331|152:295|117:312,1,135.000005149842,8|2,1:0|3:2,0:0:0:0:
381,272,122351,6,0,B|405:277|369:306|341:276,3,67.5000025749208,0|0|0|0,1:0|1:0|1:0|1:0,0:0:0:0:
380,124,122569,2,0,B|365:77|451:111|427:190,1,135.000005149842,8|2,1:1|1:2,0:0:0:0:
252,200,122733,1,0,1:0:0:0:
252,200,122787,2,0,B|219:238|206:146|286:127,1,135.000005149842,2|0,1:3|1:0,0:0:0:0:
472,272,123005,1,0,1:1:0:0:
488,64,123114,6,0,P|412:2|319:30,1,202.500007724762,4|0,1:1|0:0,0:0:0:0:
316,40,123333,1,0,3:0:0:0:
40,20,123442,2,0,B|80:12|168:20|112:60,1,107.999996704102,8|2,1:0|3:2,0:0:0:0:
104,168,123660,5,2,1:3:0:0:
0,128,123769,1,2,3:2:0:0:
212,136,123878,2,0,B|172:128|84:136|140:176,1,107.999996704102,8|2,1:0|3:2,0:0:0:0:
100,380,124096,5,0,1:0:0:0:
120,264,124205,1,2,3:2:0:0:
24,328,124314,2,0,B|28:368|-28:332|29:293|4:252,1,107.999996704102,8|2,1:0|3:2,0:0:0:0:
212,336,124533,6,0,P|212:355|224:338,1,53.9999983520508,2|0,1:3|0:0,0:0:0:0:
308,288,124642,2,0,P|325:297|315:278,1,53.9999983520508,2|0,3:2|0:0,0:0:0:0:
340,184,124751,2,0,P|357:173|335:172,1,53.9999983520508,8|0,1:0|0:0,0:0:0:0:
292,68,124860,6,0,B|366:99|372:24|240:24,1,161.999995056153,2|0,1:2|0:0,0:0:0:0:
232,28,125078,1,0,1:0:0:0:
420,16,125187,1,8,1:0:0:0:
376,92,125296,1,2,3:2:0:0:
460,124,125405,5,2,1:3:0:0:
460,124,125514,1,0,1:0:0:0:
488,244,125623,2,0,B|528:239|508:271|464:295|431:240|432:191,1,135.000005149842,0|0,1:0|1:0,0:0:0:0:
384,364,125842,5,0,1:0:0:0:
332,344,125942,1,0,1:0:0:0:
280,360,126042,1,0,1:0:0:0:
232,336,126142,1,0,1:0:0:0:
140,300,126242,5,6,1:2:0:0:
136,324,126342,1,0,1:2:0:0:
132,348,126442,1,4,1:2:0:0:
58,246,126547,6,0,P|-7:205|104:196,1,270.000010299683,4|0,1:0|1:0,0:0:0:0:
104,184,126784,1,0,1:0:0:0:
104,184,126832,5,2,1:2:0:0:
76,108,126927,1,0,1:0:0:0:
236,100,127022,5,2,1:3:0:0:
168,40,127118,1,0,1:0:0:0:
124,188,127213,5,2,1:2:0:0:
76,108,127308,1,0,1:0:0:0:
236,120,127403,5,2,1:2:0:0:
168,40,127499,1,0,1:0:0:0:
144,192,127594,5,2,1:2:0:0:
76,108,127689,1,0,0:0:0:0:
236,144,127784,5,2,1:3:0:0:
241,165,127880,1,2,1:2:0:0:
246,186,127975,1,2,1:2:0:0:
200,292,128070,6,0,P|130:330|37:301,1,161.999995056153,0|0,1:0|0:0,0:0:0:0:
44,300,128261,1,0,1:0:0:0:
360,348,128356,6,0,B|361:374|334:374|334:348|378:321|359:266,1,107.999996704102,2|0,1:2|1:0,0:0:0:0:
228,372,128546,5,2,1:3:0:0:
232,264,128642,1,0,1:0:0:0:
332,324,128737,2,0,B|331:350|358:350|358:324|314:297|333:242,1,107.999996704102,2|0,1:2|1:0,0:0:0:0:
340,56,128927,5,0,1:0:0:0:
241,165,129022,1,0,1:0:0:0:
259,43,129118,1,2,1:2:0:0:
320,180,129213,1,0,1:0:0:0:
440,96,129308,6,0,B|389:46|343:210|566:74|562:91|531:206|495:156|489:150,1,215.999993408203,2|0,1:3|1:0,0:0:0:0:
392,276,129594,6,0,P|426:296|345:304,1,202.500007724762,4|0,1:1|1:0,0:0:0:0:
328,336,129784,2,0,P|326:309|340:286,1,53.9999983520508,0|0,1:0|1:0,0:0:0:0:
312,328,129880,5,2,1:2:0:0:
280,239,129975,1,0,1:0:0:0:
224,316,130070,5,2,1:3:0:0:
281,228,130165,1,0,1:0:0:0:
201,241,130261,5,2,1:2:0:0:
201,241,130356,1,0,1:0:0:0:
88,317,130451,5,2,1:2:0:0:
128,216,130546,1,0,1:0:0:0:
90,327,130641,1,2,1:2:0:0:
16,240,130737,1,0,1:0:0:0:
86,304,130832,5,2,1:3:0:0:
88,317,130927,1,0,1:0:0:0:
90,327,131022,1,2,1:2:0:0:
132,208,131118,6,0,B|204:44|71:32|26:46|18:118,1,270.000010299683,0|0,1:0|1:0,0:0:0:0:
28,112,131356,1,0,1:0:0:0:
28,112,131403,2,0,B|47:159|126:145|119:75,1,135.000005149842,2|0,1:2|1:0,0:0:0:0:
276,16,131594,6,0,P|269:50|269:82,1,53.9999983520508,2|0,1:3|0:0,0:0:0:0:
196,92,131689,2,0,P|194:65|188:38,1,53.9999983520508
324,120,131784,6,0,B|371:143|419:79|368:32,1,135.000005149842,2|0,1:2|1:0,0:0:0:0:
272,216,131975,5,4,1:2:0:0:
254,144,132070,1,2,1:2:0:0:
280,300,132165,5,0,1:0:0:0:
262,228,132260,1,2,1:2:0:0:
288,384,132356,6,0,P|280:356|272:340,1,45,4|0,1:1|0:0,0:0:0:0:
348,256,132519,1,2,0:0:0:0:
424,360,132720,1,2,0:0:0:0:
264,348,132951,6,0,L|216:344,1,45,4|0,1:0|0:0,0:0:0:0:
273,349,133113,2,0,L|321:353,1,45,0|2,0:0|0:0,0:0:0:0:
280,204,133275,1,0,0:0:0:0:
80,268,133437,1,2,0:0:0:0:
60,84,133600,6,0,B|67:55|30:54|11:91|80:114|58:175,1,135.000005149842,4|0,1:0|0:0,0:0:0:0:
0,228,133809,1,2,0:0:0:0:
44,348,134018,1,2,0:0:0:0:
84,68,134158,6,0,B|76:39|113:38|132:75|63:98|85:159,1,144,4|0,1:0|0:0,0:0:0:0:
148,208,134353,1,2,0:0:0:0:
132,340,134549,1,2,0:0:0:0:
112,132,134680,6,0,B|135:67|62:42|82:3|121:4|113:35,1,153.000002918243,4|0,1:0|0:0,0:0:0:0:
192,72,134884,1,0,0:0:0:0:
284,184,135040,1,2,0:0:0:0:
144,128,135160,6,0,P|140:82|232:32,1,161.999995056153,4|2,1:2|3:0,0:0:0:0:
252,40,135326,1,2,3:2:0:0:
268,56,135382,2,0,B|312:72|388:72|402:28|364:0|312:24,1,161.999995056153,4|2,1:2|3:3,0:0:0:0:
284,184,135604,6,0,B|267:160|296:121|339:136|339:212|323:256,1,161.999995056153,4|2,1:2|3:0,0:0:0:0:
308,268,135761,1,2,3:2:0:0:
299,291,135814,2,0,P|320:365|396:376,1,161.999995056153,4|0,1:2|3:0,0:0:0:0:
476,152,136025,6,0,P|439:117|368:184,1,161.999995056153,4|0,1:2|1:0,0:0:0:0:
400,352,136225,2,0,P|436:386|508:320,1,161.999995056153,4|2,1:2|1:2,0:0:0:0:
444,264,136425,6,0,P|434:236|435:265,3,80.9999975280763,4|0|0|0,1:2|1:0|1:0|1:0,0:0:0:0:
440,272,136615,6,0,P|445:286|444:271,5,40.4999987640381,4|0|0|0|0|0,1:2|1:0|1:0|1:0|1:0|1:0,1:0:0:0:
428,276,136758,6,2,B|470:298|499:348|386:367|283:359|397:237|443:161|435:101|270:145|342:197|350:205,1,352.5,2|0,1:2|0:0,0:2:0:0:
316,332,139758,1,4,1:2:0:0:
