osu file format v14

[General]
AudioFilename: audio.mp3
AudioLeadIn: 0
PreviewTime: 64561
Countdown: 0
SampleSet: Soft
StackLeniency: 0.2
Mode: 0
LetterboxInBreaks: 0
WidescreenStoryboard: 1

[Editor]
DistanceSpacing: 1.5
BeatDivisor: 4
GridSize: 4
TimelineZoom: 1.900002

[Metadata]
Title:Take
TitleUnicode:竹
Artist:Risshuu feat. Choko
ArtistUnicode:立秋 feat. ちょこ
Creator:yf_bmp
Version:Koiyuki's Hyper
Source:
Tags:bamboo masato ishioh 石王マサト bofxvi the bms of fighters xvi arcaea muse dash video game japanese novelty rabbit usagi electronic ウサギ Muziyami Koiyuki wyrio Moecho Gust Yorita Yoshino toybot nika mika xLolicore- My Angel Watame dahkjdas
BeatmapID:2869013
BeatmapSetID:1376486

[Difficulty]
HPDrainRate:5
CircleSize:4
OverallDifficulty:6
ApproachRate:7.7
SliderMultiplier:1.2
SliderTickRate:1

[Events]
//Background and Video events
Video,0,"bga_take.mp4"
0,0,"bg_take.png",0,0
//Break Periods
2,25612,28278
//Storyboard Layer 0 (Background)
//Storyboard Layer 1 (Fail)
//Storyboard Layer 2 (Pass)
//Storyboard Layer 3 (Foreground)
//Storyboard Layer 4 (Overlay)
//Storyboard Sound Samples

[TimingPoints]
120,400,4,2,1,80,1,0
13320,273.972602739726,4,2,1,80,1,0
13320,-200,4,2,1,40,0,0
14963,-100,4,2,1,80,0,0
24279,333.333333333333,4,2,1,40,1,0
29279,461.538461538462,4,2,1,80,1,0
29740,461.538461538462,4,2,1,80,1,0
33894,422.535211267606,4,2,1,80,1,0
37697,387.096774193548,4,2,1,80,1,0
41181,363.636363636364,4,2,1,80,1,0
42636,342.857142857143,4,2,1,80,1,0
44350,327.868852459016,4,2,1,80,1,0
46973,307.692307692308,4,2,1,80,1,0
49434,300,4,2,1,80,1,0
50634,292.682926829268,4,2,1,80,1,0
51811,279.06976744186,4,2,1,80,1,0
52922,273.972602739726,4,2,1,80,1,0
54017,307.692307692308,4,2,1,80,1,0
54632,-100,4,2,0,80,0,0
55864,273.972602739726,4,2,1,80,1,0
56411,273.972602739726,4,2,1,80,1,0
73946,276.497695852535,4,2,1,80,1,0
74222,292.682926829268,4,2,1,80,1,0
74515,307.692307692308,4,2,1,80,1,0
74823,327.868852459016,4,2,1,80,1,0
76462,327.868852459016,4,2,1,80,1,0
111707,-200,4,2,1,80,0,0
114986,-50,4,2,1,80,0,0
115232,-50,4,2,1,5,0,0
115806,521.739130434783,4,2,1,80,1,0
116850,375,4,2,1,80,1,0
117600,307.692307692308,4,2,1,80,1,0
118215,272.727272727273,4,2,1,80,1,0
118761,255.31914893617,4,2,1,80,1,0
119271,235.294117647059,4,2,1,80,1,0
119624,218.181818181818,4,2,1,80,1,0
119733,218.181818181818,4,2,1,80,1,0
125842,200,4,2,1,80,1,0
126547,190.47619047619,4,2,1,80,1,0
126642,190.47619047619,4,2,1,80,1,0
132356,218.181818181818,4,2,1,80,1,0
132720,461.538461538462,4,2,1,80,1,0
132951,324.324324324324,4,2,1,80,1,0
133600,279.06976744186,4,2,1,80,1,0
134158,260.869565217391,4,2,1,80,1,0
134680,240,4,2,1,80,1,0
135160,222.222222222222,4,2,1,80,1,0
135604,210.526315789474,4,2,1,80,1,0
136025,200,4,2,1,80,1,0
136425,190.47619047619,4,2,1,80,1,0
136758,750,4,2,1,80,1,0
139758,273.972602739726,4,2,1,80,1,0

[Colours]
Combo1 : 64,187,73
Combo2 : 255,98,89
Combo3 : 114,114,114
Combo4 : 255,227,147
Combo5 : 115,160,255
Combo6 : 196,95,243
Combo7 : 255,92,199
Combo8 : 118,194,33

[HitObjects]
256,144,920,37,2,2:1:0:0:
256,144,1320,1,2,0:0:0:0:
30,321,1720,54,0,B|26:312|26:312|35:312|35:312|31:304|31:304|31:263|35:211,1,120,0|0,1:0|1:0,0:0:0:0:
125,332,2520,2,0,B|121:323|121:323|130:323|130:323|126:315|126:315|126:274|130:222,1,120,0|0,1:0|1:0,0:0:0:0:
220,343,3320,2,0,B|216:334|216:334|225:334|225:334|221:326|221:326|221:285|225:233,1,120,0|0,1:0|1:0,0:0:0:0:
312,193,4120,22,0,P|350:197|368:200,2,40,0|2|2,1:0|0:1|0:0,0:0:0:0:
327,273,4520,2,0,P|365:277|383:280,2,40,0|2|2,1:0|2:1|2:2,0:0:0:0:
226,234,4920,102,0,B|230:225|230:225|221:225|221:225|225:217|225:217|225:176|220:124,1,120,0|0,1:0|1:0,0:0:0:0:
130,222,5720,2,0,B|134:213|134:213|125:213|125:213|129:205|129:205|129:164|124:112,1,120,0|0,1:0|1:0,0:0:0:0:
35,211,6520,5,2,1:1:0:0:
124,112,6920,86,0,B|114:115|114:115|115:106|115:106|107:109|107:109|66:105|14:97,1,120,0|0,1:0|1:0,0:0:0:0:
208,33,7720,2,0,B|198:36|198:36|199:27|199:27|191:31|191:31|150:27|99:19,1,120,0|0,1:0|1:0,0:0:0:0:
303,33,8520,6,0,B|313:36|313:36|312:27|312:27|320:31|320:31|361:27|413:19,1,120,0|0,1:0|1:0,0:0:0:0:
388,112,9320,2,0,B|397:115|397:115|396:106|396:106|404:109|404:109|445:105|497:97,1,120,0|0,1:0|1:0,0:0:0:0:
482,321,10120,102,0,B|486:312|486:312|477:312|477:312|481:304|481:304|481:263|477:211,1,120,0|0,1:0|1:0,0:0:0:0:
387,332,10920,2,0,B|391:323|391:323|382:323|382:323|386:315|386:315|386:274|382:222,1,120,0|0,1:0|1:0,0:0:0:0:
495,96,11720,22,0,P|460:94|424:86,1,72,0|0,1:0|0:0,0:0:0:0:
506,14,12120,2,0,P|470:6|435:4,1,72,0|2,1:0|0:0,0:0:0:0:
338,57,12520,6,0,P|302:59|266:67,1,72,0|0,1:0|0:0,0:0:0:0:
348,139,12920,2,0,P|312:146|276:149,1,72,0|2,1:0|0:1,0:0:0:0:
176,99,13320,6,0,B|104:92|104:92|100:88|100:88|96:92|96:92|24:85,1,150,2|2,0:1|0:2,0:0:0:0:
10,196,14141,6,0,L|5:166,2,30,2|2|2,0:0|0:0|0:1,0:0:0:0:
96,211,14552,70,0,L|91:181,2,30,2|2|0,0:1|0:1|0:0,0:0:0:0:
182,226,14963,6,0,L|172:166,2,60,0|0|0,1:0|1:0|1:0,0:0:0:0:
136,300,15374,6,0,P|192:276|251:276,1,120,4|2,1:1|0:0,0:0:0:0:
330,329,15785,54,0,L|337:268,1,60,8|2,1:0|3:2,0:0:0:0:
352,315,16059,2,0,L|359:254,1,60,2|2,1:3|3:2,0:0:0:0:
374,301,16333,2,0,L|381:240,1,60,8|2,1:0|3:2,0:0:0:0:
396,287,16607,2,0,L|403:226,1,60,0|2,1:0|3:2,0:0:0:0:
418,273,16881,2,0,L|425:212,1,60,8|2,1:0|3:2,0:0:0:0:
477,142,17155,6,0,P|475:112|468:82,2,60,2|0|0,1:3|1:0|1:0,0:0:0:0:
390,126,17566,54,0,P|334:150|275:150,1,120,0|2,1:2|3:2,0:0:0:0:
207,97,17977,2,0,L|213:27,1,60,8|2,1:0|3:2,0:0:0:0:
132,1,18251,2,0,L|119:144,1,120,2|8,1:3|1:0,0:0:0:0:
81,198,18662,1,2,3:2:0:0:
81,198,18799,70,0,P|47:195|18:189,1,60,0|0,1:0|1:0,0:0:0:0:
62,283,19073,2,0,P|32:280|3:275,1,60,8|2,1:0|1:2,0:0:0:0:
122,346,19347,2,0,P|181:351|235:327,1,120,2|8,1:3|1:0,0:0:0:0:
302,271,19758,6,0,P|361:265|415:289,1,120,4|2,1:1|3:2,0:0:0:0:
480,349,20169,2,0,L|469:206,1,120,8|2,1:0|1:3,0:0:0:0:
506,150,20580,1,2,1:2:0:0:
506,150,20717,2,0,P|512:121|511:90,1,60,8|2,1:0|3:2,0:0:0:0:
427,65,20991,6,0,P|421:35|422:5,1,60,0|2,1:0|1:2,0:0:0:0:
337,32,21265,2,0,P|341:61|341:91,1,60,8|2,1:0|1:2,0:0:0:0:
277,152,21539,2,0,P|273:181|273:211,2,60,2|0|0,1:3|1:0|1:0,0:0:0:0:
246,70,21950,6,0,L|126:58,1,120,2|0,1:2|1:0,0:0:0:0:
108,45,22292,1,0,1:0:0:0:
99,34,22361,2,0,P|90:63|86:93,1,60,8|0,1:0|1:0,0:0:0:0:
146,156,22635,2,0,P|151:218|163:293,1,120,2|2,1:3|1:2,0:0:0:0:
203,351,23046,1,0,1:0:0:0:
112,341,23183,38,0,B|117:283|117:283|168:247|168:247|208:291|208:291|203:351,1,240,0|2,1:0|1:3,0:0:0:0:
27,331,24278,5,4,1:1:0:0:
508,323,29279,6,0,L|478:329,3,30,2|2|2|2,0:0|0:1|0:2|0:1,0:0:0:0:
453,313,29740,6,0,P|441:254|441:194,1,120,0|0,1:0|1:0,0:0:0:0:
463,113,30432,1,2,2:1:0:0:
463,113,30663,2,0,P|457:83|455:53,1,60,0|2,1:0|0:2,0:0:0:0:
369,63,31124,2,0,P|374:92|376:122,1,60,0|2,1:0|0:2,0:0:0:0:
364,210,31586,6,0,P|304:217|244:222,1,120,0|0,1:0|1:0,0:0:0:0:
162,190,32278,1,2,0:2:0:0:
162,190,32509,2,0,P|133:185|103:182,1,60,0|2,1:0|0:2,0:0:0:0:
35,238,32970,2,0,P|44:266|57:293,1,60,0|2,1:0|2:2,0:0:0:0:
140,324,33432,54,0,P|159:301|176:276,1,60,0|2,0:0|0:0,0:0:0:0:
162,190,33894,70,0,P|155:131|153:55,1,120,0|0,1:0|1:0,0:0:0:0:
62,39,34527,1,2,2:1:0:0:
62,39,34739,2,0,P|69:98|71:174,1,120,0|0,1:0|1:0,0:0:0:0:
35,238,35372,1,2,0:0:0:0:
35,238,35584,70,0,P|25:308|23:368,1,120,0|0,1:0|1:0,0:0:0:0:
108,345,36217,1,2,0:0:0:0:
108,345,36429,2,0,P|110:315|115:285,1,60,0|2,1:0|0:0,0:0:0:0:
172,220,36851,2,0,L|217:228,3,30,0|2|2|2,1:0|0:1|2:0|2:1,0:0:0:0:
231,247,37274,102,0,L|290:239,1,60,0|2,0:0|0:0,0:0:0:0:
362,186,37697,22,0,P|409:166|485:172,1,120,0|0,1:0|1:0,0:0:0:0:
487,253,38277,1,2,2:1:0:0:
487,253,38471,2,0,P|440:273|364:267,1,120,0|0,1:0|1:0,0:0:0:0:
290,238,39051,1,2,0:0:0:0:
290,238,39245,6,0,P|292:208|294:178,1,60,0|2,1:0|2:2,0:0:0:0:
380,188,39632,2,0,P|382:158|384:128,1,60,0|2,1:0|0:1,0:0:0:0:
470,137,40019,2,0,P|472:107|474:77,1,60,0|2,1:0|0:0,0:0:0:0:
412,20,40406,2,0,L|377:28,3,30,0|2|2|2,1:1|0:1|0:2|0:1,0:0:0:0:
359,47,40793,54,0,P|330:42|300:38,1,60,0|2,0:0|0:0,0:0:0:0:
214,15,41181,70,0,P|154:24|94:27,1,120,0|0,1:0|1:0,0:0:0:0:
16,60,41726,1,2,2:1:0:0:
16,59,41908,2,0,P|19:89|21:119,1,60,0|2,1:0|0:2,0:0:0:0:
96,160,42271,2,0,P|92:189|90:219,1,60,0|2,1:1|0:0,0:0:0:0:
182,135,42636,70,0,P|175:194|171:254,1,120,0|0,1:0|1:0,0:0:0:0:
10,347,43321,2,0,P|64:322|124:325,1,120,0|0,1:0|1:0,0:0:0:0:
172,255,43836,1,2,0:0:0:0:
172,255,44007,102,0,P|201:256|231:260,1,60,0|2,1:0|0:0,0:0:0:0:
300,320,44350,22,0,L|303:361,2,30,0|0|10,1:0|1:0|1:2,0:0:0:0:
380,294,44677,2,0,L|383:335,2,30,0|0|8,1:0|1:0|1:0,0:0:0:0:
411,212,45005,2,0,P|402:183|398:153,1,60,0|10,1:0|1:2,0:0:0:0:
482,136,45333,2,0,P|490:164|494:194,1,60,0|8,1:0|1:0,0:0:0:0:
425,70,45661,6,0,L|428:39,2,30,0|0|8,1:0|1:0|1:2,0:0:0:0:
359,128,45989,2,0,P|310:135|289:133,1,60,0|8,1:0|1:0,0:0:0:0:
223,93,46317,2,0,L|187:89,2,30,0|2|8,1:0|1:2|1:2,0:0:0:0:
253,11,46645,54,0,L|181:3,1,60,0|2,1:0|3:2,0:0:0:0:
113,50,46973,70,0,P|59:75|-1:72,1,120,0|0,1:0|1:0,0:0:0:0:
66,129,47434,1,8,1:1:0:0:
66,129,47588,2,0,P|71:171|73:202,1,60,2|8,1:3|1:2,0:0:0:0:
164,230,47896,2,0,P|161:200|158:171,1,60,2|8,1:2|1:1,0:0:0:0:
97,287,48203,70,0,L|53:279,2,30,0|0|8,1:0|1:0|1:2,0:0:0:0:
180,316,48511,2,0,L|245:309,1,60,0|8,1:0|1:1,0:0:0:0:
316,360,48819,2,0,L|321:330,2,30,0|0|10,1:0|1:0|1:2,0:0:0:0:
305,249,49126,102,0,L|364:255,1,60,0|2,1:0|3:2,0:0:0:0:
450,292,49434,22,0,P|442:227|439:148,1,120,0|0,1:0|1:0,0:0:0:0:
484,99,49884,1,8,1:1:0:0:
409,56,50034,2,0,L|415:21,2,30,2|2|8,1:3|1:1|1:2,0:0:0:0:
365,131,50334,2,0,L|305:124,1,60,0|0,1:0|0:0,0:0:0:0:
235,69,50634,6,0,L|101:82,1,120,0|0,1:0|1:0,0:0:0:0:
32,54,51073,1,8,1:1:0:0:
32,54,51219,2,0,P|25:99|24:122,1,60,0|8,1:0|1:2,0:0:0:0:
49,197,51512,54,0,P|56:242|57:265,1,60,0|2,1:0|3:2,0:0:0:0:
130,169,51811,70,0,P|139:226|145:310,1,120,0|0,0:0|1:0,0:0:0:0:
148,374,52229,1,8,1:1:0:0:
222,329,52369,2,0,L|229:285,5,40,2|0|0|0|0|0,1:3|1:0|1:0|1:0|1:0|1:0,0:0:0:0:
263,258,52922,70,0,P|317:247|406:243,1,120,4|0,1:2|1:0,0:0:0:0:
511,126,53469,2,0,P|457:137|368:141,1,120,4|0,1:2|1:2,0:0:0:0:
319,97,54017,101,4,0:2:0:0:
319,97,54632,22,0,B|305:59|301:13|301:13|283:54|240:95,1,180,2|2,0:0|0:0,0:0:0:0:
170,131,55247,2,0,P|162:81|160:58,1,60,2|2,0:0|0:1,0:0:0:0:
90,165,55555,2,0,P|84:135|81:105,1,60,0|2,0:0|0:1,0:0:0:0:
10,199,55864,6,0,P|4:169|1:139,2,60,0|0|0,1:0|1:0|1:0,0:0:0:0:
55,274,56274,6,0,P|119:271|176:294,1,120,4|2,1:1|3:2,0:0:0:0:
247,336,56684,38,0,L|306:328,1,60,8|2,1:0|3:2,0:0:0:0:
260,312,56958,2,0,L|334:303,1,60,2|2,1:3|3:2,0:0:0:0:
273,288,57232,2,0,L|347:279,1,60,8|2,1:0|3:2,0:0:0:0:
286,264,57506,2,0,L|360:255,1,60,0|2,1:0|3:2,0:0:0:0:
299,240,57780,2,0,L|373:231,1,60,8|2,1:0|3:2,0:0:0:0:
432,282,58054,6,0,P|460:289|494:292,2,60,2|0|0,1:3|1:0|1:0,0:0:0:0:
477,205,58465,6,0,P|488:143|488:69,1,120,2|2,1:2|3:2,0:0:0:0:
448,10,58876,2,0,P|401:27|381:31,1,60,8|2,1:0|3:2,0:0:0:0:
327,89,59150,2,0,B|283:85|283:85|248:66|248:66|204:63,1,120,2|8,1:3|1:0,0:0:0:0:
130,92,59561,1,2,3:2:0:0:
130,92,59698,6,0,P|124:37|121:22,1,60,0|0,1:0|1:0,0:0:0:0:
36,20,59972,2,0,P|42:75|45:90,1,60,8|0,1:0|1:0,0:0:0:0:
68,163,60246,2,0,P|59:228|33:297,1,120,2|0,1:3|1:0,0:0:0:0:
0,357,60657,6,0,P|57:334|121:329,1,120,4|0,1:0|3:0,0:0:0:0:
196,299,61068,2,0,L|255:304,1,60,8|2,1:0|3:2,0:0:0:0:
318,370,61342,2,0,L|460:357,1,120,2|8,1:3|1:0,0:0:0:0:
500,294,61753,1,2,3:2:0:0:
500,294,61890,6,0,P|492:243|491:214,1,60,0|2,1:0|3:2,0:0:0:0:
465,152,62164,2,0,L|470:88,1,60,8|0,1:0|3:2,0:0:0:0:
383,109,62438,2,0,L|378:168,2,60,2|0|0,1:3|1:0|1:0,0:0:0:0:
407,25,62849,70,0,L|287:35,1,120,2|2,1:2|1:2,0:0:0:0:
273,53,63191,1,0,1:0:0:0:
254,65,63260,2,0,P|224:62|195:53,1,60,8|0,1:0|1:0,0:0:0:0:
116,15,63534,2,0,L|110:76,1,60,2|0,1:3|1:0,0:0:0:0:
61,148,63808,2,0,P|90:157|120:160,1,60,8|0,1:0|1:0,0:0:0:0:
198,203,64082,6,0,P|250:182|332:188,1,120,0|0,1:0|1:0,0:0:0:0:
392,145,64493,1,0,1:0:0:0:
428,66,64630,2,0,L|432:6,2,60,2|0|0,1:3|1:0|1:0,0:0:0:0:
481,136,65041,6,0,P|492:191|498:278,1,120,4|2,1:0|3:2,0:0:0:0:
424,304,65452,54,0,L|419:363,1,60,8|2,1:0|3:2,0:0:0:0:
403,285,65726,2,0,L|399:345,1,60,2|2,1:3|3:2,0:0:0:0:
382,266,66000,2,0,L|377:325,1,60,8|2,1:0|3:2,0:0:0:0:
361,247,66274,2,0,L|356:306,1,60,0|2,1:0|3:2,0:0:0:0:
340,228,66547,2,0,L|335:287,1,60,8|2,1:0|3:2,0:0:0:0:
248,309,66821,6,0,L|253:250,2,60,2|0|8,1:3|1:0|1:0,0:0:0:0:
172,358,67232,54,0,P|118:346|32:341,1,120,2|2,1:2|1:2,0:0:0:0:
12,264,67643,2,0,P|4:228|3:197,1,60,8|2,1:0|3:2,0:0:0:0:
47,130,67917,2,0,L|57:6,1,120,2|8,1:3|1:0,0:0:0:0:
137,45,68328,1,2,3:2:0:0:
137,45,68465,70,0,L|132:104,1,60,0|0,1:0|1:0,0:0:0:0:
170,177,68739,2,0,P|140:183|112:192,1,60,8|2,1:0|1:2,0:0:0:0:
234,120,69013,2,0,P|286:124|356:145,1,120,2|0,1:3|1:0,0:0:0:0:
394,64,69424,6,0,P|446:60|516:39,1,120,4|0,1:0|3:2,0:0:0:0:
464,113,69835,2,0,L|468:174,1,60,8|2,1:0|3:2,0:0:0:0:
496,256,70109,2,0,P|444:260|374:281,1,120,2|8,1:3|1:0,0:0:0:0:
308,332,70520,1,2,3:2:0:0:
308,332,70657,6,0,L|239:325,1,60,0|2,1:0|3:2,0:0:0:0:
276,244,70931,2,0,L|207:237,1,60,8|0,1:0|3:0,0:0:0:0:
144,288,71205,2,0,P|116:300|87:306,2,60,2|0|0,1:3|1:0|1:0,0:0:0:0:
93,218,71616,6,0,P|87:153|85:74,1,120,2|2,1:2|1:2,0:0:0:0:
74,78,71958,1,0,1:0:0:0:
59,61,72027,2,0,P|86:49|115:43,1,60,8|0,1:0|1:0,0:0:0:0:
200,21,72301,2,0,L|259:28,1,60,2|0,1:3|1:0,0:0:0:0:
223,109,72575,2,0,L|282:116,1,60,0|0,1:0|1:0,0:0:0:0:
372,102,72849,38,0,B|362:43|362:43|312:11|312:11|272:59|272:59|282:116,1,240,0|2,1:0|1:3,0:0:0:0:
421,224,73671,2,0,L|416:253,3,30,2|2|2|2,0:0|0:0|0:0|0:0,0:0:0:0:
449,201,73945,5,2,1:2:0:0:
256,192,74015,12,2,76025,0:0:0:0:
376,255,76462,6,0,P|385:307|388:350,2,80,0|2|2,1:0|0:0|0:1,0:0:0:0:
293,284,77117,2,0,P|302:336|305:379,2,80,4|2|2,1:3|0:0|0:1,0:0:0:0:
218,229,77773,6,0,L|138:223,1,80,0|2,1:0|0:0,0:0:0:0:
54,250,78210,1,2,1:1:0:0:
120,310,78429,2,0,L|199:315,2,80,8|2|2,1:2|0:0|0:1,0:0:0:0:
54,250,79084,6,0,P|45:198|42:155,2,80,0|2|2,1:0|0:0|0:1,0:0:0:0:
138,223,79740,2,0,P|129:171|126:128,2,80,4|2|2,1:3|0:0|0:1,0:0:0:0:
222,196,80396,6,0,P|213:144|210:101,1,80,0|2,1:0|0:0,0:0:0:0:
277,58,80833,1,2,1:1:0:0:
192,31,81052,2,0,L|104:41,2,80,8|2|2,1:2|0:0|0:1,0:0:0:0:
277,58,81707,70,0,P|332:74|401:76,1,120,0|2,1:0|0:1,0:0:0:0:
477,50,82199,1,2,1:2:0:0:
477,50,82363,2,0,L|471:129,1,60,4|2,1:3|0:2,0:0:0:0:
402,161,82691,2,0,L|408:240,1,60,2|2,0:1|0:2,0:0:0:0:
475,273,83019,6,0,P|415:275|357:291,1,120,0|2,1:0|0:1,0:0:0:0:
194,351,83675,2,0,P|132:354|72:343,1,120,8|2,1:2|0:1,0:0:0:0:
13,285,84166,1,2,0:0:0:0:
45,204,84330,6,0,P|40:154|33:106,2,90,0|0|2,1:0|1:0|1:2,0:0:0:0:
132,214,84986,2,0,P|125:148|112:72,1,120,4|2,1:3|0:1,0:0:0:0:
273,17,85642,6,0,B|320:21|320:21|345:11|345:11|393:15,1,120,0|2,1:0|0:1,0:0:0:0:
480,94,86134,1,2,0:2:0:0:
480,94,86298,2,0,B|432:89|432:89|407:99|407:99|362:95,1,120,8|2,1:2|0:1,0:0:0:0:
450,246,86953,70,0,P|455:284|460:312,2,48,0|2|2,1:0|0:1|0:1,0:0:0:0:
368,269,87347,2,0,P|370:292|374:316,1,48,2|2,0:0|1:2,0:0:0:0:
289,314,87609,2,0,P|286:337|282:361,2,48,4|2|2,1:3|0:1|0:1,0:0:0:0:
207,292,88002,2,0,P|204:315|200:339,1,48,2|2,0:2|0:2,0:0:0:0:
121,304,88265,6,0,L|64:313,2,48,0|2|2,1:0|0:1|0:1,0:0:0:0:
148,224,88658,2,0,L|139:167,1,48,2|2,1:2|1:2,0:0:0:0:
59,150,88921,2,0,L|2:159,2,48,8|2|2,1:2|0:2|0:1,0:0:0:0:
86,70,89314,2,0,L|77:13,1,48,0|2,1:2|0:2,0:0:0:0:
162,35,89576,6,0,L|171:92,1,48,0|2,1:0|0:1,0:0:0:0:
250,107,89839,2,0,P|304:109|339:84,1,96,2|2,0:1|1:2,0:0:0:0:
384,16,90232,2,0,L|439:23,1,48,4|2,1:3|0:1,0:0:0:0:
486,88,90494,2,0,P|502:132|497:179,1,96,2|2,0:1|0:2,0:0:0:0:
432,236,90888,6,0,P|415:280|420:327,1,96,0|2,1:0|0:1,0:0:0:0:
504,317,91281,2,0,L|510:269,1,48,2|2,1:2|1:2,0:0:0:0:
432,236,91543,2,0,L|318:249,1,96,8|0,1:2|0:0,0:0:0:0:
258,214,91937,2,0,L|251:261,1,48,0|2,1:0|1:2,0:0:0:0:
205,333,92199,70,0,P|153:355|129:241,1,200,0|2,1:0|1:2,0:0:0:0:
171,184,92855,2,0,P|172:94|83:100,1,200,4|2,1:3|0:2,0:0:0:0:
15,150,93511,6,0,P|22:208|24:240,2,80,0|2|2,1:0|1:1|1:1,0:0:0:0:
148,42,94166,2,0,P|193:36|235:22,1,80,8|2,1:2|0:0,0:0:0:0:
290,81,94494,2,0,L|285:125,2,40,2|2|0,1:1|1:1|0:1,0:0:0:0:
371,56,94822,6,0,L|363:140,1,80,0|2,1:0|0:1,0:0:0:0:
434,182,95150,2,0,L|430:221,2,40,2|2|2,1:2|1:1|1:2,0:0:0:0:
488,117,95478,2,0,B|515:156|515:156|505:268|505:268|475:293,1,200,4|2,1:3|0:2,0:0:0:0:
412,353,96134,6,0,P|364:336|286:338,1,120,0|2,1:0|0:2,0:0:0:0:
221,297,96571,2,0,L|181:301,1,40,2|2,1:1|1:2,0:0:0:0:
251,215,96789,2,0,L|116:231,1,120,8|2,1:2|1:1,0:0:0:0:
49,250,97227,2,0,L|53:208,1,40,2|2,1:1|1:2,0:0:0:0:
61,127,97445,38,0,B|68:121|68:121|80:120|80:120|88:123|88:123|148:114|148:114|156:117|156:117|168:115|168:115|175:110,1,120,2|0,0:0|0:0,0:0:0:0:
261,114,97882,2,0,L|257:72,5,40,2|2|2|2|2|8,0:1|0:1|0:1|0:1|0:1|2:3,0:0:0:0:
483,158,98757,86,0,P|494:190|498:224,1,68.5714285714286,0|2,1:0|3:2,0:0:0:0:
463,298,99038,2,0,P|385:288|352:284,1,102.857142857143,0|2,1:2|1:2,0:0:0:0:
286,318,99412,2,0,L|292:353,2,34.2857142857143,4|2|0,1:3|3:2|1:0,0:0:0:0:
293,235,99693,2,0,P|240:243|178:253,1,102.857142857143,2|2,1:2|1:2,0:0:0:0:
140,315,100068,6,0,P|57:335|64:238,1,205.714285714286,0|2,1:0|1:2,0:0:0:0:
127,197,100724,2,0,P|127:164|118:124,1,68.5714285714286,8|0,1:1|1:0,0:0:0:0:
53,80,101005,2,0,P|89:54|147:50,1,102.857142857143,2|0,1:2|1:0,0:0:0:0:
216,6,101380,102,0,P|252:32|310:36,1,102.857142857143,0|2,1:0|3:2,0:0:0:0:
356,102,101754,2,0,P|388:92|422:88,1,68.5714285714286,0|0,1:0|1:0,0:0:0:0:
502,67,102035,2,0,L|506:30,2,34.2857142857143,4|2|0,1:3|1:2|1:0,0:0:0:0:
482,147,102316,2,0,P|486:204|493:262,1,102.857142857143,2|2,1:2|1:2,0:0:0:0:
443,316,102691,6,0,B|392:304|357:261|357:261|357:314|320:361,1,205.714285714286,0|0,1:0|1:0,0:0:0:0:
250,318,103347,2,0,P|217:307|183:303,1,68.5714285714286,8|0,1:1|1:0,0:0:0:0:
105,271,103628,2,0,P|57:288|6:294,1,102.857142857143,0|2,1:0|0:0,0:0:0:0:
26,214,104002,102,0,P|40:211|55:207,3,30,0|0|0|0,1:0|1:0|1:0|1:0,0:0:0:0:
79,180,104330,2,0,L|84:109,1,60,0|0,1:0|1:0,0:0:0:0:
26,55,104658,2,0,P|81:68|149:69,1,120,4|0,1:3|1:0,0:0:0:0:
216,19,105150,1,0,3:0:0:0:
258,95,105314,6,0,L|255:124,3,30,0|0|0|0,1:0|1:0|1:0|1:0,0:0:0:0:
235,156,105642,2,0,P|264:148|294:145,1,60,0|0,1:0|3:0,0:0:0:0:
358,82,105970,2,0,P|427:36|462:115,1,180,8|0,1:0|1:0,0:0:0:0:
431,182,106625,102,0,P|424:244|423:319,1,120,0|0,1:0|1:0,0:0:0:0:
349,350,107117,1,0,1:0:0:0:
349,350,107281,2,0,P|342:320|332:290,1,60,4|0,1:3|1:0,0:0:0:0:
252,257,107609,2,0,L|217:262,3,30,0|0|0|2,1:0|1:0|1:0|1:2,0:0:0:0:
199,289,107937,6,0,P|144:269|84:267,1,120,0|0,1:0|1:0,0:0:0:0:
4,113,108593,2,0,P|59:133|119:135,1,120,2|2,1:2|1:2,0:0:0:0:
197,92,109084,1,0,1:0:0:0:
237,170,109248,6,0,B|237:76|306:52|306:52|304:39|304:39|318:30|318:30|328:43|328:43|322:55|322:55|390:103|359:191,1,360,2|2,1:2|0:0,0:0:0:0:
415,357,110560,5,2,0:0:0:0:
415,357,110888,2,0,P|411:327|405:297,1,60,2|2,2:2|0:0,0:0:0:0:
497,325,111216,2,0,P|494:295|488:266,1,60,6|2,1:2|1:2,0:0:0:0:
446,190,111543,1,6,1:2:0:0:
495,115,111707,102,0,P|502:71|505:26,1,90,4|2,1:0|2:1,0:0:0:0:
372,142,112527,1,2,1:3:0:0:
316,210,112855,1,2,0:1:0:0:
242,162,113183,5,0,1:2:0:0:
186,230,113511,1,2,0:1:0:0:
112,182,113839,101,2,1:3:0:0:
168,114,114166,1,2,0:1:0:0:
168,114,114330,2,0,P|161:68|155:17,1,90,0|2,1:0|2:1,0:0:0:0:
70,11,115150,22,0,P|74:40|78:70,1,60,2|0,1:3|0:0,0:0:0:0:
256,192,116327,12,2,118761,0:0:0:0:
282,271,119016,6,0,P|319:265|344:263,1,60,2|2,0:0|0:0,0:0:0:0:
420,304,119271,2,0,P|449:306|479:311,2,60,4|0|4,1:2|1:2|1:2,0:0:0:0:
416,217,119624,6,0,P|424:164|426:72,1,120,4|2,1:1|3:2,0:0:0:0:
347,62,119951,54,0,L|342:-3,1,60,8|2,1:0|3:2,0:0:0:0:
322,80,120169,2,0,L|318:21,1,60,2|2,1:3|3:2,0:0:0:0:
297,98,120387,2,0,L|292:38,1,60,8|2,1:0|3:2,0:0:0:0:
272,116,120605,2,0,L|267:56,1,60,0|0,1:0|3:0,0:0:0:0:
247,134,120823,2,0,L|242:74,1,60,8|0,1:0|3:0,0:0:0:0:
181,15,121042,6,0,P|141:8|111:7,2,60,2|2|2,1:3|1:2|1:2,0:0:0:0:
151,94,121369,54,0,P|90:85|24:83,1,120,2|2,1:2|3:2,0:0:0:0:
80,166,121696,2,0,P|87:195|90:224,1,60,8|2,1:0|3:2,0:0:0:0:
9,249,121914,2,0,P|2:221|0:191,1,60,8|2,1:0|3:2,0:0:0:0:
59,317,122133,2,0,P|55:346|48:375,1,60,8|2,1:0|3:2,0:0:0:0:
141,293,122351,70,0,P|205:282|275:282,1,120,0|8,1:0|1:1,0:0:0:0:
336,330,122678,1,2,1:2:0:0:
336,330,122787,2,0,P|392:347|465:348,1,120,2|8,1:3|1:1,0:0:0:0:
481,268,123114,6,0,P|469:206|462:146,1,120,4|0,1:1|3:0,0:0:0:0:
392,99,123442,2,0,L|319:109,1,60,8|2,1:0|3:2,0:0:0:0:
413,16,123660,2,0,L|294:32,1,120,2|8,1:3|1:0,0:0:0:0:
221,79,123987,1,2,3:2:0:0:
221,79,124096,6,0,P|191:77|161:74,1,60,0|2,1:0|3:2,0:0:0:0:
74,95,124314,2,0,P|74:65|79:36,1,60,8|2,1:0|3:2,0:0:0:0:
142,159,124533,2,0,L|152:228,2,60,2|2|8,1:3|3:2|1:0,0:0:0:0:
63,204,124860,6,0,P|74:271|82:344,1,120,2|0,1:2|1:0,0:0:0:0:
163,353,125187,2,0,P|208:346|230:344,1,60,8|2,1:0|3:2,0:0:0:0:
300,300,125405,2,0,L|360:306,1,60,2|0,1:3|1:0,0:0:0:0:
340,224,125623,2,0,L|280:217,1,60,0|0,1:0|1:0,0:0:0:0:
425,254,125842,70,0,P|414:187|406:114,1,120,0|0,1:0|1:0,0:0:0:0:
466,70,126142,1,0,1:0:0:0:
408,7,126242,2,0,L|348:0,2,60,6|0|4,1:2|1:2|1:2,0:0:0:0:
341,83,126547,6,0,L|200:68,1,120,4|0,1:1|1:0,0:0:0:0:
143,31,126832,70,0,L|79:40,1,60,2|0,1:2|1:0,0:0:0:0:
126,60,127022,2,0,L|66:68,1,60,2|0,1:3|1:0,0:0:0:0:
109,89,127213,2,0,L|49:97,1,60,2|0,1:2|1:0,0:0:0:0:
92,118,127403,2,0,L|32:126,1,60,2|0,1:2|1:0,0:0:0:0:
75,147,127594,2,0,L|15:155,1,60,2|0,1:2|1:0,0:0:0:0:
142,205,127784,6,0,P|152:251|154:269,2,60,2|2|2,1:3|1:2|1:2,0:0:0:0:
60,240,128070,38,0,P|74:302|81:369,1,120,0|0,1:0|1:0,0:0:0:0:
167,369,128356,2,0,P|206:360|234:355,1,60,2|0,1:2|1:0,0:0:0:0:
269,283,128546,2,0,L|330:291,1,60,2|0,1:3|1:0,0:0:0:0:
249,200,128737,2,0,L|309:208,1,60,2|0,1:2|1:0,0:0:0:0:
410,313,128927,6,0,P|477:312|521:256,1,120,0|2,1:0|1:2,0:0:0:0:
486,198,129213,1,0,1:0:0:0:
486,198,129308,2,0,B|492:143|492:143|490:132|490:132|494:78,1,120,2|0,1:3|1:0,0:0:0:0:
433,19,129594,70,0,P|375:8|324:37,1,120,4|0,1:1|1:0,0:0:0:0:
260,96,129880,2,0,P|232:92|197:89,1,60,2|0,1:2|1:0,0:0:0:0:
182,6,130070,2,0,P|211:10|241:12,1,60,2|0,1:3|1:0,0:0:0:0:
116,63,130261,2,0,P|120:91|123:126,1,60,2|0,1:2|1:0,0:0:0:0:
39,143,130451,6,0,P|33:114|31:84,1,60,2|0,1:2|1:0,0:0:0:0:
100,204,130641,2,0,P|98:233|92:263,1,60,2|0,1:2|1:0,0:0:0:0:
90,348,130832,2,0,L|26:339,2,60,2|0|2,1:3|1:0|1:2,0:0:0:0:
167,307,131118,6,0,P|225:292|295:288,1,120,0|0,1:0|1:0,0:0:0:0:
369,309,131403,2,0,P|366:277|362:246,1,60,2|0,1:2|1:0,0:0:0:0:
451,331,131594,2,0,P|445:269|437:210,1,120,2|2,1:3|1:2,0:0:0:0:
494,144,131880,1,0,0:0:0:0:
494,144,131975,6,0,P|500:55|407:9,1,180,4|2,1:2|1:2,0:0:0:0:
380,75,132356,69,4,1:1:0:0:
303,44,132519,1,2,0:0:0:0:
252,111,132720,1,2,0:0:0:0:
175,80,132951,86,0,P|88:65|14:113,1,180,4|2,1:0|0:0,0:0:0:0:
24,200,133600,6,0,P|110:213|182:163,1,180,4|2,1:0|0:0,0:0:0:0:
252,111,134158,102,0,B|313:100|313:100|364:114|364:114|447:104,1,180,4|2,1:0|0:0,0:0:0:0:
481,43,134680,6,0,P|472:122|466:231,1,180,4|2,1:0|0:0,0:0:0:0:
402,286,135160,102,0,P|405:316|409:345,1,60,4|0,1:1|3:0,0:0:0:0:
322,342,135382,2,0,P|319:312|316:282,1,60,4|2,1:2|3:2,0:0:0:0:
264,212,135604,6,0,P|267:182|270:152,1,60,4|0,1:1|0:0,0:0:0:0:
360,137,135814,2,0,P|355:180|352:213,1,60,4|2,1:2|1:2,0:0:0:0:
215,287,136025,102,0,P|184:281|152:278,1,60,4|0,1:1|1:0,0:0:0:0:
90,221,136225,2,0,P|60:224|30:229,1,60,0|2,1:0|1:2,0:0:0:0:
143,148,136425,6,0,P|144:133|146:118,4,30,0|0|0|0|0,1:0|1:0|1:0|1:0|1:0,0:0:0:0:
256,192,136758,12,6,139758,1:2:0:0:
