osu file format v14

[General]
AudioFilename: audio.mp3
AudioLeadIn: 0
PreviewTime: 64561
Countdown: 0
SampleSet: Soft
StackLeniency: 0.2
Mode: 0
LetterboxInBreaks: 0
WidescreenStoryboard: 1

[Editor]
DistanceSpacing: 0.8
BeatDivisor: 4
GridSize: 4
TimelineZoom: 2.800002

[Metadata]
Title:Take
TitleUnicode:竹
Artist:Risshuu feat. Choko
ArtistUnicode:立秋 feat. ちょこ
Creator:yf_bmp
Version:Gust's Insane
Source:
Tags:bamboo masato ishioh 石王マサト bofxvi the bms of fighters xvi arcaea muse dash video game japanese novelty rabbit usagi electronic ウサギ Muziyami Koiyuki wyrio Moecho Gust Yorita Yoshino toybot nika mika xLolicore- My Angel Watame dahkjdas
BeatmapID:2866498
BeatmapSetID:1376486

[Difficulty]
HPDrainRate:7
CircleSize:5
OverallDifficulty:7
ApproachRate:9.2
SliderMultiplier:1.6
SliderTickRate:1

[Events]
//Background and Video events
Video,0,"bga_take.mp4"
0,0,"bg_take.png",0,0
//Break Periods
2,24278,28679
//Storyboard Layer 0 (Background)
//Storyboard Layer 1 (Fail)
//Storyboard Layer 2 (Pass)
//Storyboard Layer 3 (Foreground)
//Storyboard Layer 4 (Overlay)
//Storyboard Sound Samples

[TimingPoints]
120,400,4,2,1,80,1,0
1270,-100,4,2,1,5,0,0
1320,-100,4,2,1,80,0,0
3480,-100,4,2,1,25,0,0
3560,-100,4,2,1,80,0,0
6920,-83.3333333333333,4,2,1,80,0,0
10120,-71.4285714285714,4,2,1,80,0,0
10920,-62.5,4,2,1,80,0,0
11720,-83.3333333333333,4,2,1,80,0,0
13320,273.972602739726,4,2,1,80,1,0
13320,-83.3333333333333,4,2,1,80,0,0
13936,-83.3333333333333,4,2,1,5,0,0
14004,-83.3333333333333,4,2,1,80,0,0
14826,-71.4285714285714,4,2,1,80,0,0
15374,-55.5555555555556,4,2,2,80,0,1
22635,-55.5555555555556,4,2,2,80,0,1
23730,-55.5555555555556,4,2,1,80,0,0
23765,-55.5555555555556,4,2,1,5,0,0
24279,333.333333333333,4,2,1,40,1,0
29279,461.538461538462,4,2,1,80,1,0
29279,-83.3333333333333,4,2,1,80,0,0
29740,461.538461538462,4,2,1,80,1,0
30663,-71.4285714285714,4,2,1,80,0,0
33086,-83.3333333333333,4,2,1,80,0,0
33432,-100,4,2,1,80,0,0
33894,422.535211267606,4,2,1,80,1,0
33894,-71.4285714285714,4,2,1,80,0,0
37697,387.096774193548,4,2,1,80,1,0
39245,-71.4285714285714,4,2,1,80,0,0
40116,-71.4285714285714,4,2,1,20,0,0
40213,-71.4285714285714,4,2,1,80,0,0
40309,-71.4285714285714,4,2,1,20,0,0
40406,-71.4285714285714,4,2,1,80,0,0
40793,-55.5555555555556,4,2,1,80,0,0
41181,363.636363636364,4,2,1,80,1,0
41181,-83.3333333333333,4,2,1,80,0,0
41908,-71.4285714285714,4,2,1,80,0,0
41999,-71.4285714285714,4,2,1,10,0,0
42090,-71.4285714285714,4,2,1,80,0,0
42181,-71.4285714285714,4,2,1,10,0,0
42271,-71.4285714285714,4,2,1,80,0,0
42362,-71.4285714285714,4,2,1,10,0,0
42453,-71.4285714285714,4,2,1,80,0,0
42544,-71.4285714285714,4,2,1,10,0,0
42636,342.857142857143,4,2,1,80,1,0
42636,-71.4285714285714,4,2,1,80,0,0
43064,-71.4285714285714,4,2,1,5,0,0
43150,-71.4285714285714,4,2,1,80,0,0
43236,-71.4285714285714,4,2,1,5,0,0
43321,-71.4285714285714,4,2,1,80,0,0
43407,-71.4285714285714,4,2,1,20,0,0
43493,-71.4285714285714,4,2,1,80,0,0
43578,-71.4285714285714,4,2,1,20,0,0
43664,-71.4285714285714,4,2,1,80,0,0
44007,-45.4545454545455,4,2,1,80,0,0
44350,327.868852459016,4,2,1,80,1,0
44350,-50,4,2,1,80,0,0
46645,-38.4615384615385,4,2,1,80,0,0
46973,307.692307692308,4,2,1,80,1,0
46973,-50,4,2,1,80,0,0
49126,-33.3333333333333,4,2,1,80,0,0
49434,300,4,2,1,80,1,0
49434,-50,4,2,1,80,0,0
50634,292.682926829268,4,2,1,80,1,0
50707,-50,4,2,1,80,0,0
51512,-27.7777777777778,4,2,1,80,0,0
51811,279.06976744186,4,2,1,80,1,0
51811,-50,4,2,1,80,0,0
52922,273.972602739726,4,2,1,80,1,0
52922,-71.4285714285714,4,2,1,80,0,0
53469,-50,4,2,1,80,0,0
53743,-38.4615384615385,4,2,1,80,0,0
54017,307.692307692308,4,2,1,80,1,0
54017,-83.3333333333333,4,2,1,80,0,0
54305,-83.3333333333333,4,2,1,40,0,0
54632,-83.3333333333333,4,2,0,80,0,0
54940,-71.4285714285714,4,2,0,80,0,0
55864,273.972602739726,4,2,1,80,1,0
55864,-62.5,4,2,1,80,0,0
56274,-55.5555555555556,4,2,2,80,0,1
56411,273.972602739726,4,2,2,80,1,1
56684,-50,4,2,2,80,0,1
72301,-50,4,2,2,80,0,1
72849,-50,4,2,2,80,0,1
73534,-50,4,2,1,5,0,1
73671,-50,4,2,1,80,0,0
73946,276.497695852535,4,2,1,80,1,0
73946,-57.1428571428571,4,2,1,80,0,0
74015,-57.1428571428571,4,2,1,5,0,0
74084,-57.1428571428571,4,2,1,80,0,0
74153,-57.1428571428571,4,2,1,5,0,0
74222,292.682926829268,4,2,1,80,1,0
74222,-66.6666666666667,4,2,1,80,0,0
74295,-66.6666666666667,4,2,1,5,0,0
74368,-66.6666666666667,4,2,1,80,0,0
74441,-66.6666666666667,4,2,1,5,0,0
74515,307.692307692308,4,2,1,80,1,0
74515,-80,4,2,1,80,0,0
74591,-80,4,2,1,5,0,0
74668,-80,4,2,1,80,0,0
74745,-80,4,2,1,5,0,0
74823,327.868852459016,4,2,1,80,1,0
74823,-90.9090909090909,4,2,1,80,0,0
74904,-90.9090909090909,4,2,1,5,0,0
74986,-90.9090909090909,4,2,1,80,0,0
75068,-90.9090909090909,4,2,1,5,0,0
75150,-333.333333333333,4,2,1,80,0,0
75314,-333.333333333333,4,2,1,5,0,0
75588,-333.333333333333,4,2,1,80,0,0
76462,327.868852459016,4,2,1,80,1,0
81707,-80,4,2,1,80,0,0
92199,-71.4285714285714,4,2,1,80,0,0
97445,-55.5555555555556,4,2,1,80,0,0
97773,-55.5555555555556,4,2,1,50,0,0
97882,-62.5,4,2,1,80,0,0
98757,-50,4,2,1,80,0,0
104002,-41.6666666666667,4,2,1,80,0,0
106093,-41.6666666666667,4,2,1,5,0,0
106134,-41.6666666666667,4,2,1,80,0,0
109248,-83.3333333333333,4,2,1,80,0,0
110806,-83.3333333333333,4,2,1,5,0,0
110888,-62.5,4,2,1,80,0,0
110970,-62.5,4,2,1,5,0,0
111052,-50,4,2,1,80,0,0
111134,-50,4,2,1,5,0,0
111216,-41.6666666666667,4,2,1,80,0,0
111298,-41.6666666666667,4,2,1,30,0,0
111380,-50,4,2,1,80,0,0
111461,-50,4,2,1,30,0,0
111543,-62.5,4,2,1,80,0,0
111625,-62.5,4,2,1,30,0,0
111707,-62.5,4,2,1,80,0,0
112199,-83.3333333333333,4,2,1,80,0,0
113839,-90.9090909090909,4,2,1,80,0,0
115273,-90.9090909090909,4,2,1,5,0,0
115806,521.739130434783,4,2,1,80,1,0
116327,-166.666666666667,4,2,1,80,0,0
116850,375,4,2,1,80,1,0
117225,-125,4,2,1,80,0,0
117600,307.692307692308,4,2,1,80,1,0
118215,272.727272727273,4,2,1,80,1,0
118487,-83.3333333333333,4,2,1,80,0,0
118761,255.31914893617,4,2,1,80,1,0
119016,-62.5,4,2,1,80,0,0
119271,235.294117647059,4,2,1,80,1,0
119271,-62.5,4,2,1,80,0,0
119624,218.181818181818,4,2,2,80,1,1
119624,-62.5,4,2,2,80,0,1
119733,218.181818181818,4,2,2,80,1,1
119951,-57.1428571428571,4,2,2,80,0,1
125842,200,4,2,2,80,1,1
125842,-58.8235294117647,4,2,2,80,0,1
126547,190.47619047619,4,2,2,80,1,1
126547,-58.8235294117647,4,2,2,80,0,1
126642,190.47619047619,4,2,2,80,1,1
126832,-60.6060606060606,4,2,2,80,0,1
132356,218.181818181818,4,2,1,80,1,0
132356,-58.8235294117647,4,2,1,80,0,0
132519,-192.307692307692,4,2,1,80,0,0
132720,461.538461538462,4,2,1,80,1,0
132951,324.324324324324,4,2,1,80,1,0
133113,-100,4,2,1,5,0,0
133194,-125,4,2,1,80,0,0
133600,279.06976744186,4,2,1,80,1,0
133600,-83.3333333333333,4,2,1,80,0,0
133739,-83.3333333333333,4,2,1,5,0,0
133809,-111.111111111111,4,2,1,80,0,0
134158,260.869565217391,4,2,1,80,1,0
134158,-71.4285714285714,4,2,1,80,0,0
134288,-71.4285714285714,4,2,1,5,0,0
134353,-90.9090909090909,4,2,1,80,0,0
134680,240,4,2,1,80,1,0
134680,-60.6060606060606,4,2,1,80,0,0
134800,-60.6060606060606,4,2,1,5,0,0
134860,-83.3333333333333,4,2,1,80,0,0
135160,222.222222222222,4,2,1,80,1,0
135160,-57.1428571428571,4,2,1,80,0,0
135326,-76.9230769230769,4,2,1,80,0,0
135604,210.526315789474,4,2,1,80,1,0
135604,-54.054054054054,4,2,1,80,0,0
135761,-71.4285714285714,4,2,1,80,0,0
136025,200,4,2,1,80,1,0
136025,-47.6190476190476,4,2,1,80,0,0
136175,-64.5161290322581,4,2,1,80,0,0
136425,190.47619047619,4,2,1,80,1,0
136425,-41.6666666666667,4,2,1,80,0,0
136615,-100,4,2,1,80,0,0
136758,750,4,2,1,80,1,0
136758,-166.666666666667,4,2,1,80,0,0
139695,-166.666666666667,4,2,1,5,0,0
139758,273.972602739726,4,2,1,80,1,0

[Colours]
Combo1 : 172,227,98
Combo2 : 0,87,0
Combo3 : 0,174,0
Combo4 : 28,255,28

[HitObjects]
256,128,920,54,0,B|256:160|256:160|252:164|252:164|256:168|256:168|260:164|260:164|256:164|256:164|256:216|256:216|252:220|252:220|256:224|256:224|260:220|260:220|256:220|256:220|256:272,1,160,2|2,2:1|0:0,0:0:0:0:
120,176,1720,6,0,B|120:216|120:216|116:220|116:220|120:224|120:224|124:220|124:220|120:220|120:220|120:272|120:272|116:276|116:276|120:280|120:280|124:276|124:276|120:276|120:276|120:332|120:332|116:336|116:336|120:340|120:340|124:336|124:336|120:336|120:336|120:388,1,256,0|2,1:0|0:0,0:0:0:0:
352,132,2520,6,0,B|352:181|352:181|348:185|348:185|352:189|352:189|356:185|356:185|352:186|352:186|352:244,1,128,0|2,1:0|0:1,0:0:0:0:
352,244,2920,2,0,B|352:284|352:284|348:284|348:284|352:288|352:288|356:284|356:284|352:280|352:280|352:325,1,96,0|2,1:0|0:0,0:0:0:0:
228,160,3320,6,0,B|228:136|228:136|232:136|232:136|228:132|228:132|224:136|224:136|228:140|228:140|228:111,1,64,0|0,1:1|0:1,0:0:0:0:
228,121,3560,2,0,B|228:97|228:97|232:97|232:97|228:93|228:93|224:97|224:97|228:101|228:101|228:72,1,64,2|0,0:2|1:1,0:0:0:0:
228,82,3800,2,0,B|228:58|228:58|232:58|232:58|228:54|228:54|224:58|224:58|228:62|228:62|228:33,1,64,2|2,0:1|0:0,0:0:0:0:
336,16,4120,6,0,B|325:27|325:27|320:27|320:27|320:32|320:32|325:32|325:32|322:30|322:30|300:52,2,53.3333333333333,0|2|2,1:0|0:1|0:0,0:0:0:0:
336,16,4520,2,0,B|347:27|347:27|352:27|352:27|352:32|352:32|347:32|347:32|350:30|350:30|372:52,2,53.3333333333333,0|2|2,1:0|2:1|2:2,0:0:0:0:
336,16,4920,6,0,B|336:65|336:65|332:69|332:69|336:73|336:73|340:69|340:69|336:70|336:70|336:128,1,128,0|2,1:0|0:1,0:0:0:0:
336,127,5320,2,0,B|336:167|336:167|332:167|332:167|336:171|336:171|340:167|340:167|336:163|336:163|336:200,1,96,0|2,1:0|0:0,0:0:0:0:
336,308,5720,6,0,B|307:279|307:279|304:282|304:282|304:276|304:276|310:276|310:276|310:282|310:282|284:256,1,96,0|2,1:0|0:0,0:0:0:0:
336,308,6040,2,0,B|352:291|352:291|350:293|350:293|352:296|352:296|347:296|347:296|347:291|347:291|368:272,1,64,2|2,0:1|0:1,0:0:0:0:
365,275,6360,2,0,B|381:258|381:258|379:260|379:260|381:263|381:263|376:263|376:263|376:258|376:258|397:239,1,64,2|0,0:0|1:0,0:0:0:0:
4,272,6920,6,0,B|28:272|28:272|32:276|32:276|36:272|36:272|32:268|32:268|32:272|32:272|64:272|64:272|68:276|68:276|72:272|72:272|68:268|68:268|68:272|68:272|108:272,1,115.199996484375,0|2,1:0|0:0,0:0:0:0:
85,272,7240,2,0,B|109:272|109:272|113:276|113:276|117:272|117:272|113:268|113:268|113:272|113:272|152:272,1,76.7999976562501,2|2,0:1|0:1,0:0:0:0:
256,272,7560,2,0,B|280:272|280:272|284:276|284:276|288:272|288:272|284:268|284:268|284:272|284:272|324:272,1,76.7999976562501,2|0,0:0|1:0,0:0:0:0:
512,272,7960,6,0,B|488:272|488:272|484:276|484:276|480:272|480:272|484:268|484:268|484:272|484:272|452:272,1,76.7999976562501,2|0,0:0|1:0,0:0:0:0:
367,272,8200,2,0,B|335:272|335:272|335:276|335:276|331:272|331:272|335:268|335:268|339:272|339:272|301:272,1,76.7999976562501,2|2,0:1|0:0,0:0:0:0:
168,132,8520,6,0,B|168:196|168:196|164:200|164:200|168:204|168:204|172:200|172:200|168:200|168:200|168:272,1,153.5999953125,0|2,1:0|0:1,0:0:0:0:
168,268,8920,2,0,B|168:308|168:308|164:308|164:308|168:312|168:312|172:308|172:308|168:304|168:304|168:364,1,115.199996484375,0|2,1:0|0:0,0:0:0:0:
344,88,9320,6,0,B|344:152|344:152|340:156|340:156|344:160|344:160|348:156|348:156|344:156|344:156|344:228,1,153.5999953125,0|2,1:0|0:1,0:0:0:0:
344,224,9720,2,0,B|344:264|344:264|340:264|340:264|344:268|344:268|348:264|348:264|344:260|344:260|344:316,1,115.199996484375,0|2,1:0|0:0,0:0:0:0:
72,60,10120,6,0,B|72:116|72:116|68:116|68:116|72:120|72:120|76:116|76:116|72:112|72:112|72:180,1,134.399995898438,0|2,1:0|0:0,0:0:0:0:
72,169,10440,2,0,B|72:240|72:240|68:244|68:244|72:248|72:248|76:244|76:244|72:244|72:244|72:336,1,179.19999453125,2|2,0:1|0:0,0:0:0:0:
376,12,10920,6,0,B|376:76|376:76|372:76|372:76|376:80|376:80|380:76|380:76|376:72|376:72|376:144,1,153.6,0|2,1:0|0:0,0:0:0:0:
376,140,11240,2,0,B|376:228|376:228|372:232|372:232|376:236|376:236|380:232|380:232|376:232|376:232|376:332,1,204.8,2|2,0:1|0:0,0:0:0:0:
256,384,11720,6,0,B|231:370|231:370|230:364|230:364|224:366|224:366|226:371|226:371|228:368|228:368|204:354,1,76.7999976562501,0|2,1:0|0:1,0:0:0:0:
308,276,11960,2,0,B|283:289|283:289|285:293|285:293|287:287|287:287|281:286|281:286|280:291|280:291|256:305,1,76.7999976562501,0|0,0:0|1:0,0:0:0:0:
172,188,12200,2,0,B|196:201|196:201|194:205|194:205|192:199|192:199|198:198|198:198|199:203|199:203|223:217,2,76.7999976562501,2|2|0,0:2|0:0|1:0,0:0:0:0:
348,88,12680,2,0,B|323:101|323:101|325:105|325:105|327:99|327:99|321:98|321:98|320:103|320:103|296:117,1,76.7999976562501,2|2,0:1|0:0,0:0:0:0:
136,0,13000,2,0,B|160:14|160:14|161:19|161:19|167:18|167:18|165:12|165:12|163:16|163:16|187:29,1,76.7999976562501,2|2,0:0|0:1,0:0:0:0:
256,20,13320,6,0,B|256:68|256:68|252:72|252:72|256:76|256:76|260:72|260:72|256:72|256:72|256:120|256:120|252:124|252:124|256:128|256:128|260:124|260:124|256:124|256:124|256:168|256:168|252:172|252:172|256:176|256:176|260:172|260:172|256:172|256:172|256:216|256:216|252:220|252:220|256:224|256:224|260:220|260:220|256:220|256:220|256:260|256:260|252:264|252:264|256:268|256:268|260:264|260:264|256:264|256:264|256:308|256:308|252:312|252:312|256:316|256:316|260:312|260:312|256:312|256:312|256:364,1,431.999986816407,2|0,0:1|0:0,0:0:0:0:
328,340,14004,6,0,B|364:340|364:340|368:344|368:344|372:340|372:340|368:336|368:336|368:340|368:340|428:340,2,95.9999970703126,2|2|2,0:2|0:0|0:0,0:0:0:0:
184,288,14415,2,0,B|148:288|148:288|144:292|144:292|140:288|140:288|144:284|144:284|144:288|144:288|84:288,2,95.9999970703126,2|2|2,0:1|0:1|0:1,0:0:0:0:
360,192,14826,2,0,B|404:192|404:192|408:196|408:196|412:192|412:192|408:188|408:188|408:192|408:192|476:192,1,111.999996582031,0|0,0:0|1:0,0:0:0:0:
132,112,15100,2,0,B|88:112|88:112|84:116|84:116|80:112|80:112|84:108|84:108|84:112|84:112|16:112,1,111.999996582031,0|0,1:0|1:0,0:0:0:0:
256,0,15374,6,0,B|256:56|256:56|252:60|252:60|256:64|256:64|260:60|260:60|256:60|256:60|256:116|256:116|252:116|252:116|256:120|256:120|260:116|260:116|256:112|256:112|256:168|256:168|252:172|252:172|256:176|256:176|260:172|260:172|256:172|256:172|256:229,1,287.999991210938,4|2,1:1|0:0,0:0:0:0:
344,368,15785,2,0,B|344:304|344:304|348:304|348:304|344:308|344:308|340:304|340:304|344:300|344:300|344:240,1,143.999995605469,8|2,1:0|3:2,0:0:0:0:
156,176,16059,2,0,B|156:112|156:112|160:112|160:112|156:116|156:116|152:112|152:112|156:108|156:108|156:48,1,143.999995605469,2|2,1:3|3:2,0:0:0:0:
428,280,16333,2,0,B|428:216|428:216|432:216|432:216|428:220|428:220|424:216|424:216|428:212|428:212|428:152,1,143.999995605469,8|2,1:0|3:2,0:0:0:0:
100,360,16607,2,0,B|100:296|100:296|104:296|104:296|100:300|100:300|96:296|96:296|100:292|100:292|100:232,1,143.999995605469,0|2,1:0|3:2,0:0:0:0:
352,128,16881,2,0,B|352:64|352:64|356:64|356:64|352:68|352:68|348:64|348:64|352:60|352:60|352:0,1,143.999995605469,8|2,1:0|3:2,0:0:0:0:
256,384,17155,6,0,B|256:360|256:360|252:356|252:356|256:352|256:352|260:356|260:356|256:356|256:356|256:312,1,71.9999978027344,2|0,1:3|0:0,0:0:0:0:
256,263,17292,2,0,B|256:239|256:239|252:235|252:235|256:231|256:231|260:235|260:235|256:235|256:235|256:191,1,71.9999978027344,0|0,1:0|0:0,0:0:0:0:
256,142,17429,2,0,B|256:118|256:118|252:114|252:114|256:110|256:110|260:114|260:114|256:114|256:114|256:70,1,71.9999978027344,0|0,1:0|0:0,0:0:0:0:
140,73,17566,6,0,B|179:16|259:16|259:16|256:21|256:21|251:16|251:16|255:12|255:12|255:16|255:16|323:16|364:72,1,287.999991210938,0|2,1:2|3:2,0:0:0:0:
311,192,17977,2,0,B|291:220|255:220|255:220|255:216|255:216|259:220|259:220|255:224|255:224|251:220|251:220|222:220|203:192,1,143.999995605469,8|2,1:0|3:2,0:0:0:0:
96,126,18251,2,0,B|68:107|68:78|68:78|64:74|64:74|68:70|68:70|72:74|72:74|68:74|68:74|68:38|96:18,1,143.999995605469,2|0,1:3|1:0,0:0:0:0:
416,18,18525,2,0,B|444:38|444:74|444:74|440:74|440:74|444:70|444:70|448:74|448:74|444:78|444:78|444:107|416:126,1,143.999995605469,8|2,1:0|3:2,0:0:0:0:
256,0,18799,6,0,B|256:24|256:24|252:28|252:28|256:32|256:32|260:28|260:28|256:28|256:28|256:72,3,71.9999978027344,0|0|0|0,1:0|1:0|1:0|1:0,0:0:0:0:
256,121,19073,2,0,B|256:145|256:145|252:149|252:149|256:153|256:153|260:149|260:149|256:149|256:149|256:193,1,71.9999978027344,8|0,1:0|0:0,0:0:0:0:
256,242,19210,2,0,B|256:266|256:266|252:270|252:270|256:274|256:274|260:270|260:270|256:270|256:270|256:314,1,71.9999978027344,2|0,1:2|0:0,0:0:0:0:
140,311,19347,2,0,B|179:368|252:368|252:368|256:364|256:364|260:368|260:368|256:372|256:372|256:368|256:368|332:368|373:310,1,287.999991210938,2|8,1:3|1:0,0:0:0:0:
373,74,19758,6,0,B|332:16|256:16|256:16|256:12|256:12|260:16|260:16|256:20|256:20|252:16|252:16|179:16|140:73,1,287.999991210938,4|2,1:1|3:2,0:0:0:0:
128,160,20169,2,0,B|95:164|69:139|69:139|72:136|72:136|72:142|72:142|66:142|66:142|66:136|66:136|46:115|52:82,2,143.999995605469,8|2|2,1:0|3:2|1:3,0:0:0:0:
384,160,20580,2,0,B|416:164|442:139|442:139|439:136|439:136|439:142|439:142|445:142|445:142|445:136|445:136|465:115|459:82,2,143.999995605469,2|8|2,1:2|1:0|3:2,0:0:0:0:
200,264,20991,6,0,B|200:200|200:200|204:200|204:200|200:204|200:204|196:200|196:200|200:196|200:196|200:136,1,143.999995605469,0|2,1:0|1:2,0:0:0:0:
292,212,21265,2,0,B|292:148|292:148|296:148|296:148|292:152|292:152|288:148|288:148|292:144|292:144|292:84,1,143.999995605469,8|2,1:0|1:2,0:0:0:0:
384,160,21539,2,0,B|384:96|384:96|388:96|388:96|384:100|384:100|380:96|380:96|384:92|384:92|384:32,2,143.999995605469,2|0|0,1:3|1:0|1:0,0:0:0:0:
256,364,21950,6,0,B|256:307|256:307|260:307|260:307|256:311|256:311|252:307|252:307|256:303|256:303|256:247|256:247|260:251|260:251|256:255|256:255|252:251|252:251|256:251|256:251|256:184,1,215.999993408203,2|0,1:2|0:0,0:0:0:0:
256,124,22224,2,0,B|256:97|256:97|260:97|260:97|256:101|256:101|252:97|252:97|256:93|256:93|256:69,1,71.9999978027344,0|0,1:0|1:0,0:0:0:0:
312,28,22361,6,0,B|292:0|256:0|256:0|256:4|256:4|260:0|260:0|256:-4|256:-4|252:0|252:0|223:0|204:28,1,143.999995605469,8|0,1:0|1:0,0:0:0:0:
348,228,22635,2,0,B|382:224|400:193|400:193|396:191|396:191|398:196|398:196|403:195|403:195|402:190|402:190|416:164|401:134,1,143.999995605469,2|2,1:3|1:2,0:0:0:0:
110,134,22909,2,0,B|95:164|109:190|109:190|108:195|108:195|113:196|113:196|115:191|115:191|111:193|111:193|129:224|164:228,1,143.999995605469,2|0,1:2|1:0,0:0:0:0:
304,176,23183,6,0,B|317:152|317:152|320:154|320:154|315:156|315:156|314:150|314:150|319:149|319:149|331:128,1,71.9999978027344,0|0,1:0|1:0,0:0:0:0:
283,60,23320,2,0,B|259:60|259:60|255:56|255:56|251:60|251:60|255:64|255:64|255:60|255:60|228:60,1,71.9999978027344,6|0,1:2|1:0,0:0:0:0:
180,128,23456,2,0,B|192:149|192:149|197:150|197:150|196:156|196:156|191:154|191:154|194:152|194:152|208:176,1,71.9999978027344,0|0,1:2|0:0,0:0:0:0:
256,236,23593,6,0,B|256:300|256:300|260:300|260:300|256:296|256:296|252:300|252:300|256:304|256:304|256:364,1,143.999995605469,4|2,1:2|1:3,0:0:0:0:
278,218,29279,6,0,B|293:216|293:216|298:219|298:219|301:215|301:215|297:211|297:211|297:215|297:215|317:213,1,47.9999985351563,2|2,0:0|0:1,0:0:0:0:
376,205,29509,2,0,B|391:203|391:203|396:206|396:206|399:202|399:202|395:198|395:198|395:202|395:202|415:200,1,47.9999985351563,2|2,0:2|0:1,0:0:0:0:
476,192,29740,2,0,B|476:240|476:240|472:244|472:244|476:248|476:248|480:244|480:244|476:244|476:244|476:304,1,120,0|0,1:0|0:0,0:0:0:0:
408,352,30201,2,0,B|408:320|408:320|412:320|412:320|408:324|408:324|404:320|404:320|408:316|408:316|408:288,1,80,0|2,1:0|0:0,0:0:0:0:
332,140,30663,6,0,B|323:116|300:107|300:107|302:104|302:104|304:109|304:109|298:111|298:111|297:105|297:105|282:92|254:99,1,111.999996582031,0|2,1:0|0:2,0:0:0:0:
220,156,31124,2,0,B|229:180|252:189|252:189|250:192|250:192|248:187|248:187|254:185|254:185|255:191|255:191|270:204|298:197,1,111.999996582031,0|2,1:0|0:2,0:0:0:0:
456,20,31586,6,0,B|429:13|414:26|414:26|413:32|413:32|407:30|407:30|409:25|409:25|411:28|411:28|388:37|379:61,3,111.999996582031,0|0|0|2,1:0|0:0|1:0|0:2,0:0:0:0:
464,192,32509,2,0,B|456:145|456:145|460:144|460:144|457:149|457:149|452:146|452:146|456:141|456:141|449:98,2,111.999996582031,0|2|0,1:0|0:2|1:0,0:0:0:0:
396,224,33086,2,0,B|394:212|394:212|389:208|389:208|392:204|392:204|397:207|397:207|393:208|393:208|389:184,2,47.9999985351563,2|2|2,0:1|2:2|0:1,0:0:0:0:
256,384,33432,6,0,B|256:352|256:352|252:348|252:348|256:344|256:344|260:348|260:348|256:348|256:348|256:296,1,80,0|2,0:0|0:0,0:0:0:0:
12,220,33894,6,0,B|21:244|44:253|44:253|42:256|42:256|40:251|40:251|46:249|46:249|47:255|47:255|62:268|90:261,1,111.999996582031,0|2,1:0|0:0,0:0:0:0:
152,240,34210,2,0,B|154:224|154:224|159:220|159:220|155:220|155:220|151:219|151:219|155:216|155:216|160:184,1,55.9999982910157,2|0,0:1|1:0,0:0:0:0:
316,112,34527,6,0,B|308:65|308:65|312:64|312:64|309:69|309:69|304:66|304:66|308:61|308:61|301:18,2,111.999996582031,2|0|2,2:1|1:0|0:0,0:0:0:0:
400,132,35161,2,0,B|392:85|392:85|396:84|396:84|393:89|393:89|388:86|388:86|392:81|392:81|385:38,1,111.999996582031,0|2,1:0|0:0,0:0:0:0:
490,191,35584,2,0,B|483:147|483:147|478:144|478:144|481:139|481:139|486:142|486:142|482:143|482:143|476:108|476:108|472:104|472:104|475:100|475:100|480:103|480:103|476:104|476:104|464:32,1,167.999994873047,0|2,1:0|0:1,0:0:0:0:
385,39,36006,2,0,B|392:81|392:81|388:86|388:86|393:89|393:89|396:84|396:84|392:85|392:85|400:132,1,111.999996582031,0|2,1:0|0:0,0:0:0:0:
140,240,36429,6,0,B|132:193|132:193|136:192|136:192|133:197|133:197|128:194|128:194|132:189|132:189|125:147,1,111.999996582031,0|2,1:0|0:0,0:0:0:0:
80,308,36746,2,0,B|76:287|76:287|72:284|72:284|76:283|76:283|80:282|80:282|75:279|75:279|73:263,2,55.9999982910157,0|0|2,0:0|1:0|0:1,0:0:0:0:
161,351,37063,2,0,B|157:330|157:330|153:327|153:327|157:326|157:326|161:325|161:325|156:322|156:322|154:306,1,55.9999982910157,2|2,2:0|2:1,0:0:0:0:
256,384,37274,6,0,B|256:340|256:340|252:336|252:336|256:332|256:332|260:336|260:336|256:336|256:336|256:288,1,111.999996582031,0|2,0:0|0:0,0:0:0:0:
504,96,37697,6,0,B|495:120|476:129|476:129|469:125|469:125|465:131|465:131|472:135|472:135|470:130|470:130|448:144|419:137,1,120,0|2,1:0|0:1,0:0:0:0:
376,193,38084,2,0,B|344:186|344:186|345:182|345:182|348:187|348:187|343:190|343:190|340:185|340:185|313:179,1,80,0|2,1:0|2:1,0:0:0:0:
144,120,38471,2,0,B|175:113|175:113|174:109|174:109|171:114|171:114|176:117|176:117|179:112|179:112|206:106,1,80,0|2,1:0|0:0,0:0:0:0:
376,48,38858,2,0,B|344:41|344:41|345:37|345:37|348:42|348:42|343:45|343:45|340:40|340:40|313:34,1,80,0|2,1:0|0:0,0:0:0:0:
84,0,39245,6,0,B|41:16|25:43|25:43|27:49|27:49|21:51|21:51|19:45|19:45|23:47|23:47|10:85|30:117,1,167.999994873047,0|2,1:0|0:1,0:0:0:0:
84,176,39632,2,0,B|127:169|127:169|130:164|130:164|135:167|135:167|132:172|132:172|131:168|131:168|178:160,1,111.999996582031,0|2,1:0|0:1,0:0:0:0:
324,88,40019,2,0,B|367:81|367:81|370:76|370:76|375:79|375:79|372:84|372:84|371:80|371:80|418:72,1,111.999996582031,0|2,1:0|0:0,0:0:0:0:
512,340,40406,2,0,B|491:344|491:344|488:348|488:348|487:344|487:344|486:340|486:340|483:345|483:345|467:347,1,55.9999982910157,0|2,1:1|0:1,0:1:0:0:
390,364,40600,2,0,B|369:368|369:368|366:372|366:372|365:368|365:368|364:364|364:364|361:369|361:369|345:371,1,55.9999982910157,2|2,0:2|0:1,0:1:0:0:
256,384,40793,22,0,B|256:324|256:324|252:324|252:324|256:320|256:320|260:324|260:324|256:328|256:328|256:252,1,143.999995605469,0|2,0:0|0:0,0:0:0:0:
64,192,41181,22,0,B|64:132|64:132|60:132|60:132|64:128|64:128|68:132|68:132|64:136|64:136|64:60,1,143.999995605469,0|2,1:0|0:1,0:0:0:0:
136,96,41544,2,0,B|136:60|136:60|132:56|132:56|136:52|136:52|140:56|140:56|136:56|136:56|136:12,1,95.9999970703126,0|2,1:0|2:1,0:0:0:0:
64,236,41908,6,0,B|64:212|64:212|60:208|60:208|64:208|64:208|68:208|68:208|64:204|64:204|64:184,1,55.9999982910157,0|0,1:0|0:0,0:0:0:0:
156,288,42090,2,0,B|156:264|156:264|152:260|152:260|156:260|156:260|160:260|160:260|156:256|156:256|156:236,1,55.9999982910157,2|0,0:2|0:0,0:0:0:0:
244,212,42271,2,0,B|244:188|244:188|240:184|240:184|244:184|244:184|248:184|248:184|244:180|244:180|244:160,1,55.9999982910157,0|0,1:1|0:0,0:0:0:0:
336,264,42453,2,0,B|336:240|336:240|332:236|332:236|336:236|336:236|340:236|340:236|336:232|336:232|336:212,1,55.9999982910157,2|0,0:0|0:0,0:0:0:0:
424,188,42636,22,0,B|447:193|469:179|469:179|471:184|471:184|464:180|464:180|468:174|468:174|475:178|475:178|494:169|504:144,1,111.999996582031,0|2,1:0|2:0,0:0:0:0:
396,0,42978,2,0,B|372:-5|350:8|350:8|348:3|348:3|355:7|355:7|351:13|351:13|344:9|344:9|325:18|316:44,1,111.999996582031,0|2,1:0|0:0,0:0:0:0:
96,232,43321,6,0,B|96:192|96:192|92:188|92:188|96:184|96:184|100:188|100:188|96:188|96:188|96:136,1,111.999996582031,0|2,1:0|0:0,0:0:0:0:
32,336,43664,2,0,B|32:312|32:312|28:308|28:308|32:308|32:308|36:308|36:308|32:304|32:304|32:284,1,55.9999982910157,0|0,1:0|0:0,0:0:0:0:
144,360,43836,2,0,B|144:336|144:336|140:332|140:332|144:332|144:332|148:332|148:332|144:328|144:328|144:308,1,55.9999982910157,2|0,0:0|0:0,0:0:0:0:
256,384,44007,22,0,B|256:312|256:312|252:308|252:308|256:304|256:304|260:308|260:308|256:308|256:308|256:220,1,176.000005371094,0|2,1:0|0:0,0:0:0:0:
512,48,44350,6,0,B|484:40|484:40|482:35|482:35|477:38|477:38|480:43|480:43|481:39|481:39|434:27,1,80,0|0,1:0|1:0,0:0:0:0:
392,84,44513,2,0,B|421:92|421:92|420:95|420:95|418:90|418:90|423:88|423:88|425:93|425:93|452:100,1,80,10|2,1:2|3:1,1:2:0:0:
480,176,44677,2,0,B|452:168|452:168|450:163|450:163|445:166|445:166|448:171|448:171|449:167|449:167|402:155,2,80,0|0|8,1:0|1:0|1:0,0:0:0:0:
136,280,45005,6,0,B|163:272|163:272|165:267|165:267|170:270|170:270|167:275|167:275|166:271|166:271|213:259,1,80,0|0,1:0|1:0,0:0:0:0:
256,292,45169,2,0,B|290:272|298:241|298:241|303:238|303:238|300:233|300:233|295:236|295:236|299:237|299:237|308:202|290:167,1,160,10|0,1:2|1:0,1:2:0:0:
84,64,45497,2,0,B|49:83|41:114|41:114|36:117|36:117|39:122|39:122|44:119|44:119|40:118|40:118|31:153|49:188,1,160,8|0,1:0|1:0,0:0:0:0:
300,348,45825,6,0,B|339:343|339:343|344:347|344:347|347:342|347:342|343:339|343:339|343:343|343:343|379:339|379:339|383:343|383:343|387:338|387:338|383:335|383:335|383:339|383:339|459:331,1,160,8|0,1:2|1:0,0:0:0:0:
496,356,46071,2,0,B|495:324|495:324|491:324|491:324|496:328|496:328|499:324|499:324|495:320|495:320|496:292,2,80,0|8|0,1:0|1:0|1:0,0:0:0:0:
436,256,46317,2,0,B|435:224|435:224|431:224|431:224|436:228|436:228|439:224|439:224|435:220|435:220|435:193,2,80,0|2|8,1:0|1:2|1:2,0:0:0:0:
256,384,46645,6,0,B|256:292|256:292|252:288|252:288|256:284|256:284|260:288|260:288|256:288|256:288|256:188,1,207.999990478516,0|2,1:0|3:2,0:0:0:0:
0,48,46973,6,0,B|28:40|28:40|30:35|30:35|35:38|35:38|32:43|32:43|31:39|31:39|78:27,1,80,0|0,1:0|1:0,0:0:0:0:
120,84,47126,2,0,B|91:92|91:92|92:95|92:95|94:90|94:90|89:88|89:88|87:93|87:93|60:100,1,80,10|2,1:2|3:1,0:0:0:0:
32,176,47280,2,0,B|60:168|60:168|62:163|62:163|67:166|67:166|64:171|64:171|63:167|63:167|110:155,1,80,0|2,1:0|1:1,0:0:0:0:
156,208,47434,6,0,B|190:188|198:157|198:157|203:154|203:154|200:149|200:149|195:152|195:152|199:153|199:153|208:118|190:84,1,160,8|2,1:1|1:3,0:0:0:0:
120,84,47665,2,0,B|91:92|91:92|92:95|92:95|94:90|94:90|89:88|89:88|87:93|87:93|57:101,1,80,2|8,1:1|1:2,0:0:0:0:
85,328,47896,6,0,B|79:298|79:298|76:299|76:299|81:301|81:301|83:296|83:296|78:294|78:294|72:264,1,80,2|0,1:2|1:0,0:0:0:0:
138,252,48049,2,0,B|132:222|132:222|129:223|129:223|134:225|134:225|136:220|136:220|131:218|131:218|125:188,1,80,8|2,1:1|1:1,0:0:0:0:
191,176,48203,2,0,B|185:146|185:146|182:147|182:147|187:149|187:149|189:144|189:144|184:142|184:142|178:112,2,80,0|0|8,1:0|1:0|1:2,0:0:0:0:
440,264,48511,38,0,B|434:294|434:294|429:296|429:296|431:301|431:301|436:299|436:299|433:298|433:298|427:328,1,80,0|0,1:0|0:0,0:0:0:0:
387,188,48665,2,0,B|381:218|381:218|376:220|376:220|378:225|378:225|383:223|383:223|380:222|380:222|374:252,1,80,8|2,1:1|1:1,0:0:0:0:
334,112,48819,2,0,B|328:142|328:142|323:144|323:144|325:149|325:149|330:147|330:147|327:146|327:146|321:176,3,80,0|0|10|0,1:0|1:0|1:2|1:0,0:0:0:0:
256,384,49126,22,0,B|256:284|256:284|252:280|252:280|256:276|256:276|260:280|260:280|256:280|256:280|256:156,1,240.000009155274,0|2,1:0|3:2,0:0:0:0:
512,336,49434,38,0,B|484:344|484:344|482:349|482:349|477:346|477:346|480:341|480:341|481:345|481:345|434:357,1,80,0|0,1:0|1:0,0:0:0:0:
392,300,49584,2,0,B|421:292|421:292|420:289|420:289|418:294|418:294|423:296|423:296|425:291|425:291|452:284,1,80,10|2,1:2|3:1,0:0:0:0:
480,208,49734,2,0,B|452:216|452:216|450:221|450:221|445:218|445:218|448:213|448:213|449:217|449:217|402:229,1,80,0|2,1:0|1:1,0:0:0:0:
328,244,49884,2,0,B|359:220|364:188|364:188|369:185|369:185|365:180|365:180|360:184|360:184|365:184|365:184|370:149|348:117,2,160,8|2|8,1:1|1:3|1:2,0:0:0:0:
88,16,50334,22,0,B|54:36|46:67|46:67|41:70|41:70|44:75|44:75|49:72|49:72|45:71|45:71|36:106|54:140,2,160,0|0|0,1:0|0:0|1:0,0:0:0:0:
160,52,50707,2,0,B|188:44|188:44|187:40|187:40|184:45|184:45|189:48|189:48|191:43|191:43|220:36,2,80,0|10|0,1:0|1:2|1:0,0:0:0:0:
200,124,50926,2,0,B|228:132|228:132|229:128|229:128|224:130|224:130|227:135|227:135|231:132|231:132|259:140,1,80,0|0,1:0|0:0,0:0:0:0:
128,188,51073,2,0,B|99:196|99:196|98:192|98:192|103:194|103:194|100:199|100:199|96:196|96:196|68:204,1,80,8|2,1:1|1:1,0:0:0:0:
220,240,51219,2,0,B|248:245|248:245|249:241|249:241|244:243|244:243|247:248|247:248|251:245|251:245|279:253,1,80,0|0,1:0|1:0,0:0:0:0:
92,304,51365,2,0,B|64:309|64:309|63:305|63:305|68:307|68:307|65:312|65:312|61:309|61:309|33:317,1,80,8|0,1:2|1:0,0:0:0:0:
256,384,51512,38,0,B|256:244|256:244|252:240|252:240|256:236|256:236|260:240|260:240|256:240|256:240|256:96,1,287.999991210938,0|2,1:0|3:2,0:0:0:0:
475,172,51811,6,0,B|449:181|449:181|446:186|446:186|441:183|441:183|444:178|444:178|445:182|445:182|416:192,3,80,0|0|10|2,0:0|1:0|1:2|1:1,0:0:0:0:
427,88,52090,2,0,B|406:106|406:106|405:112|405:112|400:112|400:112|400:106|400:106|403:109|403:109|380:130,1,80,0|0,1:0|1:0,0:0:0:0:
350,28,52229,2,0,B|338:53|338:53|340:58|340:58|335:60|335:60|333:55|333:55|336:57|336:57|324:85,1,80,8|2,1:1|1:1,0:0:0:0:
256,0,52369,6,0,B|256:44|256:44|260:48|260:48|256:52|256:52|252:48|252:48|256:48|256:48|256:108,2,106.666666666667,2|0|0,1:3|1:0|1:0,0:0:0:0:
113,50,52648,2,0,B|138:85|138:85|144:86|144:86|143:92|143:92|137:91|137:91|141:88|141:88|176:137,2,106.666666666667,0|0|0,1:0|1:0|1:0,0:0:0:0:
37,172,52922,6,0,B|78:185|78:185|83:183|83:183|86:188|86:188|81:190|81:190|82:186|82:186|137:205,3,111.999996582031,4|8|0|8,1:2|1:2|1:0|1:1,0:0:0:0:
256,128,53469,6,0,B|256:156|256:156|252:160|252:160|256:164|256:164|260:160|260:160|256:160|256:160|256:192,3,80,4|0|4|0,1:2|1:0|1:2|1:0,0:0:0:0:
256,256,53743,2,0,B|256:272|256:272|252:276|252:276|256:280|256:280|260:276|260:276|256:276|256:276|256:312,6,51.999997619629,0|2|0|0|0|2|0,1:2|1:2|1:2|1:2|1:2|1:2|1:2,0:0:0:0:
331,352,54017,6,0,B|292:368|256:368|256:368|260:368|260:368|256:372|256:372|256:364|256:364|252:368|252:368|220:368|174:350,2,179.999994506836,4|4|4,0:2|0:2|0:2,0:0:0:0:
300,280,54940,6,0,B|281:291|257:291|257:291|257:295|257:295|261:291|261:291|257:287|257:287|253:291|253:291|233:291|209:279,1,111.999996582031,2|2,0:0|0:0,0:0:0:0:
310,109,55247,2,0,B|329:120|341:141|341:141|345:139|345:139|339:137|339:137|338:143|338:143|343:144|343:144|353:162|355:188,1,111.999996582031,2|2,0:0|0:1,0:0:0:0:
157,186,55555,2,0,B|157:163|169:143|169:143|165:141|165:141|167:146|167:146|172:145|172:145|171:139|171:139|181:122|203:107,1,111.999996582031,0|2,0:0|0:1,0:0:0:0:
380,272,55864,6,0,B|394:257|394:257|394:252|394:252|399:252|399:252|399:257|399:257|396:255|396:255|413:238,1,64,0|0,1:0|0:0,0:0:0:0:
256,212,56000,2,0,B|256:191|256:191|260:188|260:188|255:184|255:184|252:187|252:187|256:187|256:187|256:164,1,64,0|0,1:0|0:0,0:0:0:0:
132,276,56137,2,0,B|117:261|117:261|117:256|117:256|112:256|112:256|112:261|112:261|115:259|115:259|98:242,1,64,0|0,1:0|0:0,0:0:0:0:
256,375,56274,6,0,B|256:346|256:346|260:346|260:346|256:350|256:350|252:346|252:346|256:342|256:342|256:286|256:286|260:290|260:290|256:294|256:294|252:290|252:290|256:290|256:290|256:234|256:234|260:234|260:234|256:238|256:238|252:234|252:234|256:230|256:230|256:191|256:191|252:187|252:187|256:183|256:183|260:187|260:187|256:187|256:187|256:143,1,287.999991210938,4|2,1:1|3:2,0:0:0:0:
392,40,56684,2,0,B|392:108|392:108|388:112|388:112|392:116|392:116|396:112|396:112|392:112|392:112|392:184,1,160,8|2,1:0|3:2,0:0:0:0:
168,120,56958,2,0,B|168:188|168:188|164:192|164:192|168:196|168:196|172:192|172:192|168:192|168:192|168:264,1,160,2|2,1:3|3:2,0:0:0:0:
346,235,57232,2,0,B|346:303|346:303|342:307|342:307|346:311|346:311|350:307|350:307|346:307|346:307|346:379,1,160,8|2,1:0|3:2,0:0:0:0:
72,184,57506,2,0,B|72:252|72:252|68:256|68:256|72:260|72:260|76:256|76:256|72:256|72:256|72:328,1,160,0|2,1:0|3:2,0:0:0:0:
256,84,57780,2,0,B|256:152|256:152|252:156|252:156|256:160|256:160|260:156|260:156|256:156|256:156|256:228,1,160,8|2,1:0|3:2,0:0:0:0:
476,192,58054,6,0,B|476:260|476:260|472:264|472:264|476:268|476:268|480:264|480:264|476:264|476:264|476:336,2,160,2|0|0,1:3|1:0|1:0,0:0:0:0:
394,66,58465,6,0,B|345:19|259:11|259:11|255:7|255:7|251:11|251:11|255:15|255:15|255:11|255:11|169:19|114:68,1,320,2|2,1:2|3:2,0:0:0:0:
192,200,58876,2,0,B|222:228|251:228|251:228|255:232|255:232|259:228|259:228|255:224|255:224|255:228|255:228|291:228|319:200,1,160,8|2,1:0|3:2,0:0:0:0:
256,92,59150,6,0,B|256:124|256:124|252:128|252:128|256:132|256:132|260:128|260:128|256:128|256:128|256:180,2,80,2|0|2,1:3|0:0|3:2,0:0:0:0:
256,300,59424,2,0,B|256:332|256:332|252:336|252:336|256:340|256:340|260:336|260:336|256:336|256:336|256:388,2,80,8|0|2,1:0|0:0|3:2,0:0:0:0:
447,164,59698,6,0,B|440:123|411:102|411:102|409:105|409:105|414:104|414:104|413:99|413:99|408:100|408:100|384:82|344:88,1,160,0|0,1:0|1:0,0:0:0:0:
64,163,59972,2,0,B|71:123|100:102|100:102|102:105|102:105|97:104|97:104|98:99|98:99|103:100|103:100|127:82|168:88,1,160,8|0,1:0|1:0,0:0:0:0:
396,304,60246,6,0,B|347:351|261:358|261:358|257:362|257:362|253:358|253:358|257:354|257:354|257:358|257:358|171:351|116:302,1,320,2|0,1:3|1:0,0:0:0:0:
68,60,60657,6,0,B|137:60|137:60|133:64|133:64|129:60|129:60|133:56|133:56|133:60|133:60|189:60|189:60|193:56|193:56|197:60|197:60|193:64|193:64|193:60|193:60|257:60|257:60|257:56|257:56|261:60|261:60|257:64|257:64|253:60|253:60|321:60,1,320,4|0,1:0|3:0,0:0:0:0:
444,148,61068,2,0,B|374:148|374:148|378:152|378:152|382:148|382:148|378:144|378:144|378:148|378:148|322:148|322:148|318:144|318:144|314:148|314:148|318:152|318:152|318:148|318:148|254:148|254:148|254:144|254:144|250:148|250:148|254:152|254:152|258:148|258:148|190:148,1,320,8|2,1:0|1:3,0:0:0:0:
108,196,61479,6,0,B|89:233|100:267|100:267|104:266|104:266|99:264|99:264|97:269|97:269|101:271|101:271|110:299|146:318,2,160,0|8|2,3:2|1:0|3:2,0:0:0:0:
192,76,61890,2,0,B|222:48|251:48|251:48|255:44|255:44|259:48|259:48|255:52|255:52|255:48|255:48|291:48|319:76,1,160,0|2,1:0|3:2,0:0:0:0:
404,196,62164,2,0,B|423:233|412:267|412:267|408:266|408:266|413:264|413:264|415:269|415:269|411:271|411:271|402:299|366:318,1,160,8|0,1:0|3:2,0:0:0:0:
176,280,62438,6,0,B|176:208|176:208|180:208|180:208|176:212|176:212|172:208|172:208|176:204|176:204|176:136,1,160,2|0,1:3|1:0,0:0:0:0:
336,104,62712,2,0,B|336:176|336:176|332:176|332:176|336:172|336:172|340:176|340:176|336:180|336:180|336:248,2,160,0|2|0,1:0|1:2|0:0,0:0:0:0:
256,363,63123,6,0,B|256:336|256:336|260:336|260:336|256:340|256:340|252:336|252:336|256:332|256:332|256:300,1,80,2|0,1:2|1:0,0:0:0:0:
256,224,63260,2,0,B|256:156|256:156|260:152|260:152|256:148|256:148|252:152|252:152|256:152|256:152|256:80,1,160,8|0,1:0|1:0,0:0:0:0:
208,16,63534,2,0,B|180:44|144:44|144:44|144:40|144:40|148:44|148:44|144:48|144:48|140:44|140:44|111:44|81:16,1,160,2|0,1:3|1:0,0:0:0:0:
304,16,63808,2,0,B|332:44|368:44|368:44|368:40|368:40|364:44|364:44|368:48|368:48|372:44|372:44|401:44|431:16,1,160,8|0,1:0|1:0,0:0:0:0:
201,126,64082,6,0,B|217:166|249:166|249:166|253:170|253:170|257:166|257:166|253:162|253:162|253:166|253:166|293:166|307:126,1,160,0|0,1:0|1:0,0:0:0:0:
308,127,64356,2,0,B|292:87|260:87|260:87|256:83|256:83|252:87|252:87|256:91|256:91|256:87|256:87|216:87|201:126,1,160,0|0,1:0|1:0,0:0:0:0:
148,196,64630,6,0,B|148:228|148:228|144:232|144:232|148:236|148:236|152:232|152:232|148:232|148:232|180:232,1,80,2|0,1:3|0:0,0:0:0:0:
231,293,64767,2,0,B|253:311|253:311|253:317|253:317|259:317|259:317|259:311|259:311|256:314|256:314|279:291,1,80,0|0,1:0|0:0,0:0:0:0:
336,232,64904,2,0,B|364:232|364:232|360:232|360:232|364:236|364:236|368:232|368:232|364:228|364:228|364:196,1,80,0|0,1:0|0:0,0:0:0:0:
256,116,65041,6,0,B|256:145|256:145|260:145|260:145|256:141|256:141|252:145|252:145|256:149|256:149|256:205|256:205|260:201|260:201|256:197|256:197|252:201|252:201|256:201|256:201|256:257|256:257|260:257|260:257|256:253|256:253|252:257|252:257|256:261|256:261|256:300|256:300|252:304|252:304|256:308|256:308|260:304|260:304|256:304|256:304|256:364,1,320,4|2,1:0|3:2,0:0:0:0:
388,344,65452,2,0,B|388:272|388:272|392:272|392:272|388:276|388:276|384:272|384:272|388:268|388:268|388:200,1,160,8|2,1:0|3:2,0:0:0:0:
168,256,65726,2,0,B|168:184|168:184|172:184|172:184|168:188|168:188|164:184|164:184|168:180|168:180|168:112,1,160,2|2,1:3|3:2,0:0:0:0:
328,160,66000,2,0,B|328:88|328:88|332:88|332:88|328:92|328:92|324:88|324:88|328:84|328:84|328:16,1,160,8|2,1:0|3:2,0:0:0:0:
84,220,66274,2,0,B|84:148|84:148|88:148|88:148|84:152|84:152|80:148|80:148|84:144|84:144|84:76,1,160,0|2,1:0|3:2,0:0:0:0:
264,356,66547,2,0,B|264:284|264:284|268:284|268:284|264:288|264:288|260:284|260:284|264:280|264:280|264:212,1,160,8|2,1:0|3:2,0:0:0:0:
460,232,66821,2,0,B|460:160|460:160|464:160|464:160|460:164|460:164|456:160|456:160|460:156|460:156|460:88,2,160,2|0|8,1:3|1:0|1:0,0:0:0:0:
184,0,67232,6,0,B|184:64|184:64|188:64|188:64|184:60|184:60|180:64|180:64|184:68|184:68|184:132|184:132|188:128|188:128|180:128|180:128|184:128|184:128|184:124|184:124|184:212,1,240,2|0,1:2|2:0,0:0:0:0:
112,260,67506,2,0,B|112:233|112:233|116:233|116:233|112:237|112:237|108:233|108:233|112:229|112:229|112:197,1,80,2|0,1:2|0:0,0:0:0:0:
184,324,67643,2,0,B|184:297|184:297|188:297|188:297|184:301|184:301|180:297|180:297|184:293|184:293|184:261,1,80,8|0,1:0|0:0,0:0:0:0:
256,256,67780,2,0,B|256:229|256:229|260:229|260:229|256:233|256:233|252:229|252:229|256:225|256:225|256:193,1,80,2|0,3:2|0:0,0:0:0:0:
336,296,67917,6,0,B|336:224|336:224|340:224|340:224|336:228|336:228|332:224|332:224|336:220|336:220|336:152,1,160,2|2,1:3|1:2,0:0:0:0:
52,144,68191,2,0,B|52:72|52:72|56:72|56:72|52:76|52:76|48:72|48:72|52:68|52:68|52:0,2,160,8|2|0,1:0|3:2|1:0,0:0:0:0:
120,189,68534,2,0,B|120:162|120:162|124:162|124:162|120:166|120:166|116:162|116:162|120:158|120:158|120:126,2,80,0|0|0,1:0|1:0|1:0,0:0:0:0:
187,81,68739,2,0,B|187:113|187:113|183:117|183:117|187:121|187:121|191:117|191:117|187:117|187:117|187:144,1,80,8|0,1:0|0:0,0:0:0:0:
256,188,68876,2,0,B|256:161|256:161|260:161|260:161|256:165|256:165|252:161|252:161|256:157|256:157|256:125,1,80,2|0,1:2|0:0,0:0:0:0:
256,19,69013,6,0,B|256:48|256:48|260:48|260:48|256:44|256:44|252:48|252:48|256:52|256:52|256:108|256:108|260:104|260:104|256:100|256:100|252:104|252:104|256:104|256:104|256:160|256:160|260:160|260:160|256:156|256:156|252:160|252:160|256:164|256:164|256:203|256:203|252:207|252:207|256:211|256:211|260:207|260:207|256:207|256:207|256:264,1,320,2|0,1:3|1:0,0:0:0:0:
395,320,69424,6,0,B|346:367|260:375|260:375|256:379|256:379|252:375|252:375|256:371|256:371|256:375|256:375|170:367|115:318,1,320,4|0,1:0|3:2,0:0:0:0:
190,180,69835,2,0,B|223:157|252:157|252:157|256:153|256:153|260:157|260:157|256:161|256:161|256:157|256:157|292:157|323:178,1,160,8|2,1:0|3:2,0:0:0:0:
324,272,70109,2,0,B|293:293|257:293|257:293|257:289|257:289|261:293|261:293|257:297|257:297|253:293|253:293|224:293|191:270,3,160,2|0|8|2,1:3|3:2|1:0|3:2,0:0:0:0:
128,192,70657,6,0,B|132:163|132:163|138:160|138:160|134:155|134:155|129:159|129:159|133:159|133:159|137:132,1,80,0|0,1:0|0:0,0:0:0:0:
208,156,70794,2,0,B|212:127|212:127|218:124|218:124|214:119|214:119|209:123|209:123|213:123|213:123|217:96,1,80,2|0,3:2|0:0,0:0:0:0:
304,156,70931,2,0,B|299:127|299:127|293:124|293:124|297:119|297:119|302:123|302:123|298:123|298:123|293:96,1,80,8|0,1:0|0:0,0:0:0:0:
384,192,71068,2,0,B|379:163|379:163|373:160|373:160|377:155|377:155|382:159|382:159|378:159|378:159|373:132,1,80,0|0,3:0|0:0,0:0:0:0:
323,29,71205,6,0,B|292:8|256:8|256:8|256:12|256:12|260:8|260:8|256:4|256:4|252:8|252:8|223:8|190:31,2,160,2|0|0,1:3|1:0|1:0,0:0:0:0:
100,4,71616,2,0,B|100:68|100:68|104:68|104:68|100:64|100:64|96:68|96:68|100:72|100:72|100:136|100:136|104:132|104:132|96:132|96:132|100:132|100:132|100:128|100:128|100:216,1,240,2|0,1:2|0:0,0:0:0:0:
51,252,71890,6,0,B|26:236|26:236|25:229|25:229|19:231|19:231|21:237|21:237|22:234|22:234|-6:214,1,80,2|0,1:2|1:0,0:0:0:0:
74,320,72026,2,0,B|73:349|73:349|67:352|67:352|71:357|71:357|76:352|76:352|72:353|72:353|70:388,1,80,8|0,1:0|0:0,0:0:0:0:
122,266,72164,2,0,B|147:252|147:252|153:255|153:255|155:249|155:249|149:247|149:247|151:250|151:250|183:234,1,80,0|0,1:0|0:0,0:0:0:0:
204,154,72301,2,0,B|194:190|205:224|205:224|209:223|209:223|204:220|204:220|201:225|201:225|206:228|206:228|215:255|248:280,1,160,2|0,1:3|1:0,0:0:0:0:
444,196,72575,2,0,B|454:160|443:125|443:125|439:127|439:127|444:129|444:129|447:124|447:124|442:121|442:121|433:94|400:70,1,160,0|0,1:0|1:0,0:0:0:0:
332,92,72849,6,0,B|332:65|332:65|336:65|336:65|332:69|332:69|328:65|328:65|332:61|332:61|332:29,1,80,0|0,1:0|1:0,0:0:0:0:
256,64,72986,2,0,B|256:37|256:37|260:37|260:37|256:41|256:41|252:37|252:37|256:33|256:33|256:1,1,80,0|0,1:0|1:0,0:0:0:0:
180,92,73123,2,0,B|180:65|180:65|184:65|184:65|180:69|180:69|176:65|176:65|180:61|180:61|180:29,2,80,4|0|0,1:2|0:0|1:0,0:0:0:0:
256,207,73397,2,0,B|256:135|256:135|260:135|260:135|256:139|256:139|252:135|252:135|256:131|256:131|256:63,1,160,2|0,1:3|0:0,0:0:0:0:
256,63,73671,6,0,B|256:36|256:36|260:36|260:36|256:40|256:40|252:36|252:36|256:32|256:32|256:0,3,80,2|2|2|2,0:0|0:0|0:0|0:0,0:0:0:0:
184,28,73946,6,0,B|184:88|184:88|180:92|180:92|184:96|184:96|188:92|188:92|184:92|184:92|184:151,1,140.000001335144,2|2,1:2|2:2,0:0:0:0:
324,92,74222,2,0,B|324:140|324:140|320:144|320:144|324:148|324:148|328:144|328:144|324:144|324:144|324:208,1,120.000004577637,2|2,2:2|2:2,0:0:0:0:
184,151,74515,2,0,B|184:191|184:191|180:195|180:195|184:199|184:199|188:195|188:195|184:195|184:195|184:247,1,100,2|2,2:2|2:2,0:0:0:0:
324,195,74823,2,0,B|324:228|324:228|320:232|320:232|324:236|324:236|328:232|328:232|324:232|324:232|324:288,1,88.000002685547,2|2,2:2|2:2,0:0:0:0:
183,234,75150,2,0,B|183:253|183:253|180:257|180:257|183:261|183:261|187:257|187:257|183:257|183:257|183:282,2,63.9999980468751,2|2|2,3:3|3:2|0:0,0:0:0:0:
52,112,76462,6,0,B|52:68|52:68|56:68|56:68|52:72|52:72|48:68|48:68|52:64|52:64|52:20,2,106.666666666667,0|2|2,1:0|0:0|0:1,0:0:0:0:
93,171,77117,2,0,B|69:185|49:185|49:185|49:181|49:181|53:185|53:185|49:189|49:189|45:185|45:185|29:185|9:172,2,106.666666666667,4|2|2,1:3|0:0|0:1,0:0:0:0:
124,112,77773,2,0,B|124:68|124:68|128:68|128:68|124:72|124:72|120:68|120:68|124:64|124:64|124:20,2,106.666666666667,0|2|2,1:0|0:0|1:1,0:0:0:0:
196,112,78429,2,0,B|196:68|196:68|200:68|200:68|196:72|196:72|192:68|192:68|196:64|196:64|196:20,1,106.666666666667,8|2,1:2|0:0,0:0:0:0:
341,84,78866,6,0,B|341:128|341:128|337:128|337:128|341:124|341:124|345:128|345:128|341:132|341:132|341:176,2,106.666666666667,2|0|2,0:1|1:0|0:0,0:0:0:0:
413,83,79522,2,0,B|413:124|413:124|409:128|409:128|413:132|413:132|417:128|417:128|413:128|413:128|413:172,1,106.666666666667,2|4,0:1|1:3,0:0:0:0:
485,82,79959,2,0,B|485:123|485:123|481:127|481:127|485:131|485:131|489:127|489:127|485:127|485:127|485:171,1,106.666666666667,2|2,0:0|0:1,0:0:0:0:
384,24,80396,6,0,B|364:11|348:11|348:11|344:7|344:7|340:11|340:11|344:15|344:15|344:11|344:11|324:11|300:25,2,106.666666666667,0|2|2,1:0|0:0|1:1,0:0:0:0:
128,24,81052,2,0,B|148:11|164:11|164:11|168:7|168:7|172:11|172:11|168:15|168:15|168:11|168:11|188:11|212:25,2,106.666666666667,8|2|2,1:2|0:0|0:1,0:0:0:0:
24,191,81707,6,0,B|24:227|24:227|20:231|20:231|24:235|24:235|28:231|28:231|24:231|24:231|24:279,3,100,0|2|2|2,1:0|0:2|0:1|1:2,0:0:0:0:
104,192,82363,2,0,B|104:228|104:228|100:232|100:232|104:236|104:236|108:232|108:232|104:232|104:232|104:280,3,100,4|2|2|2,1:3|0:2|0:1|0:2,0:0:0:0:
184,276,83019,6,0,B|184:232|184:232|188:232|188:232|184:236|184:236|180:232|180:232|184:228|184:228|184:192,2,100,0|2|2,1:0|0:2|0:1,0:0:0:0:
104,356,83511,2,0,B|60:356|60:356|60:352|60:352|64:356|64:356|60:360|60:360|56:356|56:356|20:356,2,100,2|8|2,0:2|1:2|0:0,0:0:0:0:
256,356,84002,2,0,B|299:356|299:356|299:352|299:352|295:356|295:356|299:360|299:360|303:356|303:356|339:356,1,100,2|2,0:1|0:0,0:0:0:0:
488,191,84330,6,0,B|488:227|488:227|492:231|492:231|488:235|488:235|484:231|484:231|488:231|488:231|488:279,1,100,0|2,1:0|0:2,0:0:0:0:
408,192,84658,2,0,B|408:228|408:228|412:232|412:232|408:236|408:236|404:232|404:232|408:232|408:232|408:280,1,100,2|2,0:1|1:2,0:0:0:0:
328,192,84986,6,0,B|328:228|328:228|332:232|332:232|328:236|328:236|324:232|324:232|328:232|328:232|328:276,3,100,4|2|2|2,1:3|0:0|0:1|0:0,0:0:0:0:
408,356,85642,2,0,B|451:356|451:356|451:352|451:352|447:356|447:356|451:360|451:360|455:356|455:356|491:356,1,100,0|2,1:0|0:2,0:0:0:0:
256,356,85970,2,0,B|212:356|212:356|212:352|212:352|216:356|216:356|212:360|212:360|208:356|208:356|172:356,1,100,2|2,0:1|0:2,0:0:0:0:
328,276,86298,2,0,B|328:232|328:232|324:232|324:232|328:236|328:236|332:232|332:232|328:228|328:228|328:192,3,100,8|2|2|2,1:2|0:2|0:1|0:2,0:0:0:0:
484,36,86953,6,0,B|456:36|456:36|452:32|452:32|448:36|448:36|452:40|452:40|452:36|452:36|396:36,1,80,0|2,1:0|0:1,0:0:0:0:
484,108,87216,2,0,B|456:108|456:108|452:104|452:104|448:108|448:108|452:112|452:112|452:108|452:108|396:108,2,80,2|2|2,0:1|0:0|1:2,0:0:0:0:
296,76,87609,6,0,B|327:76|327:76|327:80|327:80|323:76|323:76|327:72|327:72|331:76|331:76|359:76,1,80,4|2,1:3|0:1,0:0:0:0:
296,148,87872,2,0,B|327:148|327:148|327:152|327:152|323:148|323:148|327:144|327:144|331:148|331:148|359:148,2,80,2|2|2,0:1|0:2|0:2,0:0:0:0:
232,40,88265,6,0,B|204:40|204:40|200:36|200:36|196:40|196:40|200:44|200:44|200:40|200:40|144:40,1,80,0|2,1:0|0:1,0:0:0:0:
232,112,88527,2,0,B|204:112|204:112|200:108|200:108|196:112|196:112|200:116|200:116|200:112|200:112|144:112,2,80,2|2|2,0:1|1:2|1:2,0:0:0:0:
44,80,88921,6,0,B|75:80|75:80|75:84|75:84|71:80|71:80|75:76|75:76|79:80|79:80|107:80,2,80,8|2|2,1:2|0:2|0:1,0:0:0:0:
44,152,89314,2,0,B|75:152|75:152|75:156|75:156|71:152|71:152|75:148|75:148|79:152|79:152|107:152,1,80,0|2,1:2|0:2,0:0:0:0:
80,304,89576,6,0,B|52:304|52:304|48:308|48:308|44:304|44:304|48:300|48:300|48:304|48:304|-8:304,1,80,0|2,1:0|0:1,0:0:0:0:
80,232,89839,2,0,B|52:232|52:232|48:236|48:236|44:232|44:232|48:228|48:228|48:232|48:232|-8:232,2,80,2|2|2,0:1|0:2|1:2,0:0:0:0:
140,336,90232,6,0,B|172:336|172:336|172:340|172:340|168:336|168:336|172:332|172:332|176:336|176:336|204:336,1,80,4|2,1:3|0:1,0:0:0:0:
140,264,90494,2,0,B|172:264|172:264|172:268|172:268|168:264|168:264|172:260|172:260|176:264|176:264|204:264,2,80,2|2|2,0:1|0:2|0:2,0:0:0:0:
328,304,90888,6,0,B|297:304|297:304|297:300|297:300|301:304|301:304|297:308|297:308|293:304|293:304|265:304,2,80,0|2|2,1:0|0:1|0:1,0:0:0:0:
328,232,91281,2,0,B|297:232|297:232|297:228|297:228|301:232|301:232|297:236|297:236|293:232|293:232|265:232,1,80,2|2,1:2|1:2,0:0:0:0:
416,336,91543,6,0,B|447:336|447:336|447:340|447:340|443:336|443:336|447:332|447:332|451:336|451:336|479:336,1,80,8|2,1:2|0:2,0:0:0:0:
416,264,91806,2,0,B|447:264|447:264|447:268|447:268|443:264|443:264|447:260|447:260|451:264|451:264|479:264,2,80,2|0|2,0:1|1:0|1:2,0:0:0:0:
340,144,92199,6,0,B|320:163|320:163|314:163|314:163|317:166|317:166|320:169|320:169|311:172|311:172|294:189,2,74.6666643880209,0|2|2,1:0|0:2|0:1,0:0:0:0:
448,127,92527,2,0,B|467:107|467:107|473:107|473:107|470:104|470:104|467:101|467:101|476:98|476:98|493:81,2,74.6666643880209,2|2|2,0:2|0:1|1:2,0:0:0:0:
402,189,92855,2,0,B|421:208|421:208|421:214|421:214|424:211|424:211|427:208|427:208|430:217|430:217|447:234,2,74.6666643880209,4|2|2,1:3|0:2|0:1,0:0:0:0:
386,81,93183,2,0,B|366:61|366:61|366:55|366:55|363:58|363:58|360:61|360:61|357:52|357:52|340:35,2,74.6666643880209,2|2|2,0:2|0:1|0:2,0:0:0:0:
340,144,93511,6,0,B|320:163|320:163|314:163|314:163|317:166|317:166|320:169|320:169|311:172|311:172|294:189,1,74.6666643880209,0|2,1:0|0:2,0:0:0:0:
217,266,93729,2,0,B|200:283|200:283|191:286|191:286|194:289|194:289|197:292|197:292|191:292|191:292|172:312,2,74.6666643880209,2|2|2,1:1|0:2|1:1,0:0:0:0:
340,312,94057,2,0,B|320:292|320:292|320:286|320:286|317:289|317:289|314:292|314:292|311:283|311:283|294:266,2,74.6666643880209,2|8|2,0:2|1:2|3:2,0:0:0:0:
217,189,94385,2,0,B|200:172|200:172|191:169|191:169|194:166|194:166|197:163|197:163|191:163|191:163|172:144,1,74.6666643880209,2|2,0:0|1:1,0:0:0:0:
117,91,94604,6,0,B|99:73|99:73|91:71|91:71|94:68|94:68|97:65|97:65|91:65|91:65|71:45,1,74.6666643880209,2|0,1:1|0:1,0:0:0:0:
233,127,94822,6,0,B|207:134|207:134|204:139|204:139|203:135|203:135|202:131|202:131|196:137|196:137|172:144,1,74.6666643880209,0|2,1:0|0:2,0:0:0:0:
72,46,95041,2,0,B|91:65|91:65|97:65|97:65|94:68|94:68|91:71|91:71|99:73|99:73|117:91,1,74.6666643880209,2|2,0:1|1:2,0:0:0:0:
81,226,95259,2,0,B|88:200|88:200|85:195|85:195|89:196|89:196|93:197|93:197|91:189|91:189|98:165,1,74.6666643880209,2|2,1:1|1:2,0:0:0:0:
233,128,95478,6,0,B|226:153|226:153|229:158|229:158|225:157|225:157|220:156|220:156|223:164|223:164|216:189,1,74.6666643880209,4|2,1:3|0:2,0:0:0:0:
242,308,95697,2,0,B|223:289|223:289|217:289|217:289|220:286|220:286|223:283|223:283|215:281|215:281|197:263,1,74.6666643880209,2|2,0:1|0:2,0:0:0:0:
81,226,95915,2,0,B|106:219|106:219|109:213|109:213|110:218|110:218|111:222|111:222|117:216|117:216|142:209,1,74.6666643880209,2|2,0:1|0:2,0:0:0:0:
321,338,96134,6,0,B|261:338|261:338|257:342|257:342|253:338|253:338|257:334|257:334|257:338|257:338|183:339,1,149.333328776042,0|2,1:0|0:1,0:0:0:0:
49,339,96571,6,0,B|77:339|77:339|77:335|77:335|73:339|73:339|77:343|77:343|81:339|81:339|113:339,1,74.6666643880209,2|2,1:1|1:2,0:0:0:0:
189,338,96789,2,0,B|257:338|257:338|257:334|257:334|253:338|253:338|257:342|257:342|261:338|261:338|321:338,1,149.333328776042,8|2,1:2|0:0,0:0:0:0:
389,338,97117,2,0,B|415:338|415:338|419:342|419:342|423:338|423:338|419:334|419:334|419:338|419:338|447:338,2,74.6666643880209,2|2|2,1:1|1:1|1:2,0:0:0:0:
256,384,97445,6,0,B|256:327|256:327|260:327|260:327|256:331|256:331|252:327|252:327|256:323|256:323|256:267|256:267|260:271|260:271|256:275|256:275|252:271|252:271|256:271|256:271|256:215|256:215|260:215|260:215|256:219|256:219|252:215|252:215|256:211|256:211|256:155,1,287.999991210938,2|0,0:0|0:0,0:0:0:0:
378,83,97882,2,0,B|349:99|349:99|347:95|347:95|353:97|353:97|351:102|351:102|346:101|346:101|318:117,1,85.3333333333333,2|2,0:1|0:1,0:0:0:0:
256,15,98101,2,0,B|256:48|256:48|260:48|260:48|256:44|256:44|252:48|252:48|256:52|256:52|256:83,1,85.3333333333333,2|2,0:1|0:1,0:0:0:0:
134,83,98319,2,0,B|162:99|162:99|164:95|164:95|158:97|158:97|160:102|160:102|165:101|165:101|193:117,1,85.3333333333333,2|8,0:1|2:3,0:0:0:0:
192,116,98757,6,0,B|208:110|223:96|223:96|223:90|223:90|225:93|225:93|228:96|228:96|228:90|228:90|248:70|251:56,2,91.4285714285714,0|2|2,1:0|3:2|3:2,0:0:0:0:
124,91,99038,2,0,B|90:88|90:88|86:84|86:84|82:87|82:87|85:91|85:91|86:88|86:88|48:84,1,91.4285714285714,0|2,1:2|3:2,0:0:0:0:
65,160,99225,2,0,B|104:164|104:164|103:168|103:168|100:163|100:163|104:160|104:160|108:164|108:164|140:168,1,91.4285714285714,0|2,1:0|1:2,0:0:0:0:
220,192,99412,6,0,B|224:230|224:230|227:229|227:229|223:226|223:226|220:230|220:230|224:234|224:234|228:269,1,91.4285714285714,4|2,1:3|3:2,0:0:0:0:
159,309,99600,2,0,B|155:274|155:274|151:270|151:270|154:266|154:266|158:269|158:269|155:270|155:270|151:232,1,91.4285714285714,0|2,1:0|1:2,0:0:0:0:
82,272,99787,2,0,B|86:310|86:310|89:309|89:309|85:306|85:306|82:310|82:310|86:314|86:314|90:349,2,91.4285714285714,2|0|2,3:2|1:0|1:2,0:0:0:0:
100,160,100068,6,0,B|134:152|134:152|137:147|137:147|142:150|142:150|139:154|139:154|138:151|138:151|175:143,1,91.4285714285714,0|2,1:0|1:2,0:0:0:0:
203,76,100255,2,0,B|179:50|179:50|173:49|173:49|173:44|173:44|178:44|178:44|176:46|176:46|151:18,3,91.4285714285714,0|2|0|2,1:0|1:2|1:2|3:2,0:0:0:0:
80,28,100630,6,0,B|69:61|69:61|71:66|71:66|67:69|67:69|64:64|64:64|67:65|67:65|55:101,3,91.4285714285714,2|8|2|0,1:2|1:1|3:2|1:0,0:0:0:0:
136,118,101005,2,0,B|125:152|125:152|127:157|127:157|123:159|123:159|120:155|120:155|123:155|123:155|112:192,1,91.4285714285714,2|0,1:2|1:0,0:0:0:0:
192,208,101192,2,0,B|181:241|181:241|183:246|183:246|179:249|179:249|176:244|176:244|179:245|179:245|167:281,1,91.4285714285714,2|0,3:2|1:0,0:0:0:0:
144,360,101380,6,0,B|178:352|178:352|181:347|181:347|186:350|186:350|183:354|183:354|182:351|182:351|219:343,1,91.4285714285714,0|2,1:0|3:2,0:0:0:0:
304,380,101567,2,0,B|345:342|372:336|372:336|375:332|375:332|380:335|380:335|377:339|377:339|376:335|376:335|407:329|456:347,2,182.857142857143,0|0|0,1:0|1:0|1:0,0:0:0:0:
256,236,102035,6,0,B|266:269|266:269|264:274|264:274|268:277|268:277|271:272|271:272|268:273|268:273|280:309,2,91.4285714285714,4|2|0,1:3|1:2|1:0,0:0:0:0:
168,224,102316,2,0,B|182:269|182:269|180:274|180:274|184:273|184:273|187:272|187:272|185:277|185:277|197:315|197:315|195:320|195:320|200:322|200:322|202:317|202:317|198:319|198:319|215:371,1,182.857142857143,2|0,1:2|1:0,0:0:0:0:
299,78,102691,6,0,B|288:111|288:111|290:116|290:116|286:119|286:119|283:114|283:114|286:115|286:115|274:151,1,91.4285714285714,0|2,1:0|1:2,0:0:0:0:
310,208,102878,2,0,B|322:208|322:208|326:212|326:212|330:208|330:208|326:204|326:204|326:208|326:208|344:208,2,45.7142857142857,0|0|2,1:0|1:0|1:2,0:0:0:0:
242,208,103066,2,0,B|204:215|204:215|205:218|205:218|208:214|208:214|204:211|204:211|200:216|200:216|166:224,2,91.4285714285714,0|2|0,1:0|1:2|1:0,0:0:0:0:
360,131,103347,6,0,B|394:138|394:138|397:143|397:143|402:140|402:140|399:136|399:136|398:139|398:139|435:147,1,91.4285714285714,8|0,1:1|1:0,0:0:0:0:
492,113,103534,2,0,B|492:101|492:101|496:97|496:97|492:93|492:93|488:97|488:97|492:97|492:97|492:80,2,45.7142857142857,0|0|0,1:0|1:0|1:0,0:0:0:0:
426,216,103721,2,0,B|388:208|388:208|389:205|389:205|392:209|392:209|388:212|388:212|384:207|384:207|350:199,1,91.4285714285714,2|2,2:0|0:0,0:0:0:0:
48,48,104002,6,0,B|83:42|83:42|88:45|88:45|91:41|91:41|86:37|86:37|87:41|87:41|150:31,1,95.9999970703126,0|0,1:0|1:0,0:0:0:0:
196,96,104166,2,0,B|157:102|157:102|156:98|156:98|161:101|161:101|158:106|158:106|153:102|153:102|117:108,1,95.9999970703126,0|0,1:0|1:0,0:0:0:0:
56,152,104330,2,0,B|41:197|57:234|57:234|60:241|60:241|62:236|62:236|55:239|55:239|59:238|59:238|77:278|119:294,1,191.999994140625,0|0,1:0|1:0,0:0:0:0:
172,356,104576,6,0,B|210:351|210:351|211:355|211:355|206:352|206:352|210:347|210:347|214:351|214:351|250:347,1,95.9999970703126,0|4,1:0|1:3,0:0:0:0:
204,284,104740,2,0,B|242:279|242:279|243:283|243:283|238:280|238:280|242:275|242:275|246:279|246:279|282:275,2,95.9999970703126,0|0|0,1:0|1:0|1:0,0:0:0:0:
152,233,104986,2,0,B|137:223|129:205|129:205|125:207|125:207|130:209|130:209|132:203|132:203|127:201|127:201|121:187|124:164,1,95.9999970703126,0|2,1:0|1:2,0:0:0:0:
207,134,105150,2,0,B|222:144|230:162|230:162|234:160|234:160|229:158|229:158|227:164|227:164|232:166|232:166|238:180|236:204,1,95.9999970703126,0|2,3:0|1:2,0:0:0:0:
314,203,105314,6,0,B|352:207|352:207|353:203|353:203|348:206|348:206|352:211|352:211|356:207|356:207|392:211,1,95.9999970703126,0|0,1:0|1:0,0:0:0:0:
416,284,105478,2,0,B|380:280|380:280|375:283|375:283|372:279|372:279|376:275|376:275|376:279|376:279|337:275,1,95.9999970703126,0|0,1:0|1:0,0:0:0:0:
360,347,105642,2,0,B|399:351|399:351|399:347|399:347|395:351|395:351|398:355|398:355|403:352|403:352|439:356,2,95.9999970703126,0|2|0,1:0|1:2|3:0,0:0:0:0:
108,136,105970,6,0,B|125:140|139:154|139:154|142:151|142:151|136:151|136:151|136:157|136:157|142:157|142:157|153:168|159:191,1,95.9999970703126,8|2,1:0|0:0,0:0:0:0:
140,256,106134,2,0,B|152:256|152:256|156:260|156:260|160:256|160:256|156:252|156:252|156:256|156:256|176:256,2,47.9999985351563,0|0|0,1:0|1:0|1:0,0:0:0:0:
92,208,106298,2,0,B|53:212|53:212|52:208|52:208|57:211|57:211|53:216|53:216|49:212|49:212|13:216,2,95.9999970703126,0|0|0,1:0|3:0|1:0,0:0:0:0:
240,56,106625,6,0,B|201:60|201:60|200:56|200:56|205:59|205:59|201:64|201:64|197:60|197:60|161:64,2,95.9999970703126,0|0|0,1:0|1:0|1:0,0:0:0:0:
284,124,106871,2,0,B|243:128|243:128|243:124|243:124|247:128|247:128|244:132|244:132|239:129|239:129|204:133,2,95.9999970703126,2|0|2,1:2|1:0|3:2,0:0:0:0:
328,192,107117,2,0,B|287:196|287:196|287:192|287:192|291:196|291:196|288:200|288:200|283:197|283:197|248:201,1,95.9999970703126,0|2,1:0|1:2,0:0:0:0:
432,224,107281,6,0,B|471:228|471:228|472:224|472:224|467:227|467:227|471:232|471:232|475:228|475:228|511:232,1,95.9999970703126,4|0,1:3|1:0,0:0:0:0:
388,292,107445,2,0,B|428:296|428:296|428:292|428:292|424:296|424:296|427:300|427:300|432:297|432:297|467:301,2,95.9999970703126,0|2|0,1:0|1:2|1:0,0:0:0:0:
344,360,107691,2,0,B|384:364|384:364|384:360|384:360|380:364|380:364|383:368|383:368|388:365|388:365|423:369,2,95.9999970703126,0|0|2,1:0|1:0|1:2,0:0:0:0:
202,336,107937,6,0,B|190:336|190:336|186:340|186:340|182:336|182:336|186:332|186:332|186:336|186:336|166:336,2,47.9999985351563,0|0|0,1:0|1:0|1:0,0:0:0:0:
270,361,108101,2,0,B|276:337|273:322|273:322|269:320|269:320|272:314|272:314|277:317|277:317|272:318|272:318|268:299|256:286,1,95.9999970703126,0|2,1:0|1:2,0:0:0:0:
296,197,108265,6,0,B|308:197|308:197|312:201|312:201|316:197|316:197|312:193|312:193|312:197|312:197|332:197,2,47.9999985351563,0|0|0,1:0|1:0|1:0,0:0:0:0:
228,222,108429,2,0,B|221:198|224:183|224:183|228:181|228:181|225:175|225:175|220:178|220:178|225:179|225:179|229:160|241:147,1,95.9999970703126,0|2,1:0|1:2,0:0:0:0:
320,80,108593,6,0,B|332:80|332:80|336:84|336:84|340:80|340:80|336:76|336:76|336:80|336:80|356:80,2,47.9999985351563,2|0|0,1:2|1:0|1:0,0:0:0:0:
192,80,108757,2,0,B|180:80|180:80|176:84|176:84|172:80|172:80|176:76|176:76|176:80|176:80|160:80,2,47.9999985351563,2|0|0,1:2|1:0|1:0,0:0:0:0:
256,0,108921,2,0,B|256:16|256:16|252:20|252:20|256:24|256:24|260:20|260:20|256:20|256:20|257:47,6,47.9999985351563,2|0|0|0|0|0|0,1:2|1:0|1:0|1:0|1:0|1:0|1:0,0:0:0:0:
256,0,109248,6,0,B|256:56|256:56|252:60|252:60|256:64|256:64|260:60|260:60|256:60|256:60|256:116|256:116|252:116|252:116|256:120|256:120|260:116|260:116|256:112|256:112|256:168|256:168|252:172|252:172|256:176|256:176|260:172|260:172|256:172|256:172|256:232,1,287.999991210938,2|0,1:2|0:0,0:0:0:0:
340,348,109904,2,0,B|312:376|256:376|256:376|256:372|256:372|260:376|260:376|256:380|256:380|252:376|252:376|208:376|179:349,1,191.999994140625,2|2,2:2|0:0,0:0:0:0:
200,280,110560,2,0,B|228:296|256:296|256:296|256:300|256:300|260:296|260:296|256:292|256:292|252:296|252:296|284:296|313:281,1,143.999995605469,2|0,0:0|0:0,0:0:0:0:
416,216,110888,22,0,B|416:196|416:196|412:192|412:192|416:188|416:188|420:192|420:192|416:192|416:192|416:140,1,64,2|0,2:2|0:0,0:0:0:0:
336,192,111052,6,0,B|336:168|336:168|332:164|332:164|336:160|336:160|340:164|340:164|336:164|336:164|336:112,1,80,2|0,0:0|0:0,0:0:0:0:
256,168,111216,22,0,B|256:132|256:132|252:128|252:128|256:124|256:124|260:128|260:128|256:128|256:128|256:80,1,95.9999970703126,6|0,1:2|0:0,0:0:0:0:
176,192,111380,22,0,B|176:168|176:168|180:164|180:164|176:160|176:160|172:164|172:164|176:164|176:164|176:128,1,80,2|0,1:2|0:0,0:0:0:0:
96,216,111543,38,0,B|96:196|96:196|100:192|100:192|96:188|96:188|92:192|92:192|96:192|96:192|96:168,1,64,6|0,1:2|0:0,0:0:0:0:
20,91,111707,6,0,B|20:135|20:135|16:139|16:139|20:143|20:143|24:139|24:139|20:139|20:139|20:191|20:191|16:191|16:191|20:195|20:195|24:191|24:191|20:187|20:187|20:239|20:239|16:243|16:243|20:247|20:247|24:243|24:243|20:243|20:243|20:288,1,256,4|2,1:0|0:0,0:0:0:0:
88,368,112199,2,0,B|88:332|88:332|84:328|84:328|88:324|88:324|92:328|92:328|88:328|88:328|88:288,1,95.9999970703126,2|2,2:1|0:0,0:0:0:0:
172,368,112527,2,0,B|172:332|172:332|168:328|168:328|172:324|172:324|176:328|176:328|172:328|172:328|172:244,1,95.9999970703126,2|2,1:3|0:0,0:0:0:0:
252,372,112855,2,0,B|252:340|252:340|248:336|248:336|252:332|252:332|256:336|256:336|252:336|252:336|252:252,1,95.9999970703126,2|2,0:1|0:0,0:0:0:0:
336,372,113183,2,0,B|336:336|336:336|332:332|332:332|336:328|336:328|340:332|340:332|336:332|336:332|336:248,1,95.9999970703126,0|2,1:2|0:0,0:0:0:0:
416,376,113511,2,0,B|416:340|416:340|412:336|412:336|416:332|416:332|420:336|420:336|416:336|416:336|416:252,1,95.9999970703126,2|0,0:1|0:0,0:0:0:0:
492,288,113839,6,0,B|492:243|492:243|488:243|488:243|492:247|492:247|496:243|496:243|492:239|492:239|492:187|492:187|488:191|488:191|492:195|492:195|496:191|496:191|492:191|492:191|492:139|492:139|488:139|488:139|492:143|492:143|496:139|496:139|492:135|492:135|492:80,1,264.000008056641,2|0,1:3|1:0,0:0:0:0:
492,83,114658,2,0,B|492:47|492:47|488:43|488:43|492:39|492:39|496:43|496:43|492:43|492:43|492:11,3,88.000002685547,2|2|2|2,0:0|2:1|0:0|1:3,0:0:0:0:
256,17,116327,6,0,B|256:53|256:53|252:57|252:57|256:61|256:61|260:57|260:57|256:57|256:57|256:96,1,95.9999970703126,2|0,0:0|0:0,0:0:0:0:
184,17,117225,2,0,B|184:68|184:68|188:68|188:68|184:64|184:64|180:68|180:68|184:72|184:72|184:128,1,128,2|2,0:0|0:0,0:0:0:0:
111,17,117907,2,0,B|111:84|111:84|115:84|115:84|111:80|111:80|107:84|107:84|111:88|111:88|111:160,1,160,2|2,0:0|0:0,0:0:0:0:
36,16,118487,2,0,B|36:100|36:100|40:100|40:100|36:96|36:96|32:100|32:100|36:104|36:104|36:192,1,191.999994140625,2|2,0:0|0:0,0:0:0:0:
36,380,119016,6,0,B|36:324|36:324|32:320|32:320|36:316|36:316|40:320|40:320|36:320|36:320|36:268,1,128,2|2,0:0|0:0,0:0:0:0:
144,380,119271,2,0,B|144:324|144:324|140:320|140:320|144:316|144:316|148:320|148:320|144:320|144:320|144:268,2,128,4|0|4,1:2|1:2|1:2,0:0:0:0:
256,380,119624,6,0,B|256:337|256:337|260:337|260:337|256:341|256:341|252:337|252:337|256:333|256:333|256:278|256:278|260:282|260:282|256:286|256:286|252:282|252:282|256:282|256:282|256:230|256:230|260:230|260:230|256:234|256:234|252:230|252:230|256:226|256:226|256:176,1,256,4|2,1:1|3:2,0:0:0:0:
132,48,119951,2,0,B|132:104|132:104|128:108|128:108|132:112|132:112|136:108|136:108|132:108|132:108|132:188,1,140.000001335144,8|2,1:0|3:2,0:0:0:0:
344,108,120169,2,0,B|344:164|344:164|340:168|340:168|344:172|344:172|348:168|348:168|344:168|344:168|344:248,1,140.000001335144,2|2,1:3|3:2,0:0:0:0:
168,240,120387,2,0,B|168:296|168:296|164:300|164:300|168:304|168:304|172:300|172:300|168:300|168:300|168:380,1,140.000001335144,8|2,1:0|3:2,0:0:0:0:
424,204,120605,2,0,B|424:260|424:260|420:264|420:264|424:268|424:268|428:264|428:264|424:264|424:264|424:344,1,140.000001335144,0|0,1:0|3:0,0:0:0:0:
256,88,120823,2,0,B|256:144|256:144|252:148|252:148|256:152|256:152|260:148|260:148|256:148|256:148|256:228,1,140.000001335144,8|0,1:0|3:0,0:0:0:0:
56,184,121042,2,0,B|56:240|56:240|52:244|52:244|56:248|56:248|60:244|60:244|56:244|56:244|56:324,2,140.000001335144,2|2|2,1:3|1:2|1:2,0:0:0:0:
135,59,121369,6,0,B|187:7|251:7|251:7|255:11|255:11|255:7|255:7|255:3|255:3|259:7|259:7|321:9|375:59,1,280.000002670288,2|2,1:2|3:2,0:0:0:0:
311,193,121696,2,0,B|293:216|257:216|257:216|257:212|257:212|261:216|261:216|257:220|257:220|253:216|253:216|224:216|201:194,1,140.000001335144,8|2,1:0|3:2,0:0:0:0:
201,100,121914,2,0,B|223:78|252:78|252:78|256:74|256:74|260:78|260:78|256:82|256:82|256:78|256:78|292:78|310:101,3,140.000001335144,2|2|8|2,1:3|3:2|1:0|3:2,0:0:0:0:
396,160,122351,6,0,B|396:96|396:96|400:96|400:96|396:100|396:100|392:96|392:96|396:92|396:92|396:36,1,140.000001335144,0|0,1:0|1:0,0:0:0:0:
472,300,122569,2,0,B|472:236|472:236|476:236|476:236|472:240|472:240|468:236|468:236|472:232|472:232|472:176,1,140.000001335144,8|2,1:1|1:2,0:0:0:0:
328,384,122787,2,0,B|328:332|328:332|332:332|332:332|328:336|328:336|324:332|324:332|328:328|328:328|328:276|328:276|332:280|332:280|328:284|328:284|324:280|324:280|328:280|328:280|328:224|328:224|332:224|332:224|328:228|328:228|324:224|324:224|328:220|328:220|328:156,1,280.000002670288,2|0,1:3|1:1,0:0:0:0:
184,0,123114,6,0,B|184:52|184:52|180:52|180:52|184:48|184:48|188:52|188:52|184:56|184:56|184:108|184:108|180:104|180:104|184:100|184:100|188:104|188:104|184:104|184:104|184:160|184:160|180:160|180:160|184:156|184:156|188:160|188:160|184:164|184:164|184:228,1,280.000002670288,4|0,1:1|3:0,0:0:0:0:
32,132,123442,2,0,B|32:188|32:188|28:192|28:192|32:196|32:196|36:192|36:192|32:192|32:192|32:255,1,140.000001335144,8|2,1:0|3:2,0:0:0:0:
256,316,123660,2,0,B|256:252|256:252|260:252|260:252|256:256|256:256|252:252|252:252|256:248|256:248|256:192,1,140.000001335144,2|2,1:3|3:2,0:0:0:0:
120,368,123878,2,0,B|120:304|120:304|124:304|124:304|120:308|120:308|116:304|116:304|120:300|120:300|120:244,1,140.000001335144,8|2,1:0|3:2,0:0:0:0:
200,48,124096,6,0,B|222:26|251:26|251:26|255:22|255:22|259:26|259:26|255:30|255:30|255:26|255:26|291:26|309:49,1,140.000001335144,0|2,1:0|3:2,0:0:0:0:
308,128,124314,2,0,B|290:151|254:151|254:151|254:147|254:147|258:151|258:151|254:155|254:155|250:151|250:151|221:151|198:129,1,140.000001335144,8|2,1:0|3:2,0:0:0:0:
256,228,124533,2,0,B|256:252|256:252|260:256|260:256|256:260|256:260|252:256|252:256|256:256|256:256|256:284,2,70.000000667572,2|0|2,1:3|0:0|3:2,0:0:0:0:
256,76,124751,2,0,B|256:50|256:50|260:50|260:50|256:54|256:54|252:50|252:50|256:46|256:46|256:22,2,70.000000667572,8|0|2,1:0|0:0|1:2,0:0:0:0:
448,235,125078,6,0,B|448:291|448:291|444:295|444:295|448:299|448:299|452:295|452:295|448:295|448:295|448:358,2,140.000001335144,0|8|2,1:0|1:0|3:2,0:0:0:0:
374,202,125405,6,0,B|346:187|338:159|338:159|333:157|333:157|335:152|335:152|340:154|340:154|336:155|336:155|326:121|338:94,3,140.000001335144,2|0|0|0,1:3|1:0|1:0|1:0,0:0:0:0:
512,69,125842,2,0,B|513:100|493:121|493:121|493:126|493:126|487:127|487:127|487:121|487:121|490:124|490:124|466:150|437:149,1,136.000002593994,0|0,1:0|1:0,0:0:0:0:
328,14,126042,2,0,B|354:-2|382:4|382:4|387:1|387:1|390:5|390:5|385:8|385:8|386:4|386:4|421:13|434:43,1,136.000002593994,0|0,1:0|1:0,0:0:0:0:
329,215,126242,6,0,B|329:193|329:193|324:193|324:193|328:196|328:196|332:193|332:193|328:188|328:188|328:164,1,68.0000012969971,6|0,1:2|0:0,0:0:0:0:
256,192,126342,2,0,B|256:170|256:170|251:170|251:170|255:173|255:173|259:170|259:170|255:165|255:165|255:141,1,68.0000012969971,0|0,1:2|0:0,0:0:0:0:
185,215,126442,2,0,B|185:193|185:193|180:193|180:193|184:196|184:196|188:193|188:193|184:188|184:188|184:164,1,68.0000012969971,4|0,1:2|0:0,0:0:0:0:
255,268,126547,6,0,B|255:225|255:225|259:225|259:225|255:229|255:229|251:225|251:225|255:221|255:221|255:166|255:166|259:170|259:170|255:174|255:174|251:170|251:170|255:170|255:170|255:118|255:118|259:118|259:118|255:122|255:122|251:118|251:118|255:114|255:114|256:52,1,272.000005187988,4|0,1:0|1:0,0:0:0:0:
336,20,126832,6,0,B|336:72|336:72|332:76|332:76|336:80|336:80|340:76|340:76|336:76|336:76|335:139,1,132.00000125885,2|0,1:2|1:0,0:0:0:0:
176,98,127022,2,0,B|176:150|176:150|172:154|172:154|176:158|176:158|180:154|180:154|176:154|176:154|176:216,1,132.00000125885,2|0,1:3|1:0,0:0:0:0:
360,208,127213,2,0,B|360:260|360:260|356:264|356:264|360:268|360:268|364:264|364:264|360:264|360:264|360:328,1,132.00000125885,2|0,1:2|1:0,0:0:0:0:
132,268,127403,2,0,B|132:320|132:320|128:324|128:324|132:328|132:328|136:324|136:324|132:324|132:324|132:388,1,132.00000125885,2|0,1:2|1:0,0:0:0:0:
256,84,127594,2,0,B|256:136|256:136|252:140|252:140|256:144|256:144|260:140|260:140|256:140|256:140|256:204,1,132.00000125885,2|0,1:2|1:0,0:0:0:0:
432,184,127784,2,0,B|432:236|432:236|428:240|428:240|432:244|432:244|436:240|436:240|432:240|432:240|432:304,2,132.00000125885,2|2|2,1:3|1:2|1:2,0:0:0:0:
444,40,128070,6,0,B|417:27|383:37|383:37|384:41|384:41|386:36|386:36|381:34|381:34|379:39|379:39|352:48|336:75,1,132.00000125885,0|0,1:0|0:0,0:0:0:0:
272,104,128261,2,0,B|248:97|248:97|243:100|243:100|241:95|241:95|245:92|245:92|244:96|244:96|199:83,2,66.0000006294251,0|0|2,1:0|1:0|1:2,0:0:0:0:
332,148,128451,6,0,B|331:199|331:199|335:203|335:203|331:207|331:207|327:204|327:204|331:204|331:204|330:267,2,132.00000125885,0|2|0,1:0|1:3|1:0,0:0:0:0:
152,116,128737,2,0,B|152:56|152:56|156:56|156:56|152:60|152:60|148:56|148:56|152:52|152:52|152:0,2,132.00000125885,2|0|0,1:2|1:0|1:0,0:0:0:0:
96,181,129022,2,0,B|72:174|72:174|67:177|67:177|65:172|65:172|69:169|69:169|68:173|68:173|23:160,2,66.0000006294251,0|0|2,1:0|1:0|1:2,0:0:0:0:
191,236,129213,2,0,B|215:229|215:229|220:232|220:232|222:227|222:227|218:224|218:224|219:228|219:228|264:215,2,66.0000006294251,0|0|2,1:0|1:0|1:3,0:0:0:0:
55,295,129403,2,0,B|31:288|31:288|26:291|26:291|24:286|24:286|28:283|28:283|27:287|27:287|-18:274,2,66.0000006294251,0|0|0,1:0|0:0|1:0,0:0:0:0:
201,356,129594,6,0,B|228:369|262:359|262:359|261:355|261:355|259:360|259:360|264:362|264:362|266:357|266:357|293:348|309:321,2,132.00000125885,4|0|0,1:1|0:0|1:0,0:0:0:0:
127,279,129880,2,0,B|115:259|121:231|121:231|118:227|118:227|122:224|122:224|125:228|125:228|121:227|121:227|130:192|155:176,1,132.00000125885,2|0,1:2|1:0,0:0:0:0:
257,150,130070,2,0,B|281:150|302:169|302:169|307:168|307:168|308:173|308:173|303:174|303:174|306:171|306:171|331:196|334:226,1,132.00000125885,2|0,1:3|1:0,0:0:0:0:
304,327,130261,2,0,B|293:348|266:357|266:357|264:362|264:362|259:360|259:360|261:355|261:355|262:359|262:359|228:369|201:356,1,132.00000125885,2|0,1:2|1:0,0:0:0:0:
44,252,130451,6,0,B|44:192|44:192|48:192|48:192|44:196|44:196|40:192|40:192|44:188|44:188|44:136,1,132.00000125885,2|0,1:2|1:0,0:0:0:0:
140,76,130641,2,0,B|140:128|140:128|136:132|136:132|140:136|140:136|144:132|144:132|140:132|140:132|140:192,1,132.00000125885,2|0,1:2|1:0,0:0:0:0:
236,284,130832,2,0,B|236:224|236:224|240:224|240:224|236:228|236:228|232:224|232:224|236:220|236:220|236:168,1,132.00000125885,2|0,1:3|1:0,0:0:0:0:
328,60,131022,2,0,B|328:112|328:112|324:116|324:116|328:120|328:120|332:116|332:116|328:116|328:116|328:180,2,132.00000125885,2|0|0,1:2|1:0|1:2,0:0:0:0:
400,16,131308,6,0,B|424:23|424:23|429:20|429:20|431:25|431:25|427:28|427:28|428:24|428:24|473:37,2,66.0000006294251,0|0|2,1:0|1:0|1:2,0:0:0:0:
252,88,131499,2,0,B|233:94|233:94|232:90|232:90|236:93|236:93|234:98|234:98|229:95|229:95|205:102,2,66.0000006294251,0|0|2,1:0|1:0|1:3,0:0:0:0:
400,188,131689,2,0,B|424:195|424:195|429:192|429:192|431:197|431:197|427:200|427:200|428:196|428:196|473:209,4,66.0000006294251,0|0|2|0|0,0:0|0:0|1:2|1:0|1:0,0:0:0:0:
256,260,131975,6,0,B|256:312|256:312|252:316|252:316|256:320|256:320|260:316|260:316|256:316|256:316|256:376,1,132.00000125885,4|2,1:2|1:2,0:0:0:0:
256,144,132165,2,0,B|256:196|256:196|252:200|252:200|256:204|256:204|260:200|260:200|256:200|256:200|256:260,1,132.00000125885,0|2,1:0|1:2,0:0:0:0:
256,24,132356,2,0,B|256:76|256:76|252:80|252:80|256:84|256:84|260:80|260:80|256:80|256:80|256:144,1,136.000002593994,4|0,1:1|0:0,0:0:0:0:
176,168,132519,6,0,B|176:144|176:144|172:140|172:140|176:136|176:136|180:140|180:140|176:140|176:140|176:108,1,76.800001875,2|2,0:0|0:0,0:0:0:0:
176,108,132951,2,0,B|176:84|176:84|172:80|172:80|176:76|176:76|180:80|180:80|176:80|176:80|176:40,1,80,4|0,1:0|0:0,0:0:0:0:
100,20,133194,6,0,B|100:60|100:60|104:60|104:60|100:56|100:56|96:60|96:60|100:64|100:64|100:120,1,96,2|2,0:0|0:0,0:0:0:0:
100,99,133600,2,0,B|100:139|100:139|104:139|104:139|100:135|100:135|96:139|96:139|100:143|100:143|100:199,1,96,4|0,1:0|0:0,0:0:0:0:
176,168,133809,6,0,B|176:208|176:208|180:208|180:208|176:204|176:204|172:208|172:208|176:212|176:212|176:268,1,107.999996704102,2|2,0:0|0:0,0:0:0:0:
176,259,134158,2,0,B|176:304|176:304|180:304|180:304|176:300|176:300|172:304|172:304|176:308|176:308|176:360,1,111.999996582031,4|0,1:0|0:0,0:0:0:0:
256,384,134353,6,0,B|256:328|256:328|252:324|252:324|256:320|256:320|260:324|260:324|256:324|256:324|256:256,1,132.00000402832,2|2,0:0|0:0,0:0:0:0:
256,268,134680,2,0,B|256:212|256:212|252:208|252:208|256:204|256:204|260:208|260:208|256:208|256:208|256:140,1,132.00000402832,4|0,1:0|0:0,0:0:0:0:
328,104,134860,6,0,B|328:167|328:167|332:167|332:167|328:163|328:163|324:167|324:167|328:171|328:171|328:235,1,143.999995605469,2|2,0:0|0:0,0:0:0:0:
328,231,135160,2,0,B|328:294|328:294|332:294|332:294|328:290|328:290|324:294|324:294|328:298|328:298|328:360,1,140.000001335144,4|2,1:1|3:2,0:0:0:0:
400,328,135326,6,0,B|400:264|400:264|396:260|396:260|400:256|400:256|404:260|404:260|400:260|400:260|400:184,1,155.999992858887,2|2,3:2|3:2,0:0:0:0:
400,188,135604,2,0,B|400:124|400:124|396:120|396:120|400:116|400:116|404:120|404:120|400:120|400:120|400:48,1,147.999999435425,4|2,1:1|3:2,0:0:0:0:
328,40,135761,6,0,B|328:112|328:112|332:112|332:112|328:108|328:108|324:112|324:112|328:116|328:116|328:196,1,167.999994873047,2|0,3:2|3:0,0:0:0:0:
328,191,136025,2,0,B|328:263|328:263|332:263|332:263|328:259|328:259|324:263|324:263|328:267|328:267|328:344,1,167.999994873047,4|0,1:1|1:0,0:0:0:0:
256,372,136175,6,0,B|256:292|256:292|252:288|252:288|256:284|256:284|260:288|260:288|256:288|256:288|256:196,1,186.000001419067,0|2,0:0|1:2,0:0:0:0:
256,202,136425,2,0,B|256:123|256:123|252:119|252:119|256:115|256:115|260:119|260:119|256:119|256:119|256:24,1,191.999994140625,0|0,1:0|1:0,0:0:0:0:
256,26,136615,6,0,L|256:0,4,20,0|0|0|0|0,1:0|1:0|1:0|1:0|1:0,1:0:0:0:
256,26,136758,22,2,B|256:108|256:108|252:112|252:112|256:116|256:116|260:112|260:112|256:112|256:112|256:188|256:188|252:192|252:192|256:196|256:196|260:192|260:192|256:192|256:192|256:280|256:280|252:284|252:284|256:288|256:288|260:284|260:284|256:284|256:284|256:368,1,383.99998828125,2|4,1:2|1:2,0:2:0:0:
