osu file format v14

[General]
AudioFilename: audio.mp3
AudioLeadIn: 0
PreviewTime: 64561
Countdown: 0
SampleSet: Soft
StackLeniency: 0.2
Mode: 0
LetterboxInBreaks: 0
WidescreenStoryboard: 1

[Editor]
DistanceSpacing: 0.9
BeatDivisor: 4
GridSize: 4
TimelineZoom: 2.400002

[Metadata]
Title:Take
TitleUnicode:竹
Artist:Risshuu feat. Choko
ArtistUnicode:立秋 feat. ちょこ
Creator:yf_bmp
Version:Beginner
Source:
Tags:bamboo masato ishioh 石王マサト bofxvi the bms of fighters xvi arcaea muse dash video game japanese novelty rabbit usagi electronic ウサギ Muziyami Koiyuki wyrio Moecho Gust Yorita Yoshino toybot nika mika xLolicore- My Angel Watame dahkjdas
BeatmapID:2853906
BeatmapSetID:1376486

[Difficulty]
HPDrainRate:3
CircleSize:3
OverallDifficulty:2
ApproachRate:4
SliderMultiplier:0.9
SliderTickRate:1

[Events]
//Background and Video events
Video,0,"bga_take.mp4"
0,0,"bg_take.png",0,0
//Break Periods
2,24478,27958
2,111907,113830
2,115350,118304
//Storyboard Layer 0 (Background)
//Storyboard Layer 1 (Fail)
//Storyboard Layer 2 (Pass)
//Storyboard Layer 3 (Foreground)
//Storyboard Layer 4 (Overlay)
//Storyboard Sound Samples

[TimingPoints]
120,400,4,2,1,80,1,0
1270,-100,4,2,1,5,0,0
1320,-100,4,2,1,80,0,0
6670,-100,4,2,1,20,0,0
6770,-100,4,2,1,80,0,0
13320,273.972602739726,4,2,1,80,1,0
13320,-133.333333333333,4,2,1,80,0,0
13936,-133.333333333333,4,2,1,5,0,0
14004,-133.333333333333,4,2,1,80,0,0
23765,-133.333333333333,4,2,1,5,0,0
24279,333.333333333333,4,2,1,40,1,0
29279,461.538461538462,4,2,1,80,1,0
29279,-90.9090909090909,4,2,1,80,0,0
29740,461.538461538462,4,2,1,80,1,0
29740,-90.9090909090909,4,2,1,80,0,0
33432,-100,4,2,1,80,0,0
33893,-111.111111111111,4,2,1,80,0,0
33894,422.535211267606,4,2,1,80,1,0
37697,387.096774193548,4,2,1,80,1,0
41181,363.636363636364,4,2,1,80,1,0
41181,-105.263157894737,4,2,1,80,0,0
42635,-111.111111111111,4,2,1,80,0,0
42636,342.857142857143,4,2,1,80,1,0
43064,-100,4,2,1,5,0,0
43150,-100,4,2,1,80,0,0
43236,-100,4,2,1,5,0,0
43321,-100,4,2,1,80,0,0
44350,327.868852459016,4,2,1,80,1,0
44350,-117.647058823529,4,2,1,80,0,0
46973,307.692307692308,4,2,1,80,1,0
46973,-117.647058823529,4,2,1,80,0,0
49434,300,4,2,1,80,1,0
49434,-125,4,2,1,80,0,0
50634,292.682926829268,4,2,1,80,1,0
50634,-125,4,2,1,80,0,0
51811,279.06976744186,4,2,1,80,1,0
51811,-133.333333333333,4,2,1,80,0,0
52922,273.972602739726,4,2,1,80,1,0
52922,-133.333333333333,4,2,1,80,0,0
54017,307.692307692308,4,2,1,80,1,0
54017,-117.647058823529,4,2,1,80,0,0
54632,-117.647058823529,4,2,0,80,0,0
55864,273.972602739726,4,2,1,80,1,0
55864,-133.333333333333,4,2,1,80,0,0
56411,273.972602739726,4,2,1,80,1,0
56411,-133.333333333333,4,2,1,80,0,0
73946,276.497695852535,4,2,1,80,1,0
74015,-100,4,2,1,5,0,0
74084,-100,4,2,1,80,0,0
74153,-100,4,2,1,5,0,0
74222,292.682926829268,4,2,1,80,1,0
74295,-100,4,2,1,5,0,0
74368,-100,4,2,1,80,0,0
74441,-100,4,2,1,5,0,0
74515,307.692307692308,4,2,1,80,1,0
74591,-100,4,2,1,5,0,0
74668,-100,4,2,1,80,0,0
74745,-100,4,2,1,5,0,0
74823,327.868852459016,4,2,1,80,1,0
74823,-117.647058823529,4,2,1,80,0,0
74904,-117.647058823529,4,2,1,5,0,0
74986,-117.647058823529,4,2,1,80,0,0
75068,-117.647058823529,4,2,1,5,0,0
75150,-117.647058823529,4,2,1,80,0,0
75314,-117.647058823529,4,2,1,5,0,0
75601,-117.647058823529,4,2,1,80,0,0
76462,327.868852459016,4,2,1,80,1,0
76462,-117.647058823529,4,2,1,80,0,0
97773,-117.647058823529,4,2,1,50,0,0
97882,-117.647058823529,4,2,1,80,0,0
106093,-117.647058823529,4,2,1,5,0,0
106134,-117.647058823529,4,2,1,80,0,0
111298,-117.647058823529,4,2,1,30,0,0
111380,-117.647058823529,4,2,1,80,0,0
111461,-117.647058823529,4,2,1,30,0,0
111543,-117.647058823529,4,2,1,80,0,0
111625,-117.647058823529,4,2,1,30,0,0
111707,-117.647058823529,4,2,1,80,0,0
115273,-117.647058823529,4,2,1,5,0,0
115806,521.739130434783,4,2,1,80,1,0
116850,375,4,2,1,80,1,0
117600,307.692307692308,4,2,1,80,1,0
118215,272.727272727273,4,2,1,80,1,0
118761,255.31914893617,4,2,1,80,1,0
119271,235.294117647059,4,2,1,80,1,0
119624,218.181818181818,4,2,1,80,1,0
119624,-181.818181818182,4,2,1,80,0,0
119733,218.181818181818,4,2,1,80,1,0
119733,-181.818181818182,4,2,1,80,0,0
125842,200,4,2,1,80,1,0
125842,-181.818181818182,4,2,1,80,0,0
126547,190.47619047619,4,2,1,80,1,0
126642,190.47619047619,4,2,1,80,1,0
126642,-200,4,2,1,80,0,0
132356,218.181818181818,4,2,1,80,1,0
132356,-181.818181818182,4,2,1,80,0,0
132720,461.538461538462,4,2,1,80,1,0
132951,324.324324324324,4,2,1,80,1,0
132951,-117.647058823529,4,2,1,80,0,0
133600,279.06976744186,4,2,1,80,1,0
133600,-133.333333333333,4,2,1,80,0,0
134158,260.869565217391,4,2,1,80,1,0
134158,-142.857142857143,4,2,1,80,0,0
134680,240,4,2,1,80,1,0
134680,-153.846153846154,4,2,1,80,0,0
135160,222.222222222222,4,2,1,80,1,0
135160,-166.666666666667,4,2,1,80,0,0
135604,210.526315789474,4,2,1,80,1,0
135604,-181.818181818182,4,2,1,80,0,0
136025,200,4,2,1,80,1,0
136025,-200,4,2,1,80,0,0
136425,190.47619047619,4,2,1,80,1,0
136425,-222.222222222222,4,2,1,80,0,0
136758,750,4,2,1,80,1,0
136758,-80,4,2,1,80,0,0
139383,-80,4,2,1,5,0,0
139758,273.972602739726,4,2,1,80,1,0

[Colours]
Combo1 : 64,187,73
Combo2 : 255,98,89
Combo3 : 114,114,114
Combo4 : 255,227,147
Combo5 : 115,160,255
Combo6 : 196,95,243
Combo7 : 255,92,199
Combo8 : 118,194,33

[HitObjects]
0,380,1720,102,0,B|0:376|0:376|-4:372|-4:372|4:372|4:372|0:368|0:368|-1:344|4:308|4:308|8:304|8:304|0:304|0:304|4:300|4:300|8:264|20:224,1,180,0|0,1:0|1:0,0:0:0:0:
96,384,3320,2,0,B|96:380|96:380|92:376|92:376|100:376|100:376|96:372|96:372|95:348|100:312|100:312|104:308|104:308|96:308|96:308|100:304|100:304|104:268|116:228,1,180,0|0,1:0|1:0,0:0:0:0:
196,184,4520,1,0,1:0:0:0:
284,168,4920,6,0,B|284:164|284:164|288:160|288:160|280:160|280:160|284:156|284:156|285:132|280:96|280:96|276:92|276:92|284:92|284:92|280:88|280:88|276:52|264:12,1,180,0|0,1:0|1:0,0:0:0:0:
444,8,6520,1,0,1:0:0:0:
484,88,6920,102,0,B|484:92|484:92|488:96|488:96|480:96|480:96|484:100|484:100|485:124|480:160|480:160|476:164|476:164|484:164|484:164|480:168|480:168|476:204|464:244,1,180,0|0,1:0|1:0,0:0:0:0:
388,80,8520,2,0,B|388:84|388:84|392:88|392:88|384:88|384:88|388:92|388:92|389:116|384:152|384:152|380:156|380:156|388:156|388:156|384:160|384:160|380:196|368:236,1,180,0|0,1:0|1:0,0:0:0:0:
280,236,9720,1,0,1:0:0:0:
192,224,10120,6,0,B|192:228|192:228|188:232|188:232|196:232|196:232|192:236|192:236|191:260|196:296|196:296|200:300|200:300|192:300|192:300|196:304|196:304|200:340|212:380,1,180,0|0,1:0|1:0,0:0:0:0:
124,368,11320,1,0,1:0:0:0:
36,372,11720,54,0,B|6:329|27:285|27:285|84:268,1,144,0|2,1:0|0:0,0:0:0:0:
88,180,12760,2,0,L|104:48,1,126,0|2,0:0|0:1,0:0:0:0:
28,144,15374,5,4,1:1:0:0:
112,180,15785,22,0,B|112:176|112:176|108:172|108:172|116:172|116:172|112:168|112:168|111:144|116:108|116:108|120:104|120:104|112:104|112:104|116:100|116:100|124:60,1,135.000005149842,8|8,1:0|1:0,0:0:0:0:
208,156,16881,2,0,B|208:152|208:152|204:148|204:148|212:148|212:148|208:144|208:144|207:120|212:84|212:84|216:80|216:80|208:80|208:80|212:76|212:76|220:36,1,135.000005149842,8|0,1:0|1:0,0:0:0:0:
332,8,17977,5,8,1:0:0:0:
404,104,18525,2,0,B|407:105|407:105|410:109|410:109|412:102|412:102|415:107|415:107|473:122|473:122|478:119|478:119|476:127|476:127|481:124|481:124|516:134,1,135.000005149842,8|8,1:0|1:0,0:0:0:0:
392,224,19758,85,4,1:1:0:0:
308,184,20169,6,0,B|308:188|308:188|312:192|312:192|304:192|304:192|308:196|308:196|309:220|304:256|304:256|300:260|300:260|308:260|308:260|304:264|304:264|297:295,1,135.000005149842,8|8,1:0|1:0,0:0:0:0:
216,204,21265,2,0,B|216:208|216:208|220:212|220:212|212:212|212:212|216:216|216:216|217:240|212:276|212:276|208:280|208:280|216:280|216:280|212:284|212:284|204:324,1,135.000005149842,8|0,1:0|1:0,0:0:0:0:
84,312,22361,5,8,1:0:0:0:
96,192,22909,2,0,B|96:188|96:188|92:183|92:183|100:184|100:184|97:180|97:180|102:120|102:120|106:116|106:116|98:115|98:115|102:112|102:112|108:52|108:52|112:48|112:48|104:48|104:48|108:44|108:44|110:20,1,202.500007724762,2|2,1:2|1:3,0:0:0:0:
232,4,24278,5,4,1:1:0:0:
64,348,29278,117,2,0:0:0:0:
104,268,29740,2,0,P|144:288|212:276,1,99.0000030212403,0|0,1:0|1:0,0:0:0:0:
216,196,30663,2,0,P|176:176|108:188,1,99.0000030212403,0|0,1:0|1:0,0:0:0:0:
68,112,31586,2,0,L|64:4,1,99.0000030212403,0|0,1:0|1:0,0:0:0:0:
152,28,32509,2,0,P|176:28|208:16,2,49.5000015106202,0|2|0,1:0|0:2|1:0,0:0:0:0:
320,80,33894,6,0,P|304:110|316:168,1,90,0|0,1:0|1:0,0:0:0:0:
389,189,34739,2,0,P|399:221|380:276,1,90,0|0,1:0|1:0,0:0:0:0:
305,293,35584,2,0,P|277:273|260:217,1,90,0|0,1:0|1:0,0:0:0:0:
313,164,36429,2,0,L|304:116,2,45,0|2|0,1:0|0:0|1:0,0:0:0:0:
200,32,37697,6,0,P|232:28|268:12,2,67.5,0|2|2,1:0|0:1|2:1,0:0:0:0:
160,24,38471,2,0,P|111:32|76:72,1,90,0|0,1:0|1:0,0:0:0:0:
68,140,39245,2,0,L|84:240,1,90,0|0,1:0|1:0,0:0:0:0:
116,304,40019,2,0,P|92:312|64:308,2,45,0|2|0,1:0|0:0|1:1,0:0:0:0:
280,324,41181,6,0,P|284:276|292:228,1,85.4999977169037,0|0,1:0|1:0,0:0:0:0:
370,240,41908,2,0,P|376:282|379:324,1,85.4999977169037,0|0,1:0|1:0,0:0:0:0:
460,329,42635,69,0,1:0:0:0:
464,168,43321,2,0,P|464:140|476:108,2,45,0|2|0,1:0|0:0|1:0,0:0:0:0:
368,60,44350,6,0,P|328:68|288:64,1,76.5000014591217,0|0,1:0|1:0,0:0:0:0:
196,104,45169,2,0,P|188:88|192:52,1,38.2500007295609,10|0,3:2|1:0,0:0:0:0:
110,45,45661,6,0,P|102:85|106:125,1,76.5000014591217,0|0,1:0|1:0,0:0:0:0:
64,216,46480,2,0,P|80:224|116:220,1,38.2500007295609,8|0,1:2|1:0,0:0:0:0:
92,308,46973,6,0,P|130:310|167:302,1,76.5000014591217,0|0,1:0|1:0,0:0:0:0:
264,340,47742,2,0,L|272:300,1,38.2500007295609,8|2,1:2|1:2,0:0:0:0:
288,220,48203,70,0,P|249:222|212:214,1,76.5000014591217,0|0,1:0|1:0,0:0:0:0:
164,124,48972,2,0,L|172:84,1,38.2500007295609,8|0,1:2|1:0,0:0:0:0:
236,36,49434,6,0,P|301:37|344:136,1,180,0|8,1:0|1:2,0:0:0:0:
440,160,50634,2,0,P|374:161|332:260,1,180,0|8,1:0|1:2,0:0:0:0:
316,352,51811,6,0,P|256:380|196:352,1,135.000005149842,0|2,1:0|1:3,0:0:0:0:
160,236,52922,6,0,P|171:198|196:168,2,67.5000025749208,4|0|4,1:2|1:0|1:2,0:0:0:0:
104,344,54017,69,4,0:2:0:0:
484,144,56274,53,4,1:1:0:0:
400,180,56685,22,0,B|400:176|400:176|404:172|404:172|396:172|396:172|400:168|400:168|401:144|396:108|396:108|392:104|392:104|400:104|400:104|396:100|396:100|388:60,1,135.000005149842,8|8,1:0|1:0,0:0:0:0:
304,156,57781,2,0,B|304:152|304:152|308:148|308:148|300:148|300:148|304:144|304:144|305:120|300:84|300:84|296:80|296:80|304:80|304:80|300:76|300:76|292:36,1,135.000005149842,8|0,1:0|1:0,0:0:0:0:
180,8,58877,5,8,1:0:0:0:
108,104,59425,2,0,B|104:105|104:105|101:109|101:109|99:102|99:102|96:107|96:107|38:122|38:122|33:119|33:119|35:127|35:127|30:124|30:124|-4:134,1,135.000005149842,8|8,1:0|1:0,0:0:0:0:
120,224,60658,69,4,1:0:0:0:
204,184,61069,22,0,B|204:188|204:188|200:192|200:192|208:192|208:192|204:196|204:196|203:220|208:256|208:256|212:260|212:260|204:260|204:260|208:264|208:264|215:295,1,135.000005149842,8|8,1:0|1:0,0:0:0:0:
296,204,62165,2,0,B|296:208|296:208|292:212|292:212|300:212|300:212|296:216|296:216|295:240|300:276|300:276|304:280|304:280|296:280|296:280|300:284|300:284|308:324,1,135.000005149842,8|0,1:0|1:0,0:0:0:0:
428,312,63261,5,8,1:0:0:0:
504,220,63808,2,0,B|500:220|500:220|496:224|496:224|496:216|496:216|492:220|492:220|468:221|432:216|432:216|428:212|428:212|428:220|428:220|424:216|424:216|384:208,1,135.000005149842,8|0,1:0|1:0,0:0:0:0:
244,108,65041,69,4,1:0:0:0:
316,56,65452,2,0,B|370:43|370:43|379:36|379:36|386:45|386:45|434:72,1,135.000005149842,8|8,1:0|1:0,0:0:0:0:
424,192,66547,2,0,B|369:204|369:204|360:211|360:211|353:202|353:202|305:175,1,135.000005149842,8|8,1:0|1:0,0:0:0:0:
204,104,67644,5,8,1:0:0:0:
196,224,68192,2,0,B|188:260|156:276|156:276|120:280|97:305,1,135.000005149842,8|8,1:0|1:0,0:0:0:0:
240,356,69424,101,4,1:0:0:0:
324,332,69835,2,0,B|378:345|378:345|387:352|387:352|394:343|394:343|442:316,1,135.000005149842,8|8,1:0|1:0,0:0:0:0:
428,196,70930,2,0,B|373:184|373:184|364:177|364:177|357:186|357:186|309:213,1,135.000005149842,8|0,1:0|1:0,0:0:0:0:
212,288,72027,5,8,1:0:0:0:
176,172,72575,6,0,B|176:168|176:168|180:164|180:164|172:164|172:164|176:160|176:160|177:136|172:100|172:100|168:96|168:96|176:96|176:96|172:92|172:92|168:60|160:40|160:40|164:36|164:36|156:36|156:36|160:32|160:32|153:15|148:8,1,202.500007724762,0|2,1:0|1:3,0:0:0:0:
164,348,75150,22,0,B|220:356|212:336|268:344,2,105.187502006292,2|2|0,3:3|3:2|0:0,0:0:0:0:
84,376,76462,5,0,1:0:0:0:
80,240,77117,2,0,P|60:220|56:100,1,153.000002918243,4|0,1:3|1:0,0:0:0:0:
192,96,78429,2,0,B|234:115|269:88|257:80|292:53|333:73,1,153.000002918243,8|0,1:2|1:0,0:0:0:0:
456,140,79740,6,0,P|476:160|476:280,1,153.000002918243,4|0,1:3|1:0,0:0:0:0:
344,304,81052,2,0,B|301:284|266:311|278:319|243:346|202:326,1,153.000002918243,8|0,1:2|1:0,0:0:0:0:
88,248,82363,5,4,1:3:0:0:
20,128,83019,1,0,1:0:0:0:
154,106,83675,2,0,B|190:118|190:118|227:111,1,76.5000014591217,8|2,1:2|0:1,0:0:0:0:
308,108,84330,70,0,P|316:56|328:44,1,57.3750010943413,0|0,1:0|1:0,0:0:0:0:
404,44,84986,1,4,1:3:0:0:
424,180,85642,1,0,1:0:0:0:
360,304,86298,2,0,B|396:316|396:316|433:309,1,76.5000014591217,8|2,1:2|0:1,0:0:0:0:
480,240,86953,5,0,1:0:0:0:
344,184,87609,2,0,B|290:173|297:209|252:216|248:180|196:204,1,153.000002918243,4|0,1:3|1:0,0:0:0:0:
112,308,88921,2,0,B|120:276|92:264|100:212,1,91.8000017509461,8|0,1:2|1:2,0:0:0:0:
96,168,89576,5,0,1:0:0:0:
184,60,90232,2,0,B|130:71|137:35|92:28|88:64|36:40,1,153.000002918243,4|0,1:3|1:0,0:0:0:0:
4,172,91543,2,0,B|16:272,1,91.8000017509461,8|0,1:2|1:0,0:0:0:0:
22,312,92199,6,0,B|59:304|54:328|84:333|87:309|121:325,1,102.000001945496,0|2,1:0|0:1,0:0:0:0:
152,352,92855,1,4,1:3:0:0:
288,328,93511,70,0,B|324:335|319:311|349:306|352:330|386:314,1,102.000001945496,0|0,1:0|1:0,0:0:0:0:
408,280,94166,1,8,1:2:0:0:
492,172,94822,6,0,B|455:180|460:156|430:151|427:175|393:159,1,102.000001945496,0|2,1:0|1:1,0:0:0:0:
360,136,95478,1,4,1:3:0:0:
240,68,96134,6,0,B|204:61|209:85|179:90|176:66|142:82,1,102.000001945496,0|2,1:0|1:1,0:0:0:0:
120,116,96789,1,8,1:2:0:0:
12,28,97445,5,2,0:0:0:0:
312,88,98757,6,0,P|313:55|336:4,1,87.4285730961391,0|2,1:0|3:2,0:0:0:0:
396,24,99412,2,0,P|395:57|372:108,1,87.4285730961391,4|2,1:3|3:2,0:0:0:0:
328,152,100068,1,0,1:0:0:0:
440,236,100724,1,8,1:1:0:0:
404,368,101380,6,0,P|360:364|321:345,1,87.4285730961391,0|2,1:0|1:2,0:0:0:0:
304,280,102035,2,0,P|261:283|222:302,1,87.4285730961391,4|2,1:3|1:2,0:0:0:0:
244,364,102691,1,0,1:0:0:0:
144,272,103347,1,8,1:1:0:0:
36,360,104002,6,0,B|36:352|36:352|32:348|32:348|40:348|40:348|36:344|36:344|36:308|36:308|40:304|40:304|32:304|32:304|36:300|36:300|36:284,1,95.6250018239022,0|2,1:0|3:2,0:0:0:0:
40,240,104658,2,0,B|40:232|40:232|36:228|36:228|44:228|44:228|40:224|40:224|44:188|44:188|48:184|48:184|40:184|40:184|44:180|44:180|48:164,1,95.6250018239022,4|2,1:3|1:2,0:0:0:0:
57,123,105314,1,0,1:0:0:0:
152,24,105970,1,8,1:0:0:0:
276,84,106625,6,0,B|278:91|278:91|282:94|282:94|275:96|275:96|280:99|280:99|289:134|289:134|286:139|286:139|294:137|294:137|291:141|291:141|295:157,1,95.6250018239022,0|2,1:0|3:2,0:0:0:0:
303,200,107281,2,0,B|305:207|305:207|309:210|309:210|302:212|302:212|307:215|307:215|312:251|312:251|309:256|309:256|317:254|317:254|314:258|314:258|314:275,1,95.6250018239022,4|2,1:3|1:2,0:0:0:0:
317,318,107937,1,0,1:0:0:0:
448,360,108593,1,2,1:2:0:0:
440,224,109248,5,2,1:2:0:0:
256,192,109412,12,4,111707,1:0:0:0:
324,140,115150,101,2,1:3:0:0:
48,336,119624,69,4,1:1:0:0:
20,284,119951,22,0,B|19:269|20:256|20:256|16:252|16:252|24:252|24:252|20:248|20:248|24:216|36:188,1,99.0000030212403,8|8,1:0|1:0,0:0:0:0:
112,240,120823,2,0,B|112:236|112:236|108:232|108:232|116:232|116:232|112:228|112:228|111:204|116:168|116:168|120:164|120:164|112:164|112:164|116:160|116:160|124:132,1,123.75000377655,8|2,1:0|1:2,0:0:0:0:
200,148,121696,6,0,B|199:133|200:120|200:120|196:116|196:116|204:116|204:116|200:112|200:112|204:80|216:52,1,99.0000030212403,8|8,1:0|1:0,0:0:0:0:
292,100,122568,2,0,B|292:96|292:96|288:92|288:92|296:92|296:92|292:88|292:88|291:64|296:28|296:28|300:24|300:24|292:24|292:24|296:20|296:20|304:-8,1,123.75000377655,8|4,1:1|1:1,0:0:0:0:
360,4,123442,102,0,B|364:7|364:7|368:6|368:6|373:9|373:9|365:11|365:11|370:14|370:14|394:33|409:67|409:67|405:72|405:72|413:70|413:70|410:75|410:75|419:98|429:129|429:129|425:133|425:133|433:132|433:132|430:136|430:136|442:195|442:195|438:200|438:200|446:199|446:199|443:203|443:203|447:234|445:256,1,321.750009819031,2|2,1:2|1:2,0:0:0:0:
496,352,125405,85,2,1:3:0:0:
400,356,125842,2,0,P|374:375|292:292,1,173.250005287171,0|4,1:0|1:0,0:0:0:0:
320,284,126832,22,0,B|321:269|320:256|320:256|324:252|324:252|316:252|316:252|320:248|320:248|317:224|312:204,1,90,2|2,1:2|1:2,0:0:0:0:
232,224,127594,2,0,B|232:220|232:220|236:216|236:216|228:216|228:216|232:212|232:212|233:188|228:152|228:152|224:148|224:148|232:148|232:148|228:144|228:144|224:132,1,112.5,2|2,1:2|1:2,0:0:0:0:
176,152,128356,6,0,B|177:137|176:124|176:124|180:120|180:120|172:120|172:120|176:116|176:116|173:92|168:72,1,90,2|2,1:2|1:2,0:0:0:0:
88,92,129118,2,0,B|88:88|88:88|92:84|92:84|84:84|84:84|88:80|88:80|89:56|84:20|84:20|80:16|80:16|88:16|88:16|84:12|84:12|80:0,1,112.5,2|4,1:2|1:1,0:0:0:0:
25,5,129880,102,0,B|24:8|24:8|20:12|20:12|28:13|28:13|23:16|23:16|18:76|18:76|22:81|22:81|14:80|14:80|18:84|18:84|12:144|12:144|16:148|16:148|8:148|8:148|12:152|12:152|6:212|6:212|10:216|10:216|2:215|2:215|6:220|6:220|3:252,1,292.5,2|2,1:2|1:2,0:0:0:0:
4,360,131594,102,0,P|48:352|84:316,1,90,2|4,1:3|1:2,0:0:0:0:
112,244,132356,1,4,1:1:0:0:
180,364,132951,38,0,P|180:328|188:280,1,76.5000014591217,4|0,1:0|0:0,0:0:0:0:
264,308,133600,6,0,P|264:276|270:234,1,67.5000025749208,4|0,1:0|0:0,0:0:0:0:
336,256,134158,6,0,P|336:224|342:182,1,62.9999980773926,4|0,1:0|0:0,0:0:0:0:
404,196,134680,6,0,P|404:168|397:131,1,58.4999973220826,4|0,1:0|0:0,0:0:0:0:
344,116,135160,6,0,P|344:88|337:51,1,53.9999983520508,4|4,1:1|1:2,0:0:0:0:
292,80,135604,6,0,P|292:54|285:21,1,49.5000015106202,4|4,1:1|1:2,0:0:0:0:
244,48,136025,6,0,P|244:27|238:0,1,45,4|0,1:1|1:0,0:0:0:0:
200,20,136425,5,0,1:0:0:0:
176,32,136758,6,2,B|116:0|40:24|4:88|12:184|112:224|184:184|192:116|124:100,1,393.75,2|0,1:2|0:0,0:2:0:0:
0,196,139758,5,4,1:2:0:0:
