osu file format v14

[General]
AudioFilename: audio.mp3
AudioLeadIn: 0
PreviewTime: 56224
Countdown: 0
SampleSet: Soft
StackLeniency: 0.7
Mode: 3
LetterboxInBreaks: 0
SpecialStyle: 0
WidescreenStoryboard: 0

[Editor]
DistanceSpacing: 1.3
BeatDivisor: 7
GridSize: 4
TimelineZoom: 2.3

[Metadata]
Title:Take
TitleUnicode:竹
Artist:Risshuu feat. Choko
ArtistUnicode:立秋 feat. ちょこ
Creator:LNP-
Version:Beyond
Source:Arcaea
Tags:the bms of fighter xvi bofxvi novelty video game japanese muse dash instrumental electronic bamboo
BeatmapID:2847100
BeatmapSetID:1377628

[Difficulty]
HPDrainRate:8.5
CircleSize:4
OverallDifficulty:8.5
ApproachRate:5
SliderMultiplier:1.4
SliderTickRate:1

[Events]
//Background and Video events
0,0,"bg.png",0,0
Video,0,"bga.mp4"
//Break Periods
//Storyboard Layer 0 (Background)
//Storyboard Layer 1 (Fail)
//Storyboard Layer 2 (Pass)
//Storyboard Layer 3 (Foreground)
//Storyboard Layer 4 (Overlay)
//Storyboard Sound Samples
Sample,101982,0,"pong2.wav",80

[TimingPoints]
1680,400,4,2,1,70,1,0
1680,-81.9672131147541,4,2,1,70,0,0
4880,400,5,2,1,70,1,0
4880,-81.9672131147541,5,2,1,70,0,0
6880,400,4,2,1,70,1,0
6880,-81.9672131147541,4,2,1,70,0,0
13280,273.972602739726,4,2,1,70,1,8
13280,-119.047619047619,4,2,1,70,0,8
15334,-119.047619047619,4,2,1,70,0,9
23690,-119.047619047619,4,2,1,70,0,8
24238,333.333333333333,4,2,1,70,1,0
24238,-98.0392156862745,4,2,1,70,0,0
29237,461.538461538462,4,2,1,70,1,8
29237,-70.9219858156028,4,2,1,70,0,8
29698,461.538461538462,4,2,1,70,1,0
29698,-70.9219858156028,4,2,1,70,0,0
33851,422.535211267606,4,2,1,70,1,0
33851,-77.5193798449612,4,2,1,70,0,0
37653,387.096774193548,4,2,1,70,1,0
37653,-84.7457627118644,4,2,1,70,0,0
41136,363.636363636364,4,2,1,70,1,0
41136,-90.0900900900901,4,2,1,70,0,0
42590,344.827586206897,4,2,1,70,1,0
42590,-95.2380952380952,4,2,1,70,0,0
44314,327.868852459016,4,2,1,70,1,0
44314,-100,4,2,1,70,0,0
46936,307.692307692308,4,2,1,70,1,0
46936,-106.382978723404,4,2,1,70,0,0
49397,300,4,2,1,70,1,0
49397,-108.695652173913,4,2,1,70,0,0
50597,292.682926829268,4,2,1,70,1,0
50597,-112.359550561798,4,2,1,70,0,0
51767,279.06976744186,4,2,1,70,1,0
51767,-117.647058823529,4,2,1,70,0,0
52883,273.972602739726,4,2,1,70,1,0
52883,-119.047619047619,4,2,1,70,0,0
53978,307.692307692308,4,2,1,70,1,0
53978,-106.382978723404,4,2,1,70,0,0
54583,307.692307692308,4,2,1,70,1,0
54583,-106.382978723404,4,2,1,70,0,0
55814,273.972602739726,4,2,1,70,1,0
55814,-119.047619047619,4,2,1,70,0,0
56224,-119.047619047619,4,2,1,70,0,1
56360,273.972602739726,4,2,1,70,1,0
56360,-119.047619047619,4,2,1,70,0,1
73346,-119.047619047619,4,2,1,70,0,0
73895,276.497695852535,4,2,1,70,1,0
73895,-119.047619047619,4,2,1,70,0,0
74171,292.682926829268,4,2,1,70,1,0
74171,-112.359550561798,4,2,1,70,0,0
74463,307.692307692308,4,2,1,70,1,0
74463,-106.382978723404,4,2,1,70,0,0
74770,327.868852459016,5,2,1,70,1,0
74770,-100,5,2,1,70,0,0
76409,327.868852459016,4,2,1,70,1,0
76409,-100,4,2,1,70,0,0
115753,521.739130434783,4,2,1,70,1,0
115753,-62.8930817610063,4,2,1,70,0,0
116796,375,4,2,1,70,1,8
116796,-87.719298245614,4,2,1,70,0,8
117546,307.692307692308,4,2,1,70,1,0
117546,-106.382978723404,4,2,1,70,0,0
118161,272.727272727273,4,2,1,70,1,8
118161,-120.481927710843,4,2,1,70,0,8
118706,255.31914893617,4,2,1,70,1,0
118706,-128.205128205128,4,2,1,70,0,0
119216,235.294117647059,4,2,1,70,1,8
119216,-138.888888888889,4,2,1,70,0,8
119568,-138.888888888889,4,2,1,70,0,9
119686,218.181818181818,4,2,1,70,1,1
119686,-149.253731343284,4,2,1,70,0,1
125795,200,4,2,1,70,1,1
125795,-163.934426229508,4,2,1,70,0,1
126595,190.47619047619,4,2,1,70,1,1
126595,-172.413793103448,4,2,1,70,0,1
132309,218.181818181818,4,2,1,70,1,8
132309,-149.253731343284,4,2,1,70,0,8
132527,300,4,2,1,70,1,8
132527,-108.695652173913,4,2,1,70,0,8
132677,461.538461538462,4,2,1,70,1,8
132677,-70.9219858156028,4,2,1,70,0,8
132907,324.324324324324,4,2,1,70,1,0
132907,-101.010101010101,4,2,1,70,0,0
133555,279.06976744186,4,2,1,70,1,8
133555,-117.647058823529,4,2,1,70,0,8
134113,260.869565217391,4,2,1,70,1,0
134113,-125,4,2,1,70,0,0
134634,240,4,2,1,70,1,8
134634,-136.986301369863,4,2,1,70,0,8
135114,222.222222222222,4,2,1,70,1,0
135114,-147.058823529412,4,2,1,70,0,0
135558,210.526315789474,4,2,1,70,1,8
135558,-156.25,4,2,1,70,0,8
135979,200,4,2,1,70,1,0
135979,-163.934426229508,4,2,1,70,0,0
136379,190.47619047619,4,2,1,70,1,8
136379,-172.413793103448,4,2,1,70,0,8
136712,3000,4,2,1,70,1,8
136712,-2.73224043715847,4,2,1,70,0,8

[HitObjects]
64,192,1680,5,2,0:0:0:0:
448,192,1680,1,0,0:0:0:0:
192,192,1920,1,0,0:0:0:0:
320,192,2000,1,0,0:0:0:0:
448,192,2000,1,0,0:0:0:0:
192,192,2160,1,0,0:0:0:0:
448,192,2160,1,0,0:0:0:0:
64,192,2320,1,0,0:0:0:0:
320,192,2320,1,0,0:0:0:0:
64,192,2480,1,2,0:0:0:0:
448,192,2480,1,0,0:0:0:0:
320,192,2720,1,0,0:0:0:0:
64,192,2800,1,0,0:0:0:0:
192,192,2800,1,0,0:0:0:0:
64,192,2960,1,0,0:0:0:0:
320,192,2960,1,0,0:0:0:0:
192,192,3120,1,0,0:0:0:0:
448,192,3120,1,0,0:0:0:0:
64,192,3280,1,2,0:0:0:0:
448,192,3280,1,0,0:0:0:0:
320,192,3520,1,0,0:0:0:0:
64,192,3600,1,0,0:0:0:0:
192,192,3600,1,0,0:0:0:0:
192,192,3760,1,0,0:0:0:0:
320,192,3760,1,0,0:0:0:0:
320,192,3920,1,0,0:0:0:0:
448,192,3920,1,0,0:0:0:0:
64,192,4080,1,2,0:0:0:0:
448,192,4080,1,0,0:0:0:0:
192,192,4213,1,0,0:0:0:0:
320,192,4346,1,0,0:0:0:0:
64,192,4480,1,2,0:0:0:0:
448,192,4480,1,0,0:0:0:0:
320,192,4613,1,0,0:0:0:0:
192,192,4746,1,0,0:0:0:0:
64,192,4880,1,2,0:0:0:0:
448,192,4880,1,0,0:0:0:0:
192,192,5120,1,0,0:0:0:0:
64,192,5200,1,0,0:0:0:0:
320,192,5200,1,0,0:0:0:0:
192,192,5360,1,0,0:0:0:0:
448,192,5360,1,0,0:0:0:0:
320,192,5520,1,0,0:0:0:0:
448,192,5520,1,0,0:0:0:0:
64,192,5680,1,2,0:0:0:0:
320,192,5680,1,0,0:0:0:0:
320,192,5920,1,0,0:0:0:0:
192,192,6000,1,0,0:0:0:0:
448,192,6000,1,0,0:0:0:0:
64,192,6160,1,0,0:0:0:0:
320,192,6160,1,0,0:0:0:0:
64,192,6320,1,0,0:0:0:0:
192,192,6320,1,0,0:0:0:0:
320,192,6480,1,2,0:0:0:0:
448,192,6480,128,0,6630:0:0:0:0:
448,192,6730,128,0,6880:0:0:0:0:
64,192,6880,1,2,0:0:0:0:
320,192,6880,1,0,0:0:0:0:
192,192,7120,1,0,0:0:0:0:
64,192,7200,1,0,0:0:0:0:
448,192,7200,1,0,0:0:0:0:
192,192,7360,1,0,0:0:0:0:
448,192,7360,1,0,0:0:0:0:
320,192,7520,1,0,0:0:0:0:
448,192,7520,1,0,0:0:0:0:
64,192,7680,1,2,0:0:0:0:
192,192,7680,1,0,0:0:0:0:
320,192,7920,1,0,0:0:0:0:
64,192,8000,1,0,0:0:0:0:
448,192,8000,1,0,0:0:0:0:
64,192,8160,1,0,0:0:0:0:
320,192,8160,1,0,0:0:0:0:
64,192,8320,1,0,0:0:0:0:
192,192,8320,1,0,0:0:0:0:
320,192,8480,1,2,0:0:0:0:
448,192,8480,1,0,0:0:0:0:
192,192,8720,1,0,0:0:0:0:
64,192,8800,1,0,0:0:0:0:
320,192,8800,1,0,0:0:0:0:
192,192,8960,1,0,0:0:0:0:
448,192,8960,1,0,0:0:0:0:
64,192,9120,1,0,0:0:0:0:
448,192,9120,1,0,0:0:0:0:
64,192,9280,1,2,0:0:0:0:
320,192,9280,1,0,0:0:0:0:
320,192,9520,1,0,0:0:0:0:
192,192,9600,1,0,0:0:0:0:
448,192,9600,1,0,0:0:0:0:
64,192,9760,1,0,0:0:0:0:
320,192,9760,1,0,0:0:0:0:
64,192,9920,1,0,0:0:0:0:
448,192,9920,1,0,0:0:0:0:
192,192,10080,1,2,0:0:0:0:
448,192,10080,1,0,0:0:0:0:
320,192,10320,1,0,0:0:0:0:
64,192,10400,1,0,0:0:0:0:
192,192,10400,1,0,0:0:0:0:
64,192,10560,1,0,0:0:0:0:
320,192,10560,1,0,0:0:0:0:
192,192,10720,1,0,0:0:0:0:
448,192,10720,1,0,0:0:0:0:
64,192,10880,1,2,0:0:0:0:
448,192,10880,1,0,0:0:0:0:
192,192,11120,1,0,0:0:0:0:
320,192,11200,1,0,0:0:0:0:
448,192,11200,1,0,0:0:0:0:
192,192,11360,1,0,0:0:0:0:
448,192,11360,1,0,0:0:0:0:
64,192,11520,1,0,0:0:0:0:
320,192,11520,1,0,0:0:0:0:
64,192,11680,1,2,0:0:0:0:
448,192,11680,1,0,0:0:0:0:
192,192,11840,1,0,0:0:0:0:
320,192,11840,1,0,0:0:0:0:
64,192,12000,1,0,0:0:0:0:
192,192,12000,1,0,0:0:0:0:
320,192,12160,1,0,0:0:0:0:
448,192,12160,1,0,0:0:0:0:
192,192,12320,1,0,0:0:0:0:
320,192,12320,1,0,0:0:0:0:
64,192,12480,1,2,0:0:0:0:
192,192,12480,1,0,0:0:0:0:
320,192,12640,1,0,0:0:0:0:
448,192,12640,1,0,0:0:0:0:
64,192,12800,1,0,0:0:0:0:
192,192,12800,1,0,0:0:0:0:
192,192,12960,1,0,0:0:0:0:
320,192,12960,1,0,0:0:0:0:
320,192,13120,1,0,0:0:0:0:
448,192,13120,1,0,0:0:0:0:
64,192,13280,128,0,13827:0:0:0:0:
448,192,13280,128,0,13827:0:0:0:0:
64,192,13964,1,0,0:0:0:0:
448,192,13964,1,0,0:0:0:0:
64,192,14101,1,0,0:0:0:0:
448,192,14101,1,0,0:0:0:0:
64,192,14238,1,0,0:0:0:0:
448,192,14238,1,0,0:0:0:0:
320,192,14375,1,0,0:0:0:0:
448,192,14375,1,0,0:0:0:0:
192,192,14512,1,0,0:0:0:0:
320,192,14512,1,0,0:0:0:0:
64,192,14649,1,0,0:0:0:0:
192,192,14649,1,0,0:0:0:0:
192,192,14786,1,0,0:0:0:0:
320,192,14786,1,0,0:0:0:0:
64,192,14923,1,2,0:0:0:0:
320,192,14923,1,0,0:0:0:0:
448,192,14923,1,0,0:0:0:0:
64,192,15060,1,2,0:0:0:0:
192,192,15060,1,0,0:0:0:0:
448,192,15060,1,0,0:0:0:0:
64,192,15197,1,2,0:0:0:0:
320,192,15197,1,0,0:0:0:0:
448,192,15197,1,0,0:0:0:0:
64,192,15334,1,2,0:0:0:0:
192,192,15334,1,4,0:0:0:0:
320,192,15334,128,0,15608:0:0:0:0:
448,192,15334,128,0,15608:0:0:0:0:
64,192,15608,1,0,0:0:0:0:
192,192,15608,1,0,0:0:0:0:
64,192,15745,1,2,0:0:0:0:
448,192,15745,1,0,0:0:0:80:pong.wav
192,192,15882,1,0,0:0:0:0:
448,192,15882,1,0,0:0:0:0:
64,192,16019,1,2,0:0:0:0:
320,192,16019,1,0,0:0:0:80:pong.wav
64,192,16156,1,0,0:0:0:0:
448,192,16156,1,0,0:0:0:0:
192,192,16293,1,2,0:0:0:0:
448,192,16293,1,0,0:0:0:80:pong.wav
64,192,16430,1,0,0:0:0:0:
320,192,16430,1,0,0:0:0:0:
64,192,16567,1,2,0:0:0:0:
448,192,16567,1,0,0:0:0:80:pong.wav
192,192,16704,1,0,0:0:0:0:
448,192,16704,1,0,0:0:0:0:
64,192,16841,1,2,0:0:0:0:
320,192,16841,1,0,0:0:0:80:pong.wav
64,192,16978,1,0,0:0:0:0:
448,192,16978,1,0,0:0:0:0:
320,192,17115,1,2,0:0:0:0:
448,192,17115,1,0,0:0:0:80:pong.wav
192,192,17252,1,0,0:0:0:80:pong.wav
320,192,17252,1,0,0:0:0:0:
64,192,17389,1,2,0:0:0:0:
192,192,17389,1,0,0:0:0:80:pong.wav
320,192,17526,128,2,17800:0:0:0:0:
448,192,17526,128,0,17800:0:0:0:80:pong.wav
64,192,17800,1,0,0:0:0:0:
192,192,17800,1,0,0:0:0:0:
192,192,17937,1,2,0:0:0:0:
320,192,17937,1,0,0:0:0:0:
320,192,18074,1,0,0:0:0:0:
448,192,18074,1,0,0:0:0:0:
64,192,18211,1,2,0:0:0:0:
448,192,18211,1,0,0:0:0:80:pong.wav
64,192,18348,1,0,0:0:0:0:
320,192,18348,1,0,0:0:0:0:
192,192,18485,1,2,0:0:0:0:
448,192,18485,1,0,0:0:0:0:
64,192,18622,1,0,0:0:0:0:
448,192,18622,1,0,0:0:0:0:
64,192,18759,1,2,0:0:0:0:
192,192,18759,1,0,0:0:0:0:
320,192,18896,1,0,0:0:0:0:
448,192,18896,1,0,0:0:0:0:
192,192,19033,1,2,0:0:0:0:
320,192,19033,1,0,0:0:0:0:
64,192,19170,1,2,0:0:0:0:
192,192,19170,1,0,0:0:0:0:
320,192,19307,128,2,19581:0:0:0:0:
448,192,19307,128,0,19581:0:0:0:80:pong.wav
64,192,19581,1,2,0:0:0:0:
192,192,19581,1,0,0:0:0:0:
64,192,19718,128,2,19992:0:0:0:0:
192,192,19718,128,4,19992:0:0:0:0:
320,192,19718,1,0,0:0:0:0:
448,192,19718,1,0,0:0:0:0:
320,192,19992,1,0,0:0:0:0:
448,192,19992,1,0,0:0:0:0:
64,192,20129,1,2,0:0:0:0:
448,192,20129,1,0,0:0:0:0:
192,192,20266,1,0,0:0:0:0:
64,192,20403,1,2,0:0:0:0:
448,192,20403,1,0,0:0:0:80:pong.wav
64,192,20540,1,0,0:0:0:0:
320,192,20540,1,0,0:0:0:0:
64,192,20677,1,2,0:0:0:0:
192,192,20677,1,0,0:0:0:0:
320,192,20814,1,0,0:0:0:0:
448,192,20814,1,0,0:0:0:0:
64,192,20951,1,2,0:0:0:0:
192,192,20951,1,0,0:0:0:80:pong.wav
64,192,21088,1,0,0:0:0:0:
320,192,21088,1,0,0:0:0:0:
192,192,21225,1,2,0:0:0:0:
320,192,21225,1,0,0:0:0:80:pong.wav
192,192,21362,1,0,0:0:0:0:
448,192,21362,1,0,0:0:0:0:
320,192,21499,1,2,0:0:0:0:
448,192,21499,1,0,0:0:0:80:pong.wav
192,192,21636,1,0,0:0:0:0:
320,192,21636,1,0,0:0:0:0:
64,192,21773,1,2,0:0:0:0:
192,192,21773,1,0,0:0:0:0:
64,192,21910,128,2,22184:0:0:0:0:
192,192,21910,128,0,22184:0:0:0:0:
320,192,22184,1,2,0:0:0:0:
448,192,22184,1,0,0:0:0:0:
192,192,22252,1,2,0:0:0:0:
64,192,22321,1,2,0:0:0:0:
448,192,22321,1,0,0:0:0:80:pong.wav
192,192,22458,1,0,0:0:0:0:
448,192,22458,1,0,0:0:0:0:
64,192,22595,1,2,0:0:0:0:
192,192,22595,1,0,0:0:0:0:
64,192,22732,1,2,0:0:0:0:
320,192,22732,1,0,0:0:0:0:
192,192,22869,1,2,0:0:0:0:
448,192,22869,1,0,0:0:0:0:
320,192,23006,1,2,0:0:0:0:
448,192,23006,1,0,0:0:0:0:
64,192,23143,1,2,0:0:0:0:
192,192,23143,1,0,0:0:0:0:
320,192,23211,1,0,0:0:0:50:soft-hitwhistle.wav
64,192,23280,1,0,0:0:0:50:soft-hitwhistle.wav
448,192,23280,1,0,0:0:0:0:
192,192,23348,1,0,0:0:0:50:soft-hitwhistle.wav
320,192,23416,1,2,0:0:0:0:
448,192,23416,1,0,0:0:0:80:pong.wav
64,192,23553,1,2,0:0:0:0:
192,192,23553,1,0,0:0:0:0:
64,192,23690,1,2,0:0:0:0:
320,192,23690,1,0,0:0:0:50:clang.wav
448,192,23690,1,0,0:0:0:0:
64,192,24238,1,2,0:0:0:0:
192,192,24238,1,4,0:0:0:0:
448,192,24238,1,0,0:0:0:0:
64,192,25571,1,0,0:0:0:80:pong.wav
448,192,25571,1,0,0:0:0:0:
64,192,26071,1,0,0:0:0:60:pong.wav
448,192,26571,1,0,0:0:0:50:pong.wav
64,192,27071,1,0,0:0:0:80:pong.wav
448,192,27571,1,0,0:0:0:40:pong.wav
64,192,28071,1,0,0:0:0:30:pong.wav
448,192,28571,1,0,0:0:0:20:pong.wav
448,192,29237,1,0,0:0:0:0:
320,192,29352,1,0,0:0:0:0:
64,192,29467,1,0,0:0:0:0:
192,192,29583,1,0,0:0:0:0:
320,192,29698,1,2,0:0:0:0:
448,192,29698,1,0,0:0:0:0:
320,192,29928,1,0,0:0:0:0:
192,192,30044,1,0,0:0:0:0:
64,192,30159,1,2,0:0:0:0:
448,192,30159,1,0,0:0:0:80:clang.wav
320,192,30390,1,0,0:0:0:0:
64,192,30621,1,2,0:0:0:0:
192,192,30621,1,0,0:0:0:0:
320,192,30851,1,0,0:0:0:0:
64,192,31082,1,2,0:0:0:0:
448,192,31082,1,0,0:0:0:80:clang.wav
192,192,31313,1,0,0:0:0:0:
192,192,31544,1,2,0:0:0:0:
448,192,31544,1,0,0:0:0:0:
320,192,31774,1,0,0:0:0:0:
192,192,31890,1,0,0:0:0:0:
64,192,32005,1,2,0:0:0:0:
448,192,32005,1,0,0:0:0:80:clang.wav
320,192,32236,1,0,0:0:0:0:
192,192,32467,1,2,0:0:0:0:
448,192,32467,1,0,0:0:0:0:
192,192,32698,1,0,0:0:0:0:
448,192,32698,1,0,0:0:0:0:
64,192,32928,1,2,0:0:0:0:
448,192,32928,1,0,0:0:0:80:clang.wav
320,192,33044,1,0,0:0:0:0:
64,192,33159,1,0,0:0:0:0:
192,192,33159,1,0,0:0:0:0:
320,192,33274,1,0,0:0:0:0:
64,192,33390,128,0,33851:0:0:0:80:clang.wav
448,192,33390,1,0,0:0:0:0:
192,192,33621,128,0,33851:0:0:0:80:clang.wav
320,192,33851,1,2,0:0:0:0:
448,192,33851,1,0,0:0:0:0:
192,192,34062,1,0,0:0:0:0:
320,192,34167,1,0,0:0:0:0:
64,192,34273,1,2,0:0:0:0:
448,192,34273,1,0,0:0:0:80:clang.wav
192,192,34484,1,0,0:0:0:0:
64,192,34696,1,2,0:0:0:0:
320,192,34696,1,0,0:0:0:0:
448,192,34907,1,0,0:0:0:0:
320,192,35118,1,2,0:0:0:0:
448,192,35118,1,0,0:0:0:80:clang.wav
192,192,35329,1,0,0:0:0:0:
64,192,35541,1,2,0:0:0:0:
192,192,35541,1,0,0:0:0:0:
320,192,35752,1,0,0:0:0:0:
192,192,35858,1,0,0:0:0:0:
64,192,35963,1,2,0:0:0:0:
448,192,35963,1,0,0:0:0:80:clang.wav
192,192,36174,1,0,0:0:0:0:
320,192,36386,1,2,0:0:0:0:
448,192,36386,1,0,0:0:0:0:
320,192,36597,1,0,0:0:0:0:
448,192,36597,1,0,0:0:0:0:
64,192,36808,1,2,0:0:0:0:
320,192,36808,1,0,0:0:0:80:clang.wav
192,192,36914,1,0,0:0:0:0:
64,192,37020,1,0,0:0:0:0:
448,192,37020,1,0,0:0:0:0:
320,192,37125,1,0,0:0:0:0:
192,192,37231,1,0,0:0:0:80:clang.wav
448,192,37231,128,0,37653:0:0:0:0:
320,192,37442,128,0,37653:0:0:0:80:clang.wav
64,192,37653,1,2,0:0:0:0:
192,192,37653,1,0,0:0:0:0:
320,192,37846,1,0,0:0:0:0:
192,192,37943,1,0,0:0:0:0:
64,192,38040,1,2,0:0:0:0:
448,192,38040,1,0,0:0:0:80:clang.wav
320,192,38233,1,0,0:0:0:0:
64,192,38427,1,2,0:0:0:0:
192,192,38427,1,0,0:0:0:0:
448,192,38620,1,0,0:0:0:0:
64,192,38814,1,2,0:0:0:0:
448,192,38814,1,0,0:0:0:80:clang.wav
192,192,39007,1,0,0:0:0:0:
192,192,39201,1,2,0:0:0:0:
448,192,39201,1,0,0:0:0:0:
320,192,39394,1,0,0:0:0:0:
192,192,39491,1,0,0:0:0:0:
64,192,39588,1,2,0:0:0:0:
448,192,39588,1,0,0:0:0:80:clang.wav
320,192,39782,1,0,0:0:0:0:
192,192,39975,1,2,0:0:0:0:
448,192,39975,1,0,0:0:0:0:
192,192,40169,1,0,0:0:0:0:
448,192,40169,1,0,0:0:0:0:
64,192,40362,1,2,0:0:0:0:
448,192,40362,1,0,0:0:0:80:clang.wav
320,192,40459,1,0,0:0:0:0:
64,192,40556,1,0,0:0:0:0:
192,192,40556,1,0,0:0:0:0:
320,192,40653,1,0,0:0:0:0:
64,192,40749,128,0,41136:0:0:0:80:clang.wav
448,192,40749,1,0,0:0:0:0:
320,192,40943,128,0,41136:0:0:0:80:clang.wav
192,192,41136,1,2,0:0:0:0:
448,192,41136,1,0,0:0:0:0:
192,192,41317,1,0,0:0:0:0:
320,192,41408,1,0,0:0:0:0:
64,192,41499,1,2,0:0:0:0:
448,192,41499,1,0,0:0:0:80:clang.wav
192,192,41681,1,0,0:0:0:0:
64,192,41863,1,2,0:0:0:0:
320,192,41863,1,0,0:0:0:0:
448,192,42045,1,0,0:0:0:0:
64,192,42226,1,2,0:0:0:0:
448,192,42226,1,0,0:0:0:80:clang.wav
320,192,42408,1,0,0:0:0:0:
64,192,42590,1,2,0:0:0:0:
320,192,42590,1,0,0:0:0:0:
192,192,42762,1,0,0:0:0:0:
320,192,42848,1,0,0:0:0:0:
64,192,42934,1,2,0:0:0:0:
448,192,42934,1,0,0:0:0:80:clang.wav
192,192,43107,1,0,0:0:0:0:
320,192,43279,1,2,0:0:0:0:
448,192,43279,1,0,0:0:0:0:
320,192,43452,1,0,0:0:0:0:
448,192,43452,1,0,0:0:0:0:
64,192,43624,1,2,0:0:0:0:
320,192,43624,1,0,0:0:0:80:clang.wav
192,192,43710,1,0,0:0:0:0:
64,192,43796,1,0,0:0:0:0:
448,192,43796,1,0,0:0:0:0:
320,192,43883,1,0,0:0:0:0:
192,192,43969,1,0,0:0:0:80:clang.wav
448,192,43969,128,0,44314:0:0:0:0:
192,192,44141,128,0,44314:0:0:0:80:clang.wav
64,192,44314,1,2,0:0:0:0:
320,192,44314,1,0,0:0:0:0:
192,192,44395,1,2,0:0:0:50:soft-hitwhistle.wav
320,192,44477,1,2,0:0:0:50:soft-hitwhistle.wav
448,192,44477,1,0,0:0:0:0:
64,192,44641,1,2,0:0:0:0:
192,192,44641,1,0,0:0:0:0:
320,192,44723,1,2,0:0:0:50:soft-hitwhistle.wav
192,192,44805,1,2,0:0:0:50:soft-hitwhistle.wav
448,192,44805,1,0,0:0:0:0:
64,192,44969,1,2,0:0:0:0:
448,192,44969,1,0,0:0:0:0:
320,192,45051,1,2,0:0:0:50:soft-hitwhistle.wav
64,192,45133,1,2,0:0:0:50:soft-hitwhistle.wav
192,192,45133,1,0,0:0:0:0:
320,192,45297,1,2,0:0:0:0:
448,192,45297,1,0,0:0:0:0:
64,192,45461,1,2,0:0:0:0:
192,192,45461,1,0,0:0:0:0:
320,192,45543,1,2,0:0:0:50:soft-hitwhistle.wav
64,192,45625,1,2,0:0:0:50:soft-hitwhistle.wav
448,192,45625,1,0,0:0:0:0:
192,192,45707,1,2,0:0:0:50:soft-hitwhistle.wav
320,192,45789,1,2,0:0:0:50:soft-hitwhistle.wav
448,192,45789,1,0,0:0:0:0:
64,192,45953,1,2,0:0:0:0:
320,192,45953,1,0,0:0:0:0:
192,192,46035,1,2,0:0:0:50:soft-hitwhistle.wav
64,192,46117,1,2,0:0:0:50:soft-hitwhistle.wav
448,192,46117,1,0,0:0:0:0:
320,192,46199,1,2,0:0:0:50:soft-hitwhistle.wav
192,192,46281,1,2,0:0:0:50:soft-hitwhistle.wav
448,192,46281,1,0,0:0:0:0:
320,192,46363,1,2,0:0:0:50:soft-hitwhistle.wav
64,192,46445,1,2,0:0:0:0:
192,192,46445,1,0,0:0:0:0:
320,192,46527,1,0,0:0:0:0:
64,192,46609,1,2,0:0:0:0:
448,192,46609,128,0,46691:0:0:0:80:pong2.wav
192,192,46691,128,0,46773:0:0:0:0:
320,192,46773,128,0,46854:0:0:0:50:soft-hitwhistle.wav
64,192,46854,128,0,46936:0:0:0:50:soft-hitwhistle.wav
192,192,46936,1,2,0:0:0:0:
448,192,46936,1,0,0:0:0:0:
320,192,47012,1,2,0:0:0:0:
64,192,47089,1,2,0:0:0:0:
448,192,47089,1,0,0:0:0:0:
320,192,47243,1,2,0:0:0:0:
448,192,47243,1,0,0:0:0:0:
192,192,47320,1,0,0:0:0:50:soft-hitwhistle.wav
64,192,47397,1,0,0:0:0:50:soft-hitwhistle.wav
320,192,47397,1,0,0:0:0:0:
64,192,47551,1,2,0:0:0:0:
448,192,47551,1,0,0:0:0:0:
320,192,47628,1,0,0:0:0:50:soft-hitwhistle.wav
64,192,47705,1,0,0:0:0:50:soft-hitwhistle.wav
192,192,47705,1,0,0:0:0:0:
320,192,47782,1,0,0:0:0:50:soft-hitwhistle.wav
192,192,47859,1,2,0:0:0:0:
448,192,47859,1,0,0:0:0:0:
64,192,48012,1,0,0:0:0:50:soft-hitwhistle.wav
448,192,48012,1,0,0:0:0:0:
320,192,48089,1,0,0:0:0:50:soft-hitwhistle.wav
64,192,48166,1,2,0:0:0:0:
192,192,48166,1,0,0:0:0:0:
448,192,48243,1,0,0:0:0:50:soft-hitwhistle.wav
64,192,48320,1,0,0:0:0:50:soft-hitwhistle.wav
320,192,48320,1,0,0:0:0:0:
192,192,48474,1,2,0:0:0:0:
448,192,48474,1,0,0:0:0:0:
64,192,48628,1,2,0:0:0:0:
448,192,48628,1,0,0:0:0:0:
192,192,48705,1,0,0:0:0:50:soft-hitwhistle.wav
320,192,48782,1,0,0:0:0:50:soft-hitwhistle.wav
448,192,48782,1,0,0:0:0:0:
192,192,48859,1,0,0:0:0:0:
64,192,48936,1,2,0:0:0:0:
320,192,48936,1,0,0:0:0:0:
448,192,49012,1,0,0:0:0:0:
64,192,49089,128,2,49166:0:0:0:0:
192,192,49089,1,0,0:0:0:80:pong2.wav
320,192,49166,128,0,49243:0:0:0:0:
192,192,49243,128,0,49320:0:0:0:0:
448,192,49320,128,0,49397:0:0:0:0:
64,192,49397,1,2,0:0:0:0:
192,192,49397,1,0,0:0:0:0:
320,192,49472,1,0,0:0:0:50:soft-hitwhistle.wav
64,192,49547,1,0,0:0:0:50:soft-hitwhistle.wav
448,192,49547,1,0,0:0:0:0:
64,192,49697,1,2,0:0:0:0:
320,192,49697,1,0,0:0:0:0:
192,192,49772,1,0,0:0:0:50:soft-hitwhistle.wav
64,192,49847,1,0,0:0:0:50:soft-hitwhistle.wav
448,192,49847,1,0,0:0:0:0:
192,192,49997,1,2,0:0:0:0:
448,192,49997,1,0,0:0:0:0:
320,192,50072,1,0,0:0:0:50:soft-hitwhistle.wav
64,192,50147,1,0,0:0:0:50:soft-hitwhistle.wav
192,192,50147,1,0,0:0:0:0:
64,192,50297,1,2,0:0:0:0:
448,192,50297,128,0,50372:0:0:0:80:pong2.wav
192,192,50372,128,0,50447:0:0:0:0:
320,192,50447,128,0,50522:0:0:0:0:
64,192,50522,128,0,50597:0:0:0:0:
192,192,50597,1,2,0:0:0:0:
448,192,50597,1,0,0:0:0:0:
320,192,50670,1,0,0:0:0:50:soft-hitwhistle.wav
64,192,50743,1,0,0:0:0:50:soft-hitwhistle.wav
448,192,50743,1,0,0:0:0:0:
192,192,50816,1,0,0:0:0:50:soft-hitwhistle.wav
320,192,50889,1,0,0:0:0:50:soft-hitwhistle.wav
448,192,50889,1,0,0:0:0:0:
64,192,51036,1,2,0:0:0:0:
192,192,51036,1,0,0:0:0:0:
320,192,51109,1,0,0:0:0:50:soft-hitwhistle.wav
192,192,51182,1,0,0:0:0:50:soft-hitwhistle.wav
448,192,51182,1,0,0:0:0:0:
64,192,51328,1,2,0:0:0:0:
320,192,51328,1,0,0:0:0:0:
64,192,51475,1,2,0:0:0:0:
192,192,51475,1,0,0:0:0:80:pong2.wav
320,192,51572,1,2,0:0:0:0:
448,192,51572,1,0,0:0:0:0:
64,192,51670,1,2,0:0:0:0:
192,192,51670,1,0,0:0:0:0:
320,192,51767,1,2,0:0:0:0:
448,192,51767,1,0,0:0:0:0:
192,192,51836,1,2,0:0:0:0:
64,192,51906,1,2,0:0:0:0:
448,192,51906,1,0,0:0:0:0:
320,192,51976,1,2,0:0:0:0:
64,192,52046,1,2,0:0:0:0:
192,192,52046,1,0,0:0:0:0:
320,192,52115,1,2,0:0:0:0:
64,192,52185,1,2,0:0:0:0:
448,192,52185,1,0,0:0:0:0:
192,192,52255,1,2,0:0:0:0:
320,192,52325,1,2,0:0:0:0:
448,192,52325,1,0,0:0:0:0:
64,192,52418,1,2,0:0:0:0:
192,192,52418,1,0,0:0:0:0:
320,192,52511,1,2,0:0:0:0:
448,192,52511,1,0,0:0:0:0:
64,192,52604,1,2,0:0:0:0:
192,192,52604,1,0,0:0:0:0:
320,192,52697,1,2,0:0:0:0:
448,192,52697,1,0,0:0:0:0:
64,192,52790,1,2,0:0:0:0:
192,192,52790,1,0,0:0:0:0:
320,192,52883,1,2,0:0:0:0:
448,192,52883,1,0,0:0:0:0:
64,192,53019,1,2,0:0:0:0:
448,192,53019,1,0,0:0:0:0:
320,192,53088,1,0,0:0:0:50:soft-hitwhistle.wav
64,192,53156,128,2,53293:0:0:0:0:
192,192,53156,128,0,53225:0:0:0:0:
320,192,53293,128,2,53362:0:0:0:0:
448,192,53293,128,0,53430:0:0:0:0:
64,192,53430,1,2,0:0:0:0:
192,192,53430,1,0,0:0:0:0:
320,192,53499,1,0,0:0:0:0:
192,192,53567,1,0,0:0:0:0:
448,192,53567,1,0,0:0:0:0:
320,192,53636,1,0,0:0:0:0:
64,192,53704,128,2,53978:0:0:0:0:
448,192,53704,1,0,0:0:0:0:
192,192,53841,128,0,53978:0:0:0:0:
320,192,53841,1,0,0:0:0:0:
320,192,53978,1,0,0:0:0:80:clang.wav
448,192,53978,1,0,0:0:0:0:
448,192,54241,1,0,0:0:0:0:
64,192,54583,1,0,0:0:0:0:
192,192,54583,1,0,0:0:0:0:
64,192,54736,1,0,0:0:0:0:
64,192,54890,1,0,0:0:0:0:
64,192,55044,1,0,0:0:0:0:
192,192,55198,1,0,0:0:0:0:
320,192,55198,1,0,0:0:0:0:
192,192,55352,1,0,0:0:0:0:
320,192,55506,1,0,0:0:0:0:
448,192,55659,1,0,0:0:0:0:
192,192,55813,1,0,0:0:0:0:
64,192,55814,1,2,0:0:0:0:
448,192,55814,1,0,0:0:0:0:
64,192,55950,1,2,0:0:0:0:
320,192,55950,1,0,0:0:0:0:
448,192,55950,1,0,0:0:0:0:
64,192,56087,1,2,0:0:0:0:
192,192,56087,1,0,0:0:0:0:
448,192,56087,1,0,0:0:0:0:
64,192,56224,1,2,0:0:0:0:
192,192,56224,1,4,0:0:0:0:
320,192,56224,128,0,56496:0:0:0:0:
448,192,56224,128,0,56496:0:0:0:0:
64,192,56496,1,0,0:0:0:0:
192,192,56496,1,0,0:0:0:0:
64,192,56633,1,2,0:0:0:0:
448,192,56633,1,0,0:0:0:80:pong.wav
192,192,56770,1,0,0:0:0:0:
448,192,56770,1,0,0:0:0:0:
64,192,56907,1,2,0:0:0:0:
320,192,56907,1,0,0:0:0:80:pong.wav
64,192,57044,1,0,0:0:0:0:
448,192,57044,1,0,0:0:0:0:
192,192,57181,1,2,0:0:0:0:
448,192,57181,1,0,0:0:0:80:pong.wav
64,192,57318,1,0,0:0:0:0:
320,192,57318,1,0,0:0:0:0:
64,192,57455,1,2,0:0:0:0:
448,192,57455,1,0,0:0:0:80:pong.wav
192,192,57592,1,0,0:0:0:0:
448,192,57592,1,0,0:0:0:0:
64,192,57729,1,2,0:0:0:0:
320,192,57729,1,0,0:0:0:80:pong.wav
64,192,57866,1,0,0:0:0:0:
448,192,57866,1,0,0:0:0:0:
320,192,58003,1,2,0:0:0:0:
448,192,58003,1,0,0:0:0:80:pong.wav
192,192,58140,1,0,0:0:0:80:pong.wav
320,192,58140,1,0,0:0:0:0:
64,192,58277,1,2,0:0:0:0:
192,192,58277,1,0,0:0:0:80:pong.wav
320,192,58414,128,2,58688:0:0:0:0:
448,192,58414,128,0,58688:0:0:0:80:pong.wav
64,192,58688,1,0,0:0:0:0:
192,192,58688,1,0,0:0:0:0:
192,192,58825,1,2,0:0:0:0:
320,192,58825,1,0,0:0:0:0:
320,192,58962,1,0,0:0:0:0:
448,192,58962,1,0,0:0:0:0:
64,192,59099,1,2,0:0:0:0:
448,192,59099,1,0,0:0:0:80:pong.wav
64,192,59236,1,0,0:0:0:0:
320,192,59236,1,0,0:0:0:0:
192,192,59373,1,2,0:0:0:0:
448,192,59373,1,0,0:0:0:0:
64,192,59510,1,0,0:0:0:0:
448,192,59510,1,0,0:0:0:0:
64,192,59647,1,2,0:0:0:0:
192,192,59647,1,0,0:0:0:0:
320,192,59784,1,0,0:0:0:0:
448,192,59784,1,0,0:0:0:0:
192,192,59921,1,2,0:0:0:0:
320,192,59921,1,0,0:0:0:0:
64,192,60058,1,2,0:0:0:0:
192,192,60058,1,0,0:0:0:0:
320,192,60195,128,2,60469:0:0:0:0:
448,192,60195,128,0,60469:0:0:0:80:pong.wav
64,192,60469,1,2,0:0:0:0:
192,192,60469,1,0,0:0:0:0:
64,192,60606,128,2,60880:0:0:0:0:
192,192,60606,128,4,60880:0:0:0:0:
320,192,60606,1,0,0:0:0:0:
448,192,60606,1,0,0:0:0:0:
320,192,60880,1,0,0:0:0:0:
448,192,60880,1,0,0:0:0:0:
64,192,61017,1,2,0:0:0:0:
448,192,61017,1,0,0:0:0:0:
192,192,61154,1,0,0:0:0:0:
320,192,61291,1,2,0:0:0:0:
448,192,61291,1,0,0:0:0:80:pong.wav
192,192,61428,1,0,0:0:0:0:
448,192,61428,1,0,0:0:0:0:
64,192,61565,1,2,0:0:0:0:
320,192,61565,1,0,0:0:0:0:
64,192,61702,1,0,0:0:0:0:
192,192,61702,1,0,0:0:0:0:
320,192,61839,1,2,0:0:0:0:
448,192,61839,1,0,0:0:0:80:pong.wav
192,192,61976,1,0,0:0:0:0:
448,192,61976,1,0,0:0:0:0:
192,192,62113,1,2,0:0:0:0:
320,192,62113,1,0,0:0:0:80:pong.wav
64,192,62250,1,0,0:0:0:0:
320,192,62250,1,0,0:0:0:0:
64,192,62387,1,2,0:0:0:0:
192,192,62387,1,0,0:0:0:80:pong.wav
320,192,62524,1,0,0:0:0:0:
448,192,62524,1,0,0:0:0:0:
192,192,62661,1,2,0:0:0:0:
320,192,62661,1,0,0:0:0:0:
64,192,62798,128,2,63072:0:0:0:0:
192,192,62798,128,0,63072:0:0:0:0:
320,192,63072,1,2,0:0:0:0:
448,192,63072,1,0,0:0:0:0:
192,192,63140,1,0,0:0:0:50:soft-hitwhistle.wav
64,192,63209,1,0,0:0:0:50:soft-hitwhistle.wav
448,192,63209,1,0,0:0:0:0:
64,192,63346,1,0,0:0:0:0:
320,192,63346,1,0,0:0:0:0:
192,192,63483,1,2,0:0:0:0:
448,192,63483,1,0,0:0:0:80:pong.wav
320,192,63620,1,2,0:0:0:0:
448,192,63620,1,0,0:0:0:0:
64,192,63757,1,2,0:0:0:0:
192,192,63757,1,0,0:0:0:0:
64,192,63894,1,2,0:0:0:0:
320,192,63894,1,0,0:0:0:0:
192,192,64031,1,2,0:0:0:0:
448,192,64031,1,0,0:0:0:0:
64,192,64168,1,2,0:0:0:0:
448,192,64168,1,0,0:0:0:0:
320,192,64236,1,2,0:0:0:0:
64,192,64305,1,2,0:0:0:0:
192,192,64305,1,0,0:0:0:0:
320,192,64442,1,2,0:0:0:0:
448,192,64442,1,0,0:0:0:0:
64,192,64579,1,2,0:0:0:0:
192,192,64579,1,0,0:0:0:0:
448,192,64579,1,0,0:0:0:0:
64,192,64716,1,2,0:0:0:0:
320,192,64716,1,0,0:0:0:0:
448,192,64716,1,0,0:0:0:0:
64,192,64853,1,2,0:0:0:0:
192,192,64853,1,0,0:0:0:0:
448,192,64853,1,0,0:0:0:0:
64,192,64990,1,2,0:0:0:0:
192,192,64990,1,4,0:0:0:0:
320,192,64990,128,0,65264:0:0:0:0:
448,192,64990,128,0,65264:0:0:0:0:
64,192,65264,1,0,0:0:0:0:
192,192,65264,1,0,0:0:0:0:
64,192,65401,1,2,0:0:0:0:
448,192,65401,1,0,0:0:0:80:pong.wav
192,192,65538,1,0,0:0:0:0:
448,192,65538,1,0,0:0:0:0:
64,192,65675,1,2,0:0:0:0:
320,192,65675,1,0,0:0:0:80:pong.wav
64,192,65812,1,0,0:0:0:0:
448,192,65812,1,0,0:0:0:0:
192,192,65949,1,2,0:0:0:0:
448,192,65949,1,0,0:0:0:80:pong.wav
64,192,66086,1,0,0:0:0:0:
320,192,66086,1,0,0:0:0:0:
64,192,66223,1,2,0:0:0:0:
448,192,66223,1,0,0:0:0:80:pong.wav
192,192,66360,1,0,0:0:0:0:
448,192,66360,1,0,0:0:0:0:
64,192,66496,1,2,0:0:0:0:
320,192,66496,1,0,0:0:0:80:pong.wav
64,192,66633,1,0,0:0:0:0:
448,192,66633,1,0,0:0:0:0:
320,192,66770,1,2,0:0:0:0:
448,192,66770,1,0,0:0:0:80:pong.wav
192,192,66907,1,0,0:0:0:80:pong.wav
320,192,66907,1,0,0:0:0:0:
64,192,67044,1,2,0:0:0:0:
192,192,67044,1,0,0:0:0:80:pong.wav
320,192,67181,128,2,67455:0:0:0:0:
448,192,67181,128,0,67455:0:0:0:80:pong.wav
64,192,67455,1,0,0:0:0:0:
192,192,67455,1,0,0:0:0:0:
64,192,67592,1,2,0:0:0:0:
448,192,67592,1,0,0:0:0:0:
320,192,67729,1,0,0:0:0:0:
448,192,67729,1,0,0:0:0:0:
64,192,67866,1,2,0:0:0:0:
192,192,67866,1,0,0:0:0:80:pong.wav
64,192,68003,1,0,0:0:0:0:
320,192,68003,1,0,0:0:0:0:
192,192,68140,1,2,0:0:0:0:
448,192,68140,1,0,0:0:0:0:
320,192,68277,1,0,0:0:0:0:
448,192,68277,1,0,0:0:0:0:
64,192,68414,1,2,0:0:0:0:
192,192,68414,1,0,0:0:0:0:
320,192,68551,1,0,0:0:0:0:
448,192,68551,1,0,0:0:0:0:
64,192,68688,1,2,0:0:0:0:
192,192,68688,1,0,0:0:0:0:
192,192,68825,1,2,0:0:0:0:
320,192,68825,1,0,0:0:0:0:
320,192,68962,128,2,69236:0:0:0:0:
448,192,68962,128,0,69236:0:0:0:80:pong.wav
64,192,69236,1,2,0:0:0:0:
192,192,69236,1,0,0:0:0:0:
64,192,69373,128,2,69647:0:0:0:0:
192,192,69373,128,4,69647:0:0:0:0:
320,192,69373,1,0,0:0:0:0:
448,192,69373,1,0,0:0:0:0:
320,192,69647,1,0,0:0:0:0:
448,192,69647,1,0,0:0:0:0:
64,192,69784,1,2,0:0:0:0:
448,192,69784,1,0,0:0:0:0:
320,192,69921,1,0,0:0:0:0:
192,192,70058,1,2,0:0:0:0:
448,192,70058,1,0,0:0:0:80:pong.wav
64,192,70195,1,0,0:0:0:0:
448,192,70195,1,0,0:0:0:0:
64,192,70332,1,2,0:0:0:0:
320,192,70332,1,0,0:0:0:0:
64,192,70469,1,0,0:0:0:0:
448,192,70469,1,0,0:0:0:0:
192,192,70606,1,2,0:0:0:0:
448,192,70606,1,0,0:0:0:80:pong.wav
192,192,70743,1,0,0:0:0:0:
320,192,70743,1,0,0:0:0:0:
64,192,70880,1,2,0:0:0:0:
320,192,70880,1,0,0:0:0:80:pong.wav
64,192,71017,1,0,0:0:0:0:
192,192,71017,1,0,0:0:0:0:
320,192,71154,1,2,0:0:0:0:
448,192,71154,1,0,0:0:0:80:pong.wav
64,192,71291,1,0,0:0:0:0:
192,192,71291,1,0,0:0:0:0:
192,192,71428,1,2,0:0:0:0:
320,192,71428,1,0,0:0:0:0:
320,192,71565,128,2,71839:0:0:0:0:
448,192,71565,128,0,71839:0:0:0:0:
64,192,71839,1,2,0:0:0:0:
192,192,71839,1,0,0:0:0:0:
320,192,71907,1,0,0:0:0:50:soft-hitwhistle.wav
64,192,71976,1,0,0:0:0:50:soft-hitwhistle.wav
448,192,71976,1,0,0:0:0:0:
192,192,72113,1,0,0:0:0:0:
448,192,72113,1,0,0:0:0:0:
64,192,72250,1,2,0:0:0:0:
320,192,72250,1,0,0:0:0:80:pong.wav
64,192,72387,1,2,0:0:0:0:
320,192,72387,1,0,0:0:0:0:
192,192,72524,1,2,0:0:0:0:
448,192,72524,1,0,0:0:0:0:
192,192,72661,1,2,0:0:0:0:
448,192,72661,1,0,0:0:0:0:
64,192,72798,1,2,0:0:0:0:
320,192,72798,1,0,0:0:0:0:
448,192,72866,1,0,0:0:0:50:soft-hitwhistle.wav
64,192,72935,1,2,0:0:0:0:
192,192,72935,1,0,0:0:0:0:
320,192,73003,1,0,0:0:0:0:
192,192,73072,1,0,0:0:0:50:soft-hitwhistle.wav
448,192,73072,1,0,0:0:0:0:
64,192,73209,1,2,0:0:0:0:
320,192,73209,1,0,0:0:0:0:
64,192,73346,1,2,0:0:0:0:
192,192,73346,1,0,0:0:0:80:clang.wav
192,192,73620,1,0,0:0:0:0:
448,192,73688,1,0,0:0:0:0:
320,192,73757,1,0,0:0:0:0:
192,192,73825,1,0,0:0:0:0:
448,192,73894,1,0,0:0:0:0:
64,192,73895,1,0,0:0:0:0:
64,192,74033,1,0,0:0:0:0:
448,192,74033,1,0,0:0:0:0:
64,192,74171,1,0,0:0:0:0:
448,192,74171,1,0,0:0:0:0:
64,192,74317,1,0,0:0:0:0:
448,192,74317,1,0,0:0:0:0:
64,192,74463,1,0,0:0:0:0:
448,192,74463,1,0,0:0:0:0:
64,192,74616,1,0,0:0:0:0:
448,192,74616,1,0,0:0:0:0:
64,192,74770,1,0,0:0:0:0:
448,192,74770,1,0,0:0:0:0:
64,192,74933,1,0,0:0:0:0:
448,192,74933,1,0,0:0:0:0:
64,192,75097,1,0,0:0:0:40:pong2.wav
448,192,75097,1,0,0:0:0:0:
320,192,75535,128,0,76409:0:0:0:40:pong2.wav
448,192,75535,1,0,0:0:0:0:
64,192,75972,1,0,0:0:0:40:pong2.wav
192,192,75972,1,0,0:0:0:0:
64,192,76409,1,2,0:0:0:0:
448,192,76409,1,0,0:0:0:0:
320,192,76627,1,0,0:0:0:0:
192,192,76846,1,0,0:0:0:0:
64,192,77064,1,0,0:0:0:80:pong2.wav
320,192,77064,1,0,0:0:0:0:
448,192,77064,1,0,0:0:0:0:
192,192,77283,1,0,0:0:0:0:
448,192,77501,1,0,0:0:0:0:
64,192,77720,1,2,0:0:0:0:
320,192,77720,1,0,0:0:0:0:
192,192,77939,1,0,0:0:0:0:
64,192,78157,1,2,0:0:0:0:
320,192,78157,1,0,0:0:0:0:
64,192,78376,1,2,0:0:0:0:
448,192,78376,1,0,0:0:0:0:
192,192,78594,1,0,0:0:0:0:
320,192,78813,1,0,0:0:0:0:
192,192,79031,1,2,0:0:0:0:
448,192,79031,1,0,0:0:0:0:
64,192,79250,1,0,0:0:0:0:
320,192,79469,1,0,0:0:0:0:
64,192,79687,1,0,0:0:0:80:pong2.wav
192,192,79687,1,0,0:0:0:0:
448,192,79687,1,0,0:0:0:0:
320,192,79906,1,0,0:0:0:0:
192,192,80124,1,0,0:0:0:0:
64,192,80343,1,2,0:0:0:0:
448,192,80343,1,0,0:0:0:0:
320,192,80562,1,0,0:0:0:0:
64,192,80780,1,2,0:0:0:0:
448,192,80780,1,0,0:0:0:0:
192,192,80999,1,2,0:0:0:0:
448,192,80999,1,0,0:0:0:0:
320,192,81217,1,0,0:0:0:0:
448,192,81436,1,0,0:0:0:0:
64,192,81654,1,2,0:0:0:0:
448,192,81654,1,0,0:0:0:0:
192,192,81818,1,0,0:0:0:0:
320,192,81982,1,0,0:0:0:0:
64,192,82146,1,2,0:0:0:0:
192,192,82146,1,0,0:0:0:0:
64,192,82310,1,0,0:0:0:80:pong2.wav
192,192,82310,1,0,0:0:0:0:
448,192,82310,1,0,0:0:0:0:
320,192,82474,1,0,0:0:0:0:
64,192,82638,1,0,0:0:0:0:
192,192,82802,1,0,0:0:0:0:
320,192,82966,1,2,0:0:0:0:
448,192,82966,1,0,0:0:0:0:
64,192,83130,1,0,0:0:0:0:
192,192,83294,1,0,0:0:0:0:
448,192,83458,1,0,0:0:0:0:
64,192,83622,1,2,0:0:0:0:
320,192,83622,1,0,0:0:0:0:
448,192,83786,1,0,0:0:0:0:
192,192,83949,1,0,0:0:0:0:
320,192,84113,1,0,0:0:0:0:
64,192,84277,1,2,0:0:0:0:
192,192,84277,1,0,0:0:0:0:
448,192,84441,1,0,0:0:0:0:
64,192,84523,1,2,0:0:0:0:
192,192,84523,1,0,0:0:0:0:
320,192,84605,1,0,0:0:0:0:
64,192,84769,1,2,0:0:0:0:
192,192,84769,1,0,0:0:0:0:
64,192,84933,1,0,0:0:0:80:pong2.wav
192,192,84933,1,0,0:0:0:0:
448,192,84933,1,0,0:0:0:0:
320,192,85097,1,0,0:0:0:0:
192,192,85261,1,0,0:0:0:0:
64,192,85425,1,0,0:0:0:0:
320,192,85589,1,2,0:0:0:0:
448,192,85589,1,0,0:0:0:0:
64,192,85753,1,0,0:0:0:0:
192,192,85917,1,0,0:0:0:0:
320,192,86081,1,0,0:0:0:0:
64,192,86245,1,2,0:0:0:0:
448,192,86245,1,0,0:0:0:0:
192,192,86408,1,0,0:0:0:0:
448,192,86572,1,0,0:0:0:0:
320,192,86736,1,0,0:0:0:0:
64,192,86900,1,2,0:0:0:0:
192,192,86900,1,0,0:0:0:0:
320,192,87031,1,0,0:0:0:0:
192,192,87163,1,0,0:0:0:0:
64,192,87294,1,0,0:0:0:0:
320,192,87425,1,2,0:0:0:0:
448,192,87425,1,0,0:0:0:0:
64,192,87556,1,0,0:0:0:80:pong2.wav
320,192,87556,1,0,0:0:0:0:
448,192,87556,1,0,0:0:0:0:
192,192,87687,1,0,0:0:0:0:
448,192,87818,1,0,0:0:0:0:
320,192,87949,1,0,0:0:0:0:
192,192,88081,1,0,0:0:0:0:
64,192,88212,1,2,0:0:0:0:
448,192,88212,1,0,0:0:0:0:
320,192,88343,1,0,0:0:0:0:
64,192,88474,1,0,0:0:0:0:
320,192,88605,1,2,0:0:0:0:
448,192,88605,1,0,0:0:0:0:
320,192,88736,1,2,0:0:0:0:
448,192,88736,1,0,0:0:0:0:
64,192,88868,1,2,0:0:0:0:
192,192,88868,1,0,0:0:0:0:
320,192,88999,1,0,0:0:0:0:
448,192,89130,1,0,0:0:0:0:
64,192,89261,1,2,0:0:0:0:
320,192,89261,1,0,0:0:0:0:
192,192,89392,1,0,0:0:0:0:
64,192,89523,1,2,0:0:0:0:
448,192,89523,1,0,0:0:0:0:
320,192,89654,1,0,0:0:0:0:
64,192,89786,1,0,0:0:0:0:
192,192,89917,1,0,0:0:0:0:
320,192,90048,1,2,0:0:0:0:
448,192,90048,1,0,0:0:0:0:
64,192,90179,1,0,0:0:0:80:pong2.wav
320,192,90179,1,0,0:0:0:0:
448,192,90179,1,0,0:0:0:0:
192,192,90310,1,0,0:0:0:0:
448,192,90441,1,0,0:0:0:0:
320,192,90572,1,0,0:0:0:0:
192,192,90704,1,0,0:0:0:0:
64,192,90835,1,2,0:0:0:0:
320,192,90835,1,0,0:0:0:0:
448,192,90966,1,0,0:0:0:0:
192,192,91097,1,0,0:0:0:0:
320,192,91228,1,2,0:0:0:0:
448,192,91228,1,0,0:0:0:0:
320,192,91359,1,2,0:0:0:0:
448,192,91359,1,0,0:0:0:0:
64,192,91490,1,2,0:0:0:0:
192,192,91490,1,0,0:0:0:0:
448,192,91622,1,0,0:0:0:0:
320,192,91753,1,0,0:0:0:0:
64,192,91884,1,2,0:0:0:0:
192,192,91884,1,0,0:0:0:0:
64,192,92015,1,2,0:0:0:0:
192,192,92015,1,0,0:0:0:0:
320,192,92146,1,2,0:0:0:0:
448,192,92146,1,0,0:0:0:0:
64,192,92255,1,0,0:0:0:0:
192,192,92365,1,0,0:0:0:0:
320,192,92474,1,0,0:0:0:0:
448,192,92583,1,0,0:0:0:0:
64,192,92693,1,2,0:0:0:0:
192,192,92693,1,0,0:0:0:0:
64,192,92802,1,0,0:0:0:80:pong2.wav
192,192,92802,1,0,0:0:0:0:
448,192,92802,1,0,0:0:0:0:
320,192,92911,1,0,0:0:0:0:
64,192,93021,1,0,0:0:0:0:
192,192,93130,1,0,0:0:0:0:
320,192,93239,1,0,0:0:0:0:
448,192,93348,1,0,0:0:0:0:
64,192,93458,1,2,0:0:0:0:
192,192,93458,1,0,0:0:0:0:
448,192,93567,1,0,0:0:0:0:
64,192,93676,1,2,0:0:0:0:
192,192,93676,1,0,0:0:0:0:
320,192,93786,1,0,0:0:0:0:
64,192,93895,1,2,0:0:0:0:
192,192,93895,1,0,0:0:0:0:
320,192,94004,1,0,0:0:0:0:
64,192,94113,1,2,0:0:0:0:
448,192,94113,1,0,0:0:0:0:
192,192,94223,1,0,0:0:0:0:
320,192,94332,1,0,0:0:0:0:
64,192,94441,1,2,0:0:0:0:
192,192,94441,1,0,0:0:0:0:
320,192,94551,1,2,0:0:0:0:
448,192,94551,1,0,0:0:0:0:
64,192,94660,1,0,0:0:0:0:
320,192,94769,1,2,0:0:0:0:
448,192,94769,1,0,0:0:0:0:
192,192,94878,1,0,0:0:0:0:
64,192,94988,1,0,0:0:0:0:
320,192,95097,1,2,0:0:0:0:
448,192,95097,1,0,0:0:0:0:
64,192,95206,1,2,0:0:0:0:
192,192,95206,1,0,0:0:0:0:
320,192,95316,1,2,0:0:0:0:
448,192,95316,1,0,0:0:0:0:
64,192,95425,1,0,0:0:0:80:pong2.wav
192,192,95425,1,0,0:0:0:0:
448,192,95425,1,0,0:0:0:0:
320,192,95534,1,0,0:0:0:0:
64,192,95643,1,0,0:0:0:0:
192,192,95753,1,0,0:0:0:0:
320,192,95862,1,0,0:0:0:0:
448,192,95971,1,0,0:0:0:0:
64,192,96081,1,2,0:0:0:0:
192,192,96081,1,0,0:0:0:0:
448,192,96190,1,0,0:0:0:0:
320,192,96299,1,0,0:0:0:0:
192,192,96408,1,0,0:0:0:0:
320,192,96518,1,2,0:0:0:0:
448,192,96518,1,0,0:0:0:0:
64,192,96627,1,2,0:0:0:0:
192,192,96627,1,0,0:0:0:0:
320,192,96736,1,2,0:0:0:0:
448,192,96736,1,0,0:0:0:0:
64,192,96846,1,0,0:0:0:0:
192,192,96955,1,0,0:0:0:0:
320,192,97064,1,2,0:0:0:0:
448,192,97064,1,0,0:0:0:0:
64,192,97174,1,2,0:0:0:0:
192,192,97174,1,0,0:0:0:0:
320,192,97283,1,2,0:0:0:0:
448,192,97283,1,0,0:0:0:0:
64,192,97392,128,2,97720:0:0:0:0:
192,192,97392,128,0,97720:0:0:0:80:clang.wav
64,192,97829,1,0,0:0:0:80:clang.wav
192,192,97829,1,0,0:0:0:0:
320,192,97939,1,0,0:0:0:80:clang.wav
448,192,97939,1,0,0:0:0:0:
64,192,98048,1,0,0:0:0:80:clang.wav
192,192,98048,1,0,0:0:0:0:
320,192,98157,1,0,0:0:0:80:clang.wav
448,192,98157,1,0,0:0:0:0:
64,192,98266,1,0,0:0:0:80:clang.wav
192,192,98266,1,0,0:0:0:0:
320,192,98376,1,0,0:0:0:80:pong.wav
448,192,98376,1,0,0:0:0:0:
64,192,98704,1,2,0:0:0:0:
448,192,98704,1,0,0:0:0:0:
320,192,98797,1,0,0:0:0:0:
64,192,98891,1,0,0:0:0:0:
192,192,98891,1,0,0:0:0:0:
64,192,98985,1,0,0:0:0:0:
448,192,98985,1,0,0:0:0:0:
320,192,99078,1,0,0:0:0:0:
64,192,99172,1,2,0:0:0:0:
192,192,99172,1,0,0:0:0:0:
320,192,99266,1,2,0:0:0:0:
448,192,99266,1,0,0:0:0:0:
64,192,99359,1,2,0:0:0:0:
192,192,99359,1,0,0:0:0:80:pong2.wav
448,192,99453,1,0,0:0:0:0:
64,192,99547,1,2,0:0:0:0:
320,192,99547,1,0,0:0:0:0:
64,192,99640,1,2,0:0:0:0:
192,192,99640,1,0,0:0:0:0:
448,192,99734,1,0,0:0:0:0:
64,192,99828,1,2,0:0:0:0:
192,192,99828,1,0,0:0:0:0:
320,192,99921,1,2,0:0:0:0:
448,192,99921,1,0,0:0:0:0:
64,192,100015,1,2,0:0:0:0:
192,192,100015,1,0,0:0:0:0:
448,192,100109,1,2,0:0:0:0:
192,192,100202,1,2,0:0:0:0:
320,192,100202,1,0,0:0:0:0:
64,192,100296,1,2,0:0:0:0:
320,192,100390,1,2,0:0:0:0:
448,192,100390,1,0,0:0:0:0:
192,192,100483,1,0,0:0:0:0:
64,192,100577,1,2,0:0:0:0:
320,192,100577,1,0,0:0:0:0:
64,192,100671,1,2,0:0:0:0:
448,192,100671,1,0,0:0:0:0:
320,192,100764,1,0,0:0:0:0:
64,192,100858,1,2,0:0:0:0:
192,192,100858,1,0,0:0:0:0:
320,192,100952,1,2,0:0:0:0:
448,192,100952,1,0,0:0:0:0:
64,192,101046,1,2,0:0:0:0:
192,192,101046,1,0,0:0:0:0:
448,192,101139,1,0,0:0:0:0:
64,192,101233,1,2,0:0:0:0:
320,192,101233,1,0,0:0:0:0:
64,192,101327,1,2,0:0:0:0:
192,192,101327,1,0,0:0:0:0:
320,192,101420,1,0,0:0:0:0:
192,192,101514,1,2,0:0:0:0:
448,192,101514,1,0,0:0:0:0:
64,192,101608,1,0,0:0:0:0:
320,192,101701,1,2,0:0:0:0:
448,192,101701,1,0,0:0:0:0:
192,192,101795,1,0,0:0:0:0:
64,192,101889,1,2,0:0:0:0:
448,192,101889,1,0,0:0:0:0:
320,192,101982,1,2,0:0:0:0:
64,192,102076,1,2,0:0:0:0:
192,192,102076,1,0,0:0:0:0:
448,192,102170,1,2,0:0:0:0:
64,192,102263,1,2,0:0:0:0:
192,192,102263,1,0,0:0:0:0:
320,192,102357,1,2,0:0:0:0:
64,192,102451,1,2,0:0:0:0:
448,192,102451,1,0,0:0:0:0:
192,192,102544,1,2,0:0:0:0:
320,192,102638,1,2,0:0:0:0:
448,192,102638,1,0,0:0:0:0:
64,192,102732,1,2,0:0:0:0:
320,192,102825,1,2,0:0:0:0:
448,192,102825,1,0,0:0:0:0:
192,192,102872,1,2,0:0:0:0:
64,192,102919,1,2,0:0:0:0:
448,192,102919,1,0,0:0:0:0:
320,192,103013,1,2,0:0:0:0:
64,192,103106,1,2,0:0:0:0:
192,192,103106,1,0,0:0:0:0:
320,192,103200,1,2,0:0:0:0:
64,192,103294,1,2,0:0:0:0:
448,192,103294,1,0,0:0:0:0:
192,192,103387,1,2,0:0:0:0:
320,192,103481,1,2,0:0:0:0:
448,192,103481,1,0,0:0:0:0:
192,192,103528,1,2,0:0:0:0:
64,192,103575,1,2,0:0:0:0:
448,192,103575,1,0,0:0:0:0:
320,192,103668,1,0,0:0:0:0:
192,192,103762,1,0,0:0:0:0:
64,192,103856,1,0,0:0:0:0:
320,192,103949,1,2,0:0:0:0:
448,192,103949,1,0,0:0:0:0:
192,192,104031,1,0,0:0:0:50:soft-hitwhistle.wav
64,192,104113,1,0,0:0:0:50:soft-hitwhistle.wav
320,192,104113,1,0,0:0:0:0:
192,192,104195,1,0,0:0:0:50:soft-hitwhistle.wav
64,192,104277,1,0,0:0:0:80:pong.wav
448,192,104277,1,0,0:0:0:0:
320,192,104359,1,0,0:0:0:0:
64,192,104441,1,2,0:0:0:0:
192,192,104441,1,0,0:0:0:0:
320,192,104523,1,0,0:0:0:50:soft-hitwhistle.wav
448,192,104523,1,0,0:0:0:0:
64,192,104605,1,0,0:0:0:50:soft-hitwhistle.wav
192,192,104605,1,0,0:0:0:0:
320,192,104687,1,0,0:0:0:50:soft-hitwhistle.wav
192,192,104769,1,0,0:0:0:50:soft-hitwhistle.wav
448,192,104769,1,0,0:0:0:0:
64,192,104851,1,0,0:0:0:50:soft-hitwhistle.wav
320,192,104933,1,0,0:0:0:80:pong.wav
448,192,104933,1,0,0:0:0:0:
64,192,105015,1,0,0:0:0:50:soft-hitwhistle.wav
192,192,105015,1,0,0:0:0:0:
320,192,105097,1,0,0:0:0:0:
64,192,105179,1,0,0:0:0:50:soft-hitwhistle.wav
192,192,105179,1,0,0:0:0:0:
320,192,105261,1,2,0:0:0:0:
448,192,105261,1,0,0:0:0:0:
64,192,105343,1,0,0:0:0:50:soft-hitwhistle.wav
192,192,105425,1,0,0:0:0:50:soft-hitwhistle.wav
448,192,105425,1,0,0:0:0:0:
320,192,105507,1,0,0:0:0:50:soft-hitwhistle.wav
64,192,105589,1,0,0:0:0:80:pong.wav
192,192,105589,1,0,0:0:0:0:
320,192,105671,1,0,0:0:0:50:soft-hitwhistle.wav
64,192,105753,1,0,0:0:0:50:soft-hitwhistle.wav
448,192,105753,1,0,0:0:0:0:
192,192,105835,1,0,0:0:0:0:
64,192,105917,1,2,0:0:0:0:
448,192,105917,1,0,0:0:0:0:
320,192,105999,1,0,0:0:0:0:
192,192,106081,128,2,106245:0:0:0:0:
64,192,106163,128,0,106245:0:0:0:0:
320,192,106245,1,0,0:0:0:80:pong.wav
448,192,106245,1,0,0:0:0:0:
192,192,106327,1,0,0:0:0:0:
64,192,106408,1,0,0:0:0:0:
448,192,106408,128,0,106572:0:0:0:0:
320,192,106490,1,0,0:0:0:0:
64,192,106572,128,2,106736:0:0:0:0:
192,192,106572,1,0,0:0:0:0:
320,192,106654,1,0,0:0:0:0:
192,192,106736,1,2,0:0:0:0:
448,192,106736,1,0,0:0:0:0:
64,192,106818,1,0,0:0:0:50:soft-hitwhistle.wav
320,192,106818,1,0,0:0:0:0:
192,192,106900,1,0,0:0:0:80:pong.wav
448,192,106900,1,0,0:0:0:0:
64,192,106982,1,0,0:0:0:0:
320,192,107064,1,2,0:0:0:50:soft-hitwhistle.wav
448,192,107064,1,0,0:0:0:0:
192,192,107146,1,0,0:0:0:50:soft-hitwhistle.wav
64,192,107228,1,2,0:0:0:0:
448,192,107228,1,0,0:0:0:0:
192,192,107310,1,2,0:0:0:0:
320,192,107310,1,0,0:0:0:0:
64,192,107392,1,2,0:0:0:0:
448,192,107392,1,0,0:0:0:0:
192,192,107474,1,2,0:0:0:0:
320,192,107474,1,0,0:0:0:0:
64,192,107556,128,0,107720:0:0:0:80:pong.wav
448,192,107638,128,0,107720:0:0:0:0:
192,192,107720,1,0,0:0:0:50:soft-hitwhistle.wav
320,192,107802,1,0,0:0:0:50:soft-hitwhistle.wav
64,192,107884,1,2,0:0:0:0:
448,192,107884,128,0,108048:0:0:0:0:
192,192,107966,1,0,0:0:0:0:
64,192,108048,1,2,0:0:0:0:
320,192,108048,1,0,0:0:0:0:
448,192,108130,1,2,0:0:0:0:
64,192,108212,128,2,108376:0:0:0:0:
320,192,108212,1,0,0:0:0:0:
192,192,108294,1,0,0:0:0:0:
320,192,108376,1,2,0:0:0:0:
448,192,108376,1,0,0:0:0:0:
192,192,108458,1,2,0:0:0:0:
64,192,108540,1,2,0:0:0:0:
448,192,108540,128,0,108622:0:0:0:0:
192,192,108622,1,0,0:0:0:0:
320,192,108704,1,2,0:0:0:0:
448,192,108704,128,0,108786:0:0:0:0:
192,192,108786,1,0,0:0:0:0:
64,192,108868,1,2,0:0:0:0:
448,192,108868,1,0,0:0:0:80:pong.wav
320,192,108908,1,0,0:0:0:0:
192,192,108949,1,0,0:0:0:0:
64,192,108990,1,0,0:0:0:0:
448,192,109031,1,0,0:0:0:0:
320,192,109072,1,0,0:0:0:0:
192,192,109113,1,0,0:0:0:0:
64,192,109154,1,0,0:0:0:0:
320,192,109195,1,0,0:0:0:80:clang.wav
448,192,109195,128,0,109687:0:0:0:0:
64,192,109687,128,0,109851:0:0:0:80:clang.wav
320,192,109851,128,0,110179:0:0:0:80:clang.wav
192,192,110179,128,0,110507:0:0:0:80:clang.wav
448,192,110507,128,0,110671:0:0:0:80:clang.wav
64,192,110671,1,0,0:0:0:0:
64,192,110835,1,0,0:0:0:0:
448,192,110835,1,0,0:0:0:0:
64,192,110999,1,0,0:0:0:0:
448,192,110999,1,0,0:0:0:0:
64,192,111163,1,2,0:0:0:0:
320,192,111163,1,0,0:0:0:0:
448,192,111163,1,0,0:0:0:0:
64,192,111327,1,2,0:0:0:0:
320,192,111327,1,0,0:0:0:0:
448,192,111327,1,0,0:0:0:0:
64,192,111490,1,2,0:0:0:0:
192,192,111490,1,0,0:0:0:0:
448,192,111490,1,0,0:0:0:0:
64,192,111654,1,2,0:0:0:0:
192,192,111654,1,4,0:0:0:0:
320,192,111654,128,0,111982:0:0:0:0:
448,192,111654,1,0,0:0:0:0:
64,192,111982,1,0,0:0:0:0:
320,192,112146,1,0,0:0:0:80:clang.wav
448,192,112146,1,0,0:0:0:0:
64,192,112310,1,0,0:0:0:0:
192,192,112474,1,2,0:0:0:0:
320,192,112474,1,0,0:0:0:0:
64,192,112638,1,0,0:0:0:0:
320,192,112802,1,0,0:0:0:80:clang.wav
448,192,112802,1,0,0:0:0:0:
64,192,112966,1,0,0:0:0:0:
192,192,113130,1,2,0:0:0:0:
320,192,113130,1,0,0:0:0:0:
64,192,113294,1,0,0:0:0:0:
320,192,113458,1,0,0:0:0:80:clang.wav
448,192,113458,1,0,0:0:0:0:
192,192,113622,1,0,0:0:0:0:
64,192,113786,1,2,0:0:0:0:
320,192,113786,1,0,0:0:0:80:clang.wav
64,192,113949,1,0,0:0:0:80:clang.wav
64,192,114113,1,0,0:0:0:80:clang.wav
320,192,114277,1,2,0:0:0:0:
448,192,114277,128,0,114605:0:0:0:0:
64,192,114605,1,0,0:0:0:0:
192,192,114769,1,0,0:0:0:80:clang.wav
448,192,114769,1,0,0:0:0:0:
320,192,114933,1,0,0:0:0:0:
64,192,115097,1,2,0:0:0:0:
192,192,115097,1,0,0:0:0:80:pong.wav
320,192,116274,1,0,0:0:0:0:
192,192,116796,1,0,0:0:0:0:
320,192,117171,1,0,0:0:0:0:
192,192,117546,1,0,0:0:0:50:soft-hitwhistle.wav
192,192,117699,1,0,0:0:0:50:soft-hitwhistle.wav
64,192,117853,1,0,0:0:0:50:pong.wav
448,192,117853,1,0,0:0:0:0:
320,192,118084,1,0,0:0:0:50:pong.wav
448,192,118161,1,0,0:0:0:0:
192,192,118229,1,0,0:0:0:50:pong.wav
64,192,118297,1,0,0:0:0:50:soft-hitwhistle.wav
320,192,118433,1,0,0:0:0:50:soft-hitwhistle.wav
64,192,118570,1,0,0:0:0:50:pong.wav
448,192,118570,1,0,0:0:0:0:
192,192,118706,1,2,0:0:0:0:
320,192,118706,1,0,0:0:0:0:
192,192,118833,1,2,0:0:0:0:
320,192,118833,1,0,0:0:0:0:
64,192,118961,1,0,0:0:0:80:pong.wav
448,192,118961,1,0,0:0:0:0:
320,192,119088,1,0,0:0:0:0:
64,192,119216,1,2,0:0:0:0:
192,192,119216,1,0,0:0:0:0:
448,192,119216,1,0,0:0:0:0:
64,192,119333,1,2,0:0:0:0:
320,192,119333,1,0,0:0:0:0:
448,192,119333,1,0,0:0:0:0:
64,192,119451,1,2,0:0:0:0:
192,192,119451,1,0,0:0:0:0:
448,192,119451,1,0,0:0:0:0:
64,192,119568,1,2,0:0:0:0:
192,192,119568,1,4,0:0:0:0:
320,192,119568,128,0,119795:0:0:0:0:
448,192,119568,128,0,119795:0:0:0:0:
64,192,119795,1,0,0:0:0:0:
192,192,119795,1,0,0:0:0:0:
64,192,119904,1,2,0:0:0:0:
448,192,119904,1,0,0:0:0:80:pong.wav
192,192,120013,1,0,0:0:0:0:
448,192,120013,1,0,0:0:0:0:
64,192,120122,1,2,0:0:0:0:
320,192,120122,1,0,0:0:0:80:pong.wav
64,192,120231,1,0,0:0:0:0:
448,192,120231,1,0,0:0:0:0:
192,192,120340,1,2,0:0:0:0:
448,192,120340,1,0,0:0:0:80:pong.wav
64,192,120449,1,0,0:0:0:0:
320,192,120449,1,0,0:0:0:0:
64,192,120558,1,2,0:0:0:0:
448,192,120558,1,0,0:0:0:80:pong.wav
192,192,120667,1,0,0:0:0:0:
448,192,120667,1,0,0:0:0:0:
64,192,120776,1,2,0:0:0:0:
320,192,120776,1,0,0:0:0:80:pong.wav
64,192,120886,1,0,0:0:0:0:
448,192,120886,1,0,0:0:0:0:
192,192,120995,1,2,0:0:0:0:
448,192,120995,1,8,0:0:0:80:pong.wav
64,192,121104,1,2,0:0:0:0:
320,192,121104,1,0,0:0:0:80:pong.wav
192,192,121213,1,2,0:0:0:0:
448,192,121213,1,0,0:0:0:80:pong.wav
64,192,121322,128,2,121540:0:0:0:0:
320,192,121322,128,0,121540:0:0:0:80:pong.wav
192,192,121540,1,0,0:0:0:0:
448,192,121540,1,0,0:0:0:0:
64,192,121649,1,2,0:0:0:0:
448,192,121649,1,0,0:0:0:0:
64,192,121758,1,0,0:0:0:0:
192,192,121758,1,0,0:0:0:0:
320,192,121867,1,2,0:0:0:0:
448,192,121867,1,0,0:0:0:80:pong.wav
192,192,121976,1,0,0:0:0:0:
448,192,121976,1,0,0:0:0:0:
64,192,122086,1,2,0:0:0:0:
320,192,122086,1,0,0:0:0:0:
64,192,122195,1,0,0:0:0:0:
192,192,122195,1,0,0:0:0:0:
320,192,122304,1,2,0:0:0:0:
448,192,122304,1,0,0:0:0:0:
64,192,122413,1,0,0:0:0:0:
448,192,122413,1,0,0:0:0:0:
64,192,122522,1,2,0:0:0:0:
192,192,122522,1,0,0:0:0:0:
320,192,122631,1,2,0:0:0:0:
448,192,122631,1,0,0:0:0:0:
192,192,122686,1,2,0:0:0:0:
64,192,122740,1,2,0:0:0:0:
448,192,122740,1,0,0:0:0:80:pong.wav
192,192,122849,1,2,0:0:0:0:
320,192,122849,1,0,0:0:0:0:
64,192,122958,1,2,0:0:0:0:
448,192,122958,1,0,0:0:0:0:
64,192,123067,1,2,0:0:0:0:
192,192,123067,1,4,0:0:0:0:
320,192,123067,128,0,123286:0:0:0:0:
448,192,123067,128,0,123286:0:0:0:0:
64,192,123286,1,0,0:0:0:0:
192,192,123286,1,0,0:0:0:0:
64,192,123395,1,2,0:0:0:0:
448,192,123395,1,0,0:0:0:0:
192,192,123504,1,0,0:0:0:0:
320,192,123504,1,0,0:0:0:0:
192,192,123613,1,2,0:0:0:0:
448,192,123613,1,0,0:0:0:80:pong.wav
64,192,123722,1,0,0:0:0:0:
320,192,123722,1,0,0:0:0:0:
192,192,123831,1,2,0:0:0:0:
320,192,123831,1,0,0:0:0:0:
64,192,123940,1,0,0:0:0:0:
448,192,123940,1,0,0:0:0:0:
192,192,124049,1,2,0:0:0:0:
448,192,124049,1,0,0:0:0:0:
320,192,124158,1,0,0:0:0:0:
64,192,124267,1,2,0:0:0:0:
192,192,124267,1,0,0:0:0:0:
192,192,124376,1,0,0:0:0:0:
320,192,124376,1,0,0:0:0:0:
320,192,124486,1,2,0:0:0:0:
448,192,124486,1,0,0:0:0:80:pong.wav
64,192,124595,1,0,0:0:0:0:
192,192,124595,1,0,0:0:0:0:
320,192,124704,1,2,0:0:0:0:
448,192,124704,1,0,0:0:0:0:
64,192,124813,128,2,125031:0:0:0:0:
192,192,124813,128,0,125031:0:0:0:0:
320,192,125031,1,2,0:0:0:0:
448,192,125031,1,0,0:0:0:0:
64,192,125140,1,2,0:0:0:0:
448,192,125140,1,0,0:0:0:0:
64,192,125249,1,0,0:0:0:0:
320,192,125249,1,0,0:0:0:0:
320,192,125358,1,2,0:0:0:0:
448,192,125358,1,0,0:0:0:80:pong.wav
64,192,125467,1,2,0:0:0:0:
192,192,125467,1,0,0:0:0:0:
192,192,125576,1,2,0:0:0:0:
320,192,125576,1,0,0:0:0:0:
320,192,125686,1,2,0:0:0:0:
448,192,125686,1,0,0:0:0:0:
64,192,125795,1,2,0:0:0:0:
192,192,125795,1,0,0:0:0:0:
64,192,125895,1,2,0:0:0:0:
192,192,125895,1,0,0:0:0:0:
320,192,125995,1,2,0:0:0:0:
448,192,125995,1,0,0:0:0:0:
320,192,126095,1,2,0:0:0:0:
448,192,126095,1,0,0:0:0:0:
64,192,126195,1,2,0:0:0:0:
192,192,126195,1,0,0:0:0:0:
320,192,126295,1,2,0:0:0:0:
448,192,126295,1,0,0:0:0:0:
64,192,126395,1,2,0:0:0:0:
192,192,126395,1,0,0:0:0:0:
64,192,126495,128,2,126690:0:0:0:0:
192,192,126495,1,4,0:0:0:0:
320,192,126495,1,0,0:0:0:0:
448,192,126495,1,0,0:0:0:0:
320,192,126690,1,2,0:0:0:0:
448,192,126690,1,0,0:0:0:0:
192,192,126737,1,2,0:0:0:0:
64,192,126785,1,2,0:0:0:0:
448,192,126785,1,0,0:0:0:80:pong.wav
64,192,126880,1,2,0:0:0:0:
320,192,126880,1,0,0:0:0:0:
192,192,126975,1,2,0:0:0:0:
448,192,126975,1,0,0:0:0:80:pong.wav
64,192,127071,1,2,0:0:0:0:
448,192,127071,1,0,0:0:0:0:
64,192,127166,1,2,0:0:0:0:
320,192,127166,1,0,0:0:0:80:pong.wav
192,192,127261,1,2,0:0:0:0:
448,192,127261,1,0,0:0:0:0:
64,192,127356,1,2,0:0:0:0:
448,192,127356,1,0,0:0:0:80:pong.wav
64,192,127452,1,2,0:0:0:0:
320,192,127452,1,0,0:0:0:0:
192,192,127547,1,2,0:0:0:0:
448,192,127547,1,0,0:0:0:80:pong.wav
64,192,127642,1,2,0:0:0:0:
448,192,127642,1,0,0:0:0:0:
64,192,127737,1,2,0:0:0:0:
192,192,127737,1,0,0:0:0:80:pong.wav
320,192,127833,1,2,0:0:0:0:
448,192,127833,1,0,0:0:0:80:pong.wav
64,192,127928,1,2,0:0:0:0:
192,192,127928,1,0,0:0:0:80:pong.wav
320,192,128023,1,2,0:0:0:0:
448,192,128023,128,0,128214:0:0:0:80:pong.wav
64,192,128214,1,2,0:0:0:0:
192,192,128214,1,0,0:0:0:0:
320,192,128261,1,2,0:0:0:0:
64,192,128309,1,2,0:0:0:0:
448,192,128309,1,0,0:0:0:0:
192,192,128404,1,2,0:0:0:0:
320,192,128404,1,0,0:0:0:0:
64,192,128499,1,2,0:0:0:0:
448,192,128499,1,0,0:0:0:80:pong.wav
192,192,128595,1,2,0:0:0:0:
448,192,128595,1,0,0:0:0:0:
320,192,128642,1,2,0:0:0:0:
64,192,128690,1,2,0:0:0:0:
192,192,128690,1,0,0:0:0:0:
320,192,128785,1,2,0:0:0:0:
448,192,128785,1,0,0:0:0:0:
64,192,128880,1,2,0:0:0:0:
192,192,128880,1,0,0:0:0:0:
64,192,128975,1,2,0:0:0:0:
448,192,128975,1,0,0:0:0:0:
320,192,129023,1,2,0:0:0:0:
192,192,129071,1,2,0:0:0:0:
320,192,129166,1,2,0:0:0:0:
192,192,129214,1,2,0:0:0:0:
64,192,129261,1,2,0:0:0:0:
448,192,129261,1,0,0:0:0:80:pong.wav
192,192,129356,1,2,0:0:0:0:
320,192,129356,1,0,0:0:0:0:
64,192,129452,1,2,0:0:0:0:
448,192,129452,1,0,0:0:0:0:
64,192,129547,128,2,129737:0:0:0:0:
192,192,129547,128,4,129737:0:0:0:0:
320,192,129547,1,0,0:0:0:0:
448,192,129547,1,0,0:0:0:0:
320,192,129737,128,2,129833:0:0:0:0:
448,192,129737,128,0,129833:0:0:0:0:
64,192,129833,1,2,0:0:0:0:
192,192,129833,1,0,0:0:0:0:
192,192,129928,1,2,0:0:0:0:
320,192,129928,1,0,0:0:0:0:
64,192,130023,1,2,0:0:0:0:
448,192,130023,1,0,0:0:0:80:pong.wav
192,192,130118,1,2,0:0:0:0:
448,192,130118,1,0,0:0:0:0:
64,192,130214,1,2,0:0:0:0:
320,192,130214,1,0,0:0:0:0:
64,192,130309,1,2,0:0:0:0:
448,192,130309,1,0,0:0:0:0:
192,192,130404,1,2,0:0:0:0:
320,192,130404,1,0,0:0:0:0:
64,192,130499,1,2,0:0:0:0:
448,192,130499,1,0,0:0:0:0:
320,192,130547,1,2,0:0:0:0:
64,192,130594,1,2,0:0:0:0:
192,192,130594,1,0,0:0:0:0:
320,192,130690,1,2,0:0:0:0:
448,192,130690,1,0,0:0:0:0:
64,192,130785,1,2,0:0:0:0:
448,192,130785,1,0,0:0:0:80:pong.wav
320,192,130833,1,2,0:0:0:50:soft-hitwhistle.wav
192,192,130880,1,2,0:0:0:50:soft-hitwhistle.wav
64,192,130928,1,2,0:0:0:50:soft-hitwhistle.wav
320,192,130975,1,2,0:0:0:0:
448,192,130975,1,0,0:0:0:0:
64,192,131071,1,2,0:0:0:0:
192,192,131071,1,0,0:0:0:0:
192,192,131166,1,2,0:0:0:0:
448,192,131166,1,0,0:0:0:0:
64,192,131261,128,2,131356:0:0:0:0:
320,192,131261,1,0,0:0:0:0:
192,192,131356,1,2,0:0:0:0:
448,192,131356,1,0,0:0:0:0:
64,192,131452,128,2,131547:0:0:0:0:
320,192,131452,1,0,0:0:0:0:
320,192,131547,1,2,0:0:0:0:
448,192,131547,1,0,0:0:0:80:pong.wav
192,192,131595,1,0,0:0:0:50:soft-hitwhistle.wav
64,192,131642,1,0,0:0:0:50:soft-hitwhistle.wav
448,192,131642,1,0,0:0:0:0:
320,192,131690,1,0,0:0:0:50:soft-hitwhistle.wav
64,192,131737,1,2,0:0:0:0:
192,192,131737,1,0,0:0:0:0:
320,192,131785,1,0,0:0:0:50:soft-hitwhistle.wav
64,192,131833,1,0,0:0:0:50:soft-hitwhistle.wav
448,192,131833,1,0,0:0:0:0:
192,192,131880,1,0,0:0:0:50:soft-hitwhistle.wav
320,192,131928,1,2,0:0:0:0:
448,192,131928,1,0,0:0:0:0:
64,192,132023,1,2,0:0:0:0:
192,192,132023,1,0,0:0:0:0:
320,192,132118,1,2,0:0:0:0:
448,192,132118,1,0,0:0:0:0:
192,192,132214,1,2,0:0:0:0:
320,192,132214,1,0,0:0:0:0:
64,192,132309,1,2,0:0:0:0:
192,192,132309,1,0,0:0:0:0:
64,192,132472,1,0,0:0:0:80:clang.wav
320,192,132472,1,0,0:0:0:0:
192,192,132677,1,0,0:0:0:80:clang.wav
448,192,132677,1,0,0:0:0:0:
64,192,132907,1,2,0:0:0:0:
192,192,132907,1,4,0:0:0:0:
448,192,132907,1,0,0:0:0:0:
192,192,133150,1,0,0:0:0:80:clang.wav
448,192,133150,1,0,0:0:0:0:
64,192,133393,1,0,0:0:0:80:clang.wav
320,192,133393,1,0,0:0:0:0:
64,192,133555,1,2,0:0:0:0:
320,192,133555,1,4,0:0:0:0:
448,192,133555,1,0,0:0:0:0:
64,192,133764,1,0,0:0:0:80:clang.wav
320,192,133764,1,0,0:0:0:0:
192,192,133973,1,0,0:0:0:80:clang.wav
448,192,133973,1,0,0:0:0:0:
64,192,134113,1,2,0:0:0:0:
192,192,134113,1,4,0:0:0:0:
448,192,134113,1,0,0:0:0:0:
192,192,134308,1,0,0:0:0:80:clang.wav
448,192,134308,1,0,0:0:0:0:
64,192,134504,1,0,0:0:0:80:clang.wav
320,192,134504,1,0,0:0:0:0:
64,192,134634,1,2,0:0:0:0:
320,192,134634,1,4,0:0:0:0:
448,192,134634,1,0,0:0:0:0:
64,192,134814,1,0,0:0:0:80:clang.wav
320,192,134814,1,0,0:0:0:0:
192,192,134994,1,0,0:0:0:80:clang.wav
448,192,134994,1,0,0:0:0:0:
64,192,135114,1,2,0:0:0:0:
192,192,135114,1,4,0:0:0:0:
448,192,135114,1,0,0:0:0:0:
192,192,135280,1,0,0:0:0:80:clang.wav
448,192,135280,1,0,0:0:0:0:
64,192,135447,1,0,0:0:0:80:clang.wav
320,192,135447,1,0,0:0:0:0:
64,192,135558,1,2,0:0:0:0:
320,192,135558,1,4,0:0:0:0:
448,192,135558,1,0,0:0:0:0:
64,192,135715,1,0,0:0:0:80:clang.wav
320,192,135715,1,0,0:0:0:0:
192,192,135873,1,0,0:0:0:80:clang.wav
448,192,135873,1,0,0:0:0:0:
64,192,135979,1,2,0:0:0:0:
448,192,135979,1,4,0:0:0:0:
192,192,136079,1,2,0:0:0:0:
320,192,136079,1,0,0:0:0:0:
64,192,136179,1,2,0:0:0:0:
448,192,136179,1,0,0:0:0:0:
192,192,136279,1,2,0:0:0:0:
320,192,136279,1,0,0:0:0:0:
64,192,136379,1,2,0:0:0:0:
448,192,136379,1,0,0:0:0:0:
192,192,136426,1,0,0:0:0:50:soft-hitwhistle.wav
320,192,136474,1,0,0:0:0:50:soft-hitwhistle.wav
448,192,136521,1,0,0:0:0:50:soft-hitwhistle.wav
64,192,136569,1,2,0:0:0:0:
192,192,136617,1,0,0:0:0:50:soft-hitwhistle.wav
320,192,136664,1,0,0:0:0:50:soft-hitwhistle.wav
64,192,136712,128,2,139712:0:0:0:0:
448,192,136712,128,0,139712:0:0:0:0:
192,192,139712,1,4,0:0:0:0:
320,192,139712,1,0,0:0:0:80:pong2.wav
