osu file format v14

[General]
AudioFilename: audio.mp3
AudioLeadIn: 0
PreviewTime: 56224
Countdown: 0
SampleSet: Soft
StackLeniency: 0.7
Mode: 3
LetterboxInBreaks: 0
SpecialStyle: 0
WidescreenStoryboard: 1

[Editor]
DistanceSpacing: 1.3
BeatDivisor: 4
GridSize: 4
TimelineZoom: 1.9

[Metadata]
Title:Take
TitleUnicode:竹
Artist:Risshuu feat. Choko
ArtistUnicode:立秋 feat. ちょこ
Creator:LNP-
Version:Beginning
Source:Arcaea
Tags:the bms of fighter xvi bofxvi novelty video game japanese muse dash instrumental electronic bamboo
BeatmapID:2847101
BeatmapSetID:1377628

[Difficulty]
HPDrainRate:7
CircleSize:4
OverallDifficulty:7
ApproachRate:5
SliderMultiplier:1.4
SliderTickRate:1

[Events]
//Background and Video events
0,0,"bg.png",0,0
Video,0,"bga.mp4"
//Break Periods
//Storyboard Layer 0 (Background)
//Storyboard Layer 1 (Fail)
//Storyboard Layer 2 (Pass)
//Storyboard Layer 3 (Foreground)
//Storyboard Layer 4 (Overlay)
//Storyboard Sound Samples
Sample,15745,0,"pong.wav",80
Sample,16019,0,"pong.wav",80
Sample,16293,0,"pong.wav",80
Sample,16567,0,"pong.wav",80
Sample,16841,0,"pong.wav",80
Sample,17115,0,"pong.wav",80
Sample,17389,0,"pong.wav",80
Sample,17526,0,"pong.wav",80
Sample,18211,0,"pong.wav",80
Sample,19307,0,"pong.wav",80
Sample,20403,0,"pong.wav",80
Sample,20951,0,"pong.wav",80
Sample,21225,0,"pong.wav",80
Sample,21499,0,"pong.wav",80
Sample,22321,0,"pong.wav",80
Sample,30159,0,"clang.wav",80
Sample,31082,0,"clang.wav",80
Sample,32005,0,"clang.wav",80
Sample,32928,0,"clang.wav",80
Sample,34273,0,"clang.wav",80
Sample,35118,0,"clang.wav",80
Sample,35963,0,"clang.wav",80
Sample,36808,0,"clang.wav",80
Sample,38040,0,"clang.wav",80
Sample,38814,0,"clang.wav",80
Sample,39588,0,"clang.wav",80
Sample,40362,0,"clang.wav",80
Sample,41499,0,"clang.wav",80
Sample,42226,0,"clang.wav",80
Sample,42934,0,"clang.wav",80
Sample,43624,0,"clang.wav",80
Sample,46609,0,"pong2.wav",80
Sample,49089,0,"pong2.wav",80
Sample,50297,0,"pong2.wav",80
Sample,51475,0,"pong2.wav",80
Sample,56633,0,"pong.wav",80
Sample,56907,0,"pong.wav",80
Sample,57181,0,"pong.wav",80
Sample,57455,0,"pong.wav",80
Sample,57729,0,"pong.wav",80
Sample,58003,0,"pong.wav",80
Sample,58277,0,"pong.wav",80
Sample,58414,0,"pong.wav",80
Sample,59099,0,"pong.wav",80
Sample,60195,0,"pong.wav",80
Sample,61291,0,"pong.wav",80
Sample,61839,0,"pong.wav",80
Sample,62113,0,"pong.wav",80
Sample,62387,0,"pong.wav",80
Sample,63483,0,"pong.wav",80
Sample,65401,0,"pong.wav",80
Sample,65675,0,"pong.wav",80
Sample,65949,0,"pong.wav",80
Sample,66223,0,"pong.wav",80
Sample,66496,0,"pong.wav",80
Sample,66770,0,"pong.wav",80
Sample,67044,0,"pong.wav",80
Sample,67181,0,"pong.wav",80
Sample,67866,0,"pong.wav",80
Sample,68962,0,"pong.wav",80
Sample,70058,0,"pong.wav",80
Sample,70606,0,"pong.wav",80
Sample,70880,0,"pong.wav",80
Sample,71154,0,"pong.wav",80
Sample,72250,0,"pong.wav",80
Sample,73346,0,"clang.wav",80
Sample,99359,0,"pong2.wav",80
Sample,101982,0,"pong2.wav",80
Sample,108868,0,"pong.wav",80
Sample,113786,0,"clang.wav",80
Sample,119904,0,"pong.wav",80
Sample,120122,0,"pong.wav",80
Sample,120340,0,"pong.wav",80
Sample,120558,0,"pong.wav",80
Sample,120776,0,"pong.wav",80
Sample,120995,0,"pong.wav",80
Sample,121213,0,"pong.wav",80
Sample,121322,0,"pong.wav",80
Sample,121867,0,"pong.wav",80
Sample,122740,0,"pong.wav",80
Sample,123613,0,"pong.wav",80
Sample,124486,0,"pong.wav",80
Sample,125358,0,"pong.wav",80
Sample,126785,0,"pong.wav",80
Sample,126975,0,"pong.wav",80
Sample,127166,0,"pong.wav",80
Sample,127356,0,"pong.wav",80
Sample,127547,0,"pong.wav",80
Sample,127737,0,"pong.wav",80
Sample,127928,0,"pong.wav",80
Sample,128023,0,"pong.wav",80
Sample,128499,0,"pong.wav",80
Sample,129261,0,"pong.wav",80
Sample,130023,0,"pong.wav",80
Sample,130785,0,"pong.wav",80
Sample,131547,0,"pong.wav",80

[TimingPoints]
1680,400,4,2,1,70,1,0
1680,-81.9672131147541,4,2,1,70,0,0
4880,400,5,2,1,70,1,0
4880,-81.9672131147541,5,2,1,70,0,0
6880,400,4,2,1,70,1,0
6880,-81.9672131147541,4,2,1,70,0,0
13280,273.972602739726,4,2,1,70,1,8
13280,-119.047619047619,4,2,1,70,0,8
15334,-119.047619047619,4,2,1,70,0,9
23690,-119.047619047619,4,2,1,70,0,8
24238,333.333333333333,4,2,1,70,1,0
24238,-98.0392156862745,4,2,1,70,0,0
29237,461.538461538462,4,2,1,70,1,8
29237,-70.9219858156028,4,2,1,70,0,8
29698,461.538461538462,4,2,1,70,1,0
29698,-70.9219858156028,4,2,1,70,0,0
33851,422.535211267606,4,2,1,70,1,0
33851,-77.5193798449612,4,2,1,70,0,0
37653,387.096774193548,4,2,1,70,1,0
37653,-84.7457627118644,4,2,1,70,0,0
41136,363.636363636364,4,2,1,70,1,0
41136,-90.0900900900901,4,2,1,70,0,0
42590,344.827586206897,4,2,1,70,1,0
42590,-95.2380952380952,4,2,1,70,0,0
44314,327.868852459016,4,2,1,70,1,0
44314,-100,4,2,1,70,0,0
46936,307.692307692308,4,2,1,70,1,0
46936,-106.382978723404,4,2,1,70,0,0
49397,300,4,2,1,70,1,0
49397,-108.695652173913,4,2,1,70,0,0
50597,292.682926829268,4,2,1,70,1,0
50597,-112.359550561798,4,2,1,70,0,0
51767,279.06976744186,4,2,1,70,1,0
51767,-117.647058823529,4,2,1,70,0,0
52883,273.972602739726,4,2,1,70,1,0
52883,-119.047619047619,4,2,1,70,0,0
53978,307.692307692308,4,2,1,70,1,0
53978,-106.382978723404,4,2,1,70,0,0
54583,307.692307692308,4,2,1,70,1,0
54583,-106.382978723404,4,2,1,70,0,0
55814,273.972602739726,4,2,1,70,1,0
55814,-119.047619047619,4,2,1,70,0,0
56224,-119.047619047619,4,2,1,70,0,1
56360,273.972602739726,4,2,1,70,1,0
56360,-119.047619047619,4,2,1,70,0,1
73346,-119.047619047619,4,2,1,70,0,0
73895,276.497695852535,4,2,1,70,1,0
73895,-119.047619047619,4,2,1,70,0,0
74171,292.682926829268,4,2,1,70,1,0
74171,-112.359550561798,4,2,1,70,0,0
74463,307.692307692308,4,2,1,70,1,0
74463,-106.382978723404,4,2,1,70,0,0
74770,327.868852459016,5,2,1,70,1,0
74770,-100,5,2,1,70,0,0
76409,327.868852459016,4,2,1,70,1,0
76409,-100,4,2,1,70,0,0
115753,521.739130434783,4,2,1,70,1,0
115753,-62.8930817610063,4,2,1,70,0,0
116796,375,4,2,1,70,1,8
116796,-87.719298245614,4,2,1,70,0,8
117546,307.692307692308,4,2,1,70,1,0
117546,-106.382978723404,4,2,1,70,0,0
118161,272.727272727273,4,2,1,70,1,8
118161,-120.481927710843,4,2,1,70,0,8
118706,255.31914893617,4,2,1,70,1,0
118706,-128.205128205128,4,2,1,70,0,0
119216,235.294117647059,4,2,1,70,1,8
119216,-138.888888888889,4,2,1,70,0,8
119568,-138.888888888889,4,2,1,70,0,9
119686,218.181818181818,4,2,1,70,1,1
119686,-149.253731343284,4,2,1,70,0,1
125795,200,4,2,1,70,1,1
125795,-163.934426229508,4,2,1,70,0,1
126595,190.47619047619,4,2,1,70,1,1
126595,-172.413793103448,4,2,1,70,0,1
132309,218.181818181818,4,2,1,70,1,8
132309,-149.253731343284,4,2,1,70,0,8
132527,300,4,2,1,70,1,8
132527,-108.695652173913,4,2,1,70,0,8
132677,461.538461538462,4,2,1,70,1,8
132677,-70.9219858156028,4,2,1,70,0,8
132907,324.324324324324,4,2,1,70,1,0
132907,-101.010101010101,4,2,1,70,0,0
133555,279.06976744186,4,2,1,70,1,8
133555,-117.647058823529,4,2,1,70,0,8
134113,260.869565217391,4,2,1,70,1,0
134113,-125,4,2,1,70,0,0
134634,240,4,2,1,70,1,8
134634,-136.986301369863,4,2,1,70,0,8
135114,222.222222222222,4,2,1,70,1,0
135114,-147.058823529412,4,2,1,70,0,0
135558,210.526315789474,4,2,1,70,1,8
135558,-156.25,4,2,1,70,0,8
135979,200,4,2,1,70,1,0
135979,-163.934426229508,4,2,1,70,0,0
136379,190.47619047619,4,2,1,70,1,8
136379,-172.413793103448,4,2,1,70,0,8
136712,3000,4,2,1,70,1,8
136712,-10.9289617486339,4,2,1,70,0,8

[HitObjects]
64,192,1680,5,2,0:0:0:0:
448,192,1680,1,0,0:0:0:0:
192,192,2080,1,2,0:0:0:0:
64,192,2480,1,2,0:0:0:0:
320,192,2880,1,2,0:0:0:0:
192,192,3280,1,2,0:0:0:0:
448,192,3680,1,2,0:0:0:0:
64,192,4080,128,2,4480:0:0:0:0:
192,192,4480,128,2,4880:0:0:0:0:
448,192,4880,1,2,0:0:0:0:
192,192,5280,1,2,0:0:0:0:
320,192,5680,1,2,0:0:0:0:
64,192,6080,1,2,0:0:0:0:
448,192,6480,128,2,6880:0:0:0:0:
64,192,6880,1,2,0:0:0:0:
192,192,6880,1,0,0:0:0:0:
320,192,7280,1,2,0:0:0:0:
64,192,7680,1,2,0:0:0:0:
448,192,8080,1,2,0:0:0:0:
192,192,8480,1,2,0:0:0:0:
64,192,8880,1,2,0:0:0:0:
448,192,9280,1,2,0:0:0:0:
192,192,9680,1,2,0:0:0:0:
320,192,10080,1,2,0:0:0:0:
64,192,10480,1,2,0:0:0:0:
448,192,10880,1,2,0:0:0:0:
320,192,11280,1,2,0:0:0:0:
64,192,11680,128,2,12080:0:0:0:0:
192,192,12080,128,2,12480:0:0:0:0:
320,192,12480,128,2,12880:0:0:0:0:
448,192,12880,128,2,13280:0:0:0:0:
64,192,13280,128,0,13827:0:0:0:0:
448,192,13964,128,0,14923:0:0:0:0:
64,192,14375,128,0,14923:0:0:0:0:
192,192,14923,1,2,0:0:0:0:
320,192,15060,1,2,0:0:0:0:
448,192,15197,1,2,0:0:0:0:
192,192,15334,1,2,0:0:0:0:
64,192,15334,1,4,0:0:0:0:
320,192,15745,1,2,0:0:0:0:
192,192,16019,1,2,0:0:0:0:
320,192,16293,1,2,0:0:0:0:
192,192,16567,1,2,0:0:0:0:
320,192,16841,1,2,0:0:0:0:
448,192,17115,1,2,0:0:0:0:
448,192,17389,1,2,0:0:0:0:
64,192,17526,1,2,0:0:0:0:
320,192,17800,1,0,0:0:0:0:
192,192,17937,1,2,0:0:0:0:
448,192,18211,1,2,0:0:0:0:
64,192,18485,1,2,0:0:0:0:
320,192,18759,1,2,0:0:0:0:
192,192,19033,1,2,0:0:0:0:
64,192,19307,128,2,19581:0:0:0:0:
192,192,19581,1,2,0:0:0:0:
320,192,19718,1,2,0:0:0:0:
448,192,19718,128,4,19992:0:0:0:0:
192,192,19992,1,0,0:0:0:0:
320,192,20129,1,2,0:0:0:0:
64,192,20403,1,2,0:0:0:0:
448,192,20677,1,2,0:0:0:0:
64,192,20951,1,2,0:0:0:0:
192,192,21088,1,0,0:0:0:0:
448,192,21225,1,2,0:0:0:0:
320,192,21362,1,0,0:0:0:0:
192,192,21499,1,2,0:0:0:0:
448,192,21773,1,2,0:0:0:0:
64,192,21910,1,2,0:0:0:0:
320,192,22184,1,2,0:0:0:0:
448,192,22321,1,2,0:0:0:0:
64,192,22595,128,2,22869:0:0:0:0:
448,192,22869,128,2,23143:0:0:0:0:
320,192,23143,128,2,23416:0:0:0:0:
64,192,23416,1,2,0:0:0:0:
192,192,23416,1,0,0:0:0:80:pong.wav
320,192,23690,1,2,0:0:0:0:
448,192,23690,1,0,0:0:0:50:clang.wav
64,192,24238,1,2,0:0:0:0:
448,192,24238,1,4,0:0:0:0:
448,192,25571,1,0,0:0:0:80:pong.wav
64,192,26071,1,0,0:0:0:60:pong.wav
448,192,26571,1,0,0:0:0:50:pong.wav
64,192,27071,1,0,0:0:0:80:pong.wav
448,192,27571,1,0,0:0:0:40:pong.wav
64,192,28071,1,0,0:0:0:30:pong.wav
448,192,28571,1,0,0:0:0:20:pong.wav
64,192,29237,128,0,29698:0:0:0:0:
320,192,29698,1,2,0:0:0:0:
448,192,29698,1,0,0:0:0:0:
64,192,30159,1,2,0:0:0:0:
320,192,30621,1,2,0:0:0:0:
448,192,31082,1,2,0:0:0:0:
64,192,31544,1,2,0:0:0:0:
320,192,32005,1,2,0:0:0:0:
448,192,32467,1,2,0:0:0:0:
64,192,32928,128,2,33390:0:0:0:0:
448,192,33390,1,0,0:0:0:80:clang.wav
320,192,33621,1,0,0:0:0:80:clang.wav
192,192,33851,1,2,0:0:0:0:
320,192,34273,1,2,0:0:0:0:
64,192,34696,1,2,0:0:0:0:
192,192,35118,1,2,0:0:0:0:
320,192,35541,1,2,0:0:0:0:
448,192,35963,1,2,0:0:0:0:
192,192,36386,1,2,0:0:0:0:
448,192,36808,128,2,37231:0:0:0:0:
64,192,37231,1,0,0:0:0:80:clang.wav
192,192,37442,1,0,0:0:0:80:clang.wav
320,192,37653,1,2,0:0:0:0:
448,192,38040,1,2,0:0:0:0:
64,192,38427,1,2,0:0:0:0:
192,192,38814,1,2,0:0:0:0:
448,192,39201,1,2,0:0:0:0:
320,192,39588,1,2,0:0:0:0:
192,192,39975,1,2,0:0:0:0:
64,192,40362,128,2,40749:0:0:0:0:
448,192,40749,1,0,0:0:0:80:clang.wav
320,192,40943,1,0,0:0:0:80:clang.wav
192,192,41136,1,2,0:0:0:0:
64,192,41499,1,2,0:0:0:0:
192,192,41863,1,2,0:0:0:0:
448,192,42226,1,2,0:0:0:0:
320,192,42590,1,2,0:0:0:0:
192,192,42934,1,2,0:0:0:0:
64,192,43279,1,2,0:0:0:0:
448,192,43624,128,2,43969:0:0:0:0:
64,192,43969,1,0,0:0:0:80:clang.wav
192,192,44141,1,0,0:0:0:80:clang.wav
320,192,44314,1,2,0:0:0:0:
448,192,44641,1,2,0:0:0:0:
192,192,44969,1,2,0:0:0:0:
320,192,45297,1,2,0:0:0:0:
64,192,45625,1,2,0:0:0:50:soft-hitwhistle.wav
448,192,45953,1,2,0:0:0:0:
192,192,46281,128,2,46609:0:0:0:50:soft-hitwhistle.wav
64,192,46609,1,2,0:0:0:0:
448,192,46936,1,2,0:0:0:0:
320,192,47243,1,2,0:0:0:0:
64,192,47551,1,2,0:0:0:0:
192,192,47859,1,2,0:0:0:0:
448,192,48166,1,2,0:0:0:0:
320,192,48474,1,2,0:0:0:0:
192,192,48782,128,0,49089:0:0:0:50:soft-hitwhistle.wav
448,192,49089,1,2,0:0:0:0:
64,192,49397,1,2,0:0:0:0:
320,192,49697,1,2,0:0:0:0:
64,192,49997,1,2,0:0:0:0:
448,192,50297,128,2,50597:0:0:0:0:
192,192,50597,1,2,0:0:0:0:
320,192,50889,1,0,0:0:0:50:soft-hitwhistle.wav
448,192,51182,1,0,0:0:0:50:soft-hitwhistle.wav
64,192,51475,128,2,51767:0:0:0:0:
192,192,51767,1,2,0:0:0:0:
320,192,52046,1,2,0:0:0:0:
448,192,52325,128,2,52883:0:0:0:0:
192,192,52883,1,2,0:0:0:0:
192,192,53156,1,2,0:0:0:0:
64,192,53430,128,2,53704:0:0:0:0:
192,192,53704,128,2,53978:0:0:0:0:
448,192,53978,1,0,0:0:0:80:clang.wav
192,192,54583,1,0,0:0:0:0:
448,192,54583,1,0,0:0:0:0:
64,192,55198,1,0,0:0:0:0:
320,192,55198,1,0,0:0:0:0:
448,192,55813,1,0,0:0:0:0:
320,192,55950,1,2,0:0:0:0:
192,192,56087,1,2,0:0:0:0:
64,192,56224,1,2,0:0:0:0:
448,192,56224,1,4,0:0:0:0:
192,192,56633,1,2,0:0:0:0:
320,192,56907,1,2,0:0:0:0:
192,192,57181,1,2,0:0:0:0:
320,192,57455,1,2,0:0:0:0:
192,192,57729,1,2,0:0:0:0:
320,192,58003,1,2,0:0:0:0:
320,192,58277,1,2,0:0:0:0:
64,192,58414,1,2,0:0:0:0:
192,192,58688,1,0,0:0:0:0:
448,192,58825,1,2,0:0:0:0:
64,192,59099,1,2,0:0:0:0:
448,192,59373,1,2,0:0:0:0:
192,192,59647,1,2,0:0:0:0:
320,192,59921,1,2,0:0:0:0:
448,192,60195,128,2,60469:0:0:0:0:
320,192,60469,1,2,0:0:0:0:
64,192,60606,128,2,60880:0:0:0:0:
192,192,60606,1,4,0:0:0:0:
448,192,60880,1,0,0:0:0:0:
320,192,61017,1,2,0:0:0:0:
64,192,61291,1,2,0:0:0:0:
448,192,61565,1,2,0:0:0:0:
64,192,61839,1,2,0:0:0:0:
192,192,61976,1,0,0:0:0:0:
448,192,62113,1,2,0:0:0:0:
320,192,62250,1,0,0:0:0:0:
192,192,62387,1,2,0:0:0:0:
64,192,62661,1,2,0:0:0:0:
448,192,62798,1,2,0:0:0:0:
320,192,63072,1,2,0:0:0:0:
192,192,63209,1,0,0:0:0:50:soft-hitwhistle.wav
448,192,63483,1,2,0:0:0:0:
64,192,63757,1,2,0:0:0:0:
448,192,64031,128,2,64579:0:0:0:0:
192,192,64305,1,2,0:0:0:0:
64,192,64579,1,2,0:0:0:0:
192,192,64716,1,2,0:0:0:0:
320,192,64853,1,2,0:0:0:0:
64,192,64990,1,2,0:0:0:0:
448,192,64990,1,4,0:0:0:0:
192,192,65401,1,2,0:0:0:0:
320,192,65675,1,2,0:0:0:0:
192,192,65949,1,2,0:0:0:0:
320,192,66223,1,2,0:0:0:0:
192,192,66496,1,2,0:0:0:0:
320,192,66770,1,2,0:0:0:0:
320,192,67044,1,2,0:0:0:0:
64,192,67181,1,2,0:0:0:0:
192,192,67455,1,0,0:0:0:0:
448,192,67592,1,2,0:0:0:0:
64,192,67866,1,2,0:0:0:0:
448,192,68140,1,2,0:0:0:0:
192,192,68414,1,2,0:0:0:0:
320,192,68688,1,2,0:0:0:0:
448,192,68962,128,2,69236:0:0:0:0:
320,192,69236,1,2,0:0:0:0:
64,192,69373,128,2,69647:0:0:0:0:
192,192,69373,1,4,0:0:0:0:
320,192,69647,1,0,0:0:0:0:
448,192,69784,1,2,0:0:0:0:
64,192,70058,1,2,0:0:0:0:
320,192,70332,1,2,0:0:0:0:
64,192,70606,1,2,0:0:0:0:
192,192,70743,1,0,0:0:0:0:
448,192,70880,1,2,0:0:0:0:
320,192,71017,1,0,0:0:0:0:
192,192,71154,1,2,0:0:0:0:
320,192,71428,1,2,0:0:0:0:
64,192,71565,1,2,0:0:0:0:
192,192,71839,1,2,0:0:0:0:
448,192,71976,1,0,0:0:0:50:soft-hitwhistle.wav
320,192,72250,1,2,0:0:0:0:
192,192,72524,1,2,0:0:0:0:
64,192,72798,1,2,0:0:0:0:
192,192,72935,1,2,0:0:0:0:
448,192,73072,1,0,0:0:0:50:soft-hitwhistle.wav
320,192,73209,1,2,0:0:0:0:
192,192,73346,1,2,0:0:0:0:
64,192,73620,128,0,73894:0:0:0:0:
320,192,73895,128,0,75097:0:0:0:0:
448,192,75097,1,0,0:0:0:40:pong2.wav
64,192,75535,1,0,0:0:0:40:pong2.wav
448,192,75972,1,0,0:0:0:40:pong2.wav
64,192,76409,1,2,0:0:0:0:
64,192,77064,1,0,0:0:0:80:pong2.wav
448,192,77064,1,0,0:0:0:0:
320,192,77720,1,2,0:0:0:0:
64,192,78157,1,2,0:0:0:0:
448,192,78376,1,2,0:0:0:0:
192,192,79031,1,2,0:0:0:0:
64,192,79687,1,0,0:0:0:80:pong2.wav
448,192,79687,1,0,0:0:0:0:
320,192,80343,1,2,0:0:0:0:
64,192,80780,1,2,0:0:0:0:
448,192,80999,1,2,0:0:0:0:
192,192,81654,1,2,0:0:0:0:
192,192,82146,1,2,0:0:0:0:
64,192,82310,1,0,0:0:0:80:pong2.wav
448,192,82310,1,0,0:0:0:0:
192,192,82966,1,2,0:0:0:0:
448,192,83622,1,2,0:0:0:0:
192,192,84277,1,2,0:0:0:0:
320,192,84523,1,2,0:0:0:0:
448,192,84769,1,2,0:0:0:0:
64,192,84933,1,0,0:0:0:80:pong2.wav
192,192,84933,1,0,0:0:0:0:
448,192,85589,1,2,0:0:0:0:
64,192,86245,1,2,0:0:0:0:
320,192,86900,1,2,0:0:0:0:
64,192,87425,1,2,0:0:0:0:
448,192,87556,1,0,0:0:0:80:pong2.wav
192,192,88212,1,2,0:0:0:0:
64,192,88605,1,2,0:0:0:0:
192,192,88736,1,2,0:0:0:0:
320,192,88868,1,2,0:0:0:0:
448,192,89261,1,2,0:0:0:0:
64,192,89523,1,2,0:0:0:0:
64,192,90048,1,2,0:0:0:0:
448,192,90179,1,0,0:0:0:80:pong2.wav
192,192,90835,1,2,0:0:0:0:
448,192,91228,1,2,0:0:0:0:
320,192,91359,1,2,0:0:0:0:
192,192,91490,1,2,0:0:0:0:
64,192,91884,1,2,0:0:0:0:
192,192,92015,1,2,0:0:0:0:
320,192,92146,128,2,92802:0:0:0:0:
64,192,92802,128,0,93458:0:0:0:80:pong2.wav
448,192,92802,1,0,0:0:0:0:
448,192,93458,1,2,0:0:0:0:
320,192,93676,1,2,0:0:0:0:
192,192,93895,1,2,0:0:0:0:
64,192,94113,1,2,0:0:0:0:
320,192,94441,1,2,0:0:0:0:
192,192,94551,1,2,0:0:0:0:
320,192,94769,1,2,0:0:0:0:
448,192,95097,128,2,95425:0:0:0:0:
64,192,95425,1,0,0:0:0:80:pong2.wav
192,192,95425,1,0,0:0:0:0:
320,192,96081,1,2,0:0:0:0:
320,192,96518,1,2,0:0:0:0:
64,192,96736,1,2,0:0:0:0:
448,192,97064,128,2,97392:0:0:0:0:
64,192,97392,1,2,0:0:0:0:
192,192,97392,1,0,0:0:0:80:clang.wav
192,192,97829,128,0,98376:0:0:0:80:clang.wav
320,192,98376,1,0,0:0:0:80:pong.wav
448,192,98376,1,0,0:0:0:0:
64,192,98704,1,2,0:0:0:0:
320,192,99031,1,0,0:0:0:0:
192,192,99359,1,2,0:0:0:0:
448,192,99687,1,0,0:0:0:0:
192,192,100015,128,2,100671:0:0:0:0:
448,192,100671,128,2,101327:0:0:0:0:
64,192,101327,1,2,0:0:0:0:
448,192,101654,1,0,0:0:0:0:
192,192,101982,1,2,0:0:0:0:
320,192,102310,1,0,0:0:0:0:
64,192,102638,128,2,103294:0:0:0:0:
448,192,103294,128,2,103622:0:0:0:0:
320,192,103622,1,0,0:0:0:0:
64,192,103949,1,2,0:0:0:0:
192,192,104277,1,0,0:0:0:80:pong.wav
448,192,104605,1,0,0:0:0:50:soft-hitwhistle.wav
320,192,104933,1,0,0:0:0:80:pong.wav
64,192,105261,1,2,0:0:0:0:
192,192,105589,1,0,0:0:0:80:pong.wav
448,192,105917,128,2,106572:0:0:0:0:
64,192,106245,1,0,0:0:0:80:pong.wav
192,192,106572,1,2,0:0:0:0:
320,192,106900,1,0,0:0:0:80:pong.wav
64,192,107228,1,2,0:0:0:0:
448,192,107556,1,0,0:0:0:80:pong.wav
64,192,107884,128,2,108212:0:0:0:0:
192,192,108212,128,2,108540:0:0:0:0:
448,192,108540,1,2,0:0:0:0:
320,192,108704,1,2,0:0:0:0:
192,192,108868,128,2,109195:0:0:0:0:
448,192,109195,128,0,109687:0:0:0:80:clang.wav
64,192,109687,1,0,0:0:0:80:clang.wav
192,192,109851,1,0,0:0:0:80:clang.wav
320,192,110179,1,0,0:0:0:80:clang.wav
448,192,110507,1,0,0:0:0:80:clang.wav
192,192,110835,1,0,0:0:0:0:
192,192,110999,1,0,0:0:0:0:
448,192,111163,1,2,0:0:0:0:
320,192,111327,1,2,0:0:0:0:
192,192,111490,1,2,0:0:0:0:
64,192,111654,128,2,112146:0:0:0:0:
448,192,111654,1,4,0:0:0:0:
192,192,112146,1,0,0:0:0:80:clang.wav
320,192,112474,1,2,0:0:0:0:
192,192,112802,1,0,0:0:0:80:clang.wav
320,192,113130,1,2,0:0:0:0:
192,192,113458,1,0,0:0:0:80:clang.wav
320,192,113622,1,0,0:0:0:0:
448,192,113786,1,2,0:0:0:0:
64,192,114113,1,0,0:0:0:80:clang.wav
448,192,114277,1,2,0:0:0:0:
64,192,114605,1,0,0:0:0:0:
192,192,114769,1,0,0:0:0:80:clang.wav
320,192,114933,1,0,0:0:0:0:
64,192,115097,1,2,0:0:0:0:
448,192,115097,1,0,0:0:0:80:pong.wav
448,192,116274,1,0,0:0:0:0:
64,192,116796,1,0,0:0:0:0:
448,192,117171,1,0,0:0:0:0:
192,192,117546,1,0,0:0:0:50:soft-hitwhistle.wav
320,192,117853,1,0,0:0:0:50:pong.wav
64,192,118161,1,0,0:0:0:0:
192,192,118433,1,0,0:0:0:50:soft-hitwhistle.wav
320,192,118706,1,2,0:0:0:0:
448,192,118961,1,0,0:0:0:80:pong.wav
320,192,119088,1,0,0:0:0:0:
192,192,119216,128,2,119568:0:0:0:0:
64,192,119568,1,2,0:0:0:0:
448,192,119568,1,4,0:0:0:0:
192,192,119904,1,2,0:0:0:0:
320,192,120122,1,2,0:0:0:0:
192,192,120340,1,2,0:0:0:0:
320,192,120558,1,2,0:0:0:0:
192,192,120776,1,2,0:0:0:0:
320,192,120995,1,2,0:0:0:0:
64,192,121213,1,2,0:0:0:0:
448,192,121322,1,2,0:0:0:0:
320,192,121649,1,2,0:0:0:0:
64,192,121867,1,2,0:0:0:0:
448,192,122086,1,2,0:0:0:0:
192,192,122304,1,2,0:0:0:0:
448,192,122522,1,2,0:0:0:0:
64,192,122740,1,2,0:0:0:0:
192,192,122958,1,2,0:0:0:0:
320,192,123067,1,2,0:0:0:0:
448,192,123067,1,4,0:0:0:0:
64,192,123395,1,2,0:0:0:0:
192,192,123613,1,2,0:0:0:0:
448,192,123831,1,2,0:0:0:0:
320,192,124049,1,2,0:0:0:0:
192,192,124267,1,2,0:0:0:0:
64,192,124486,1,2,0:0:0:0:
448,192,124704,1,2,0:0:0:0:
64,192,124813,1,2,0:0:0:0:
192,192,125140,1,2,0:0:0:0:
320,192,125358,1,2,0:0:0:0:
448,192,125576,1,2,0:0:0:0:
64,192,125795,128,2,126495:0:0:0:0:
320,192,126495,1,2,0:0:0:0:
448,192,126495,1,4,0:0:0:0:
192,192,126785,1,2,0:0:0:0:
320,192,126975,1,2,0:0:0:0:
192,192,127166,1,2,0:0:0:0:
320,192,127356,1,2,0:0:0:0:
192,192,127547,1,2,0:0:0:0:
320,192,127737,1,2,0:0:0:0:
64,192,127928,1,2,0:0:0:0:
192,192,128023,1,2,0:0:0:0:
320,192,128309,1,2,0:0:0:0:
448,192,128499,1,2,0:0:0:0:
192,192,128690,1,2,0:0:0:0:
320,192,128880,1,2,0:0:0:0:
64,192,129071,1,2,0:0:0:0:
448,192,129261,1,2,0:0:0:0:
64,192,129547,1,2,0:0:0:0:
192,192,129547,1,4,0:0:0:0:
320,192,129833,1,2,0:0:0:0:
448,192,130023,1,2,0:0:0:0:
192,192,130214,1,2,0:0:0:0:
64,192,130404,1,2,0:0:0:0:
320,192,130594,1,2,0:0:0:0:
192,192,130785,1,2,0:0:0:0:
448,192,130975,1,2,0:0:0:0:
64,192,131071,1,2,0:0:0:0:
320,192,131356,1,2,0:0:0:0:
192,192,131547,1,2,0:0:0:0:
64,192,131737,1,2,0:0:0:0:
448,192,131928,128,2,132309:0:0:0:0:
64,192,132309,1,2,0:0:0:0:
192,192,132309,1,0,0:0:0:0:
192,192,132907,1,2,0:0:0:0:
320,192,132907,1,4,0:0:0:0:
320,192,133555,1,2,0:0:0:0:
448,192,133555,1,4,0:0:0:0:
192,192,134113,1,2,0:0:0:0:
320,192,134113,1,4,0:0:0:0:
64,192,134634,1,2,0:0:0:0:
192,192,134634,1,4,0:0:0:0:
192,192,135114,1,2,0:0:0:0:
320,192,135114,1,4,0:0:0:0:
320,192,135558,1,2,0:0:0:0:
448,192,135558,1,4,0:0:0:0:
64,192,135979,1,2,0:0:0:0:
448,192,135979,128,4,136379:0:0:0:0:
320,192,136379,128,2,136712:0:0:0:0:
64,192,136712,128,2,139712:0:0:0:0:
192,192,136712,1,0,0:0:0:0:
320,192,139712,1,4,0:0:0:0:
448,192,139712,1,0,0:0:0:80:pong2.wav
