osu file format v14

[General]
AudioFilename: audio.mp3
AudioLeadIn: 0
PreviewTime: 56274
Countdown: 0
SampleSet: Soft
StackLeniency: 0.7
Mode: 2
LetterboxInBreaks: 0
EpilepsyWarning: 1
WidescreenStoryboard: 1

[Editor]
Bookmarks: 43579,53243,132182,135987
DistanceSpacing: 1
BeatDivisor: 4
GridSize: 4
TimelineZoom: 2.499999

[Metadata]
Title:Take
TitleUnicode:竹
Artist:Risshuu feat. Choko
ArtistUnicode:立秋 feat. ちょこ
Creator:[_-Kukkai-_]
Version:Rain
Source:
Tags:Arcaea 石王マサト MASATO Ishioh the bms of fighters xvi BOFXVI Video Game Japanese novelty
BeatmapID:2692070
BeatmapSetID:1295206

[Difficulty]
HPDrainRate:6
CircleSize:4
OverallDifficulty:9
ApproachRate:9
SliderMultiplier:1.9
SliderTickRate:1

[Events]
//Background and Video events
Video,0,"vdo.mp4"
0,0,"222.png",0,0
//Break Periods
2,25812,28679
//Storyboard Layer 0 (Background)
//Storyboard Layer 1 (Fail)
//Storyboard Layer 2 (Pass)
//Storyboard Layer 3 (Foreground)
//Storyboard Layer 4 (Overlay)
//Storyboard Sound Samples

[TimingPoints]
120,400,4,2,1,50,1,0
1720,-83.3333333333333,4,2,1,50,0,0
4920,-83.3333333333333,5,2,1,50,0,0
6920,-83.3333333333333,4,2,1,50,0,0
10120,-76.9230769230769,4,2,1,50,0,0
10920,-71.4285714285714,4,2,1,50,0,0
11720,-83.3333333333333,4,2,1,50,0,0
13320,273.972602739726,4,2,1,50,1,0
13320,-100,4,2,1,50,0,8
15374,-76.9230769230769,4,2,1,60,0,9
15511,-100,4,2,1,60,0,1
20991,-76.9230769230769,4,2,1,60,0,1
21539,-100,4,2,1,60,0,1
23730,-100,4,2,1,60,0,0
24279,333.333333333333,4,2,1,40,1,0
29279,461.538461538462,4,2,1,50,1,0
29279,-83.3333333333333,4,2,1,50,0,8
29740,461.538461538462,4,2,1,50,1,0
29740,-71.4285714285714,4,2,1,50,0,0
33894,422.535211267606,4,2,1,50,1,0
33894,-71.4285714285714,4,2,1,50,0,0
37697,387.096774193548,4,2,1,50,1,0
37697,-71.4285714285714,4,2,1,50,0,0
41181,363.636363636364,4,2,1,50,1,0
41181,-71.4285714285714,4,2,1,50,0,0
42636,342.857142857143,4,2,1,50,1,0
42636,-71.4285714285714,4,2,1,50,0,0
44350,327.868852459016,4,2,1,50,1,0
44350,-71.4285714285714,4,2,1,50,0,0
45169,-62.5,4,2,1,50,0,0
45497,-71.4285714285714,4,2,1,50,0,0
46973,307.692307692308,4,2,1,50,1,0
46973,-71.4285714285714,4,2,1,50,0,0
48357,-66.6666666666667,4,2,1,50,0,0
48665,-71.4285714285714,4,2,1,50,0,0
49434,300,4,2,1,50,1,0
49434,-76.9230769230769,4,2,1,50,0,0
50634,292.682926829268,4,2,1,50,1,0
50634,-76.9230769230769,4,2,1,50,0,0
51811,279.06976744186,4,2,1,50,1,0
51811,-76.9230769230769,4,2,1,50,0,0
52922,273.972602739726,4,2,1,50,1,0
52922,-76.9230769230769,4,2,1,50,0,0
53743,-76.9230769230769,4,2,1,40,0,0
54017,307.692307692308,4,2,1,80,1,0
54632,-100,4,2,1,50,0,0
55864,273.972602739726,4,2,1,50,1,0
55864,-76.9230769230769,4,2,1,50,0,0
56274,-76.9230769230769,4,2,1,60,0,1
56411,273.972602739726,4,2,1,60,1,0
56411,-100,4,2,1,60,0,1
63523,-76.9230769230769,4,2,1,60,0,1
64630,-100,4,2,1,60,0,0
65041,-76.9230769230769,4,2,1,60,0,1
65315,-100,4,2,1,60,0,1
73397,-100,4,2,1,60,0,0
73946,276.497695852535,4,2,1,60,1,0
74222,292.682926829268,4,2,1,60,1,0
74515,307.692307692308,4,2,1,60,1,0
74823,327.868852459016,4,2,1,60,1,0
76462,327.868852459016,4,2,1,60,1,0
81707,-90.9090909090909,4,2,1,50,0,0
86953,-90.9090909090909,4,2,1,55,0,0
92199,-90.9090909090909,4,2,1,60,0,0
97445,-90.9090909090909,4,2,1,50,0,0
98757,-76.9230769230769,4,2,1,70,0,1
104002,-83.3333333333333,4,2,1,70,0,1
109248,-83.3333333333333,4,2,1,60,0,0
111707,-83.3333333333333,4,2,1,50,0,0
115806,521.739130434783,4,2,1,50,1,0
116850,375,4,2,1,52,1,0
117600,307.692307692308,4,2,1,54,1,0
118215,272.727272727273,4,2,1,56,1,0
118761,255.31914893617,4,2,1,58,1,0
119271,235.294117647059,4,2,1,60,1,0
119624,218.181818181818,4,2,1,70,1,1
119624,-100,4,2,1,70,0,9
119733,218.181818181818,4,2,1,70,1,1
125842,200,4,2,1,70,1,1
126242,-100,4,2,1,70,0,0
126547,190.47619047619,4,2,1,70,1,1
126547,-100,4,2,1,70,0,1
126642,190.47619047619,4,2,1,70,1,1
132352,218.181818181818,4,2,1,70,1,0
132352,-100,4,2,1,70,0,8
132720,461.538461538462,4,2,1,70,1,0
132951,324.324324324324,4,2,1,70,1,0
133600,279.06976744186,4,2,1,70,1,0
134158,260.869565217391,4,2,1,70,1,0
134680,240,4,2,1,70,1,0
135160,222.222222222222,4,2,1,70,1,0
135604,210.526315789474,4,2,1,70,1,0
136025,200,4,2,1,70,1,0
136425,190.47619047619,4,2,1,70,1,0
136758,3000,4,2,1,70,1,0

[Colours]
Combo1 : 238,145,224
Combo2 : 38,183,41
Combo3 : 188,63,79
Combo4 : 231,170,116

[HitObjects]
256,344,920,5,0,0:0:0:0:
408,268,1320,1,0,0:0:0:0:
152,276,1720,6,0,P|108:224|156:188,1,136.799995825195,2|0,3:2|0:0,0:0:0:0:
196,184,2040,2,0,L|318:184,2,91.199997216797,0|0|0,0:0|0:0|0:0,0:0:0:0:
348,356,2520,2,0,P|388:304|336:264,1,136.799995825195,2|0,3:2|0:0,0:0:0:0:
300,264,2840,2,0,L|176:264,2,91.199997216797,0|0|0,0:0|0:0|0:0,0:0:0:0:
160,196,3320,6,0,L|336:196,1,136.799995825195,2|0,3:2|0:0,0:0:0:0:
344,200,3640,2,0,L|344:84,1,91.199997216797,0|0,0:0|0:0,0:0:0:0:
252,112,3960,1,0,0:0:0:0:
476,332,4120,2,0,L|476:232,1,75.9999976806641,2|0,3:2|0:0,0:0:0:0:
400,260,4386,1,0,0:0:0:0:
280,200,4520,1,2,3:2:0:0:
356,200,4653,1,0,0:0:0:0:
432,200,4786,1,0,0:0:0:0:
200,344,4920,6,0,L|40:344,1,136.799995825195,2|0,3:2|0:0,0:0:0:0:
108,344,5240,2,0,L|236:344,2,91.199997216797,0|0|0,0:0|0:0|0:0,0:0:0:0:
340,344,5720,2,0,P|376:304|324:240,1,136.799995825195,2|0,3:2|0:0,0:0:0:0:
292,244,6040,1,0,0:0:0:0:
200,244,6200,2,0,L|200:124,1,91.199997216797,0|0,0:0|0:0,0:0:0:0:
424,148,6520,2,0,P|464:100|404:48,1,136.799995825195,2|0,3:2|0:0,0:0:0:0:
168,352,6920,6,0,P|128:312|180:248,1,136.799995825195,2|0,3:2|0:0,0:0:0:0:
208,248,7240,2,0,L|312:248,2,91.199997216797,0|0|0,0:0|0:0|0:0,0:0:0:0:
348,248,7720,2,0,P|408:216|420:128,1,136.799995825195,2|0,3:2|0:0,0:0:0:0:
380,152,8040,2,0,L|280:152,2,91.199997216797,0|0|0,0:0|0:0|0:0,0:0:0:0:
152,344,8520,6,0,P|88:332|56:248,1,136.799995825195,2|0,3:2|0:0,0:0:0:0:
100,272,8840,2,0,L|208:272,2,91.199997216797,0|0|0,0:0|0:0|0:0,0:0:0:0:
368,272,9320,2,0,P|448:224|456:156,1,136.799995825195,2|0,3:2|0:0,0:0:0:0:
412,188,9640,2,0,L|308:188,2,91.199997216797,0|0|0,0:0|0:0|0:0,0:0:0:0:
180,272,10120,6,0,L|20:272,1,148.199993215943,2|0,3:2|0:0,0:0:0:0:
80,272,10440,2,0,L|204:272,2,98.7999954772951,0|0|0,0:0|0:0|0:0,0:0:0:0:
324,272,10920,2,0,L|492:272,1,159.599995129395,2|0,3:2|0:0,0:0:0:0:
428,272,11240,2,0,L|296:272,2,106.39999675293,0|0|0,0:0|0:0|0:0,0:0:0:0:
144,276,11720,6,0,L|48:276,2,91.199997216797,2|0|0,3:2|0:0|0:0,0:0:0:0:
280,272,12200,2,0,L|280:156,1,91.199997216797,0|0,0:2|0:0,0:0:0:0:
144,184,12520,2,0,L|144:80,1,91.199997216797,2|0,3:2|0:0,0:0:0:0:
280,92,12840,1,0,0:0:0:0:
180,96,13000,1,0,0:0:0:0:
80,96,13160,1,0,0:0:0:0:
388,364,13320,6,0,P|476:320|364:124,1,380,2|0,0:2|0:0,0:0:0:0:
240,352,14004,2,0,L|240:244,1,95,2|2,0:0|0:0,0:0:0:0:
356,260,14278,1,2,0:0:0:0:
240,257,14415,2,0,L|144:184,1,95,2|2,0:0|0:0,0:0:0:0:
276,180,14689,2,0,L|360:112,1,95,2|2,0:0|0:0,0:0:0:0:
104,76,14963,2,0,L|16:144,2,95,0|0|0,3:2|3:2|3:2,0:0:0:0:
304,348,15374,6,0,P|356:268|296:132,1,246.999988693238,6|0,3:2|0:0,0:0:0:0:
96,344,15785,2,0,L|96:208,1,95,10|0,3:2|0:2,0:0:0:0:
240,248,16059,2,0,L|240:120,1,95,2|0,3:2|0:2,0:0:0:0:
384,152,16333,2,0,L|384:272,1,95,10|0,3:2|0:2,0:0:0:0:
240,248,16607,6,0,L|240:136,1,95,2|0,3:2|0:2,0:0:0:0:
96,152,16881,2,0,L|96:272,1,95,10|0,3:2|0:2,0:0:0:0:
316,252,17155,2,0,L|396:200,2,95,2|2|10,3:2|0:2|3:2,0:0:0:0:
120,240,17566,6,0,L|320:140,1,190,2|0,3:2|0:2,0:0:0:0:
92,348,17977,2,0,L|92:236,1,95,10|2,3:2|0:2,0:0:0:0:
187,253,18251,2,0,L|83:253,1,95,0|0,3:2|0:2,0:0:0:0:
296,228,18525,1,10,3:2:0:0:
400,228,18662,6,0,L|400:108,1,95,2|2,0:2|3:2,0:0:0:0:
296,128,18936,2,0,L|404:84,2,95,0|10|0,3:2|3:2|3:2,0:0:0:0:
100,128,19347,2,0,L|4:68,2,95,2|0|8,3:2|0:2|3:2,0:0:0:0:
320,352,19758,6,0,L|104:276,1,190,6|0,3:2|0:2,0:0:0:0:
352,288,20169,2,0,L|352:164,1,95,10|0,3:2|0:2,0:0:0:0:
256,196,20443,2,0,L|256:96,1,95,2|0,3:2|0:2,0:0:0:0:
476,92,20717,2,0,L|372:92,1,95,10|0,3:2|0:2,0:0:0:0:
152,352,20991,6,0,L|152:216,1,123.499994346619,2|2,3:2|0:2,0:0:0:0:
264,212,21265,2,0,L|336:92,1,123.499994346619,10|2,3:2|0:2,0:0:0:0:
128,96,21539,1,2,3:2:0:0:
32,96,21676,1,0,0:2:0:0:
128,96,21813,1,10,3:2:0:0:
328,288,21950,5,0,3:2:0:0:
328,200,22087,1,0,0:2:0:0:
232,196,22224,2,0,L|116:196,1,95,2|10,3:2|3:2,0:0:0:0:
348,344,22498,2,0,L|348:240,1,95,2|2,0:2|3:2,0:0:0:0:
252,256,22772,2,0,L|156:216,2,95,0|10|0,0:2|3:2|0:2,0:0:0:0:
452,260,23183,6,0,L|508:260,2,47.5,2|0|0,3:2|3:2|3:2,0:0:0:0:
256,264,23456,2,0,L|136:264,1,95,10|0,3:2|3:2,0:0:0:0:
360,188,23730,1,2,3:2:0:0:
116,80,24279,5,4,0:0:0:0:
404,88,25612,5,0,0:0:0:0:
128,352,29279,5,0,0:0:0:0:
48,348,29394,1,0,0:0:0:0:
48,348,29509,1,0,0:0:0:0:
128,352,29625,1,0,0:0:0:0:
352,352,29740,6,0,L|352:204,1,132.999995941162,0|0,3:0|0:0,0:0:0:0:
278,219,30086,1,0,0:0:0:0:
205,219,30201,2,0,L|377:219,1,132.999995941162,8|0,3:2|0:0,0:0:0:0:
136,344,30663,2,0,L|136:204,1,132.999995941162,0|0,3:0|0:0,0:0:0:0:
284,212,31124,2,0,L|144:212,1,132.999995941162,8|0,3:2|0:0,0:0:0:0:
340,256,31586,6,0,L|500:256,1,132.999995941162,0|0,3:0|0:0,0:0:0:0:
400,256,31932,1,0,0:0:0:0:
328,260,32047,2,0,L|196:260,1,132.999995941162,8|0,3:2|0:0,0:0:0:0:
392,252,32509,2,0,L|392:84,1,132.999995941162,0|0,3:0|0:0,0:0:0:0:
244,124,32970,2,0,L|404:124,1,132.999995941162,8|0,3:2|0:0,0:0:0:0:
304,124,33316,1,0,0:0:0:0:
104,124,33432,6,0,L|104:264,1,132.999995941162,2|2,0:0|0:0,0:0:0:0:
428,336,33894,6,0,L|268:336,1,132.999995941162,0|0,3:0|0:0,0:0:0:0:
224,336,34210,1,0,0:0:0:0:
152,340,34316,2,0,L|152:200,1,132.999995941162,8|0,3:2|0:0,0:0:0:0:
352,204,34739,2,0,L|352:52,1,132.999995941162,0|0,3:0|0:0,0:0:0:0:
204,72,35161,2,0,L|204:228,1,132.999995941162,8|0,3:2|0:0,0:0:0:0:
404,272,35584,6,0,L|404:124,1,132.999995941162,0|0,3:0|0:0,0:0:0:0:
332,144,35901,1,0,0:0:0:0:
260,144,36006,2,0,L|404:144,1,132.999995941162,8|0,3:2|0:0,0:0:0:0:
192,348,36429,2,0,L|44:348,1,132.999995941162,0|0,3:0|0:0,0:0:0:0:
260,276,36851,1,8,3:2:0:0:
320,248,36956,1,0,0:0:0:0:
320,180,37062,1,0,0:0:0:0:
260,156,37167,1,0,0:0:0:0:
40,160,37274,6,0,L|40:324,1,132.999995941162,2|2,0:0|0:0,0:0:0:0:
324,352,37697,6,0,L|492:352,1,132.999995941162,0|0,3:0|0:0,0:0:0:0:
392,356,37987,1,0,0:0:0:0:
324,352,38084,2,0,L|472:352,1,132.999995941162,8|0,3:2|0:0,0:0:0:0:
264,352,38471,2,0,L|264:208,1,132.999995941162,0|0,3:0|0:0,0:0:0:0:
396,220,38858,2,0,L|252:176,1,132.999995941162,8|0,3:2|0:0,0:0:0:0:
456,216,39245,6,0,L|456:56,1,132.999995941162,0|0,3:0|0:0,0:0:0:0:
388,84,39535,1,0,0:0:0:0:
320,84,39632,2,0,L|140:84,1,132.999995941162,8|0,3:2|0:0,0:0:0:0:
384,348,40019,2,0,L|384:196,1,132.999995941162,0|0,3:0|0:0,0:0:0:0:
184,220,40406,1,8,3:2:0:0:
124,192,40503,1,0,0:0:0:0:
124,192,40600,1,0,0:0:0:0:
184,220,40697,1,0,0:0:0:0:
416,220,40793,6,0,L|360:80,1,132.999995941162,2|2,0:0|0:0,0:0:0:0:
104,364,41181,5,0,3:0:0:0:
236,368,41362,2,0,L|236:276,1,66.4999979705811,0|0,0:0|0:0,0:0:0:0:
168,300,41544,1,8,3:2:0:0:
300,304,41726,1,0,0:0:0:0:
112,268,41908,2,0,L|112:124,1,132.999995941162,0|0,3:0|0:0,0:0:0:0:
227,200,42271,2,0,L|94:125,1,132.999995941162,8|0,3:2|0:0,0:0:0:0:
416,352,42635,5,0,3:0:0:0:
284,352,42807,2,0,L|204:296,2,66.4999979705811,0|0|8,0:0|0:0|3:2,0:0:0:0:
152,352,43150,1,0,0:0:0:0:
328,352,43321,2,0,L|328:208,1,132.999995941162,0|0,3:0|0:0,0:0:0:0:
152,144,43664,1,8,3:2:0:0:
96,108,43750,1,0,0:0:0:0:
96,108,43836,1,0,0:0:0:0:
152,144,43921,1,0,0:0:0:0:
372,360,44007,6,0,L|412:224,1,132.999995941162,2|2,1:2|1:2,0:0:0:0:
148,236,44350,6,0,L|76:204,1,66.4999979705811,0|0,1:2|1:2,0:0:0:0:
148,236,44513,2,0,L|312:296,1,132.999995941162,8|0,1:2|1:2,0:0:0:0:
332,300,44759,1,0,1:2:0:0:
272,281,44841,2,0,L|136:232,1,132.999995941162,8|0,1:2|1:2,0:0:0:0:
87,208,45087,1,0,1:2:0:0:
24,180,45169,2,0,L|124:300,2,152,8|0|8,1:2|1:2|1:2,0:0:0:0:
260,188,45661,6,0,L|352:140,1,66.4999979705811,0|0,1:2|1:2,0:0:0:0:
376,136,45825,2,0,L|204:208,1,132.999995941162,8|0,1:2|1:2,0:0:0:0:
188,190,46070,1,0,1:2:0:0:
134,153,46152,1,8,1:2:0:0:
113,91,46234,1,0,1:2:0:0:
134,29,46316,1,0,1:2:0:0:
189,8,46398,1,0,1:2:0:0:
254,8,46480,1,8,1:2:0:0:
476,48,46645,2,0,L|380:152,1,132.999995941162,2|2,1:2|1:2,0:0:0:0:
144,360,46973,6,0,L|144:288,1,66.4999979705811,0|0,1:2|1:2,0:0:0:0:
204,292,47126,2,0,L|368:216,1,132.999995941162,8|0,1:2|1:2,0:0:0:0:
380,216,47357,1,0,1:2:0:0:
324,236,47434,2,0,L|200:296,1,132.999995941162,8|0,1:2|1:2,0:0:0:0:
144,292,47665,1,0,1:2:0:0:
204,293,47742,2,0,L|204:220,1,66.4999979705811,8|0,1:2|1:2,0:0:0:0:
144,228,47896,1,0,1:2:0:0:
100,200,47972,1,0,1:2:0:0:
100,148,48049,1,8,1:2:0:0:
144,120,48126,1,0,1:2:0:0:
336,88,48203,6,0,L|336:256,1,132.999995941162,0|8,1:2|1:2,0:0:0:0:
216,284,48511,2,0,L|352:208,1,142.500005435944,0|8,1:2|1:2,0:0:0:0:
396,188,48742,1,0,1:2:0:0:
452,164,48819,2,0,L|452:320,1,132.999995941162,0|8,1:2|1:2,0:0:0:0:
204,368,49126,2,0,L|120:240,1,132.999995941162,2|2,1:2|1:2,0:0:0:0:
364,192,49434,6,0,L|428:148,1,61.7499971733095,0|0,1:2|1:2,0:0:0:0:
364,192,49584,2,0,L|232:280,1,123.499994346619,8|0,1:2|1:2,0:0:0:0:
216,292,49809,1,0,1:2:0:0:
264,264,49884,2,0,L|372:188,1,123.499994346619,8|0,1:2|1:2,0:0:0:0:
416,164,50109,2,0,L|416:68,1,61.7499971733095,0|8,1:2|1:2,0:0:0:0:
188,100,50334,2,0,L|104:216,1,123.499994346619,0|8,1:2|1:2,0:0:0:0:
368,360,50634,6,0,L|368:296,1,61.7499971733095,0|0,1:2|1:2,0:0:0:0:
312,304,50780,2,0,L|168:304,1,123.499994346619,8|0,1:2|1:0,0:0:0:0:
140,276,50999,1,0,0:0:0:0:
140,220,51073,1,8,1:2:0:0:
180,184,51146,1,0,1:2:0:0:
236,184,51219,2,0,L|368:96,1,123.499994346619,0|8,1:2|1:2,0:0:0:0:
96,120,51512,2,0,L|20:80,2,82.3333295644126,0|0|0,1:2|1:2|1:2,0:0:0:0:
324,360,51811,5,8,1:2:0:0:
372,336,51880,1,0,1:2:0:0:
372,280,51950,1,0,1:2:0:0:
320,256,52020,1,0,1:2:0:0:
268,240,52090,1,8,1:2:0:0:
220,212,52159,1,0,1:2:0:0:
220,156,52229,1,0,1:2:0:0:
268,132,52299,1,0,1:2:0:0:
424,132,52369,6,0,L|424:36,1,82.3333295644126,8|0,1:2|1:2,0:0:0:0:
360,48,52555,1,0,1:2:0:0:
304,148,52648,1,8,1:2:0:0:
366,93,52741,1,0,1:2:0:0:
428,39,52834,1,0,1:2:0:0:
200,352,52922,6,0,L|200:220,1,123.499994346619,8|0,1:2|1:0,0:0:0:0:
264,272,53127,1,0,1:0:0:0:
328,268,53195,2,0,L|328:112,1,123.499994346619,8|0,1:2|1:2,0:0:0:0:
236,142,53469,1,8,1:2:0:0:
328,144,53606,1,0,1:2:0:0:
76,240,53744,1,8,1:2:0:0:
49,225,53778,1,0,1:2:0:0:
31,200,53812,1,0,1:2:0:0:
25,170,53846,1,0,1:2:0:0:
32,140,53880,1,0,1:2:0:0:
50,116,53915,1,0,1:2:0:0:
78,102,53949,1,0,1:2:0:0:
280,104,54017,1,0,1:2:0:0:
72,360,54632,6,0,L|72:232,1,95,2|0,3:2|0:0,0:0:0:0:
167,265,54940,2,0,L|59:265,1,95,0|0,0:0|0:0,0:0:0:0:
292,256,55247,2,0,L|292:136,1,95,2|0,3:2|0:0,0:0:0:0:
192,160,55555,2,0,L|164:48,1,95,0|0,0:0|0:0,0:0:0:0:
392,60,55864,6,0,L|504:144,2,123.499994346619,2|0|0,3:2|3:0|3:0,0:0:0:0:
124,360,56274,6,0,P|68:292|144:168,1,246.999988693238,6|0,3:2|0:0,0:0:0:0:
340,172,56685,2,0,L|444:116,1,95,10|0,3:2|0:2,0:0:0:0:
280,116,56959,2,0,L|176:172,1,95,2|0,3:2|0:2,0:0:0:0:
340,172,57233,6,0,L|444:116,1,95,10|0,3:2|0:2,0:0:0:0:
280,116,57507,2,0,L|176:172,1,95,2|0,3:2|0:2,0:0:0:0:
340,172,57781,2,0,L|444:116,1,95,10|0,0:2|0:2,0:0:0:0:
208,128,58055,2,0,L|104:184,2,95,2|2|10,3:2|0:2|3:2,0:0:0:0:
424,352,58466,6,0,L|216:300,1,190,2|0,3:2|0:2,0:0:0:0:
456,224,58877,2,0,L|456:120,1,95,10|2,3:2|0:2,0:0:0:0:
372,174,59151,2,0,L|472:120,1,95,0|0,3:2|0:2,0:0:0:0:
232,328,59425,2,0,L|336:264,1,95,10|2,3:2|0:2,0:0:0:0:
412,248,59699,6,0,L|412:108,1,95,2|0,3:2|3:2,0:0:0:0:
312,200,59973,2,0,L|424:132,1,95,10|0,3:2|3:2,0:0:0:0:
172,204,60247,2,0,L|76:164,1,95,2|0,3:2|0:2,0:0:0:0:
84,167,60521,1,8,3:2:0:0:
344,348,60658,6,0,P|408:304|320:248,1,190,6|0,3:2|0:2,0:0:0:0:
136,232,61069,2,0,L|136:104,1,95,10|0,3:2|0:2,0:0:0:0:
240,136,61343,2,0,L|136:136,1,95,2|0,3:2|0:2,0:0:0:0:
252,136,61617,2,0,L|356:136,1,95,10|0,3:2|0:2,0:0:0:0:
136,344,61891,6,0,L|136:236,1,95,2|0,3:2|0:2,0:0:0:0:
240,252,62165,2,0,L|360:252,1,95,10|0,3:2|0:2,0:0:0:0:
120,184,62439,2,0,L|120:80,1,95,2|0,3:2|0:2,0:0:0:0:
216,88,62713,1,10,3:2:0:0:
424,112,62850,6,0,P|488:172|408:240,1,190,0|2,3:2|3:2,0:0:0:0:
200,312,63261,2,0,L|200:196,1,95,10|2,3:2|0:2,0:0:0:0:
324,220,63535,2,0,L|324:88,1,123.499994346619,2|2,3:2|0:2,0:0:0:0:
200,84,63809,2,0,L|92:-4,1,123.499994346619,10|2,3:2|3:2,0:0:0:0:
392,332,64083,6,0,L|392:200,1,123.499994346619,2|0,3:2|3:2,0:0:0:0:
281,263,64357,2,0,L|401:203,1,123.499994346619,10|0,3:2|3:2,0:0:0:0:
176,216,64631,1,2,3:2:0:0:
80,212,64767,1,2,3:2:0:0:
176,216,64904,1,2,3:2:0:0:
420,348,65041,6,0,P|488:256|356:200,1,246.999988693238,6|0,3:2|0:2,0:0:0:0:
124,340,65452,2,0,L|224:292,1,95,10|0,3:2|0:2,0:0:0:0:
352,284,65726,2,0,L|252:236,1,95,2|0,3:2|0:2,0:0:0:0:
124,340,66000,2,0,L|224:292,1,95,10|0,3:2|0:2,0:0:0:0:
352,284,66274,6,0,L|252:236,1,95,2|0,3:2|0:2,0:0:0:0:
124,340,66547,2,0,L|224:292,1,95,10|0,3:2|0:2,0:0:0:0:
420,276,66821,2,0,L|512:204,2,95,2|2|10,3:2|0:2|3:2,0:0:0:0:
180,300,67232,6,0,L|352:188,1,190,2|0,3:2|0:2,0:0:0:0:
136,184,67643,1,10,3:2:0:0:
232,180,67780,2,0,L|232:60,1,95,2|0,0:2|3:2,0:0:0:0:
128,80,68054,2,0,L|28:160,2,95,0|10|2,0:2|3:2|0:2,0:0:0:0:
344,360,68465,6,0,L|344:244,1,95,2|0,3:2|3:2,0:0:0:0:
224,272,68739,2,0,L|160:172,1,95,10|0,3:2|3:2,0:0:0:0:
384,184,69013,2,0,L|480:124,2,95,2|0|8,3:2|0:2|3:2,0:0:0:0:
168,184,69424,6,0,L|368:124,1,190,6|0,3:2|0:2,0:0:0:0:
136,352,69835,2,0,L|136:244,1,95,10|0,3:2|0:2,0:0:0:0:
232,256,70109,1,2,3:2:0:0:
112,248,70246,2,0,L|20:180,2,95,2|8|0,0:2|3:2|0:2,0:0:0:0:
320,248,70657,6,0,L|320:120,1,95,2|2,3:2|0:2,0:0:0:0:
225,153,70931,2,0,L|337:153,1,95,10|2,3:2|0:2,0:0:0:0:
120,92,71205,2,0,L|20:36,2,95,2|0|10,3:2|0:2|3:2,0:0:0:0:
332,348,71616,6,0,P|396:288|312:236,1,190,2|2,3:2|3:2,0:0:0:0:
116,232,72027,2,0,L|116:128,1,95,10|2,3:2|0:2,0:0:0:0:
212,136,72301,2,0,L|96:136,1,95,2|0,3:2|3:2,0:0:0:0:
348,128,72575,2,0,L|348:240,1,95,10|0,3:2|3:2,0:0:0:0:
252,220,72849,6,0,L|156:176,1,95,2|0,3:2|3:0,0:0:0:0:
396,220,73123,2,0,L|492:160,1,95,10|0,3:2|3:2,0:0:0:0:
200,224,73397,1,2,3:2:0:0:
384,348,73671,5,2,0:0:0:0:
432,348,73739,1,2,0:0:0:0:
432,348,73808,1,2,0:0:0:0:
384,348,73876,1,2,0:0:0:0:
176,344,73946,6,0,L|176:224,1,95,2|2,3:2|0:0,0:0:0:0:
256,244,74222,2,0,L|256:128,1,95,2|2,0:0|0:0,0:0:0:0:
336,148,74515,2,0,L|336:256,1,95,2|2,0:0|0:0,0:0:0:0:
416,244,74823,2,0,L|416:128,1,95,2|2,0:0|0:0,0:0:0:0:
136,356,75150,6,0,L|388:236,2,253.333333333333,10|2|2,3:3|0:0|0:0,0:0:0:0:
448,352,76462,6,0,L|448:200,1,126.666666666667,0|0,3:0|0:0,0:0:0:0:
320,228,76899,1,0,0:0:0:0:
192,224,77117,2,0,L|352:224,2,126.666666666667,8|0|0,3:0|0:0|0:0,0:0:0:0:
384,224,77773,6,0,L|384:80,1,126.666666666667,0|0,3:0|0:0,0:0:0:0:
256,96,78210,1,0,3:0:0:0:
384,96,78429,2,0,L|512:96,2,126.666666666667,8|0|0,3:2|0:0|0:0,0:0:0:0:
108,356,79084,6,0,L|264:356,2,126.666666666667,0|0|0,3:0|0:0|0:0,0:0:0:0:
260,316,79740,2,0,L|260:168,1,126.666666666667,8|0,3:0|0:0,0:0:0:0:
132,188,80177,1,0,0:0:0:0:
328,188,80396,6,0,L|472:188,2,126.666666666667,0|0|0,3:0|0:0|3:0,0:0:0:0:
200,188,81052,2,0,L|52:188,2,126.666666666667,8|0|0,3:2|0:0|0:0,0:0:0:0:
476,352,81707,6,0,L|476:236,1,104.500003189087,0|0,3:0|0:0,0:0:0:0:
372,244,82035,2,0,L|496:244,1,104.500003189087,0|0,0:0|3:0,0:0:0:0:
316,240,82363,2,0,L|316:116,1,104.500003189087,8|0,3:0|0:0,0:0:0:0:
420,132,82691,2,0,L|288:132,1,104.500003189087,0|0,0:0|0:0,0:0:0:0:
152,288,83019,6,0,L|152:180,1,104.500003189087,0|0,3:0|0:0,0:0:0:0:
256,180,83347,2,0,L|368:180,1,104.500003189087,0|0,0:0|0:0,0:0:0:0:
204,312,83675,1,8,3:2:0:0:
104,268,83838,1,0,0:0:0:0:
103,168,84002,1,0,0:0:0:0:
203,117,84166,1,0,0:0:0:0:
464,264,84330,6,0,L|316:264,1,104.500003189087,0|0,3:0|0:0,0:0:0:0:
308,264,84576,1,0,3:0:0:0:
256,264,84658,2,0,L|256:120,1,104.500003189087,0|0,0:0|3:0,0:0:0:0:
416,144,84986,2,0,L|276:144,1,104.500003189087,8|0,3:0|0:0,0:0:0:0:
208,140,85314,2,0,L|208:272,1,104.500003189087,0|0,0:0|0:0,0:0:0:0:
368,244,85642,6,0,L|368:128,1,104.500003189087,0|0,3:0|0:0,0:0:0:0:
264,140,85970,2,0,L|400:140,1,104.500003189087,0|0,0:0|0:0,0:0:0:0:
184,344,86298,2,0,L|184:196,1,104.500003189087,8|0,3:2|0:0,0:0:0:0:
288,236,86625,2,0,L|288:112,1,104.500003189087,0|0,0:0|0:0,0:0:0:0:
48,236,86953,6,0,L|48:136,1,83.6000025512696,0|0,3:0|0:0,0:0:0:0:
132,148,87216,2,0,L|248:148,1,83.6000025512696,0|0,0:0|0:0,0:0:0:0:
132,148,87478,1,0,3:0:0:0:
256,348,87609,2,0,L|256:256,1,83.6000025512696,8|0,3:0|0:0,0:0:0:0:
172,268,87871,1,0,0:0:0:0:
88,268,88002,2,0,L|88:152,1,83.6000025512696,0|0,0:0|0:0,0:0:0:0:
280,184,88265,6,0,L|376:184,1,83.6000025512696,0|0,3:0|0:0,0:0:0:0:
280,184,88527,2,0,L|188:184,1,83.6000025512696,0|0,0:0|3:0,0:0:0:0:
280,184,88789,1,0,3:0:0:0:
160,316,88921,2,0,L|160:232,1,83.6000025512696,8|0,3:2|0:0,0:0:0:0:
244,228,89183,1,0,0:0:0:0:
164,204,89314,1,0,0:0:0:0:
83,179,89445,1,0,0:0:0:0:
296,348,89576,6,0,L|296:236,1,83.6000025512696,0|0,3:0|0:0,0:0:0:0:
212,268,89839,1,0,0:0:0:0:
296,268,89970,2,0,L|408:268,1,83.6000025512696,0|0,0:0|3:0,0:0:0:0:
252,188,90232,2,0,L|252:80,1,83.6000025512696,8|0,3:0|0:0,0:0:0:0:
336,104,90494,1,0,0:0:0:0:
420,100,90625,2,0,L|420:212,1,83.6000025512696,0|0,0:0|0:0,0:0:0:0:
208,340,90888,6,0,L|104:340,1,83.6000025512696,0|0,3:0|0:0,0:0:0:0:
40,336,91150,1,0,0:0:0:0:
40,252,91281,2,0,L|164:252,1,83.6000025512696,0|0,3:0|3:0,0:0:0:0:
252,252,91543,2,0,L|252:160,1,83.6000025512696,8|0,3:2|0:0,0:0:0:0:
168,172,91806,2,0,L|72:172,2,83.6000025512696,0|0|0,0:0|3:0|3:0,0:0:0:0:
368,356,92199,5,0,3:0:0:0:
434,340,92308,1,0,0:0:0:0:
476,286,92417,1,0,0:0:0:0:
474,218,92526,1,0,0:0:0:0:
429,167,92636,1,0,0:0:0:0:
361,156,92745,1,0,3:0:0:0:
256,348,92855,2,0,L|256:264,1,69.6666687927247,8|0,3:0|0:0,0:0:0:0:
328,276,93074,2,0,L|412:276,1,69.6666687927247,0|0,0:0|0:0,0:0:0:0:
468,272,93292,2,0,L|468:176,1,69.6666687927247,0|0,0:0|0:0,0:0:0:0:
280,196,93511,6,0,L|196:196,1,69.6666687927247,0|0,3:0|0:0,0:0:0:0:
280,196,93729,2,0,L|388:196,1,69.6666687927247,0|0,3:0|0:0,0:0:0:0:
280,196,93948,2,0,L|192:196,1,69.6666687927247,0|0,3:0|0:0,0:0:0:0:
317,241,94166,2,0,L|317:153,1,69.6666687927247,8|0,3:2|0:0,0:0:0:0:
249,177,94385,2,0,L|145:177,1,69.6666687927247,0|0,0:0|3:0,0:0:0:0:
249,177,94604,2,0,L|332:176,1,69.6666687927247,0|0,3:0|3:0,0:0:0:0:
112,364,94822,6,0,L|4:364,2,69.6666687927247,0|0|0,3:0|0:0|0:0,0:0:0:0:
184,296,95150,1,0,3:0:0:0:
114,296,95259,1,0,3:0:0:0:
44,296,95368,1,0,3:0:0:0:
152,224,95478,2,0,L|152:120,1,69.6666687927247,8|0,3:0|0:0,0:0:0:0:
84,156,95696,2,0,L|8:156,1,69.6666687927247,0|0,0:0|0:0,0:0:0:0:
14,156,95915,2,0,L|104:156,1,69.6666687927247,0|0,0:0|0:0,0:0:0:0:
304,352,96134,6,0,L|304:268,1,69.6666687927247,0|0,3:0|0:0,0:0:0:0:
236,288,96352,2,0,L|236:192,1,69.6666687927247,0|0,0:0|0:0,0:0:0:0:
308,216,96571,2,0,L|392:216,1,69.6666687927247,0|0,3:0|3:0,0:0:0:0:
272,332,96789,1,8,3:2:0:0:
204,326,96898,1,0,0:0:0:0:
158,276,97007,1,0,0:0:0:0:
159,208,97116,1,0,3:0:0:0:
207,159,97226,1,0,3:0:0:0:
275,156,97335,1,0,3:0:0:0:
460,360,97445,6,0,P|480:280|440:136,1,209.000006378174,2|2,0:0|0:0,0:0:0:0:
384,160,97882,1,2,0:0:0:0:
312,160,97992,1,2,0:0:0:0:
380,160,98101,1,2,0:0:0:0:
448,160,98210,1,2,0:0:0:0:
380,160,98319,1,2,0:0:0:0:
180,164,98429,1,8,0:0:0:0:
412,348,98757,5,0,3:0:0:0:
475,348,98850,1,0,0:0:0:0:
477,284,98944,1,0,3:0:0:0:
413,284,99038,1,0,3:0:0:0:
349,284,99131,1,0,0:0:0:0:
413,284,99225,1,0,3:0:0:0:
477,284,99319,1,0,3:0:0:0:
304,244,99412,5,8,3:0:0:0:
240,241,99506,1,0,0:0:0:0:
240,177,99600,1,0,3:0:0:0:
303,176,99693,1,0,3:0:0:0:
366,175,99787,1,0,0:0:0:0:
416,135,99881,1,0,3:0:0:0:
362,101,99974,1,0,3:0:0:0:
208,348,100068,6,0,L|112:348,2,70.5714253409251,0|0|0,3:0|3:0|3:0,0:0:0:0:
280,344,100349,2,0,L|280:252,1,70.5714253409251,0|0,3:0|3:0,0:0:0:0:
208,276,100536,2,0,L|208:188,1,70.5714253409251,0|0,0:0|3:0,0:0:0:0:
376,360,100724,5,0,3:0:0:0:
440,336,100817,1,0,0:0:0:0:
484,280,100911,1,0,3:0:0:0:
496,208,101005,1,0,3:0:0:0:
472,144,101099,1,0,3:0:0:0:
420,96,101192,1,0,0:0:0:0:
353,81,101286,1,0,3:0:0:0:
168,348,101380,6,0,L|168:260,1,70.5714253409251,0|0,3:0|0:0,0:0:0:0:
231,277,101567,2,0,L|231:181,1,70.5714253409251,0|0,3:0|0:0,0:0:0:0:
167,205,101754,1,0,3:0:0:0:
103,207,101848,1,0,0:0:0:0:
167,205,101942,1,0,3:0:0:0:
336,348,102035,5,8,3:0:0:0:
376,288,102129,1,0,3:0:0:0:
380,220,102223,1,0,3:0:0:0:
352,156,102316,1,0,3:0:0:0:
300,112,102410,1,0,3:0:0:0:
228,92,102504,1,0,3:0:0:0:
163,109,102597,1,0,3:0:0:0:
336,252,102691,6,0,L|405:195,2,70.5714253409251,0|0|0,3:0|3:0|3:0,0:0:0:0:
272,251,102972,2,0,L|201:189,1,70.5714253409251,0|0,3:0|3:0,0:0:0:0:
273,214,103159,2,0,L|351:152,1,70.5714253409251,0|0,3:0|3:0,0:0:0:0:
148,352,103347,6,0,L|148:268,1,70.5714253409251,0|0,3:0|3:0,0:0:0:0:
211,280,103534,2,0,L|283:239,1,70.5714253409251,0|0,3:0|3:0,0:0:0:0:
208,240,103721,2,0,L|121:197,2,70.5714253409251,0|0|0,3:0|0:0|0:0,0:0:0:0:
400,356,104002,5,0,3:0:0:0:
455,330,104083,1,0,3:0:0:0:
494,283,104165,1,0,3:0:0:0:
508,223,104247,1,0,3:0:0:0:
494,164,104329,1,0,3:0:0:0:
456,116,104411,1,0,0:0:0:0:
400,90,104493,1,0,3:0:0:0:
339,92,104575,1,0,3:0:0:0:
168,360,104658,6,0,L|168:292,1,56.9999982604981,8|0,3:0|3:0,0:0:0:0:
219,300,104822,2,0,L|219:232,1,56.9999982604981,0|0,3:0|3:0,0:0:0:0:
167,240,104986,2,0,L|95:240,1,56.9999982604981,0|0,3:0|3:0,0:0:0:0:
106,188,105150,2,0,L|202:188,1,56.9999982604981,0|0,0:0|3:0,0:0:0:0:
332,244,105314,6,0,L|332:176,1,56.9999982604981,0|0,3:0|3:0,0:0:0:0:
280,183,105478,2,0,L|280:103,1,56.9999982604981,0|0,3:0|3:0,0:0:0:0:
334,124,105642,2,0,L|398:124,1,56.9999982604981,0|0,3:0|3:0,0:0:0:0:
442,125,105806,2,0,L|362:125,1,56.9999982604981,0|0,3:0|0:0,0:0:0:0:
224,352,105970,6,0,L|224:288,1,56.9999982604981,0|0,3:0|0:0,0:0:0:0:
275,294,106134,2,0,L|359:294,1,56.9999982604981,0|0,3:0|3:0,0:0:0:0:
383,292,106298,2,0,L|383:220,1,56.9999982604981,0|0,3:0|0:0,0:0:0:0:
236,228,106461,1,0,3:0:0:0:
208,228,106501,1,0,3:0:0:0:
236,224,106542,1,0,3:0:0:0:
376,224,106625,5,0,3:0:0:0:
428,200,106706,1,0,3:0:0:0:
428,144,106788,1,0,3:0:0:0:
368,116,106870,1,0,3:0:0:0:
312,116,106953,2,0,L|236:116,1,56.9999982604981,0|0,3:0|0:0,0:0:0:0:
196,116,107117,2,0,L|196:40,1,56.9999982604981,0|0,3:0|3:0,0:0:0:0:
336,352,107281,5,8,3:0:0:0:
388,328,107362,1,0,3:0:0:0:
388,272,107444,1,0,3:0:0:0:
340,240,107526,1,0,3:0:0:0:
184,236,107609,1,0,3:0:0:0:
165,204,107649,1,0,3:0:0:0:
184,174,107690,1,0,3:0:0:0:
240,168,107773,2,0,L|240:96,1,56.9999982604981,0|0,3:0|3:0,0:0:0:0:
80,360,107937,5,0,3:0:0:0:
52,356,107978,1,0,3:0:0:0:
31,334,108019,1,0,3:0:0:0:
28,283,108101,1,0,3:0:0:0:
102,264,108183,1,0,3:0:0:0:
176,260,108265,1,0,3:0:0:0:
204,260,108305,1,0,3:0:0:0:
233,260,108346,1,0,3:0:0:0:
290,262,108429,1,0,3:0:0:0:
290,262,108511,1,0,3:0:0:0:
116,208,108593,5,0,3:0:0:0:
88,208,108633,1,0,3:0:0:0:
116,208,108674,1,0,3:0:0:0:
264,204,108757,1,0,3:0:0:0:
292,204,108797,1,0,3:0:0:0:
264,204,108838,1,0,3:0:0:0:
112,328,108921,1,0,3:0:0:0:
82,320,108961,1,0,3:0:0:0:
60,298,109002,1,0,3:0:0:0:
61,239,109084,1,0,3:0:0:0:
112,211,109166,1,0,3:0:0:0:
368,360,109248,6,0,P|436:308|332:228,1,227.999993041992,2|0,3:2|0:0,0:0:0:0:
248,224,109740,1,2,0:0:0:0:
361,218,109904,2,0,L|116:220,1,227.999993041992,2|2,0:0|0:0,0:0:0:0:
364,348,110560,6,0,P|440:276|340:220,1,227.999993041992,2|2,0:0|0:0,0:0:0:0:
252,212,111052,1,2,0:0:0:0:
28,124,111216,2,0,L|148:124,2,113.999996520996,2|2|2,3:2|3:2|3:2,0:0:0:0:
256,360,111707,6,0,P|324:312|232:224,1,227.999993041992,6|0,3:2|0:0,0:0:0:0:
88,216,112199,2,0,L|88:96,1,113.999996520996,2|0,0:2|0:2,0:0:0:0:
204,108,112527,2,0,L|72:108,1,113.999996520996,10|0,3:2|0:2,0:0:0:0:
204,108,112855,2,0,L|204:256,1,113.999996520996,2|0,0:2|0:2,0:0:0:0:
88,220,113183,6,0,L|228:220,1,113.999996520996,2|0,3:2|0:2,0:0:0:0:
316,220,113511,2,0,L|200:220,1,113.999996520996,2|0,0:2|0:2,0:0:0:0:
424,360,113839,2,0,P|488:328|400:232,1,227.999993041992,10|2,3:2|0:2,0:0:0:0:
244,312,114330,6,0,L|472:216,1,227.999993041992,2|2,3:2|0:2,0:0:0:0:
344,196,114822,2,0,L|232:152,1,113.999996520996,2|2,0:2|0:2,0:0:0:0:
468,144,115150,1,8,3:2:0:0:
140,328,116327,5,2,0:0:0:0:
228,328,116849,1,2,0:0:0:0:
120,328,117225,1,2,0:0:0:0:
252,328,117600,1,2,0:0:0:0:
96,328,117907,1,2,0:0:0:0:
228,324,118215,1,2,0:0:0:0:
72,324,118487,1,2,0:0:0:0:
256,324,118760,1,2,0:0:0:0:
48,324,119016,2,0,L|48:220,1,95,2|2,0:0|0:0,0:0:0:0:
304,236,119271,6,0,L|392:172,2,95,2|2|2,3:2|3:2|3:2,0:0:0:0:
112,236,119624,5,6,3:2:0:0:
44,179,119733,1,0,0:0:0:0:
112,236,119842,1,0,0:2:0:0:
304,348,119951,2,0,L|304:232,1,95,10|0,3:2|0:2,0:0:0:0:
192,256,120169,2,0,L|192:140,1,95,10|0,3:2|0:2,0:0:0:0:
304,160,120387,2,0,L|304:268,1,95,10|0,3:2|0:2,0:0:0:0:
192,256,120605,6,0,L|192:144,1,95,10|0,3:2|0:2,0:0:0:0:
304,156,120823,2,0,L|304:264,1,95,10|0,3:2|0:2,0:0:0:0:
120,252,121042,2,0,L|36:188,2,95,10|2|10,3:2|3:2|3:2,0:0:0:0:
320,360,121369,6,0,P|376:292|304:236,1,190,2|0,3:2|0:2,0:0:0:0:
220,240,121696,1,10,3:2:0:0:
124,240,121805,2,0,L|124:128,1,95,2|8,0:2|3:2,0:0:0:0:
220,144,122023,1,0,0:2:0:0:
316,140,122133,2,0,L|316:240,1,95,10|2,3:2|0:2,0:0:0:0:
104,356,122351,5,10,3:2:0:0:
36,352,122460,1,0,0:2:0:0:
36,352,122569,1,10,3:2:0:0:
104,356,122678,1,0,0:2:0:0:
296,360,122787,2,0,L|372:296,2,95,10|0|8,3:2|3:2|3:2,0:0:0:0:
120,356,123114,6,0,L|284:224,1,190,6|0,3:2|0:2,0:0:0:0:
356,232,123442,2,0,L|356:112,1,95,10|0,3:2|0:2,0:0:0:0:
272,136,123660,2,0,L|272:256,1,95,10|0,3:2|0:2,0:0:0:0:
356,232,123878,2,0,L|356:332,1,95,10|0,3:2|0:2,0:0:0:0:
164,356,124096,6,0,L|88:272,1,95,10|0,3:2|0:2,0:0:0:0:
184,256,124314,2,0,L|184:136,1,95,10|0,3:2|0:2,0:0:0:0:
100,285,124533,2,0,L|192:224,1,95,10|2,3:2|3:2,0:0:0:0:
264,168,124751,1,10,3:2:0:0:
480,356,124860,6,0,B|480:120,1,190,2|0,3:2|0:2,0:0:0:0:
404,168,125187,1,10,3:2:0:0:
328,168,125296,1,0,0:2:0:0:
404,168,125405,1,10,3:2:0:0:
480,168,125514,1,0,0:2:0:0:
484,92,125623,1,10,3:2:0:0:
408,96,125733,1,0,0:2:0:0:
224,360,125842,5,10,3:2:0:0:
224,284,125942,1,0,3:2:0:0:
300,280,126042,1,10,3:2:0:0:
300,204,126142,1,0,3:2:0:0:
136,212,126242,2,0,L|68:132,2,95,2|2|2,3:2|3:2|3:2,0:0:0:0:
316,356,126547,6,0,L|392:288,1,95,6|0,3:2|0:2,0:0:0:0:
316,356,126737,1,0,0:2:0:0:
220,352,126832,2,0,L|220:244,1,95,10|0,3:2|0:2,0:0:0:0:
316,260,127022,2,0,L|316:132,1,95,10|0,3:2|0:2,0:0:0:0:
220,352,127213,2,0,L|220:244,1,95,10|0,3:2|0:2,0:0:0:0:
316,260,127403,6,0,L|316:132,1,95,10|0,3:2|0:2,0:0:0:0:
220,352,127594,2,0,L|220:244,1,95,10|0,3:2|0:2,0:0:0:0:
396,256,127784,2,0,L|440:164,2,95,10|2|10,3:2|3:2|3:2,0:0:0:0:
216,264,128070,6,0,P|176:208|224:100,1,190,2|0,3:2|0:2,0:0:0:0:
292,100,128356,1,10,3:2:0:0:
368,100,128451,1,2,0:2:0:0:
292,100,128546,1,8,3:2:0:0:
292,176,128642,1,0,0:2:0:0:
368,180,128737,1,10,3:2:0:0:
368,100,128832,1,2,0:2:0:0:
192,352,128927,5,10,3:2:0:0:
192,276,129022,1,0,0:2:0:0:
268,276,129118,1,10,3:2:0:0:
344,276,129213,1,0,0:2:0:0:
184,204,129308,2,0,L|112:116,2,95,10|0|8,3:2|3:2|3:2,0:0:0:0:
356,348,129594,6,0,P|396:300|344:192,1,190,6|0,3:2|0:2,0:0:0:0:
272,192,129880,2,0,L|272:88,1,95,10|0,3:2|0:2,0:0:0:0:
348,96,130070,1,10,3:2:0:0:
348,20,130165,1,0,0:2:0:0:
280,20,130261,1,10,3:2:0:0:
212,20,130356,1,0,0:2:0:0:
388,360,130451,5,10,3:2:0:0:
456,360,130546,1,2,0:2:0:0:
456,292,130641,1,10,3:2:0:0:
388,292,130737,1,2,0:2:0:0:
320,296,130832,1,10,3:2:0:0:
252,296,130927,1,0,3:2:0:0:
252,228,131022,1,8,3:2:0:0:
412,196,131118,5,2,3:2:0:0:
412,128,131213,1,8,0:2:0:0:
344,128,131308,1,0,0:2:0:0:
344,60,131403,1,10,3:2:0:0:
412,64,131499,1,0,0:2:0:0:
412,160,131594,1,10,0:2:0:0:
344,128,131689,1,0,3:2:0:0:
276,128,131784,1,10,3:2:0:0:
276,60,131880,1,0,3:2:0:0:
448,352,131975,6,0,L|448:248,1,95,10|0,3:2|3:2,0:0:0:0:
272,268,132165,2,0,L|272:152,1,95,10|0,3:2|3:2,0:0:0:0:
452,176,132352,5,6,3:2:0:0:
452,176,132515,1,2,0:2:0:0:
452,176,132720,1,2,0:2:0:0:
156,360,132950,5,6,3:2:0:0:
296,360,133194,2,0,L|420:268,1,142.5,10|2,0:2|0:2,0:0:0:0:
176,260,133600,6,0,L|44:168,2,142.5,6|10|2,3:2|0:2|0:2,0:0:0:0:
388,268,134158,5,6,3:2:0:0:
264,264,134353,2,0,L|156:152,1,142.5,10|2,0:2|0:2,0:0:0:0:
360,200,134679,6,0,L|480:112,2,142.5,6|10|2,3:2|0:2|0:2,0:0:0:0:
168,352,135160,6,0,L|168:200,1,142.5,6|10,3:2|0:2,0:0:0:0:
284,212,135493,1,2,0:2:0:0:
480,212,135604,2,0,L|480:48,1,142.5,6|10,3:2|0:2,0:0:0:0:
368,76,135919,1,2,3:2:0:0:
168,216,136025,6,0,L|72:112,2,142.5,6|10|2,3:2|0:2|3:2,0:0:0:0:
352,376,136425,6,0,L|432:312,2,95,6|0|10,3:2|3:2|3:2,0:0:0:0:
112,360,136758,5,4,3:2:0:0:
256,192,136945,12,2,139758,3:2:0:0:
