osu file format v14

[General]
AudioFilename: audio.mp3
AudioLeadIn: 0
PreviewTime: 2455
Countdown: 0
SampleSet: Normal
StackLeniency: 0.7
Mode: 0
LetterboxInBreaks: 0
WidescreenStoryboard: 0

[Editor]
DistanceSpacing: 0.8
BeatDivisor: 4
GridSize: 16
TimelineZoom: 2.999999

[Metadata]
Title:FUCHINKAN CANDY
TitleUnicode:不沈艦CANDY
Artist:Risk Junk
ArtistUnicode:Risk Junk
Creator:PandaHero
Version:Insane
Source:beatmania IIDX 16 EMPRESS
Tags:gibune dj taka yellow ddr DanceDanceRevolution X2 ミライダガッキ FutureTomTom Ver.2 hardcore video game electronic instrumental
BeatmapID:3337013
BeatmapSetID:1413680

[Difficulty]
HPDrainRate:6
CircleSize:4
OverallDifficulty:7
ApproachRate:8
SliderMultiplier:1.4
SliderTickRate:1

[Events]
//Background and Video events
0,0,"bg.jpg",0,0
//Break Periods
//Storyboard Layer 0 (Background)
//Storyboard Layer 1 (Fail)
//Storyboard Layer 2 (Pass)
//Storyboard Layer 3 (Foreground)
//Storyboard Layer 4 (Overlay)
//Storyboard Sound Samples

[TimingPoints]
-18,319.148936170213,4,1,0,60,1,0
3811,-100,4,1,0,70,0,0
24556,-133.333333333333,4,2,0,60,0,0
24875,-100,4,1,0,60,0,0
25513,-100,4,1,0,65,0,0
53599,-100,4,1,0,70,0,0
56790,-200,4,2,0,60,0,0
75301,-133.333333333333,4,2,0,65,0,0
77854,-100,4,1,0,65,0,0
88067,-83.3333333333333,4,1,0,70,0,1
98279,-100,4,2,0,65,0,0
103386,-100,4,1,0,70,0,1
116790,-100,4,1,0,50,0,0
116870,-100,4,2,0,25,0,0
117747,-100,4,2,0,15,0,0
119024,-100,4,2,0,10,0,0
119982,-100,4,2,0,5,0,0

[Colours]
Combo1 : 255,94,55
Combo2 : 173,255,95
Combo3 : 17,254,176
Combo4 : 255,88,100

[HitObjects]
21,250,2535,6,0,P|28:217|30:165,1,70,4|0,0:0|0:0,0:0:0:0:
136,118,2854,2,0,P|129:151|127:203,1,70,0|0,0:0|0:0,0:0:0:0:
175,269,3173,1,0,0:0:0:0:
246,214,3333,1,0,0:0:0:0:
322,278,3492,1,0,0:0:0:0:
273,354,3652,1,0,0:0:0:0:
273,354,3732,1,0,0:0:0:0:
273,354,3811,6,0,P|214:346|174:342,1,70,4|2,0:0|0:2,0:0:0:0:
172,257,4130,2,0,P|231:265|271:269,1,70,8|2,0:0|0:2,0:0:0:0:
166,169,4450,2,0,P|89:177|61:246,1,140,0|0,0:0|0:0,0:0:0:0:
41,317,4928,2,0,B|33:246|29:212|22:156,1,140,4|2,0:2|0:2,0:0:0:0:
86,21,5407,2,0,P|91:60|98:105,1,70,8|2,0:0|0:2,0:0:0:0:
166,169,5726,1,0,0:0:0:0:
297,91,5886,1,2,0:2:0:0:
253,28,6045,1,8,0:0:0:0:
192,76,6205,1,8,0:0:0:0:
235,142,6364,6,0,L|273:226,1,70,0|2,0:0|0:2,0:0:0:0:
339,273,6684,2,0,L|365:191,1,70,8|2,0:0|0:2,0:0:0:0:
469,104,7003,2,0,P|377:118|321:123,1,140,4|0,0:2|0:0,0:0:0:0:
218,45,7482,2,0,P|310:31|366:26,1,140,2|2,0:2|0:2,0:0:0:0:
453,40,7960,1,8,0:0:0:0:
485,132,8120,1,0,0:0:0:0:
413,198,8279,1,0,0:0:0:0:
334,156,8439,1,2,0:2:0:0:
334,156,8519,1,0,0:0:0:0:
334,156,8599,1,8,0:0:0:0:
256,215,8758,1,8,0:0:0:0:
303,295,8918,6,0,L|347:365,1,70,4|2,0:0|0:2,0:0:0:0:
225,233,9237,2,0,L|223:315,1,70,8|2,0:0|0:2,0:0:0:0:
158,183,9556,2,0,L|111:251,1,70,0|2,0:0|0:2,0:0:0:0:
18,350,9875,1,8,0:0:0:0:
4,252,10035,1,8,0:0:0:0:
0,154,10194,2,2,P|8:105|33:4,1,140,4|8,0:2|0:2,0:0:0:0:
115,87,10673,2,2,P|107:136|82:237,1,140,4|2,0:2|0:2,0:0:0:0:
169,275,11152,1,8,0:0:0:0:
238,206,11311,1,8,0:0:0:0:
333,230,11471,5,0,0:0:0:0:
360,236,11551,1,0,0:0:0:0:
387,242,11630,1,2,0:2:0:0:
414,247,11710,1,0,0:0:0:0:
441,251,11790,2,0,L|435:191,3,35,8|0|2|0,0:0|0:0|0:2|0:0,0:0:0:0:
472,334,12109,5,0,0:0:0:0:
445,340,12189,1,0,0:0:0:0:
418,346,12268,1,2,0:2:0:0:
391,351,12348,1,0,0:0:0:0:
364,355,12428,2,0,L|370:295,3,35,8|0|2|0,0:0|0:0|0:2|0:0,0:0:0:0:
285,293,12747,5,0,0:0:0:0:
197,337,12907,1,2,0:2:0:0:
139,257,13067,1,8,0:0:0:0:
209,189,13226,1,0,0:0:0:0:
209,189,13306,1,0,0:0:0:0:
209,189,13386,1,0,0:0:0:0:
229,93,13545,1,2,0:2:0:0:
137,56,13705,1,8,0:0:0:0:
109,62,13785,1,0,0:0:0:0:
82,69,13864,1,0,0:0:0:0:
55,76,13944,1,0,0:0:0:0:
28,84,14024,6,0,P|36:124|48:175,1,70,4|2,0:0|0:2,0:0:0:0:
112,262,14343,2,0,P|120:221|132:171,1,70,8|2,0:0|0:2,0:0:0:0:
213,79,14662,2,0,P|227:144|245:238,1,140,0|0,0:0|0:0,0:0:0:0:
331,353,15141,2,0,P|345:288|363:194,1,140,4|2,0:2|0:2,0:0:0:0:
380,113,15620,1,8,0:0:0:0:
476,159,15779,1,2,0:2:0:0:
476,159,15859,1,0,0:0:0:0:
476,159,15939,1,0,0:0:0:0:
406,89,16099,1,2,0:2:0:0:
241,137,16258,2,0,L|325:158,1,70,8|8,0:0|0:0,0:0:0:0:
207,41,16577,6,0,L|123:62,1,70,0|2,0:0|0:2,0:0:0:0:
32,87,16896,2,0,L|46:170,1,70,8|2,0:0|0:2,0:0:0:0:
118,280,17216,2,0,P|134:178|145:116,1,140,0|0,0:0|0:0,0:0:0:0:
23,245,17694,2,0,P|39:347|50:409,1,140,4|2,0:2|0:2,0:0:0:0:
143,382,18173,1,8,0:0:0:0:
206,307,18333,1,2,0:2:0:0:
143,230,18492,5,0,0:0:0:0:
288,310,18652,1,2,0:2:0:0:
305,217,18811,5,8,0:0:0:0:
388,348,18971,1,8,0:0:0:0:
463,258,19130,6,0,P|472:197|472:169,1,70,4|2,0:0|0:2,0:0:0:0:
395,128,19450,2,0,P|386:189|386:217,1,70,8|2,0:0|0:2,0:0:0:0:
472,95,19769,2,0,P|481:34|481:6,2,70,0|2|8,0:0|0:2|0:0,0:0:0:0:
305,142,20247,1,8,0:0:0:0:
305,142,20327,1,0,0:0:0:0:
305,142,20407,2,2,P|254:99|280:28,1,140,4|8,0:2|0:0,0:0:0:0:
208,202,20886,2,2,P|259:245|233:316,1,140,4|2,0:2|0:2,0:0:0:0:
151,345,21364,1,8,0:0:0:0:
65,297,21524,1,8,0:0:0:0:
86,201,21684,5,0,0:0:0:0:
82,173,21763,1,0,0:0:0:0:
78,145,21843,1,2,0:2:0:0:
73,117,21923,1,0,0:0:0:0:
68,89,22003,2,0,L|58:30,3,35,8|0|2|0,0:0|0:0|0:2|0:0,0:0:0:0:
134,20,22322,5,0,0:0:0:0:
162,24,22401,1,0,0:0:0:0:
190,28,22481,1,2,0:2:0:0:
218,33,22561,1,0,0:0:0:0:
246,38,22641,2,0,L|305:48,3,35,8|0|2|0,0:0|0:0|0:2|0:0,0:0:0:0:
345,120,22960,6,0,P|297:124|222:141,1,105,4|0,0:2|0:0,0:0:0:0:
213,133,23279,2,0,L|227:221,1,70,8|2,0:0|2:2,0:0:0:0:
238,226,23519,1,0,0:0:0:0:
256,246,23599,2,0,L|242:334,1,70,4|2,0:2|0:2,0:0:0:0:
348,359,23918,1,8,0:0:0:0:
354,331,23997,1,0,0:0:0:0:
361,303,24077,1,0,0:0:0:0:
367,275,24157,1,0,0:0:0:0:
370,247,24237,1,4,0:0:0:0:
447,31,24556,6,2,L|464:135,2,105.000004005432,2|0|2,1:0|0:0|0:0,0:0:0:0:
197,132,25513,6,0,L|218:251,1,105,4|0,0:0|0:0,0:0:0:0:
236,254,25833,2,0,L|208:331,1,70,8|0,0:0|0:0,0:0:0:0:
107,368,26152,2,0,L|93:273,1,70,0|2,0:2|0:3,0:0:0:0:
24,206,26471,2,0,L|6:287,1,70,8|2,0:0|0:3,0:0:0:0:
54,117,26790,6,0,P|119:143|159:155,1,105,0|0,0:0|0:0,0:0:0:0:
177,164,27109,1,8,0:0:0:0:
269,126,27269,1,0,0:0:0:0:
269,126,27349,1,8,0:2:0:0:
238,38,27508,1,0,0:0:0:0:
238,38,27588,1,8,0:2:0:0:
141,22,27747,1,8,0:0:0:0:
177,113,27907,1,2,0:3:0:0:
269,126,28067,6,0,P|336:112|401:104,1,105,0|0,0:0|0:0,0:0:0:0:
398,115,28386,1,8,0:0:0:0:
478,169,28545,1,0,0:0:0:0:
478,169,28625,1,8,0:2:0:0:
421,249,28785,1,0,0:0:0:0:
421,249,28864,1,8,0:2:0:0:
330,210,29024,1,8,0:0:0:0:
257,275,29184,1,2,0:3:0:0:
317,351,29343,6,0,P|366:333|396:331,1,70,0|0,0:0|0:0,0:0:0:0:
257,275,29662,2,0,P|260:223|260:182,1,70,8|0,0:0|0:0,0:0:0:0:
251,178,29902,1,8,0:2:0:0:
213,93,30061,1,0,0:0:0:0:
213,93,30141,1,8,0:2:0:0:
115,84,30301,1,8,0:0:0:0:
62,166,30460,1,2,0:3:0:0:
39,261,30620,6,0,P|32:306|23:342,1,70,4|0,0:2|2:0,0:0:0:0:
145,203,30939,2,0,P|128:262|119:315,1,105,8|2,0:0|0:3,0:0:0:0:
125,332,31258,1,0,0:0:0:0:
214,372,31418,1,2,0:3:0:0:
299,325,31577,1,8,0:0:0:0:
273,230,31737,1,2,0:3:0:0:
208,289,31896,6,0,P|263:281|297:281,1,70,0|0,0:0|2:0,0:0:0:0:
342,148,32216,2,0,P|264:154|215:158,1,105,8|8,0:0|0:2,0:0:0:0:
209,160,32535,2,0,P|216:111|215:74,1,70,0|8,0:0|0:2,0:0:0:0:
302,0,32854,2,0,P|295:49|296:86,1,70,8|2,0:0|0:3,0:0:0:0:
397,70,33173,6,0,P|440:57|478:51,1,70,0|0,0:0|2:0,0:0:0:0:
489,147,33492,2,0,P|473:211|459:271,1,105,8|2,0:0|0:3,0:0:0:0:
436,253,33811,2,0,P|443:311|443:338,1,70,0|2,0:0|0:3,0:0:0:0:
351,358,34130,1,8,0:0:0:0:
284,285,34290,1,2,0:3:0:0:
344,207,34450,1,0,0:0:0:0:
250,179,34609,6,0,L|246:151,4,17.5,2|0|0|0|0,0:0|0:0|0:0|0:0|0:0,0:0:0:0:
315,74,34928,2,0,L|314:98,4,17.5,2|0|0|0|0,0:0|0:0|0:0|0:0|0:0,0:0:0:0:
216,23,35247,1,2,0:0:0:0:
110,51,35407,1,8,0:0:0:0:
100,77,35487,1,0,0:0:0:0:
90,103,35567,1,0,0:0:0:0:
78,128,35646,1,0,0:0:0:0:
65,153,35726,6,0,P|76:191|84:235,1,70,4|2,0:0|2:0,0:0:0:0:
99,317,36045,2,0,P|164:286|204:271,1,105,8|0,0:0|2:0,0:0:0:0:
220,263,36364,1,0,0:0:0:0:
315,284,36524,1,2,0:2:0:0:
283,377,36684,1,8,0:0:0:0:
189,350,36843,1,2,0:2:0:0:
220,263,37003,6,0,L|216:173,2,70,0|2|8,0:0|0:2|0:0,0:0:0:0:
315,284,37482,1,0,0:0:0:0:
315,284,37561,1,8,0:2:0:0:
367,200,37721,1,0,0:0:0:0:
367,200,37801,1,8,0:2:0:0:
308,121,37960,1,8,0:0:0:0:
377,51,38120,1,2,0:3:0:0:
466,90,38279,6,0,P|459:123|451:164,1,70,0|0,0:0|2:0,0:0:0:0:
373,203,38599,2,0,P|380:236|388:277,1,70,8|0,0:0|2:0,0:0:0:0:
371,295,38838,1,8,0:2:0:0:
291,350,38997,1,0,0:0:0:0:
291,350,39077,1,8,0:2:0:0:
211,292,39237,1,8,0:0:0:0:
251,203,39396,1,2,0:3:0:0:
175,140,39556,6,0,P|177:96|181:53,1,70,0|0,0:0|2:0,0:0:0:0:
79,27,39875,2,0,P|71:99|68:149,1,105,8|2,0:0|0:3,0:0:0:0:
49,152,40194,2,0,L|67:231,1,70,0|2,0:0|0:3,0:0:0:0:
136,299,40513,2,0,L|153:215,1,70,8|2,0:0|0:3,0:0:0:0:
229,171,40833,5,4,0:0:0:0:
229,171,41152,2,0,P|285:182|356:193,1,105,8|2,0:0|0:3,0:0:0:0:
356,175,41471,2,0,L|335:266,1,70,0|2,0:0|0:3,0:0:0:0:
423,313,41790,2,0,L|444:222,1,70,8|2,0:0|0:3,0:0:0:0:
445,146,42109,6,0,P|454:86|464:29,1,105,0|0,0:0|0:0,0:0:0:0:
447,17,42428,1,8,0:0:0:0:
356,48,42588,1,0,2:0:0:0:
356,48,42668,1,8,0:2:0:0:
297,126,42827,1,0,0:0:0:0:
297,126,42907,1,8,0:2:0:0:
342,212,43067,1,8,0:0:0:0:
263,270,43226,1,2,0:3:0:0:
172,232,43386,6,0,P|89:221|73:221,1,70,0|2,0:0|2:2,0:0:0:0:
30,131,43705,2,0,P|84:134|154:142,1,105,8|0,0:0|0:0,0:0:0:0:
162,142,44024,2,0,P|151:96|145:60,1,70,0|2,0:0|0:3,0:0:0:0:
218,0,44343,2,0,P|229:46|235:82,1,70,8|8,0:0|0:2,0:0:0:0:
266,158,44662,5,4,0:2:0:0:
345,100,44822,2,0,P|403:113|506:113,1,140,2|2,0:0|0:0,0:0:0:0:
428,206,45301,2,0,L|388:203,2,35,0|0|4,0:0|0:0|0:2,0:0:0:0:
509,287,45620,1,8,0:0:0:0:
482,291,45700,1,0,0:0:0:0:
455,294,45779,1,2,0:3:0:0:
428,296,45859,1,0,0:0:0:0:
401,299,45939,5,4,0:0:0:0:
297,322,46099,2,0,P|288:266|238:170,1,140,2|2,0:0|0:0,0:0:0:0:
163,229,46577,2,0,L|150:285,2,35,0|0|4,0:0|0:0|0:2,0:0:0:0:
141,142,46896,1,8,0:0:0:0:
136,114,46976,1,0,0:0:0:0:
129,86,47056,1,2,0:3:0:0:
121,58,47136,1,0,0:0:0:0:
113,30,47216,5,4,0:0:0:0:
40,138,47375,2,0,P|25:218|18:302,1,140,2|2,0:0|0:0,0:0:0:0:
115,311,47854,2,0,L|105:257,2,35,0|0|4,0:0|0:0|0:2,0:0:0:0:
194,362,48173,1,8,0:0:0:0:
203,335,48253,1,0,0:0:0:0:
212,308,48333,1,2,0:3:0:0:
218,281,48412,1,0,0:0:0:0:
226,254,48492,5,4,0:0:0:0:
327,171,48652,2,0,P|387:188|473:202,1,140,2|2,0:0|0:0,0:0:0:0:
414,99,49130,2,0,L|357:95,2,35,0|0|4,0:0|0:0|0:2,0:0:0:0:
299,42,49450,1,8,0:0:0:0:
272,48,49529,1,0,0:0:0:0:
244,54,49609,1,2,0:3:0:0:
217,63,49689,1,0,0:0:0:0:
188,63,49769,6,2,L|96:55,1,70,4|0,0:2|0:0,0:0:0:0:
23,135,50088,2,0,L|115:143,1,70,8|0,0:0|0:0,0:0:0:0:
117,154,50327,1,0,0:0:0:0:
140,169,50407,6,2,L|119:248,1,70,4|0,0:2|0:0,0:0:0:0:
193,331,50726,2,0,L|214:252,1,70,8|0,0:0|0:0,0:0:0:0:
229,242,50966,1,0,0:0:0:0:
247,221,51045,6,2,L|336:241,1,70,4|0,0:2|0:0,0:0:0:0:
432,170,51364,2,0,L|343:150,1,70,8|0,0:0|0:0,0:0:0:0:
338,140,51604,1,0,0:0:0:0:
313,125,51684,6,2,L|330:40,1,70,4|0,0:2|0:0,0:0:0:0:
443,0,52003,2,0,L|426:76,1,70,8|0,0:0|0:0,0:0:0:0:
426,96,52242,1,0,0:0:0:0:
437,121,52322,6,2,L|463:202,1,70,4|0,0:0|0:0,0:0:0:0:
388,256,52641,2,2,L|362:175,1,70,4|0,0:2|0:0,0:0:0:0:
252,105,52960,6,2,L|238:197,1,70,4|0,0:0|0:0,0:0:0:0:
144,248,53279,2,2,L|158:156,1,70,4|0,0:2|0:0,0:0:0:0:
80,125,53599,6,2,L|63:129,6,17.5,4|0|0|0|0|0|0,0:0|0:0|0:0|0:0|0:0|0:0|0:0,0:0:0:0:
30,156,53918,2,2,L|13:160,6,17.5,4|0|0|0|0|0|0,0:0|0:0|0:0|0:0|0:0|0:0|0:0,0:0:0:0:
5,196,54237,6,2,L|22:200,6,17.5,4|0|0|0|0|0|0,0:0|0:0|0:0|0:0|0:0|0:0|0:0,0:0:0:0:
55,227,54556,2,2,L|72:231,8,17.5,4|0|0|0|0|0|0|0|4,0:0|0:0|0:0|0:0|0:0|0:0|0:0|0:0|0:0,0:0:0:0:
43,318,56790,5,0,0:0:0:0:
110,354,57109,1,0,0:0:0:0:
151,288,57428,2,0,L|135:144,2,140,0|2|0,1:0|0:0|0:0,0:0:0:0:
298,250,59024,5,2,0:0:0:0:
241,197,59343,1,0,0:0:0:0:
309,161,59662,1,2,0:0:0:0:
252,108,59982,2,0,L|260:28,1,70,0|2,1:0|0:0,0:0:0:0:
258,38,60460,1,0,0:0:0:0:
333,9,60620,2,2,P|405:21|479:34,1,140,0|0,1:0|0:0,0:0:0:0:
501,186,61577,6,0,P|466:179|428:175,2,70,2|0|2,0:0|0:0|0:0,0:0:0:0:
365,122,62535,2,2,P|329:159|313:257,1,140,0|0,1:0|1:0,0:0:0:0:
179,358,63811,6,0,P|168:289|124:236,1,140,0|0,0:0|0:0,0:0:0:0:
53,207,64769,1,2,0:0:0:0:
53,283,65088,1,0,1:0:0:0:
188,171,65407,6,2,P|194:124|172:31,1,140,2|0,0:0|0:0,0:0:0:0:
96,39,66364,2,0,P|56:52|28:61,2,70,0|2|0,1:0|0:0|0:0,0:0:0:0:
255,15,67322,5,0,0:0:0:0:
255,15,67482,1,2,0:0:0:0:
255,15,67641,2,0,L|245:162,1,140,4|2,1:2|0:0,0:0:0:0:
245,154,68599,1,0,0:0:0:0:
332,204,68918,2,0,L|340:131,1,70,0|2,1:0|0:0,0:0:0:0:
416,67,69556,2,0,L|424:140,1,70,0|2,0:0|0:0,0:0:0:0:
491,218,70194,5,0,1:0:0:0:
491,218,70513,2,0,L|448:234,1,35,2|0,0:0|0:0,0:0:0:0:
401,281,70833,2,2,P|341:289|274:246,1,140,0|0,1:0|0:0,0:0:0:0:
179,140,71790,5,0,1:0:0:0:
228,81,72109,1,2,0:0:0:0:
181,19,72428,1,0,0:0:0:0:
104,27,72747,2,2,L|122:178,1,140,0|2,1:0|0:0,0:0:0:0:
120,166,73705,1,0,0:0:0:0:
65,220,74024,2,0,L|33:287,1,70,0|2,1:0|0:0,0:0:0:0:
92,363,74662,2,0,L|124:296,1,70,0|2,1:0|0:0,0:0:0:0:
219,211,75301,6,0,P|270:222|330:230,3,105.000004005432,0|0|0|0,1:0|1:0|1:0|1:0,0:0:0:0:
398,127,76577,2,0,P|344:143|299:146,1,78.7500030040742,0|0,1:0|0:0,0:0:0:0:
307,130,76896,2,0,L|303:110,6,13.125000500679,0|0|0|0|0|0|0,3:0|3:0|3:0|3:0|3:0|3:0|3:0,3:3:0:0:
356,58,77216,2,0,L|341:5,1,52.5000020027161,0|0,1:0|1:0,0:0:0:0:
469,82,77535,1,0,1:0:0:0:
475,101,77614,1,0,1:0:0:0:
480,121,77694,1,0,1:0:0:0:
486,140,77774,1,0,1:0:0:0:
492,160,77854,6,0,P|486:200|477:235,1,70,6|8,0:0|0:2,0:0:0:0:
380,299,78173,2,0,P|386:259|395:224,1,70,8|8,0:0|0:2,0:0:0:0:
315,173,78492,2,0,P|254:189|243:253,1,105,2|8,0:0|0:0,0:0:0:0:
240,251,78811,1,0,0:0:0:0:
176,325,78971,1,8,0:0:0:0:
86,286,79130,1,0,0:0:0:0:
86,286,79450,6,0,P|95:228|84:168,1,105,10|0,0:0|2:0,0:0:0:0:
92,154,79769,2,0,P|46:177|1:182,1,70,2|0,0:0|0:0,0:0:0:0:
101,53,80088,2,0,P|150:68|208:100,1,105,10|0,0:0|0:0,0:0:0:0:
219,110,80407,6,0,P|269:98|325:57,1,105,2|0,0:0|0:0,0:0:0:0:
335,51,80726,1,10,0:0:0:0:
423,93,80886,1,10,0:0:0:0:
356,164,81045,2,0,P|351:204|346:258,2,70,2|0|0,0:0|0:0|0:0,0:0:0:0:
450,229,81524,1,8,0:0:0:0:
450,229,81604,1,0,0:0:0:0:
450,229,81684,2,0,P|457:277|444:351,1,105,0|0,0:0|0:0,0:0:0:0:
434,356,82003,6,0,P|396:349|343:342,1,70,10|0,0:0|0:0,0:0:0:0:
246,300,82322,1,2,0:0:0:0:
311,227,82482,1,8,0:2:0:0:
246,153,82641,1,10,0:0:0:0:
310,78,82801,1,8,0:2:0:0:
230,21,82960,6,0,P|176:49|164:129,1,140,6|10,0:0|0:0,0:0:0:0:
161,121,83439,1,2,0:0:0:0:
97,200,83599,2,0,P|81:157|65:122,1,70,2|0,0:0|0:0,0:0:0:0:
158,281,83918,2,0,P|174:238|190:203,1,70,0|8,0:0|0:0,0:0:0:0:
72,340,84237,1,0,0:0:0:0:
72,340,84556,6,0,P|130:320|195:322,1,105,10|0,0:0|0:0,0:0:0:0:
188,295,84875,2,0,P|239:328|272:337,1,70,2|0,0:0|0:0,0:0:0:0:
353,355,85194,2,0,P|328:307|315:231,1,105,10|0,0:0|0:0,0:0:0:0:
315,229,85513,6,0,P|344:197|362:164,1,70,0|0,0:0|0:0,0:0:0:0:
512,255,85833,2,0,P|472:247|408:245,1,105,10|8,0:0|0:0,0:0:0:0:
413,272,86152,1,0,0:0:0:0:
357,173,86311,1,8,0:0:0:0:
438,118,86471,1,2,0:0:0:0:
389,45,86630,1,0,0:0:0:0:
389,45,86710,1,8,0:0:0:0:
389,45,86790,6,0,P|338:47|282:33,1,105,2|0,0:0|0:0,0:0:0:0:
263,17,87109,2,0,P|265:68|251:124,1,105,10|0,0:0|0:0,0:0:0:0:
235,142,87428,1,2,0:0:0:0:
141,111,87588,1,8,0:2:0:0:
53,154,87747,1,8,0:0:0:0:
61,180,87827,1,0,0:0:0:0:
70,206,87907,1,8,0:0:0:0:
81,231,87987,1,0,0:0:0:0:
99,259,88067,6,0,P|73:310|58:349,1,83.9999974365235,6|8,0:0|0:2,0:0:0:0:
188,241,88386,2,0,P|193:297|202:338,1,83.9999974365235,8|8,0:0|0:2,0:0:0:0:
228,163,88705,2,0,P|297:187|358:193,1,125.999996154785,2|8,0:0|0:0,0:0:0:0:
382,191,89024,1,0,0:0:0:0:
445,101,89184,1,8,0:0:0:0:
362,29,89343,6,0,P|285:37|250:48,1,83.9999974365235,0|8,0:0|0:2,0:0:0:0:
172,66,89662,2,0,P|206:132|212:206,1,125.999996154785,10|0,0:0|2:0,0:0:0:0:
233,209,89982,2,0,P|219:264|214:301,1,83.9999974365235,2|0,0:0|0:0,0:0:0:0:
104,352,90301,2,0,P|118:297|123:260,1,83.9999974365235,10|8,0:0|0:0,0:0:0:0:
27,205,90620,5,2,0:0:0:0:
118,144,90779,1,0,0:0:0:0:
118,144,90859,1,10,0:0:0:0:
58,58,91019,1,0,0:0:0:0:
58,58,91099,1,8,0:0:0:0:
161,23,91258,2,0,P|212:26|258:37,1,83.9999974365235,2|0,0:0|0:0,0:0:0:0:
338,124,91577,2,0,P|287:127|241:138,1,83.9999974365235,0|10,0:0|0:0,0:0:0:0:
196,241,91896,6,0,P|259:227|330:226,1,125.999996154785,0|0,0:0|0:0,0:0:0:0:
326,258,92216,2,0,L|348:357,1,83.9999974365235,10|0,0:0|0:0,0:0:0:0:
466,355,92535,1,2,0:0:0:0:
512,247,92694,1,8,0:2:0:0:
408,197,92854,1,10,0:0:0:0:
428,285,93013,1,8,0:2:0:0:
428,285,93093,1,0,0:0:0:0:
428,285,93173,6,0,P|453:224|450:106,1,167.999994873047,6|10,0:0|0:0,0:0:0:0:
454,123,93652,1,2,0:0:0:0:
340,51,93811,2,0,P|333:96|326:152,1,83.9999974365235,2|0,0:0|0:0,0:0:0:0:
244,256,94130,2,0,P|237:211|230:155,1,83.9999974365235,0|8,0:0|0:0,0:0:0:0:
163,106,94450,6,0,P|89:124|26:155,1,125.999996154785,0|0,0:0|0:0,0:0:0:0:
12,157,94769,1,10,0:0:0:0:
89,229,94928,1,8,0:2:0:0:
8,279,95088,2,0,P|3:336|-2:368,1,83.9999974365235,2|0,0:0|0:0,0:0:0:0:
137,326,95407,2,0,P|123:253|134:180,1,125.999996154785,10|0,0:0|0:0,0:0:0:0:
150,177,95726,5,6,0:0:0:0:
254,209,95886,1,0,0:0:0:0:
293,107,96045,1,10,0:0:0:0:
193,61,96205,1,8,0:2:0:0:
193,61,96285,1,0,0:0:0:0:
193,61,96364,2,0,P|148:49|103:31,1,83.9999974365235,0|0,0:0|0:0,0:0:0:0:
249,131,96684,2,0,P|309:113|397:96,1,125.999996154785,10|0,0:0|0:0,0:0:0:0:
404,94,97003,5,2,0:0:0:0:
483,159,97162,1,8,0:2:0:0:
406,218,97322,2,0,L|394:179,6,20.9999993591309,10|0|0|0|0|0|8,0:0|0:0|0:0|0:0|0:0|0:0|0:0,0:0:0:0:
394,249,97641,2,0,L|299:237,1,83.9999974365235,2|8,0:0|0:0,0:0:0:0:
168,332,97960,1,2,0:0:0:0:
200,341,98040,1,0,0:0:0:0:
232,351,98120,1,10,0:0:0:0:
265,357,98200,1,0,0:0:0:0:
299,357,98279,6,0,L|288:314,3,35,4|0|0|0,1:0|0:0|0:0|0:0,0:0:0:0:
220,227,98599,2,0,L|209:270,3,35,0|0|0|0,1:0|0:0|0:0|1:0,0:0:0:0:
274,170,98918,5,0,1:0:0:0:
266,143,98997,1,0,0:0:0:0:
257,116,99077,1,0,1:0:0:0:
247,89,99157,1,0,0:0:0:0:
244,61,99237,2,0,L|249:7,3,35,0|0|0|0,1:0|0:0|1:0|0:0,0:0:0:0:
171,16,99556,5,0,1:0:0:0:
144,24,99636,1,0,1:0:0:0:
118,34,99715,1,0,1:0:0:0:
90,41,99795,1,0,1:0:0:0:
64,51,99875,2,0,L|76:103,3,35,0|0|0|0,1:0|1:0|1:0|1:0,0:0:0:0:
47,159,100194,5,0,1:0:0:0:
74,167,100274,1,0,3:0:0:0:
100,177,100353,1,0,3:0:0:0:
128,184,100433,1,0,3:0:0:0:
154,194,100513,2,0,L|149:218,6,17.5,0|0|0|0|0|0|0,1:0|1:0|1:0|1:0|1:0|1:0|1:0,3:3:0:0:
176,178,100833,6,0,P|210:167|244:163,1,70,4|0,1:0|0:0,0:0:0:0:
325,210,101152,2,0,P|317:244|304:276,1,70,2|0,0:0|0:0,0:0:0:0:
332,129,101471,2,0,P|365:139|399:143,1,70,0|0,0:0|0:0,0:0:0:0:
480,97,101790,2,0,P|472:62|459:30,1,70,2|0,0:0|0:0,0:0:0:0:
240,26,102109,5,0,1:0:0:0:
153,72,102269,1,0,0:0:0:0:
203,155,102428,1,2,0:0:0:0:
299,135,102588,2,0,P|274:69|253:-4,1,140,0|0,1:0|0:0,0:0:0:0:
203,155,103067,2,0,P|217:191|232:240,1,70,0|0,1:0|0:0,0:0:0:0:
171,364,103386,6,0,P|128:351|80:342,1,70,6|2,0:0|0:2,0:0:0:0:
20,241,103705,2,0,P|63:254|111:263,1,70,10|2,0:0|0:2,0:0:0:0:
181,203,104024,2,0,P|108:154|69:115,1,140,2|10,0:0|0:0,0:0:0:0:
118,13,104503,2,0,P|187:46|270:71,1,140,2|2,0:0|0:0,0:0:0:0:
343,42,104982,5,10,0:0:0:0:
427,90,105141,1,0,0:0:0:0:
393,182,105301,1,2,0:0:0:0:
295,179,105460,1,2,0:2:0:0:
295,179,105540,1,0,0:0:0:0:
295,179,105620,1,8,0:0:0:0:
230,252,105779,1,10,0:0:0:0:
276,338,105939,6,0,P|328:331|367:334,1,70,2|2,0:0|0:2,0:0:0:0:
455,247,106258,2,0,P|403:254|364:251,1,70,10|2,0:0|0:2,0:0:0:0:
294,228,106577,2,0,P|277:168|333:119,1,140,2|10,0:0|0:0,0:0:0:0:
423,93,107056,1,2,0:0:0:0:
423,93,107375,5,2,0:0:0:0:
423,93,107455,1,0,0:0:0:0:
423,93,107535,1,10,0:0:0:0:
349,28,107694,1,8,0:2:0:0:
328,119,107854,1,2,0:0:0:0:
465,13,108013,5,2,0:2:0:0:
465,13,108093,1,0,0:0:0:0:
465,13,108173,1,10,0:0:0:0:
398,180,108333,1,10,0:0:0:0:
254,73,108492,6,0,P|251:25|247:-27,1,70,0|2,0:0|0:0,0:0:0:0:
155,178,108811,2,0,P|158:130|162:78,1,70,10|2,0:0|0:2,0:0:0:0:
245,214,109130,2,0,P|247:248|249:283,2,70,2|2|8,0:0|0:0|0:0,0:0:0:0:
61,178,109609,1,10,0:0:0:0:
61,178,109689,1,8,0:2:0:0:
61,178,109769,6,0,P|27:211|43:311,1,140,2|10,0:0|0:0,0:0:0:0:
98,379,110247,2,0,P|132:346|116:246,1,140,2|10,0:0|0:0,0:0:0:0:
78,169,110726,1,10,0:0:0:0:
175,157,110886,1,8,0:2:0:0:
117,19,111045,5,6,0:0:0:0:
85,23,111125,1,0,0:0:0:0:
59,33,111205,1,8,0:2:0:0:
35,48,111285,1,0,0:0:0:0:
19,70,111364,2,0,L|31:131,3,35,10|0|8|0,0:0|0:0|0:2|0:0,0:0:0:0:
78,169,111684,5,2,0:0:0:0:
110,173,111764,1,0,0:0:0:0:
136,183,111844,1,8,0:2:0:0:
160,198,111924,1,0,0:0:0:0:
176,220,112003,2,0,L|164:281,3,35,10|0|8|0,0:0|0:0|0:0|0:0,0:0:0:0:
193,330,112322,5,2,0:0:0:0:
287,356,112482,1,2,0:2:0:0:
338,272,112641,1,10,0:0:0:0:
264,206,112801,2,0,P|255:271|256:347,1,140,2|0,0:0|0:0,0:0:0:0:
423,291,113279,1,8,0:0:0:0:
423,262,113359,1,0,0:0:0:0:
422,233,113439,1,8,0:0:0:0:
420,204,113519,1,0,0:0:0:0:
420,175,113599,6,0,P|429:130|443:88,2,70,2|0|10,0:0|0:0|0:0,0:0:0:0:
324,213,114077,2,0,P|245:184|201:122,1,140,2|0,0:0|0:0,0:0:0:0:
182,46,114556,1,8,0:0:0:0:
155,54,114636,1,0,0:0:0:0:
128,62,114716,1,8,0:0:0:0:
101,71,114795,1,0,0:0:0:0:
73,80,114875,6,0,L|24:71,3,35,2|0|8|0,0:0|0:0|0:2|0:0,0:0:0:0:
3,155,115194,2,0,L|52:164,3,35,10|0|8|0,0:0|0:0|0:2|0:0,0:0:0:0:
61,247,115513,6,0,L|92:239,6,17.5,2|0|0|0|8|0|0,0:0|0:0|0:0|0:0|0:2|0:0|0:0,0:0:0:0:
107,222,115833,2,0,L|123:226,6,17.5,10|0|0|0|10|0|0,0:0|0:0|0:0|0:0|0:0|0:0|0:0,0:0:0:0:
152,255,116152,5,4,0:0:0:0:
297,24,116471,5,6,0:0:0:0:
195,116,116630,1,6,0:0:0:0:
335,144,116790,1,6,0:0:0:0:
256,192,116870,12,0,120779,0:0:0:0:
