osu file format v14

[General]
AudioFilename: CANDY.mp3
AudioLeadIn: 0
PreviewTime: 74891
Countdown: 0
SampleSet: Soft
StackLeniency: 0.7
Mode: 3
LetterboxInBreaks: 0
SpecialStyle: 0
WidescreenStoryboard: 0

[Editor]
DistanceSpacing: 0.8
BeatDivisor: 8
GridSize: 32
TimelineZoom: 2.999999

[Metadata]
Title:FUTINKAN CANDY
TitleUnicode:不沈艦CANDY
Artist:Risk Junk
ArtistUnicode:Risk Junk
Creator:Nap
Version:Sweet Another
Source:Beatmania IIDX 16
Tags:
BeatmapID:819945
BeatmapSetID:374303

[Difficulty]
HPDrainRate:8
CircleSize:4
OverallDifficulty:8
ApproachRate:5
SliderMultiplier:2.1
SliderTickRate:1

[Events]
//Background and Video events
0,0,"BG.jpg",0,0
//Break Periods
//Storyboard Layer 0 (Background)
//Storyboard Layer 1 (Fail)
//Storyboard Layer 2 (Pass)
//Storyboard Layer 3 (Foreground)
//Storyboard Sound Samples

[TimingPoints]
530,319.148936170213,4,2,0,30,1,0
78402,-100,4,2,0,30,0,1
98827,-100,4,2,0,30,0,0
103934,-100,4,2,0,30,0,1
117338,-100,4,2,0,30,0,0

[HitObjects]
448,192,530,5,0,0:0:0:0:
320,192,530,1,0,0:0:0:0:
192,192,609,1,0,0:0:0:0:
64,192,609,1,0,0:0:0:0:
320,192,689,1,0,0:0:0:0:
448,192,689,1,0,0:0:0:0:
64,192,769,1,0,0:0:0:0:
192,192,769,1,0,0:0:0:0:
320,192,849,1,0,0:0:0:0:
448,192,849,1,0,0:0:0:0:
192,192,1008,1,0,0:0:0:0:
320,192,1008,1,0,0:0:0:0:
64,192,1088,1,0,0:0:0:0:
448,192,1088,1,0,0:0:0:0:
320,192,1248,1,0,0:0:0:0:
192,192,1248,1,0,0:0:0:0:
64,192,1327,1,0,0:0:0:0:
448,192,1327,1,0,0:0:0:0:
64,192,1487,1,0,0:0:0:0:
192,192,1487,1,0,0:0:0:0:
320,192,1647,1,0,0:0:0:0:
448,192,1647,1,0,0:0:0:0:
192,192,1806,1,0,0:0:0:0:
320,192,1806,1,0,0:0:0:0:
64,192,1886,1,0,0:0:0:0:
448,192,1886,1,0,0:0:0:0:
192,192,2045,1,0,0:0:0:0:
320,192,2045,1,0,0:0:0:0:
448,192,2125,1,0,0:0:0:0:
64,192,2125,1,0,0:0:0:0:
320,192,2205,1,0,0:0:0:0:
192,192,2285,1,0,0:0:0:0:
64,192,2285,1,0,0:0:0:0:
320,192,2365,1,0,0:0:0:0:
448,192,2365,1,0,0:0:0:0:
64,192,2444,1,0,0:0:0:0:
192,192,2484,1,0,0:0:0:0:
448,192,2524,1,0,0:0:0:0:
320,192,2564,1,0,0:0:0:0:
64,192,2604,1,0,0:0:0:0:
192,192,2644,1,0,0:0:0:0:
448,192,2684,1,0,0:0:0:0:
320,192,2724,1,0,0:0:0:0:
64,192,2764,1,0,0:0:0:0:
192,192,2803,1,0,0:0:0:0:
320,192,2843,1,0,0:0:0:0:
448,192,2883,1,0,0:0:0:0:
64,192,2923,1,0,0:0:0:0:
192,192,2963,1,0,0:0:0:0:
320,192,3003,1,0,0:0:0:0:
448,192,3043,1,0,0:0:0:0:
64,192,3083,1,0,0:0:0:0:
192,192,3083,1,0,0:0:0:0:
320,192,3242,1,0,0:0:0:0:
320,192,3402,1,0,0:0:0:0:
64,192,3561,1,0,0:0:0:0:
320,192,3721,1,0,0:0:0:0:
64,192,3881,1,0,0:0:0:0:
320,192,4040,1,0,0:0:0:0:
448,192,4200,1,0,0:0:0:0:
448,192,4359,1,0,0:0:0:0:
192,192,4359,1,0,0:0:0:0:
64,192,4359,1,0,0:0:0:0:
320,192,4359,1,0,0:0:0:0:
192,192,4519,1,0,0:0:0:0:
64,192,4678,1,0,0:0:0:0:
448,192,4678,1,0,0:0:0:0:
320,192,4678,1,0,0:0:0:0:
320,192,4838,1,0,0:0:0:0:
192,192,4998,1,0,0:0:0:0:
448,192,4998,1,0,0:0:0:0:
64,192,4998,1,0,0:0:0:0:
64,192,5157,1,0,0:0:0:0:
192,192,5317,1,0,0:0:0:0:
320,192,5317,1,0,0:0:0:0:
448,192,5317,1,0,0:0:0:0:
64,192,5476,1,0,0:0:0:0:
192,192,5476,1,0,0:0:0:0:
448,192,5636,1,0,0:0:0:0:
320,192,5636,1,0,0:0:0:0:
64,192,5636,1,0,0:0:0:0:
192,192,5795,1,0,0:0:0:0:
64,192,5955,1,0,0:0:0:0:
448,192,5955,1,0,0:0:0:0:
320,192,5955,1,0,0:0:0:0:
64,192,6115,1,0,0:0:0:0:
192,192,6115,1,0,0:0:0:0:
448,192,6274,1,0,0:0:0:0:
192,192,6274,1,0,0:0:0:0:
320,192,6274,1,0,0:0:0:0:
192,192,6434,1,0,0:0:0:0:
64,192,6434,1,0,0:0:0:0:
448,192,6593,1,0,0:0:0:0:
64,192,6593,1,0,0:0:0:0:
192,192,6593,1,0,0:0:0:0:
448,192,6753,1,0,0:0:0:0:
320,192,6753,1,0,0:0:0:0:
320,192,6912,1,0,0:0:0:0:
448,192,6912,1,0,0:0:0:0:
64,192,6912,1,0,0:0:0:0:
320,192,7072,1,0,0:0:0:0:
192,192,7232,1,0,0:0:0:0:
448,192,7232,1,0,0:0:0:0:
64,192,7232,1,0,0:0:0:0:
64,192,7391,1,0,0:0:0:0:
320,192,7551,1,0,0:0:0:0:
448,192,7551,1,0,0:0:0:0:
192,192,7551,1,0,0:0:0:0:
64,192,7710,1,0,0:0:0:0:
64,192,7870,1,0,0:0:0:0:
448,192,7870,1,0,0:0:0:0:
320,192,7870,1,0,0:0:0:0:
320,192,8030,1,0,0:0:0:0:
192,192,8030,1,0,0:0:0:0:
192,192,8189,1,0,0:0:0:0:
64,192,8189,1,0,0:0:0:0:
448,192,8189,1,0,0:0:0:0:
320,192,8349,1,0,0:0:0:0:
64,192,8508,1,0,0:0:0:0:
192,192,8508,1,0,0:0:0:0:
448,192,8508,1,0,0:0:0:0:
192,192,8668,1,0,0:0:0:0:
448,192,8668,1,0,0:0:0:0:
64,192,8827,1,0,0:0:0:0:
320,192,8827,1,0,0:0:0:0:
448,192,8827,1,0,0:0:0:0:
320,192,8987,1,0,0:0:0:0:
448,192,8987,1,0,0:0:0:0:
64,192,8987,1,0,0:0:0:0:
320,192,9147,1,0,0:0:0:0:
448,192,9147,1,0,0:0:0:0:
64,192,9147,1,0,0:0:0:0:
320,192,9306,1,0,0:0:0:0:
448,192,9306,1,0,0:0:0:0:
64,192,9306,1,0,0:0:0:0:
64,192,9466,1,0,0:0:0:0:
192,192,9466,1,0,0:0:0:0:
320,192,9466,1,0,0:0:0:0:
448,192,9466,1,0,0:0:0:0:
192,192,9625,1,0,0:0:0:0:
448,192,9625,1,0,0:0:0:0:
448,192,9785,1,0,0:0:0:0:
192,192,9785,1,0,0:0:0:0:
64,192,9785,1,0,0:0:0:0:
320,192,9944,1,0,0:0:0:0:
64,192,9944,1,0,0:0:0:0:
320,192,10104,1,0,0:0:0:0:
64,192,10104,1,0,0:0:0:0:
448,192,10104,1,0,0:0:0:0:
192,192,10264,1,0,0:0:0:0:
320,192,10264,1,0,0:0:0:0:
192,192,10423,1,0,0:0:0:0:
320,192,10423,1,0,0:0:0:0:
448,192,10423,1,0,0:0:0:0:
192,192,10583,1,0,0:0:0:0:
64,192,10583,1,0,0:0:0:0:
192,192,10742,1,0,0:0:0:0:
64,192,10742,128,0,11061:0:0:0:0:
448,192,10742,1,0,0:0:0:0:
320,192,10902,1,0,0:0:0:0:
192,192,11061,1,0,0:0:0:0:
448,192,11061,1,0,0:0:0:0:
64,192,11221,1,0,0:0:0:0:
320,192,11221,128,0,11540:0:0:0:0:
192,192,11381,1,0,0:0:0:0:
448,192,11381,1,0,0:0:0:0:
64,192,11540,1,0,0:0:0:0:
192,192,11540,1,0,0:0:0:0:
64,192,11700,1,0,0:0:0:0:
320,192,11700,1,0,0:0:0:0:
448,192,11700,1,0,0:0:0:0:
192,192,11859,1,0,0:0:0:0:
64,192,11859,1,0,0:0:0:0:
64,192,12019,1,0,0:0:0:0:
192,192,12019,1,0,0:0:0:0:
448,192,12019,1,0,0:0:0:0:
320,192,12099,1,0,0:0:0:0:
192,192,12178,1,0,0:0:0:0:
64,192,12258,1,0,0:0:0:0:
320,192,12338,1,0,0:0:0:0:
448,192,12338,1,0,0:0:0:0:
192,192,12418,1,0,0:0:0:0:
64,192,12498,1,0,0:0:0:0:
448,192,12577,1,0,0:0:0:0:
320,192,12657,1,0,0:0:0:0:
192,192,12657,1,0,0:0:0:0:
64,192,12737,1,0,0:0:0:0:
448,192,12817,1,0,0:0:0:0:
320,192,12897,1,0,0:0:0:0:
192,192,12976,1,0,0:0:0:0:
64,192,12976,1,0,0:0:0:0:
448,192,13056,1,0,0:0:0:0:
320,192,13136,1,0,0:0:0:0:
192,192,13216,1,0,0:0:0:0:
64,192,13295,1,0,0:0:0:0:
320,192,13295,1,0,0:0:0:0:
448,192,13295,1,0,0:0:0:0:
192,192,13455,1,0,0:0:0:0:
448,192,13455,1,0,0:0:0:0:
448,192,13615,1,0,0:0:0:0:
64,192,13615,1,0,0:0:0:0:
192,192,13774,1,0,0:0:0:0:
64,192,13774,1,0,0:0:0:0:
448,192,13854,1,0,0:0:0:0:
320,192,13854,1,0,0:0:0:0:
64,192,13934,1,0,0:0:0:0:
192,192,13934,1,0,0:0:0:0:
192,192,14093,1,0,0:0:0:0:
64,192,14093,1,0,0:0:0:0:
320,192,14253,1,0,0:0:0:0:
448,192,14253,1,0,0:0:0:0:
192,192,14333,1,0,0:0:0:0:
64,192,14333,1,0,0:0:0:0:
320,192,14412,1,0,0:0:0:0:
448,192,14412,1,0,0:0:0:0:
192,192,14492,1,0,0:0:0:0:
64,192,14492,1,0,0:0:0:0:
320,192,14572,1,0,0:0:0:0:
448,192,14572,1,0,0:0:0:0:
64,192,14572,1,0,0:0:0:0:
192,192,14572,1,0,0:0:0:0:
320,192,14732,1,0,0:0:0:0:
448,192,14891,1,0,0:0:0:0:
64,192,14891,1,0,0:0:0:0:
192,192,14891,1,0,0:0:0:0:
192,192,15051,1,0,0:0:0:0:
64,192,15210,1,0,0:0:0:0:
448,192,15210,1,0,0:0:0:0:
320,192,15210,1,0,0:0:0:0:
320,192,15370,1,0,0:0:0:0:
192,192,15530,1,0,0:0:0:0:
448,192,15530,1,0,0:0:0:0:
64,192,15530,1,0,0:0:0:0:
64,192,15689,1,0,0:0:0:0:
320,192,15689,1,0,0:0:0:0:
192,192,15849,1,0,0:0:0:0:
448,192,15849,1,0,0:0:0:0:
320,192,15849,1,0,0:0:0:0:
64,192,16008,1,0,0:0:0:0:
192,192,16168,1,0,0:0:0:0:
64,192,16168,1,0,0:0:0:0:
448,192,16168,1,0,0:0:0:0:
320,192,16327,1,0,0:0:0:0:
448,192,16327,1,0,0:0:0:0:
320,192,16487,1,0,0:0:0:0:
192,192,16487,1,0,0:0:0:0:
64,192,16487,1,0,0:0:0:0:
320,192,16647,1,0,0:0:0:0:
448,192,16647,1,0,0:0:0:0:
320,192,16806,1,0,0:0:0:0:
448,192,16806,1,0,0:0:0:0:
64,192,16806,1,0,0:0:0:0:
64,192,16966,1,0,0:0:0:0:
192,192,16966,1,0,0:0:0:0:
64,192,17125,1,0,0:0:0:0:
448,192,17125,1,0,0:0:0:0:
192,192,17125,1,0,0:0:0:0:
320,192,17285,1,0,0:0:0:0:
320,192,17444,1,0,0:0:0:0:
448,192,17444,1,0,0:0:0:0:
64,192,17444,1,0,0:0:0:0:
192,192,17604,1,0,0:0:0:0:
320,192,17764,1,0,0:0:0:0:
448,192,17764,1,0,0:0:0:0:
64,192,17764,1,0,0:0:0:0:
64,192,17923,1,0,0:0:0:0:
192,192,18083,1,0,0:0:0:0:
320,192,18083,1,0,0:0:0:0:
448,192,18083,1,0,0:0:0:0:
64,192,18242,1,0,0:0:0:0:
192,192,18242,1,0,0:0:0:0:
448,192,18402,1,0,0:0:0:0:
64,192,18402,1,0,0:0:0:0:
320,192,18402,1,0,0:0:0:0:
192,192,18561,1,0,0:0:0:0:
320,192,18721,1,0,0:0:0:0:
448,192,18721,1,0,0:0:0:0:
64,192,18721,1,0,0:0:0:0:
192,192,18881,1,0,0:0:0:0:
64,192,18881,1,0,0:0:0:0:
64,192,19040,1,0,0:0:0:0:
320,192,19040,1,0,0:0:0:0:
448,192,19040,1,0,0:0:0:0:
320,192,19200,1,0,0:0:0:0:
448,192,19200,1,0,0:0:0:0:
64,192,19200,1,0,0:0:0:0:
320,192,19359,1,0,0:0:0:0:
448,192,19359,1,0,0:0:0:0:
64,192,19359,1,0,0:0:0:0:
64,192,19519,1,0,0:0:0:0:
320,192,19519,1,0,0:0:0:0:
448,192,19519,1,0,0:0:0:0:
448,192,19678,1,0,0:0:0:0:
320,192,19678,1,0,0:0:0:0:
192,192,19678,1,0,0:0:0:0:
64,192,19678,1,0,0:0:0:0:
192,192,19838,1,0,0:0:0:0:
448,192,19838,1,0,0:0:0:0:
192,192,19998,1,0,0:0:0:0:
448,192,19998,1,0,0:0:0:0:
64,192,19998,1,0,0:0:0:0:
320,192,20157,1,0,0:0:0:0:
192,192,20157,1,0,0:0:0:0:
192,192,20317,1,0,0:0:0:0:
320,192,20317,1,0,0:0:0:0:
448,192,20317,1,0,0:0:0:0:
192,192,20476,1,0,0:0:0:0:
64,192,20476,1,0,0:0:0:0:
64,192,20636,1,0,0:0:0:0:
192,192,20636,1,0,0:0:0:0:
448,192,20636,1,0,0:0:0:0:
320,192,20795,1,0,0:0:0:0:
448,192,20795,1,0,0:0:0:0:
320,192,20955,1,0,0:0:0:0:
448,192,20955,128,0,21274:0:0:0:0:
64,192,20955,1,0,0:0:0:0:
192,192,21115,1,0,0:0:0:0:
64,192,21274,1,0,0:0:0:0:
320,192,21274,1,0,0:0:0:0:
448,192,21434,1,0,0:0:0:0:
192,192,21434,128,0,21753:0:0:0:0:
64,192,21593,1,0,0:0:0:0:
448,192,21593,1,0,0:0:0:0:
320,192,21753,1,0,0:0:0:0:
64,192,21753,1,0,0:0:0:0:
192,192,21912,1,0,0:0:0:0:
448,192,21912,1,0,0:0:0:0:
320,192,22072,1,0,0:0:0:0:
64,192,22072,1,0,0:0:0:0:
64,192,22232,1,0,0:0:0:0:
192,192,22232,1,0,0:0:0:0:
320,192,22311,1,0,0:0:0:0:
448,192,22391,1,0,0:0:0:0:
64,192,22471,1,0,0:0:0:0:
192,192,22551,1,0,0:0:0:0:
320,192,22551,1,0,0:0:0:0:
448,192,22631,1,0,0:0:0:0:
64,192,22710,1,0,0:0:0:0:
192,192,22790,1,0,0:0:0:0:
320,192,22870,1,0,0:0:0:0:
448,192,22870,1,0,0:0:0:0:
64,192,22950,1,0,0:0:0:0:
192,192,23030,1,0,0:0:0:0:
320,192,23109,1,0,0:0:0:0:
448,192,23189,1,0,0:0:0:0:
64,192,23189,1,0,0:0:0:0:
192,192,23269,1,0,0:0:0:0:
320,192,23349,1,0,0:0:0:0:
448,192,23428,1,0,0:0:0:0:
64,192,23508,1,0,0:0:0:0:
192,192,23508,1,0,0:0:0:0:
320,192,23508,1,0,0:0:0:0:
448,192,23668,1,0,0:0:0:0:
192,192,23668,1,0,0:0:0:0:
64,192,23827,1,0,0:0:0:0:
320,192,23827,1,0,0:0:0:0:
192,192,23827,1,0,0:0:0:0:
448,192,23987,1,0,0:0:0:0:
320,192,23987,1,0,0:0:0:0:
192,192,24067,1,0,0:0:0:0:
64,192,24067,1,0,0:0:0:0:
320,192,24147,1,0,0:0:0:0:
448,192,24147,1,0,0:0:0:0:
320,192,24306,1,0,0:0:0:0:
448,192,24306,1,0,0:0:0:0:
64,192,24466,1,0,0:0:0:0:
320,192,24466,1,0,0:0:0:0:
192,192,24545,1,0,0:0:0:0:
448,192,24545,1,0,0:0:0:0:
320,192,24625,1,0,0:0:0:0:
64,192,24625,1,0,0:0:0:0:
192,192,24705,1,0,0:0:0:0:
448,192,24705,1,0,0:0:0:0:
320,192,24785,1,0,0:0:0:0:
64,192,24785,1,0,0:0:0:0:
448,192,25104,128,0,25982:0:0:0:0:
320,192,25423,128,0,25982:0:0:0:0:
192,192,25742,128,0,25982:0:0:0:0:
64,192,26061,1,0,0:0:0:0:
320,192,26061,1,0,0:0:0:0:
448,192,26061,1,0,0:0:0:0:
320,192,26221,1,0,0:0:0:0:
448,192,26221,1,0,0:0:0:0:
64,192,26381,1,0,0:0:0:0:
448,192,26381,1,0,0:0:0:0:
192,192,26381,1,0,0:0:0:0:
64,192,26540,1,0,0:0:0:0:
192,192,26540,1,0,0:0:0:0:
320,192,26700,1,0,0:0:0:0:
448,192,26700,1,0,0:0:0:0:
64,192,26700,1,0,0:0:0:0:
320,192,26859,1,0,0:0:0:0:
448,192,26859,1,0,0:0:0:0:
192,192,27019,1,0,0:0:0:0:
64,192,27019,1,0,0:0:0:0:
448,192,27019,1,0,0:0:0:0:
192,192,27178,1,0,0:0:0:0:
64,192,27178,1,0,0:0:0:0:
320,192,27338,1,0,0:0:0:0:
192,192,27338,1,0,0:0:0:0:
448,192,27338,1,0,0:0:0:0:
64,192,27498,1,0,0:0:0:0:
320,192,27498,1,0,0:0:0:0:
64,192,27657,1,0,0:0:0:0:
192,192,27657,1,0,0:0:0:0:
448,192,27657,1,0,0:0:0:0:
320,192,27817,1,0,0:0:0:0:
64,192,27897,1,0,0:0:0:0:
320,192,27976,1,0,0:0:0:0:
448,192,27976,1,0,0:0:0:0:
64,192,28056,1,0,0:0:0:0:
320,192,28136,1,0,0:0:0:0:
64,192,28216,1,0,0:0:0:0:
448,192,28295,1,0,0:0:0:0:
192,192,28295,1,0,0:0:0:0:
320,192,28455,1,0,0:0:0:0:
64,192,28455,1,0,0:0:0:0:
64,192,28615,1,0,0:0:0:0:
192,192,28615,1,0,0:0:0:0:
448,192,28615,1,0,0:0:0:0:
192,192,28774,1,0,0:0:0:0:
64,192,28774,1,0,0:0:0:0:
64,192,28934,1,0,0:0:0:0:
320,192,28934,1,0,0:0:0:0:
448,192,28934,1,0,0:0:0:0:
192,192,29093,1,0,0:0:0:0:
448,192,29173,1,0,0:0:0:0:
192,192,29253,1,0,0:0:0:0:
64,192,29253,1,0,0:0:0:0:
448,192,29333,1,0,0:0:0:0:
192,192,29412,1,0,0:0:0:0:
448,192,29492,1,0,0:0:0:0:
192,192,29572,1,0,0:0:0:0:
64,192,29572,1,0,0:0:0:0:
192,192,29732,1,0,0:0:0:0:
448,192,29732,1,0,0:0:0:0:
192,192,29891,1,0,0:0:0:0:
64,192,29891,1,0,0:0:0:0:
448,192,29891,1,0,0:0:0:0:
320,192,30051,1,0,0:0:0:0:
448,192,30051,1,0,0:0:0:0:
320,192,30210,1,0,0:0:0:0:
192,192,30210,1,0,0:0:0:0:
64,192,30210,1,0,0:0:0:0:
192,192,30370,1,0,0:0:0:0:
320,192,30450,1,0,0:0:0:0:
448,192,30530,1,0,0:0:0:0:
64,192,30530,1,0,0:0:0:0:
192,192,30530,1,0,0:0:0:0:
320,192,30609,1,0,0:0:0:0:
448,192,30689,1,0,0:0:0:0:
192,192,30689,1,0,0:0:0:0:
64,192,30689,1,0,0:0:0:0:
320,192,30769,1,0,0:0:0:0:
192,192,30849,1,0,0:0:0:0:
64,192,30849,1,0,0:0:0:0:
448,192,30849,1,0,0:0:0:0:
320,192,30928,1,0,0:0:0:0:
192,192,31008,1,0,0:0:0:0:
64,192,31008,1,0,0:0:0:0:
448,192,31008,1,0,0:0:0:0:
64,192,31168,1,0,0:0:0:0:
192,192,31168,1,0,0:0:0:0:
320,192,31168,1,0,0:0:0:0:
448,192,31168,1,0,0:0:0:0:
192,192,31327,1,0,0:0:0:0:
448,192,31327,1,0,0:0:0:0:
192,192,31487,1,0,0:0:0:0:
64,192,31487,1,0,0:0:0:0:
320,192,31487,1,0,0:0:0:0:
320,192,31647,1,0,0:0:0:0:
448,192,31647,1,0,0:0:0:0:
448,192,31806,1,0,0:0:0:0:
64,192,31806,1,0,0:0:0:0:
192,192,31806,1,0,0:0:0:0:
192,192,31966,1,0,0:0:0:0:
448,192,31966,1,0,0:0:0:0:
320,192,32125,1,0,0:0:0:0:
64,192,32125,1,0,0:0:0:0:
448,192,32125,1,0,0:0:0:0:
320,192,32285,1,0,0:0:0:0:
64,192,32285,1,0,0:0:0:0:
64,192,32444,1,0,0:0:0:0:
192,192,32444,1,0,0:0:0:0:
320,192,32444,1,0,0:0:0:0:
320,192,32604,1,0,0:0:0:0:
448,192,32604,1,0,0:0:0:0:
448,192,32764,1,0,0:0:0:0:
64,192,32764,1,0,0:0:0:0:
192,192,32764,1,0,0:0:0:0:
64,192,32923,1,0,0:0:0:0:
448,192,33003,1,0,0:0:0:0:
192,192,33083,1,0,0:0:0:0:
64,192,33083,1,0,0:0:0:0:
448,192,33162,1,0,0:0:0:0:
64,192,33242,1,0,0:0:0:0:
448,192,33322,1,0,0:0:0:0:
64,192,33402,1,0,0:0:0:0:
320,192,33402,1,0,0:0:0:0:
192,192,33561,1,0,0:0:0:0:
448,192,33561,1,0,0:0:0:0:
320,192,33721,1,0,0:0:0:0:
448,192,33721,1,0,0:0:0:0:
64,192,33721,1,0,0:0:0:0:
192,192,33881,1,0,0:0:0:0:
320,192,33881,1,0,0:0:0:0:
64,192,34040,1,0,0:0:0:0:
192,192,34040,1,0,0:0:0:0:
448,192,34040,1,0,0:0:0:0:
320,192,34200,1,0,0:0:0:0:
448,192,34200,1,0,0:0:0:0:
64,192,34359,1,0,0:0:0:0:
192,192,34359,1,0,0:0:0:0:
448,192,34359,1,0,0:0:0:0:
192,192,34519,1,0,0:0:0:0:
64,192,34519,1,0,0:0:0:0:
448,192,34519,1,0,0:0:0:0:
320,192,34678,1,0,0:0:0:0:
192,192,34678,1,0,0:0:0:0:
64,192,34678,1,0,0:0:0:0:
320,192,34838,1,0,0:0:0:0:
192,192,34838,1,0,0:0:0:0:
64,192,34838,1,0,0:0:0:0:
64,192,34998,1,0,0:0:0:0:
192,192,34998,1,0,0:0:0:0:
64,192,35157,1,0,0:0:0:0:
192,192,35197,1,0,0:0:0:0:
320,192,35237,1,0,0:0:0:0:
448,192,35277,1,0,0:0:0:0:
64,192,35317,1,0,0:0:0:0:
192,192,35317,1,0,0:0:0:0:
448,192,35476,1,0,0:0:0:0:
320,192,35516,1,0,0:0:0:0:
192,192,35556,1,0,0:0:0:0:
64,192,35596,1,0,0:0:0:0:
320,192,35636,1,0,0:0:0:0:
448,192,35636,1,0,0:0:0:0:
192,192,35795,1,0,0:0:0:0:
64,192,35795,1,0,0:0:0:0:
448,192,35955,1,0,0:0:0:0:
64,192,35955,1,0,0:0:0:0:
192,192,36035,1,0,0:0:0:0:
320,192,36035,1,0,0:0:0:0:
64,192,36115,1,0,0:0:0:0:
448,192,36115,1,0,0:0:0:0:
320,192,36194,1,0,0:0:0:0:
192,192,36194,1,0,0:0:0:0:
64,192,36274,1,0,0:0:0:0:
448,192,36274,1,0,0:0:0:0:
320,192,36274,1,0,0:0:0:0:
192,192,36274,1,0,0:0:0:0:
64,192,36434,1,0,0:0:0:0:
192,192,36434,1,0,0:0:0:0:
320,192,36593,1,0,0:0:0:0:
448,192,36593,1,0,0:0:0:0:
192,192,36593,1,0,0:0:0:0:
448,192,36753,1,0,0:0:0:0:
64,192,36753,1,0,0:0:0:0:
64,192,36912,1,0,0:0:0:0:
320,192,36912,1,0,0:0:0:0:
448,192,36912,1,0,0:0:0:0:
320,192,37072,1,0,0:0:0:0:
448,192,37072,1,0,0:0:0:0:
192,192,37232,1,0,0:0:0:0:
64,192,37232,1,0,0:0:0:0:
320,192,37232,1,0,0:0:0:0:
192,192,37391,1,0,0:0:0:0:
64,192,37391,1,0,0:0:0:0:
64,192,37551,1,0,0:0:0:0:
320,192,37551,1,0,0:0:0:0:
448,192,37551,1,0,0:0:0:0:
64,192,37710,1,0,0:0:0:0:
192,192,37710,1,0,0:0:0:0:
192,192,37870,1,0,0:0:0:0:
320,192,37870,1,0,0:0:0:0:
448,192,37870,1,0,0:0:0:0:
320,192,38030,1,0,0:0:0:0:
64,192,38109,1,0,0:0:0:0:
320,192,38189,1,0,0:0:0:0:
448,192,38189,1,0,0:0:0:0:
64,192,38269,1,0,0:0:0:0:
320,192,38349,1,0,0:0:0:0:
64,192,38428,1,0,0:0:0:0:
320,192,38508,1,0,0:0:0:0:
448,192,38508,1,0,0:0:0:0:
192,192,38668,1,0,0:0:0:0:
64,192,38668,1,0,0:0:0:0:
64,192,38827,1,0,0:0:0:0:
320,192,38827,1,0,0:0:0:0:
448,192,38827,1,0,0:0:0:0:
192,192,38987,1,0,0:0:0:0:
448,192,38987,1,0,0:0:0:0:
320,192,39147,1,0,0:0:0:0:
192,192,39147,1,0,0:0:0:0:
64,192,39147,1,0,0:0:0:0:
448,192,39306,1,0,0:0:0:0:
64,192,39386,1,0,0:0:0:0:
320,192,39466,1,0,0:0:0:0:
448,192,39466,1,0,0:0:0:0:
64,192,39545,1,0,0:0:0:0:
448,192,39625,1,0,0:0:0:0:
64,192,39705,1,0,0:0:0:0:
320,192,39785,1,0,0:0:0:0:
448,192,39785,1,0,0:0:0:0:
192,192,39944,1,0,0:0:0:0:
64,192,39944,1,0,0:0:0:0:
192,192,40104,1,0,0:0:0:0:
320,192,40104,1,0,0:0:0:0:
448,192,40104,1,0,0:0:0:0:
64,192,40264,1,0,0:0:0:0:
320,192,40264,1,0,0:0:0:0:
64,192,40423,1,0,0:0:0:0:
192,192,40423,1,0,0:0:0:0:
448,192,40423,1,0,0:0:0:0:
64,192,40583,1,0,0:0:0:0:
192,192,40662,1,0,0:0:0:0:
320,192,40742,1,0,0:0:0:0:
448,192,40742,1,0,0:0:0:0:
64,192,40742,1,0,0:0:0:0:
192,192,40822,1,0,0:0:0:0:
320,192,40902,1,0,0:0:0:0:
448,192,40902,1,0,0:0:0:0:
64,192,40902,1,0,0:0:0:0:
192,192,40982,1,0,0:0:0:0:
320,192,41061,1,0,0:0:0:0:
448,192,41061,1,0,0:0:0:0:
64,192,41061,1,0,0:0:0:0:
192,192,41141,1,0,0:0:0:0:
320,192,41221,1,0,0:0:0:0:
448,192,41221,1,0,0:0:0:0:
64,192,41221,1,0,0:0:0:0:
448,192,41381,1,0,0:0:0:0:
320,192,41381,1,0,0:0:0:0:
64,192,41381,1,0,0:0:0:0:
192,192,41381,1,0,0:0:0:0:
64,192,41540,1,0,0:0:0:0:
448,192,41540,1,0,0:0:0:0:
320,192,41700,1,0,0:0:0:0:
192,192,41700,1,0,0:0:0:0:
64,192,41700,1,0,0:0:0:0:
192,192,41859,1,0,0:0:0:0:
448,192,41859,1,0,0:0:0:0:
320,192,42019,1,0,0:0:0:0:
448,192,42019,1,0,0:0:0:0:
64,192,42019,1,0,0:0:0:0:
320,192,42178,1,0,0:0:0:0:
448,192,42178,1,0,0:0:0:0:
192,192,42338,1,0,0:0:0:0:
64,192,42338,1,0,0:0:0:0:
320,192,42338,1,0,0:0:0:0:
192,192,42498,1,0,0:0:0:0:
64,192,42498,1,0,0:0:0:0:
192,192,42657,1,0,0:0:0:0:
320,192,42657,1,0,0:0:0:0:
448,192,42657,1,0,0:0:0:0:
64,192,42817,1,0,0:0:0:0:
320,192,42817,1,0,0:0:0:0:
64,192,42976,1,0,0:0:0:0:
192,192,42976,1,0,0:0:0:0:
448,192,42976,1,0,0:0:0:0:
320,192,43136,1,0,0:0:0:0:
192,192,43216,1,0,0:0:0:0:
448,192,43295,1,0,0:0:0:0:
320,192,43295,1,0,0:0:0:0:
192,192,43375,1,0,0:0:0:0:
320,192,43455,1,0,0:0:0:0:
192,192,43535,1,0,0:0:0:0:
320,192,43615,1,0,0:0:0:0:
448,192,43615,1,0,0:0:0:0:
192,192,43774,1,0,0:0:0:0:
64,192,43774,1,0,0:0:0:0:
64,192,43934,1,0,0:0:0:0:
320,192,43934,1,0,0:0:0:0:
448,192,43934,1,0,0:0:0:0:
192,192,44093,1,0,0:0:0:0:
320,192,44093,1,0,0:0:0:0:
64,192,44253,1,0,0:0:0:0:
320,192,44253,1,0,0:0:0:0:
448,192,44253,1,0,0:0:0:0:
192,192,44412,1,0,0:0:0:0:
448,192,44412,1,0,0:0:0:0:
320,192,44572,1,0,0:0:0:0:
64,192,44572,1,0,0:0:0:0:
448,192,44572,1,0,0:0:0:0:
320,192,44732,1,0,0:0:0:0:
448,192,44732,1,0,0:0:0:0:
64,192,44732,1,0,0:0:0:0:
64,192,44891,1,0,0:0:0:0:
192,192,44891,1,0,0:0:0:0:
320,192,44891,1,0,0:0:0:0:
320,192,45051,1,0,0:0:0:0:
192,192,45051,1,0,0:0:0:0:
64,192,45051,1,0,0:0:0:0:
64,192,45210,1,0,0:0:0:0:
192,192,45210,1,0,0:0:0:0:
320,192,45210,1,0,0:0:0:0:
448,192,45210,1,0,0:0:0:0:
64,192,45370,1,0,0:0:0:0:
192,192,45410,1,0,0:0:0:0:
320,192,45450,1,0,0:0:0:0:
448,192,45490,1,0,0:0:0:0:
192,192,45530,1,0,0:0:0:0:
64,192,45530,1,0,0:0:0:0:
448,192,45689,1,0,0:0:0:0:
320,192,45729,1,0,0:0:0:0:
192,192,45769,1,0,0:0:0:0:
64,192,45809,1,0,0:0:0:0:
320,192,45849,1,0,0:0:0:0:
448,192,45849,1,0,0:0:0:0:
192,192,45928,1,0,0:0:0:0:
320,192,46008,1,0,0:0:0:0:
448,192,46008,1,0,0:0:0:0:
64,192,46088,1,0,0:0:0:0:
192,192,46088,1,0,0:0:0:0:
320,192,46168,1,0,0:0:0:0:
448,192,46168,1,0,0:0:0:0:
192,192,46248,1,0,0:0:0:0:
64,192,46248,1,0,0:0:0:0:
320,192,46327,1,0,0:0:0:0:
448,192,46327,1,0,0:0:0:0:
192,192,46407,1,0,0:0:0:0:
64,192,46407,1,0,0:0:0:0:
320,192,46487,1,0,0:0:0:0:
448,192,46487,1,0,0:0:0:0:
192,192,46487,1,0,0:0:0:0:
64,192,46487,1,0,0:0:0:0:
64,192,46647,1,0,0:0:0:0:
192,192,46686,1,0,0:0:0:0:
320,192,46726,1,0,0:0:0:0:
448,192,46766,1,0,0:0:0:0:
192,192,46806,1,0,0:0:0:0:
64,192,46806,1,0,0:0:0:0:
448,192,46966,1,0,0:0:0:0:
320,192,47006,1,0,0:0:0:0:
192,192,47045,1,0,0:0:0:0:
64,192,47085,1,0,0:0:0:0:
320,192,47125,1,0,0:0:0:0:
448,192,47125,1,0,0:0:0:0:
192,192,47205,1,0,0:0:0:0:
320,192,47285,1,0,0:0:0:0:
448,192,47285,1,0,0:0:0:0:
192,192,47365,1,0,0:0:0:0:
64,192,47365,1,0,0:0:0:0:
320,192,47444,1,0,0:0:0:0:
448,192,47444,1,0,0:0:0:0:
192,192,47524,1,0,0:0:0:0:
64,192,47524,1,0,0:0:0:0:
320,192,47604,1,0,0:0:0:0:
448,192,47604,1,0,0:0:0:0:
192,192,47684,1,0,0:0:0:0:
64,192,47684,1,0,0:0:0:0:
448,192,47764,1,0,0:0:0:0:
320,192,47764,1,0,0:0:0:0:
192,192,47764,1,0,0:0:0:0:
64,192,47764,1,0,0:0:0:0:
64,192,47923,1,0,0:0:0:0:
192,192,47963,1,0,0:0:0:0:
320,192,48003,1,0,0:0:0:0:
448,192,48043,1,0,0:0:0:0:
192,192,48083,1,0,0:0:0:0:
64,192,48083,1,0,0:0:0:0:
448,192,48242,1,0,0:0:0:0:
320,192,48282,1,0,0:0:0:0:
192,192,48322,1,0,0:0:0:0:
64,192,48362,1,0,0:0:0:0:
320,192,48402,1,0,0:0:0:0:
448,192,48402,1,0,0:0:0:0:
192,192,48482,1,0,0:0:0:0:
448,192,48561,1,0,0:0:0:0:
320,192,48561,1,0,0:0:0:0:
192,192,48641,1,0,0:0:0:0:
64,192,48641,1,0,0:0:0:0:
448,192,48721,1,0,0:0:0:0:
320,192,48721,1,0,0:0:0:0:
192,192,48801,1,0,0:0:0:0:
64,192,48801,1,0,0:0:0:0:
448,192,48881,1,0,0:0:0:0:
320,192,48881,1,0,0:0:0:0:
192,192,48960,1,0,0:0:0:0:
64,192,48960,1,0,0:0:0:0:
64,192,49040,1,0,0:0:0:0:
192,192,49040,1,0,0:0:0:0:
320,192,49040,1,0,0:0:0:0:
448,192,49040,1,0,0:0:0:0:
64,192,49200,1,0,0:0:0:0:
192,192,49240,1,0,0:0:0:0:
320,192,49280,1,0,0:0:0:0:
448,192,49319,1,0,0:0:0:0:
192,192,49359,1,0,0:0:0:0:
64,192,49359,1,0,0:0:0:0:
448,192,49519,1,0,0:0:0:0:
320,192,49559,1,0,0:0:0:0:
192,192,49599,1,0,0:0:0:0:
64,192,49639,1,0,0:0:0:0:
320,192,49678,1,0,0:0:0:0:
448,192,49678,1,0,0:0:0:0:
192,192,49758,1,0,0:0:0:0:
448,192,49838,1,0,0:0:0:0:
320,192,49838,1,0,0:0:0:0:
64,192,49918,1,0,0:0:0:0:
192,192,49918,1,0,0:0:0:0:
448,192,49998,1,0,0:0:0:0:
320,192,49998,1,0,0:0:0:0:
64,192,50077,1,0,0:0:0:0:
192,192,50077,1,0,0:0:0:0:
448,192,50157,1,0,0:0:0:0:
320,192,50157,1,0,0:0:0:0:
64,192,50237,1,0,0:0:0:0:
192,192,50237,1,0,0:0:0:0:
64,192,50317,1,0,0:0:0:0:
192,192,50317,1,0,0:0:0:0:
320,192,50317,1,0,0:0:0:0:
448,192,50317,1,0,0:0:0:0:
448,192,50476,1,0,0:0:0:0:
320,192,50476,1,0,0:0:0:0:
64,192,50636,1,0,0:0:0:0:
192,192,50636,1,0,0:0:0:0:
320,192,50716,1,0,0:0:0:0:
448,192,50716,1,0,0:0:0:0:
64,192,50795,1,0,0:0:0:0:
192,192,50795,1,0,0:0:0:0:
320,192,50875,1,0,0:0:0:0:
448,192,50875,1,0,0:0:0:0:
320,192,50955,1,0,0:0:0:0:
448,192,50955,1,0,0:0:0:0:
192,192,50955,1,0,0:0:0:0:
64,192,50955,1,0,0:0:0:0:
192,192,51115,1,0,0:0:0:0:
64,192,51115,1,0,0:0:0:0:
448,192,51274,1,0,0:0:0:0:
320,192,51274,1,0,0:0:0:0:
192,192,51354,1,0,0:0:0:0:
64,192,51354,1,0,0:0:0:0:
448,192,51434,1,0,0:0:0:0:
320,192,51434,1,0,0:0:0:0:
192,192,51514,1,0,0:0:0:0:
64,192,51514,1,0,0:0:0:0:
64,192,51593,1,0,0:0:0:0:
192,192,51593,1,0,0:0:0:0:
320,192,51593,1,0,0:0:0:0:
448,192,51593,1,0,0:0:0:0:
320,192,51753,1,0,0:0:0:0:
448,192,51753,1,0,0:0:0:0:
192,192,51833,1,0,0:0:0:0:
64,192,51833,1,0,0:0:0:0:
320,192,51912,1,0,0:0:0:0:
448,192,51912,1,0,0:0:0:0:
192,192,51992,1,0,0:0:0:0:
64,192,51992,1,0,0:0:0:0:
320,192,52072,1,0,0:0:0:0:
448,192,52072,1,0,0:0:0:0:
192,192,52152,1,0,0:0:0:0:
64,192,52152,1,0,0:0:0:0:
320,192,52232,1,0,0:0:0:0:
448,192,52232,1,0,0:0:0:0:
192,192,52232,1,0,0:0:0:0:
64,192,52232,1,0,0:0:0:0:
64,192,52391,1,0,0:0:0:0:
192,192,52391,1,0,0:0:0:0:
448,192,52551,1,0,0:0:0:0:
320,192,52551,1,0,0:0:0:0:
64,192,52631,1,0,0:0:0:0:
192,192,52631,1,0,0:0:0:0:
448,192,52710,1,0,0:0:0:0:
320,192,52710,1,0,0:0:0:0:
64,192,52790,1,0,0:0:0:0:
192,192,52790,1,0,0:0:0:0:
64,192,52870,1,0,0:0:0:0:
192,192,52870,1,0,0:0:0:0:
320,192,52870,1,0,0:0:0:0:
448,192,52870,1,0,0:0:0:0:
320,192,52950,1,0,0:0:0:0:
448,192,52950,1,0,0:0:0:0:
64,192,53030,1,0,0:0:0:0:
192,192,53030,1,0,0:0:0:0:
448,192,53109,1,0,0:0:0:0:
320,192,53109,1,0,0:0:0:0:
64,192,53189,1,0,0:0:0:0:
192,192,53189,1,0,0:0:0:0:
320,192,53269,1,0,0:0:0:0:
448,192,53269,1,0,0:0:0:0:
64,192,53349,1,0,0:0:0:0:
192,192,53349,1,0,0:0:0:0:
320,192,53428,1,0,0:0:0:0:
448,192,53428,1,0,0:0:0:0:
192,192,53508,1,0,0:0:0:0:
64,192,53508,1,0,0:0:0:0:
320,192,53588,1,0,0:0:0:0:
448,192,53588,1,0,0:0:0:0:
192,192,53668,1,0,0:0:0:0:
64,192,53668,1,0,0:0:0:0:
320,192,53748,1,0,0:0:0:0:
448,192,53748,1,0,0:0:0:0:
192,192,53827,1,0,0:0:0:0:
64,192,53827,1,0,0:0:0:0:
320,192,53907,1,0,0:0:0:0:
448,192,53907,1,0,0:0:0:0:
192,192,53987,1,0,0:0:0:0:
64,192,53987,1,0,0:0:0:0:
320,192,54067,1,0,0:0:0:0:
448,192,54067,1,0,0:0:0:0:
64,192,54147,1,0,0:0:0:0:
192,192,54186,1,0,0:0:0:0:
320,192,54226,1,0,0:0:0:0:
448,192,54266,1,0,0:0:0:0:
64,192,54306,1,0,0:0:0:0:
192,192,54346,1,0,0:0:0:0:
320,192,54386,1,0,0:0:0:0:
448,192,54426,1,0,0:0:0:0:
64,192,54466,1,0,0:0:0:0:
192,192,54506,1,0,0:0:0:0:
448,192,54545,1,0,0:0:0:0:
320,192,54585,1,0,0:0:0:0:
64,192,54625,1,0,0:0:0:0:
192,192,54665,1,0,0:0:0:0:
448,192,54705,1,0,0:0:0:0:
320,192,54745,1,0,0:0:0:0:
64,192,54785,1,0,0:0:0:0:
192,192,54825,1,0,0:0:0:0:
320,192,54865,1,0,0:0:0:0:
448,192,54905,1,0,0:0:0:0:
64,192,54944,1,0,0:0:0:0:
192,192,54984,1,0,0:0:0:0:
320,192,55024,1,0,0:0:0:0:
448,192,55064,1,0,0:0:0:0:
64,192,55104,1,0,0:0:0:0:
192,192,55144,1,0,0:0:0:0:
448,192,55184,1,0,0:0:0:0:
320,192,55224,1,0,0:0:0:0:
64,192,55264,1,0,0:0:0:0:
192,192,55303,1,0,0:0:0:0:
448,192,55343,1,0,0:0:0:0:
320,192,55383,1,0,0:0:0:0:
192,192,55423,1,0,0:0:0:0:
64,192,55423,1,0,0:0:0:0:
320,192,57338,128,0,57976:0:0:0:0:
64,192,57657,128,0,57976:0:0:0:0:
192,192,57976,128,0,58615:0:0:0:0:
448,192,57976,1,0,0:0:0:0:
320,192,58615,128,0,59572:0:0:0:0:
448,192,58615,1,0,0:0:0:0:
64,192,59253,1,0,0:0:0:0:
448,192,59572,128,0,59891:0:0:0:0:
192,192,59891,128,0,60210:0:0:0:0:
64,192,59891,1,0,0:0:0:0:
448,192,60210,128,0,60530:0:0:0:0:
192,192,60530,128,0,60849:0:0:0:0:
64,192,60530,1,0,0:0:0:0:
448,192,60849,128,0,61008:0:0:0:0:
320,192,61008,128,0,61168:0:0:0:0:
192,192,61168,128,0,61806:0:0:0:0:
448,192,61168,1,0,0:0:0:0:
64,192,61487,1,0,0:0:0:0:
448,192,61806,1,0,0:0:0:0:
320,192,61846,1,0,0:0:0:0:
64,192,62125,128,0,62444:0:0:0:0:
320,192,62444,128,0,62764:0:0:0:0:
448,192,62444,1,0,0:0:0:0:
64,192,62764,128,0,63083:0:0:0:0:
320,192,63083,128,0,63402:0:0:0:0:
448,192,63083,1,0,0:0:0:0:
448,192,63402,128,0,63561:0:0:0:0:
320,192,63561,128,0,63721:0:0:0:0:
64,192,63721,128,0,64359:0:0:0:0:
192,192,63721,1,0,0:0:0:0:
320,192,64040,1,0,0:0:0:0:
448,192,64359,1,0,0:0:0:0:
320,192,64399,1,0,0:0:0:0:
192,192,64439,1,0,0:0:0:0:
64,192,64678,128,0,64998:0:0:0:0:
192,192,64998,128,0,65317:0:0:0:0:
448,192,64998,1,0,0:0:0:0:
320,192,65317,128,0,65636:0:0:0:0:
64,192,65636,128,0,65955:0:0:0:0:
192,192,65636,1,0,0:0:0:0:
448,192,65955,128,0,66593:0:0:0:0:
192,192,66274,1,0,0:0:0:0:
320,192,66593,128,0,66912:0:0:0:0:
192,192,66912,128,0,67232:0:0:0:0:
64,192,66912,1,0,0:0:0:0:
320,192,67232,128,0,67551:0:0:0:0:
192,192,67551,128,0,67870:0:0:0:0:
64,192,67551,1,0,0:0:0:0:
320,192,67870,128,0,68030:0:0:0:0:
64,192,68030,128,0,68189:0:0:0:0:
192,192,68189,128,0,68827:0:0:0:0:
320,192,68189,1,0,0:0:0:0:
320,192,68827,128,0,69785:0:0:0:0:
448,192,68827,1,0,0:0:0:0:
192,192,69466,1,0,0:0:0:0:
448,192,69785,128,0,70104:0:0:0:0:
192,192,70104,128,0,70423:0:0:0:0:
64,192,70104,1,0,0:0:0:0:
448,192,70423,128,0,70742:0:0:0:0:
192,192,70742,128,0,71061:0:0:0:0:
64,192,70742,1,0,0:0:0:0:
448,192,71061,128,0,71221:0:0:0:0:
320,192,71221,128,0,71381:0:0:0:0:
64,192,71381,128,0,72019:0:0:0:0:
192,192,71381,1,0,0:0:0:0:
320,192,71700,1,0,0:0:0:0:
448,192,72019,1,0,0:0:0:0:
320,192,72059,1,0,0:0:0:0:
192,192,72099,1,0,0:0:0:0:
64,192,72338,128,0,72657:0:0:0:0:
320,192,72657,128,0,72976:0:0:0:0:
448,192,72657,1,0,0:0:0:0:
64,192,72976,128,0,73295:0:0:0:0:
320,192,73295,128,0,73615:0:0:0:0:
448,192,73295,1,0,0:0:0:0:
448,192,73615,128,0,73774:0:0:0:0:
192,192,73774,128,0,73934:0:0:0:0:
64,192,73934,128,0,74572:0:0:0:0:
448,192,73934,1,0,0:0:0:0:
320,192,74253,1,0,0:0:0:0:
192,192,74572,1,0,0:0:0:0:
320,192,74612,1,0,0:0:0:0:
448,192,74652,1,0,0:0:0:0:
192,192,74891,128,0,75210:0:0:0:0:
320,192,75210,128,0,75530:0:0:0:0:
64,192,75210,1,0,0:0:0:0:
448,192,75530,128,0,75849:0:0:0:0:
320,192,75849,128,0,76168:0:0:0:0:
64,192,75849,1,0,0:0:0:0:
192,192,75849,1,0,0:0:0:0:
448,192,76168,128,0,76806:0:0:0:0:
64,192,76168,1,0,0:0:0:0:
192,192,76168,1,0,0:0:0:0:
64,192,76487,1,0,0:0:0:0:
192,192,76487,1,0,0:0:0:0:
320,192,76806,128,0,77125:0:0:0:0:
64,192,76806,1,0,0:0:0:0:
192,192,76806,1,0,0:0:0:0:
192,192,77125,1,0,0:0:0:0:
64,192,77125,128,0,77444:0:0:0:0:
448,192,77125,1,0,0:0:0:0:
448,192,77444,1,0,0:0:0:0:
320,192,77484,1,0,0:0:0:0:
192,192,77524,1,0,0:0:0:0:
64,192,77564,1,0,0:0:0:0:
448,192,77604,1,0,0:0:0:0:
320,192,77644,1,0,0:0:0:0:
192,192,77684,1,0,0:0:0:0:
64,192,77724,1,0,0:0:0:0:
448,192,77764,1,0,0:0:0:0:
320,192,77764,1,0,0:0:0:0:
320,192,77923,1,0,0:0:0:0:
448,192,77923,1,0,0:0:0:0:
448,192,78083,1,0,0:0:0:0:
64,192,78083,1,0,0:0:0:0:
192,192,78162,1,0,0:0:0:0:
320,192,78162,1,0,0:0:0:0:
448,192,78242,1,0,0:0:0:0:
64,192,78242,1,0,0:0:0:0:
192,192,78322,1,0,0:0:0:0:
320,192,78322,1,0,0:0:0:0:
64,192,78402,1,0,0:0:0:0:
192,192,78402,1,0,0:0:0:0:
320,192,78402,1,0,0:0:0:0:
448,192,78402,1,0,0:0:0:0:
192,192,78561,1,0,0:0:0:0:
320,192,78641,1,0,0:0:0:0:
64,192,78721,1,0,0:0:0:0:
448,192,78721,1,0,0:0:0:0:
192,192,78721,1,0,0:0:0:0:
320,192,78801,1,0,0:0:0:0:
192,192,78881,1,0,0:0:0:0:
64,192,78960,1,0,0:0:0:0:
192,192,79040,1,0,0:0:0:0:
320,192,79040,1,0,0:0:0:0:
448,192,79040,1,0,0:0:0:0:
64,192,79120,1,0,0:0:0:0:
192,192,79200,1,0,0:0:0:0:
320,192,79280,1,0,0:0:0:0:
448,192,79359,1,0,0:0:0:0:
64,192,79359,1,0,0:0:0:0:
192,192,79359,1,0,0:0:0:0:
320,192,79439,1,0,0:0:0:0:
192,192,79519,1,0,0:0:0:0:
64,192,79599,1,0,0:0:0:0:
320,192,79678,1,0,0:0:0:0:
192,192,79678,1,0,0:0:0:0:
448,192,79678,1,0,0:0:0:0:
64,192,79758,1,0,0:0:0:0:
192,192,79838,1,0,0:0:0:0:
320,192,79918,1,0,0:0:0:0:
192,192,79998,1,0,0:0:0:0:
64,192,79998,1,0,0:0:0:0:
448,192,79998,1,0,0:0:0:0:
320,192,80077,1,0,0:0:0:0:
192,192,80157,1,0,0:0:0:0:
320,192,80237,1,0,0:0:0:0:
448,192,80317,1,0,0:0:0:0:
192,192,80317,1,0,0:0:0:0:
64,192,80317,1,0,0:0:0:0:
320,192,80397,1,0,0:0:0:0:
192,192,80476,1,0,0:0:0:0:
64,192,80556,1,0,0:0:0:0:
320,192,80636,1,0,0:0:0:0:
448,192,80636,1,0,0:0:0:0:
192,192,80636,1,0,0:0:0:0:
64,192,80716,1,0,0:0:0:0:
192,192,80795,1,0,0:0:0:0:
320,192,80875,1,0,0:0:0:0:
192,192,80955,1,0,0:0:0:0:
448,192,80955,1,0,0:0:0:0:
64,192,80955,1,0,0:0:0:0:
320,192,81035,1,0,0:0:0:0:
64,192,81115,1,0,0:0:0:0:
192,192,81194,1,0,0:0:0:0:
64,192,81274,1,0,0:0:0:0:
320,192,81274,1,0,0:0:0:0:
448,192,81274,1,0,0:0:0:0:
192,192,81354,1,0,0:0:0:0:
64,192,81434,1,0,0:0:0:0:
448,192,81434,1,0,0:0:0:0:
320,192,81514,1,0,0:0:0:0:
448,192,81593,1,0,0:0:0:0:
192,192,81593,1,0,0:0:0:0:
64,192,81593,1,0,0:0:0:0:
320,192,81673,1,0,0:0:0:0:
64,192,81753,1,0,0:0:0:0:
448,192,81753,1,0,0:0:0:0:
192,192,81833,1,0,0:0:0:0:
64,192,81912,1,0,0:0:0:0:
448,192,81912,1,0,0:0:0:0:
320,192,81912,1,0,0:0:0:0:
192,192,81992,1,0,0:0:0:0:
448,192,82072,1,0,0:0:0:0:
320,192,82152,1,0,0:0:0:0:
448,192,82232,1,0,0:0:0:0:
64,192,82232,1,0,0:0:0:0:
192,192,82232,1,0,0:0:0:0:
320,192,82311,1,0,0:0:0:0:
192,192,82391,1,0,0:0:0:0:
64,192,82471,1,0,0:0:0:0:
192,192,82551,1,0,0:0:0:0:
320,192,82551,1,0,0:0:0:0:
448,192,82551,1,0,0:0:0:0:
64,192,82631,1,0,0:0:0:0:
192,192,82710,1,0,0:0:0:0:
320,192,82790,1,0,0:0:0:0:
64,192,82870,1,0,0:0:0:0:
192,192,82870,1,0,0:0:0:0:
448,192,82870,1,0,0:0:0:0:
320,192,82950,1,0,0:0:0:0:
64,192,83030,1,0,0:0:0:0:
192,192,83030,1,0,0:0:0:0:
320,192,83109,1,0,0:0:0:0:
448,192,83189,1,0,0:0:0:0:
64,192,83189,1,0,0:0:0:0:
192,192,83189,1,0,0:0:0:0:
320,192,83269,1,0,0:0:0:0:
64,192,83349,1,0,0:0:0:0:
192,192,83349,1,0,0:0:0:0:
320,192,83428,1,0,0:0:0:0:
448,192,83428,1,0,0:0:0:0:
448,192,83508,1,0,0:0:0:0:
320,192,83508,1,0,0:0:0:0:
192,192,83508,1,0,0:0:0:0:
64,192,83508,1,0,0:0:0:0:
192,192,83668,1,0,0:0:0:0:
64,192,83748,1,0,0:0:0:0:
192,192,83827,1,0,0:0:0:0:
448,192,83827,1,0,0:0:0:0:
320,192,83827,1,0,0:0:0:0:
64,192,83907,1,0,0:0:0:0:
448,192,83987,1,0,0:0:0:0:
320,192,84067,1,0,0:0:0:0:
64,192,84147,1,0,0:0:0:0:
192,192,84147,1,0,0:0:0:0:
448,192,84147,1,0,0:0:0:0:
320,192,84226,1,0,0:0:0:0:
192,192,84306,1,0,0:0:0:0:
64,192,84386,1,0,0:0:0:0:
192,192,84466,1,0,0:0:0:0:
320,192,84466,1,0,0:0:0:0:
448,192,84466,1,0,0:0:0:0:
64,192,84545,1,0,0:0:0:0:
320,192,84625,1,0,0:0:0:0:
192,192,84705,1,0,0:0:0:0:
320,192,84785,1,0,0:0:0:0:
64,192,84785,1,0,0:0:0:0:
448,192,84785,1,0,0:0:0:0:
192,192,84865,1,0,0:0:0:0:
64,192,84944,1,0,0:0:0:0:
448,192,85024,1,0,0:0:0:0:
320,192,85104,1,0,0:0:0:0:
64,192,85104,1,0,0:0:0:0:
192,192,85104,1,0,0:0:0:0:
448,192,85184,1,0,0:0:0:0:
320,192,85264,1,0,0:0:0:0:
192,192,85343,1,0,0:0:0:0:
64,192,85423,1,0,0:0:0:0:
448,192,85423,1,0,0:0:0:0:
320,192,85423,1,0,0:0:0:0:
192,192,85503,1,0,0:0:0:0:
320,192,85583,1,0,0:0:0:0:
192,192,85662,1,0,0:0:0:0:
64,192,85742,1,0,0:0:0:0:
448,192,85742,1,0,0:0:0:0:
320,192,85742,1,0,0:0:0:0:
192,192,85822,1,0,0:0:0:0:
64,192,85902,1,0,0:0:0:0:
320,192,85982,1,0,0:0:0:0:
448,192,86061,1,0,0:0:0:0:
64,192,86061,1,0,0:0:0:0:
192,192,86061,1,0,0:0:0:0:
320,192,86141,1,0,0:0:0:0:
192,192,86221,1,0,0:0:0:0:
448,192,86301,1,0,0:0:0:0:
192,192,86381,1,0,0:0:0:0:
64,192,86381,1,0,0:0:0:0:
320,192,86381,1,0,0:0:0:0:
448,192,86460,1,0,0:0:0:0:
320,192,86540,1,0,0:0:0:0:
192,192,86620,1,0,0:0:0:0:
320,192,86700,1,0,0:0:0:0:
448,192,86700,1,0,0:0:0:0:
64,192,86700,1,0,0:0:0:0:
192,192,86780,1,0,0:0:0:0:
448,192,86859,1,0,0:0:0:0:
320,192,86939,1,0,0:0:0:0:
64,192,87019,1,0,0:0:0:0:
192,192,87019,1,0,0:0:0:0:
448,192,87019,1,0,0:0:0:0:
320,192,87099,1,0,0:0:0:0:
192,192,87178,1,0,0:0:0:0:
64,192,87258,1,0,0:0:0:0:
192,192,87338,1,0,0:0:0:0:
448,192,87338,1,0,0:0:0:0:
320,192,87338,1,0,0:0:0:0:
64,192,87418,1,0,0:0:0:0:
320,192,87498,1,0,0:0:0:0:
192,192,87577,1,0,0:0:0:0:
320,192,87657,1,0,0:0:0:0:
448,192,87657,1,0,0:0:0:0:
64,192,87657,1,0,0:0:0:0:
192,192,87737,1,0,0:0:0:0:
320,192,87817,1,0,0:0:0:0:
192,192,87897,1,0,0:0:0:0:
64,192,87897,1,0,0:0:0:0:
320,192,87976,1,0,0:0:0:0:
448,192,87976,1,0,0:0:0:0:
192,192,88056,1,0,0:0:0:0:
448,192,88136,1,0,0:0:0:0:
64,192,88136,1,0,0:0:0:0:
320,192,88216,1,0,0:0:0:0:
192,192,88295,1,0,0:0:0:0:
64,192,88295,1,0,0:0:0:0:
320,192,88375,1,0,0:0:0:0:
448,192,88375,1,0,0:0:0:0:
192,192,88455,1,0,0:0:0:0:
64,192,88455,1,0,0:0:0:0:
320,192,88535,1,0,0:0:0:0:
448,192,88535,1,0,0:0:0:0:
448,192,88615,1,0,0:0:0:0:
320,192,88615,1,0,0:0:0:0:
192,192,88615,1,0,0:0:0:0:
64,192,88615,128,0,89093:0:0:0:0:
192,192,88774,1,0,0:0:0:0:
320,192,88854,1,0,0:0:0:0:
448,192,88934,1,0,0:0:0:0:
192,192,89014,1,0,0:0:0:0:
320,192,89093,1,0,0:0:0:0:
448,192,89173,1,0,0:0:0:0:
192,192,89253,1,0,0:0:0:0:
320,192,89253,1,0,0:0:0:0:
64,192,89253,128,0,89732:0:0:0:0:
448,192,89333,1,0,0:0:0:0:
320,192,89412,1,0,0:0:0:0:
192,192,89492,1,0,0:0:0:0:
448,192,89572,1,0,0:0:0:0:
320,192,89652,1,0,0:0:0:0:
192,192,89732,1,0,0:0:0:0:
320,192,89811,1,0,0:0:0:0:
192,192,89891,1,0,0:0:0:0:
64,192,89891,1,0,0:0:0:0:
448,192,89891,128,0,90370:0:0:0:0:
320,192,89971,1,0,0:0:0:0:
192,192,90051,1,0,0:0:0:0:
64,192,90131,1,0,0:0:0:0:
320,192,90210,1,0,0:0:0:0:
192,192,90290,1,0,0:0:0:0:
64,192,90370,1,0,0:0:0:0:
192,192,90450,1,0,0:0:0:0:
64,192,90530,1,0,0:0:0:0:
320,192,90530,1,0,0:0:0:0:
448,192,90530,128,0,91008:0:0:0:0:
192,192,90609,1,0,0:0:0:0:
320,192,90689,1,0,0:0:0:0:
64,192,90769,1,0,0:0:0:0:
192,192,90849,1,0,0:0:0:0:
320,192,90928,1,0,0:0:0:0:
64,192,91008,1,0,0:0:0:0:
192,192,91088,1,0,0:0:0:0:
320,192,91168,1,0,0:0:0:0:
448,192,91168,1,0,0:0:0:0:
64,192,91168,128,0,91647:0:0:0:0:
192,192,91248,1,0,0:0:0:0:
320,192,91327,1,0,0:0:0:0:
448,192,91407,1,0,0:0:0:0:
192,192,91487,1,0,0:0:0:0:
320,192,91567,1,0,0:0:0:0:
448,192,91647,1,0,0:0:0:0:
320,192,91726,1,0,0:0:0:0:
448,192,91806,1,0,0:0:0:0:
192,192,91806,1,0,0:0:0:0:
64,192,91806,128,0,92285:0:0:0:0:
320,192,91886,1,0,0:0:0:0:
192,192,91966,1,0,0:0:0:0:
320,192,92045,1,0,0:0:0:0:
448,192,92125,1,0,0:0:0:0:
320,192,92205,1,0,0:0:0:0:
192,192,92285,1,0,0:0:0:0:
320,192,92365,1,0,0:0:0:0:
64,192,92444,1,0,0:0:0:0:
192,192,92444,1,0,0:0:0:0:
448,192,92444,1,0,0:0:0:0:
320,192,92524,1,0,0:0:0:0:
192,192,92604,1,0,0:0:0:0:
64,192,92684,1,0,0:0:0:0:
448,192,92764,1,0,0:0:0:0:
192,192,92764,1,0,0:0:0:0:
320,192,92764,1,0,0:0:0:0:
64,192,92843,1,0,0:0:0:0:
192,192,92923,1,0,0:0:0:0:
320,192,93003,1,0,0:0:0:0:
448,192,93083,1,0,0:0:0:0:
192,192,93083,1,0,0:0:0:0:
64,192,93083,1,0,0:0:0:0:
320,192,93162,1,0,0:0:0:0:
192,192,93242,1,0,0:0:0:0:
64,192,93242,1,0,0:0:0:0:
320,192,93322,1,0,0:0:0:0:
192,192,93402,1,0,0:0:0:0:
64,192,93402,1,0,0:0:0:0:
448,192,93402,1,0,0:0:0:0:
320,192,93482,1,0,0:0:0:0:
192,192,93561,1,0,0:0:0:0:
64,192,93561,1,0,0:0:0:0:
320,192,93641,1,0,0:0:0:0:
448,192,93641,1,0,0:0:0:0:
320,192,93721,1,0,0:0:0:0:
448,192,93721,1,0,0:0:0:0:
64,192,93721,128,0,93960:0:0:0:0:
192,192,93801,1,0,0:0:0:0:
320,192,93881,1,0,0:0:0:0:
448,192,93960,1,0,0:0:0:0:
64,192,94040,128,0,94280:0:0:0:0:
192,192,94040,1,0,0:0:0:0:
320,192,94120,1,0,0:0:0:0:
448,192,94200,1,0,0:0:0:0:
192,192,94280,1,0,0:0:0:0:
448,192,94359,128,0,94599:0:0:0:0:
320,192,94359,1,0,0:0:0:0:
192,192,94439,1,0,0:0:0:0:
64,192,94519,1,0,0:0:0:0:
320,192,94599,1,0,0:0:0:0:
448,192,94678,128,0,94918:0:0:0:0:
192,192,94678,1,0,0:0:0:0:
64,192,94758,1,0,0:0:0:0:
320,192,94838,1,0,0:0:0:0:
192,192,94918,1,0,0:0:0:0:
64,192,94998,128,0,95237:0:0:0:0:
448,192,94998,1,0,0:0:0:0:
320,192,95077,1,0,0:0:0:0:
192,192,95157,1,0,0:0:0:0:
448,192,95237,1,0,0:0:0:0:
64,192,95317,128,0,95556:0:0:0:0:
320,192,95317,1,0,0:0:0:0:
192,192,95397,1,0,0:0:0:0:
448,192,95476,1,0,0:0:0:0:
320,192,95556,1,0,0:0:0:0:
64,192,95636,1,0,0:0:0:0:
192,192,95636,1,0,0:0:0:0:
320,192,95716,1,0,0:0:0:0:
192,192,95795,1,0,0:0:0:0:
64,192,95875,1,0,0:0:0:0:
448,192,95955,1,0,0:0:0:0:
320,192,95955,1,0,0:0:0:0:
192,192,96035,1,0,0:0:0:0:
320,192,96115,1,0,0:0:0:0:
192,192,96194,1,0,0:0:0:0:
64,192,96274,1,0,0:0:0:0:
448,192,96274,1,0,0:0:0:0:
320,192,96354,1,0,0:0:0:0:
192,192,96434,1,0,0:0:0:0:
64,192,96514,1,0,0:0:0:0:
448,192,96593,1,0,0:0:0:0:
192,192,96593,1,0,0:0:0:0:
320,192,96673,1,0,0:0:0:0:
192,192,96753,1,0,0:0:0:0:
64,192,96833,1,0,0:0:0:0:
448,192,96912,1,0,0:0:0:0:
192,192,96912,1,0,0:0:0:0:
320,192,96992,1,0,0:0:0:0:
192,192,97072,1,0,0:0:0:0:
64,192,97152,1,0,0:0:0:0:
320,192,97232,1,0,0:0:0:0:
192,192,97232,1,0,0:0:0:0:
64,192,97311,1,0,0:0:0:0:
192,192,97391,1,0,0:0:0:0:
320,192,97471,1,0,0:0:0:0:
64,192,97551,1,0,0:0:0:0:
192,192,97551,1,0,0:0:0:0:
320,192,97631,1,0,0:0:0:0:
448,192,97710,1,0,0:0:0:0:
192,192,97710,1,0,0:0:0:0:
64,192,97790,1,0,0:0:0:0:
448,192,97870,1,0,0:0:0:0:
320,192,97910,1,0,0:0:0:0:
192,192,97950,1,0,0:0:0:0:
64,192,97990,1,0,0:0:0:0:
448,192,98030,1,0,0:0:0:0:
320,192,98069,1,0,0:0:0:0:
192,192,98109,1,0,0:0:0:0:
64,192,98149,1,0,0:0:0:0:
448,192,98189,1,0,0:0:0:0:
320,192,98189,1,0,0:0:0:0:
192,192,98269,1,0,0:0:0:0:
64,192,98349,1,0,0:0:0:0:
320,192,98349,1,0,0:0:0:0:
192,192,98428,1,0,0:0:0:0:
448,192,98508,1,0,0:0:0:0:
64,192,98508,1,0,0:0:0:0:
192,192,98588,1,0,0:0:0:0:
320,192,98588,1,0,0:0:0:0:
448,192,98668,1,0,0:0:0:0:
64,192,98668,1,0,0:0:0:0:
192,192,98748,1,0,0:0:0:0:
320,192,98748,1,0,0:0:0:0:
448,192,98827,1,0,0:0:0:0:
320,192,98827,1,0,0:0:0:0:
192,192,98827,1,0,0:0:0:0:
64,192,98827,1,0,0:0:0:0:
64,192,98907,1,0,0:0:0:0:
192,192,98987,1,0,0:0:0:0:
320,192,99067,1,0,0:0:0:0:
448,192,99147,1,0,0:0:0:0:
64,192,99147,1,0,0:0:0:0:
320,192,99226,1,0,0:0:0:0:
192,192,99306,1,0,0:0:0:0:
320,192,99386,1,0,0:0:0:0:
448,192,99386,1,0,0:0:0:0:
192,192,99466,1,0,0:0:0:0:
64,192,99466,1,0,0:0:0:0:
320,192,99545,1,0,0:0:0:0:
448,192,99625,1,0,0:0:0:0:
64,192,99625,1,0,0:0:0:0:
192,192,99705,1,0,0:0:0:0:
64,192,99785,1,0,0:0:0:0:
448,192,99785,1,0,0:0:0:0:
320,192,99865,1,0,0:0:0:0:
64,192,99944,1,0,0:0:0:0:
448,192,99944,1,0,0:0:0:0:
320,192,100024,1,0,0:0:0:0:
192,192,100104,1,0,0:0:0:0:
64,192,100104,1,0,0:0:0:0:
320,192,100184,1,0,0:0:0:0:
448,192,100184,1,0,0:0:0:0:
192,192,100264,1,0,0:0:0:0:
64,192,100264,1,0,0:0:0:0:
320,192,100343,1,0,0:0:0:0:
448,192,100343,1,0,0:0:0:0:
192,192,100423,1,0,0:0:0:0:
64,192,100423,1,0,0:0:0:0:
320,192,100503,1,0,0:0:0:0:
448,192,100503,1,0,0:0:0:0:
64,192,100583,1,0,0:0:0:0:
192,192,100583,1,0,0:0:0:0:
320,192,100662,1,0,0:0:0:0:
448,192,100662,1,0,0:0:0:0:
64,192,100742,1,0,0:0:0:0:
192,192,100782,1,0,0:0:0:0:
448,192,100822,1,0,0:0:0:0:
320,192,100862,1,0,0:0:0:0:
64,192,100902,1,0,0:0:0:0:
192,192,100942,1,0,0:0:0:0:
448,192,100982,1,0,0:0:0:0:
320,192,101022,1,0,0:0:0:0:
64,192,101061,1,0,0:0:0:0:
192,192,101101,1,0,0:0:0:0:
320,192,101141,1,0,0:0:0:0:
448,192,101181,1,0,0:0:0:0:
64,192,101221,1,0,0:0:0:0:
192,192,101261,1,0,0:0:0:0:
320,192,101301,1,0,0:0:0:0:
448,192,101341,1,0,0:0:0:0:
64,192,101381,1,0,0:0:0:0:
192,192,101381,1,0,0:0:0:0:
320,192,101381,1,0,0:0:0:0:
320,192,101540,1,0,0:0:0:0:
192,192,101700,1,0,0:0:0:0:
320,192,101700,1,0,0:0:0:0:
64,192,101859,1,0,0:0:0:0:
64,192,102019,1,0,0:0:0:0:
320,192,102019,1,0,0:0:0:0:
192,192,102178,1,0,0:0:0:0:
192,192,102338,1,0,0:0:0:0:
448,192,102338,1,0,0:0:0:0:
320,192,102498,1,0,0:0:0:0:
448,192,102657,128,0,102817:0:0:0:0:
64,192,102657,1,0,0:0:0:0:
320,192,102817,1,0,0:0:0:0:
320,192,102976,1,0,0:0:0:0:
64,192,102976,1,0,0:0:0:0:
320,192,103136,128,0,103375:0:0:0:0:
320,192,103455,1,0,0:0:0:0:
448,192,103615,1,0,0:0:0:0:
64,192,103615,1,0,0:0:0:0:
320,192,103774,1,0,0:0:0:0:
448,192,103934,1,0,0:0:0:0:
320,192,103934,1,0,0:0:0:0:
192,192,103934,1,0,0:0:0:0:
64,192,103934,1,0,0:0:0:0:
192,192,104093,1,0,0:0:0:0:
64,192,104253,1,0,0:0:0:0:
320,192,104253,1,0,0:0:0:0:
448,192,104253,1,0,0:0:0:0:
64,192,104412,1,0,0:0:0:0:
320,192,104572,1,0,0:0:0:0:
192,192,104572,1,0,0:0:0:0:
448,192,104572,1,0,0:0:0:0:
64,192,104732,1,0,0:0:0:0:
192,192,104891,1,0,0:0:0:0:
448,192,104891,1,0,0:0:0:0:
64,192,104891,1,0,0:0:0:0:
320,192,105051,1,0,0:0:0:0:
448,192,105051,1,0,0:0:0:0:
64,192,105210,1,0,0:0:0:0:
192,192,105210,1,0,0:0:0:0:
320,192,105210,1,0,0:0:0:0:
448,192,105370,1,0,0:0:0:0:
320,192,105370,1,0,0:0:0:0:
64,192,105530,1,0,0:0:0:0:
320,192,105530,1,0,0:0:0:0:
448,192,105530,1,0,0:0:0:0:
192,192,105689,1,0,0:0:0:0:
64,192,105689,1,0,0:0:0:0:
192,192,105849,1,0,0:0:0:0:
448,192,105849,1,0,0:0:0:0:
64,192,105849,1,0,0:0:0:0:
320,192,106008,1,0,0:0:0:0:
64,192,106008,1,0,0:0:0:0:
192,192,106168,1,0,0:0:0:0:
64,192,106168,1,0,0:0:0:0:
320,192,106168,1,0,0:0:0:0:
448,192,106327,1,0,0:0:0:0:
192,192,106327,1,0,0:0:0:0:
192,192,106487,1,0,0:0:0:0:
448,192,106487,1,0,0:0:0:0:
320,192,106487,1,0,0:0:0:0:
320,192,106647,1,0,0:0:0:0:
64,192,106647,1,0,0:0:0:0:
64,192,106806,1,0,0:0:0:0:
448,192,106806,1,0,0:0:0:0:
192,192,106806,1,0,0:0:0:0:
192,192,106966,1,0,0:0:0:0:
64,192,107125,1,0,0:0:0:0:
320,192,107125,1,0,0:0:0:0:
448,192,107125,1,0,0:0:0:0:
448,192,107285,1,0,0:0:0:0:
320,192,107444,1,0,0:0:0:0:
64,192,107444,1,0,0:0:0:0:
192,192,107444,1,0,0:0:0:0:
64,192,107604,1,0,0:0:0:0:
448,192,107604,1,0,0:0:0:0:
320,192,107764,1,0,0:0:0:0:
448,192,107764,1,0,0:0:0:0:
64,192,107764,1,0,0:0:0:0:
192,192,107923,1,0,0:0:0:0:
320,192,108083,1,0,0:0:0:0:
448,192,108083,1,0,0:0:0:0:
64,192,108083,1,0,0:0:0:0:
64,192,108242,1,0,0:0:0:0:
192,192,108242,1,0,0:0:0:0:
64,192,108402,1,0,0:0:0:0:
448,192,108402,1,0,0:0:0:0:
320,192,108402,1,0,0:0:0:0:
320,192,108561,1,0,0:0:0:0:
448,192,108561,1,0,0:0:0:0:
64,192,108561,1,0,0:0:0:0:
320,192,108721,1,0,0:0:0:0:
448,192,108721,1,0,0:0:0:0:
64,192,108721,1,0,0:0:0:0:
320,192,108881,1,0,0:0:0:0:
448,192,108881,1,0,0:0:0:0:
64,192,108881,1,0,0:0:0:0:
64,192,109040,1,0,0:0:0:0:
192,192,109040,1,0,0:0:0:0:
320,192,109040,1,0,0:0:0:0:
448,192,109040,1,0,0:0:0:0:
64,192,109200,1,0,0:0:0:0:
448,192,109200,1,0,0:0:0:0:
448,192,109359,1,0,0:0:0:0:
64,192,109359,1,0,0:0:0:0:
320,192,109359,1,0,0:0:0:0:
64,192,109519,1,0,0:0:0:0:
192,192,109519,1,0,0:0:0:0:
64,192,109678,1,0,0:0:0:0:
192,192,109678,1,0,0:0:0:0:
448,192,109678,1,0,0:0:0:0:
320,192,109838,1,0,0:0:0:0:
448,192,109838,1,0,0:0:0:0:
320,192,109998,1,0,0:0:0:0:
448,192,109998,1,0,0:0:0:0:
64,192,109998,1,0,0:0:0:0:
192,192,110157,1,0,0:0:0:0:
64,192,110157,1,0,0:0:0:0:
64,192,110317,1,0,0:0:0:0:
192,192,110317,128,0,110636:0:0:0:0:
448,192,110317,1,0,0:0:0:0:
320,192,110476,1,0,0:0:0:0:
64,192,110636,1,0,0:0:0:0:
448,192,110636,1,0,0:0:0:0:
64,192,110795,128,0,111115:0:0:0:0:
320,192,110795,1,0,0:0:0:0:
192,192,110955,1,0,0:0:0:0:
448,192,110955,1,0,0:0:0:0:
320,192,111115,1,0,0:0:0:0:
448,192,111115,1,0,0:0:0:0:
192,192,111274,1,0,0:0:0:0:
64,192,111274,1,0,0:0:0:0:
320,192,111434,1,0,0:0:0:0:
448,192,111434,1,0,0:0:0:0:
64,192,111593,1,0,0:0:0:0:
448,192,111593,1,0,0:0:0:0:
192,192,111673,1,0,0:0:0:0:
320,192,111753,1,0,0:0:0:0:
448,192,111833,1,0,0:0:0:0:
64,192,111912,1,0,0:0:0:0:
192,192,111912,1,0,0:0:0:0:
320,192,111992,1,0,0:0:0:0:
448,192,112072,1,0,0:0:0:0:
64,192,112152,1,0,0:0:0:0:
192,192,112232,1,0,0:0:0:0:
320,192,112232,1,0,0:0:0:0:
448,192,112311,1,0,0:0:0:0:
64,192,112391,1,0,0:0:0:0:
192,192,112471,1,0,0:0:0:0:
448,192,112551,1,0,0:0:0:0:
320,192,112551,1,0,0:0:0:0:
64,192,112631,1,0,0:0:0:0:
192,192,112710,1,0,0:0:0:0:
320,192,112790,1,0,0:0:0:0:
64,192,112870,1,0,0:0:0:0:
192,192,112870,1,0,0:0:0:0:
448,192,112870,1,0,0:0:0:0:
320,192,112870,1,0,0:0:0:0:
448,192,113030,1,0,0:0:0:0:
192,192,113030,1,0,0:0:0:0:
320,192,113189,1,0,0:0:0:0:
64,192,113189,1,0,0:0:0:0:
448,192,113349,1,0,0:0:0:0:
192,192,113349,1,0,0:0:0:0:
448,192,113508,1,0,0:0:0:0:
320,192,113508,1,0,0:0:0:0:
64,192,113508,1,0,0:0:0:0:
64,192,113668,1,0,0:0:0:0:
192,192,113668,1,0,0:0:0:0:
448,192,113827,1,0,0:0:0:0:
320,192,113827,1,0,0:0:0:0:
192,192,113907,1,0,0:0:0:0:
64,192,113907,1,0,0:0:0:0:
320,192,113987,1,0,0:0:0:0:
448,192,113987,1,0,0:0:0:0:
192,192,114067,1,0,0:0:0:0:
64,192,114067,1,0,0:0:0:0:
64,192,114147,1,0,0:0:0:0:
192,192,114147,1,0,0:0:0:0:
320,192,114147,1,0,0:0:0:0:
448,192,114147,1,0,0:0:0:0:
448,192,114306,1,0,0:0:0:0:
192,192,114306,1,0,0:0:0:0:
64,192,114466,1,0,0:0:0:0:
320,192,114466,1,0,0:0:0:0:
192,192,114625,1,0,0:0:0:0:
448,192,114625,1,0,0:0:0:0:
192,192,114785,1,0,0:0:0:0:
320,192,114785,1,0,0:0:0:0:
64,192,114785,1,0,0:0:0:0:
448,192,114944,1,0,0:0:0:0:
320,192,114944,1,0,0:0:0:0:
64,192,115104,1,0,0:0:0:0:
192,192,115104,1,0,0:0:0:0:
320,192,115184,1,0,0:0:0:0:
448,192,115184,1,0,0:0:0:0:
64,192,115264,1,0,0:0:0:0:
192,192,115264,1,0,0:0:0:0:
320,192,115343,1,0,0:0:0:0:
448,192,115343,1,0,0:0:0:0:
448,192,115423,1,0,0:0:0:0:
320,192,115423,1,0,0:0:0:0:
64,192,115423,1,0,0:0:0:0:
192,192,115423,1,0,0:0:0:0:
192,192,115503,1,0,0:0:0:0:
64,192,115503,1,0,0:0:0:0:
320,192,115583,1,0,0:0:0:0:
448,192,115583,1,0,0:0:0:0:
64,192,115662,1,0,0:0:0:0:
192,192,115662,1,0,0:0:0:0:
448,192,115742,1,0,0:0:0:0:
320,192,115742,1,0,0:0:0:0:
192,192,115822,1,0,0:0:0:0:
64,192,115822,1,0,0:0:0:0:
320,192,115902,1,0,0:0:0:0:
448,192,115902,1,0,0:0:0:0:
192,192,115982,1,0,0:0:0:0:
64,192,115982,1,0,0:0:0:0:
448,192,116061,1,0,0:0:0:0:
64,192,116061,1,0,0:0:0:0:
320,192,116061,1,0,0:0:0:0:
192,192,116101,1,0,0:0:0:0:
448,192,116141,1,0,0:0:0:0:
320,192,116181,1,0,0:0:0:0:
64,192,116221,1,0,0:0:0:0:
192,192,116261,1,0,0:0:0:0:
448,192,116301,1,0,0:0:0:0:
320,192,116341,1,0,0:0:0:0:
64,192,116381,1,0,0:0:0:0:
192,192,116420,1,0,0:0:0:0:
320,192,116460,1,0,0:0:0:0:
448,192,116500,1,0,0:0:0:0:
64,192,116540,1,0,0:0:0:0:
192,192,116580,1,0,0:0:0:0:
320,192,116620,1,0,0:0:0:0:
448,192,116660,1,0,0:0:0:0:
64,192,116700,1,0,0:0:0:0:
192,192,116700,1,0,0:0:0:0:
64,192,117019,1,0,0:0:0:0:
320,192,117019,1,0,0:0:0:0:
448,192,117019,1,0,0:0:0:0:
192,192,117178,1,0,0:0:0:0:
448,192,117178,1,0,0:0:0:0:
64,192,117178,1,0,0:0:0:0:
64,192,117338,5,0,0:0:0:0:
448,192,117338,1,0,0:0:0:0:
320,192,117338,1,0,0:0:0:0:
192,192,117338,1,0,0:0:0:0:
