osu file format v14

[General]
AudioFilename: Tanaka.mp3
AudioLeadIn: 0
PreviewTime: 16745
Countdown: 0
SampleSet: Soft
StackLeniency: 0
Mode: 0
LetterboxInBreaks: 0
WidescreenStoryboard: 1

[Editor]
Bookmarks: 757,2315,3928,4896,5864,7208,16894,26563,34302,36076,37850,39624,42208,48015,57692,68660,70588,84780,89627,98655,108337,118015,127369,131240,132834
DistanceSpacing: 0.9
BeatDivisor: 4
GridSize: 32
TimelineZoom: 2.3

[Metadata]
Title:Tanaka
TitleUnicode:田中
Artist:Rish feat. Choko
ArtistUnicode:立秋 feat. ちょこ
Creator:Len
Version:Tanakata?
Source:THE BMS OF FIGHTERS XVII -VISION THE RETRO FUTURE-
Tags:electronic video game rissyuu risshuu japanese Neoskylove Affirmation zzx Gimbab yf_bmp yf fanzhen0019 fanzhen fast fa featured artist bofxvii 石王マサト masato Ishioh
BeatmapID:3320061
BeatmapSetID:1626188

[Difficulty]
HPDrainRate:5
CircleSize:4.2
OverallDifficulty:9
ApproachRate:9.6
SliderMultiplier:1.9
SliderTickRate:1

[Events]
//Background and Video events
0,0,"taka.png",0,0
Video,-150,"bga.mp4"
//Break Periods
2,70695,84688
//Storyboard Layer 0 (Background)
//Storyboard Layer 1 (Fail)
//Storyboard Layer 2 (Pass)
//Storyboard Layer 3 (Foreground)
//Storyboard Layer 4 (Overlay)
//Storyboard Sound Samples

[TimingPoints]
657,322.58064516129,4,2,1,53,1,0
657,-76.9230769230769,4,2,1,53,0,0
737,-66.6666666666667,4,2,1,53,0,0
818,-58.8235294117647,4,2,1,53,0,0
898,-52.6315789473684,4,2,1,53,0,0
979,-47.6190476190476,4,2,1,53,0,0
1060,-43.4782608695652,4,2,1,53,0,0
1140,-40,4,2,1,53,0,0
1221,-37.037037037037,4,2,1,53,0,0
1302,-71.4285714285714,4,2,1,53,0,0
6786,-55.5555555555556,4,2,1,53,0,0
6866,-50,4,2,1,53,0,0
6947,-41.6666666666667,4,2,1,53,0,0
7027,-35.7142857142857,4,2,1,53,0,0
7108,-125,4,2,1,53,0,0
9689,-111.111111111111,4,2,1,53,0,0
10979,322.58064516129,3,2,1,53,1,0
10979,-125,3,2,1,53,0,0
11785,-90.9090909090909,3,2,1,53,0,0
11947,322.58064516129,4,2,1,53,1,0
11947,-111.111111111111,4,2,1,53,0,0
12592,-100,4,2,1,53,0,0
13237,322.58064516129,3,2,1,53,1,0
13237,-90.9090909090909,3,2,1,53,0,0
14205,322.58064516129,4,2,1,53,1,0
14527,-125,4,2,1,53,0,0
14850,-100,4,2,1,53,0,0
15172,-83.3333333333333,4,2,1,53,0,0
16785,-62.5,4,2,1,53,0,1
20656,322.58064516129,3,2,1,53,1,1
20656,-62.5,4,2,1,53,0,1
21624,322.58064516129,4,2,1,53,1,1
21624,-62.5,4,2,1,53,0,1
22915,322.58064516129,3,2,1,53,1,1
22915,-62.5,3,2,1,53,0,1
23882,322.58064516129,4,2,1,53,1,1
23882,-52.6315789473684,3,2,1,53,0,1
24204,-62.5,3,2,1,53,0,1
24527,-47.6190476190476,3,2,1,53,0,1
24849,-62.5,3,2,1,53,0,1
25494,-58.8235294117647,3,2,1,53,0,1
26463,322.58064516129,6,2,1,53,1,0
26463,-111.111111111111,6,2,1,53,0,0
34205,322.58064516129,11,2,1,53,1,0
34205,-111.111111111111,6,2,1,53,0,0
35979,322.58064516129,11,2,1,53,1,0
35979,-111.111111111111,11,2,1,53,0,0
37753,322.58064516129,11,2,1,53,1,0
37753,-111.111111111111,11,2,1,53,0,0
39527,322.58064516129,4,2,1,53,1,0
42108,322.58064516129,3,2,1,53,1,0
42108,-83.3333333333333,3,2,1,53,0,0
45656,-71.4285714285714,3,2,1,53,0,0
47591,-90.9090909090909,3,2,1,53,0,0
47915,322.58064516129,4,2,1,53,1,0
47915,-30.3030303030303,4,2,1,53,0,0
48156,-62.5,4,2,1,53,0,0
48560,-50,4,2,1,53,0,0
48802,-62.5,4,2,1,53,0,0
49205,-52.6315789473684,4,2,1,53,0,0
49447,-62.5,4,2,1,53,0,0
50495,-29.4117647058824,4,2,1,53,0,0
50737,-62.5,4,2,1,53,0,0
51140,-50,4,2,1,53,0,0
51382,-62.5,4,2,1,53,0,0
51786,322.58064516129,3,2,1,53,1,0
51786,-52.6315789473684,4,2,1,53,0,0
52027,-62.5,4,2,1,53,0,0
52431,-38.4615384615385,4,2,1,53,0,0
52592,-47.6190476190476,4,2,1,53,0,0
52753,322.58064516129,4,2,1,53,1,0
52753,-32.258064516129,4,2,1,53,0,0
52994,-62.5,4,2,1,53,0,0
53398,-76.9230769230769,4,2,1,53,0,0
53478,-66.6666666666667,4,2,1,53,0,0
53559,-55.5555555555556,4,2,1,53,0,0
54044,322.58064516129,3,2,1,53,1,0
54044,-76.9230769230769,4,2,1,53,0,0
54124,-66.6666666666667,4,2,1,53,0,0
54205,-55.5555555555556,4,2,1,53,0,0
54689,-38.4615384615385,4,2,1,53,0,0
54850,-47.6190476190476,4,2,1,53,0,0
55011,322.58064516129,4,2,1,53,1,0
55011,-32.258064516129,4,2,1,53,0,0
55333,-55.5555555555556,4,2,1,53,0,0
55656,-28.5714285714286,4,2,1,53,0,0
56301,-62.5,4,2,1,53,0,0
57591,-76.9230769230769,4,2,1,53,0,0
61463,322.58064516129,3,2,1,53,1,0
61463,-76.9230769230769,3,2,1,53,0,0
62431,322.58064516129,4,2,1,53,1,0
62431,-71.4285714285714,4,2,1,53,0,0
63721,322.58064516129,3,2,1,53,1,0
63721,-71.4285714285714,4,2,1,53,0,0
64689,322.58064516129,4,2,1,53,1,0
64689,-71.4285714285714,4,2,1,53,0,0
65979,322.58064516129,3,2,1,53,1,0
65979,-66.6666666666667,4,2,1,53,0,0
66624,-125,4,2,1,53,0,0
66947,322.58064516129,5,2,1,53,1,0
66947,-71.4285714285714,5,2,1,53,0,0
67054,-66.6666666666667,5,2,1,53,0,0
67162,-62.5,5,2,1,53,0,0
67269,-58.8235294117647,5,2,1,53,0,0
67377,-55.5555555555556,5,2,1,53,0,0
67484,-52.6315789473684,5,2,1,53,0,0
67592,-50,5,2,1,53,0,0
67699,-47.6190476190476,5,2,1,53,0,0
67807,-45.4545454545455,5,2,1,53,0,0
67914,-43.4782608695652,5,2,1,53,0,0
68022,-41.6666666666667,5,2,1,53,0,0
68129,-40,5,2,1,53,0,0
68237,-38.4615384615385,5,2,1,53,0,0
68344,-37.037037037037,5,2,1,53,0,0
68452,-35.7142857142857,5,2,1,53,0,0
68560,322.58064516129,3,2,1,53,1,0
70495,322.58064516129,11,2,1,53,1,0
88237,322.58064516129,4,2,1,53,1,0
89527,322.58064516129,7,2,1,53,1,0
91785,-111.111111111111,7,2,1,53,0,0
94043,-99.9999999999999,7,2,1,53,0,0
97591,-55.5555555555556,7,2,1,53,0,0
98236,-90.9090909090909,7,2,1,53,0,0
98560,322.58064516129,4,2,1,53,1,1
98560,-62.5,4,2,1,53,0,1
102431,322.58064516129,3,2,1,53,1,1
102431,-62.5,4,2,1,53,0,1
103398,322.58064516129,4,2,1,53,1,1
103398,-62.5,4,2,1,53,0,1
104689,322.58064516129,3,2,1,53,1,1
104689,-62.5,4,2,1,53,0,1
105656,322.58064516129,4,2,1,53,1,1
105656,-52.6315789473684,4,2,1,53,0,1
105978,-62.5,4,2,1,53,0,1
106301,-47.6190476190476,4,2,1,53,0,1
106623,-62.5,4,2,1,53,0,1
107268,-58.8235294117647,4,2,1,53,0,1
108236,-32.258064516129,4,2,1,53,0,0
108478,-62.5,4,2,1,53,0,0
108881,-50,4,2,1,53,0,0
109123,-62.5,4,2,1,53,0,0
109526,-52.6315789473684,4,2,1,53,0,0
109768,-62.5,4,2,1,53,0,0
110817,-29.4117647058824,4,2,1,53,0,0
111059,-62.5,4,2,1,53,0,0
111462,-50,4,2,1,53,0,0
111704,-62.5,4,2,1,53,0,0
112108,322.58064516129,3,2,1,53,1,0
112108,-52.6315789473684,4,2,1,53,0,0
112349,-62.5,4,2,1,53,0,0
112753,-38.4615384615385,4,2,1,53,0,0
112914,-47.6190476190476,4,2,1,53,0,0
113076,322.58064516129,4,2,1,53,1,0
113076,-31.25,4,2,1,53,0,0
113317,-62.5,4,2,1,53,0,0
113721,-50,4,2,1,53,0,0
113963,-62.5,4,2,1,53,0,0
114366,322.58064516129,3,2,1,53,1,0
114366,-52.6315789473684,3,2,1,53,0,0
114607,-62.5,3,2,1,53,0,0
115334,322.58064516129,4,2,1,53,1,0
115334,-47.6190476190476,4,2,1,53,0,0
115575,-55.5555555555556,4,2,1,53,0,0
115979,-28.5714285714286,4,2,1,53,0,0
116624,-83.3333333333333,4,2,1,53,0,0
116946,-41.6666666666667,4,2,1,53,0,0
117592,-47.6190476190476,4,2,1,53,0,0
117914,-62.5,4,2,1,53,0,0
121786,322.58064516129,3,2,1,53,1,0
121786,-62.5,3,2,1,53,0,0
122431,-200,3,2,1,53,0,0
122753,322.58064516129,4,2,1,53,1,0
123398,-62.5,4,2,1,53,0,0
124044,322.58064516129,3,2,1,53,1,0
124044,-62.5,3,2,1,53,0,0
125011,322.58064516129,4,2,1,53,1,0
125011,-52.6315789473684,4,2,1,53,0,0
125333,-40,4,2,1,53,0,0
125656,-52.6315789473684,4,2,1,53,0,0
125978,-35.7142857142857,4,2,1,53,0,0
126302,322.58064516129,3,2,1,53,1,0
126302,-52.6315789473684,3,2,1,53,0,0
126624,-32.258064516129,3,2,1,53,0,0
127269,322.58064516129,4,2,1,53,1,0
127269,-62.5,4,2,1,53,0,0
129043,-83.3333333333333,4,2,1,53,0,0
129365,-62.5,4,2,1,53,0,0
129849,-40,4,2,1,53,0,0
131140,322.58064516129,5,2,1,53,1,0
131193,-100,5,2,1,5,0,0
132752,-100,5,2,1,53,0,0

[Colours]
Combo1 : 255,236,179
Combo2 : 172,255,172
Combo3 : 181,215,255
Combo4 : 250,165,177

[HitObjects]
9,310,657,6,0,L|10:358,1,30.8749985866547,2|2,0:0|0:0,0:0:0:0:
12,307,737,6,0,L|14:362,1,35.625001358986,2|2,0:0|0:0,0:0:0:0:
15,304,818,6,0,L|17:356,1,40.375000770092,2|0,0:0|0:0,0:0:0:0:
18,302,898,6,0,L|20:356,1,45.1249987950325,0|0,0:0|0:0,0:0:0:0:
21,299,979,6,0,L|24:354,1,49.8749984779358,0|0,0:0|0:0,0:0:0:0:
24,297,1060,6,0,L|27:358,1,54.6250010418892,0|0,0:0|0:0,0:0:0:0:
29,294,1140,6,0,L|32:359,1,59.375,0|0,0:0|0:0,0:0:0:0:
32,291,1221,6,0,L|36:363,1,64.1250002446175,0|0,0:0|0:0,0:0:0:0:
42,279,1302,5,4,1:2:0:0:
83,254,1382,1,0,0:0:0:0:
131,263,1463,1,0,0:0:0:0:
162,302,1544,1,0,1:0:0:0:
169,352,1624,1,4,1:2:0:0:
213,384,1705,1,0,0:0:0:0:
263,366,1786,5,0,1:0:0:0:
281,316,1866,1,4,1:2:0:0:
244,276,1947,1,0,0:0:0:0:
258,221,2027,1,0,1:0:0:0:
314,214,2108,2,0,P|346:224|386:234,1,66.4999979705811,4|0,1:2|1:0,0:0:0:0:
512,107,2269,5,4,1:2:0:0:
477,61,2350,1,0,0:0:0:0:
420,72,2431,1,0,1:0:0:0:
397,126,2511,1,0,1:0:0:0:
341,147,2592,1,0,0:0:0:0:
289,116,2673,1,0,1:0:0:0:
281,62,2753,6,0,P|290:30|303:0,1,66.4999979705811,4|0,1:2|0:0,0:0:0:0:
130,23,2915,2,0,P|162:15|194:8,1,66.4999979705811,0|0,1:0|0:0,0:0:0:0:
230,160,3076,2,0,P|221:128|208:98,1,66.4999979705811,0|0,1:0|1:0,0:0:0:0:
303,205,3237,5,4,1:2:0:0:
300,265,3318,1,0,1:0:0:0:
288,323,3398,1,0,1:0:0:0:
268,380,3479,2,0,P|228:385|191:391,1,66.4999979705811,0|2,3:0|3:2,0:0:0:0:
125,263,3640,1,2,3:2:0:0:
119,274,3721,2,0,P|124:308|129:339,1,66.4999979705811,2|0,3:2|3:0,0:0:0:0:
18,108,3882,5,4,1:2:0:0:
70,83,3963,1,0,0:0:0:0:
122,108,4044,1,0,0:0:0:0:
137,164,4124,1,0,1:0:0:0:
189,188,4205,1,4,1:2:0:0:
241,164,4286,1,0,0:0:0:0:
256,107,4366,6,0,P|247:69|242:31,1,66.4999979705811,0|4,1:0|0:2,0:0:0:0:
420,0,4527,1,0,0:0:0:0:
464,67,4608,1,0,1:0:0:0:
406,119,4689,2,0,P|390:113|374:109,2,33.2499989852906,4|0|0,1:2|0:0|1:0,0:0:0:0:
326,206,4850,5,0,1:0:0:0:
343,261,4931,1,0,0:0:0:0:
394,290,5011,1,0,1:0:0:0:
450,276,5092,2,0,P|454:236|460:199,2,66.4999979705811,0|0|0,1:0|1:0|1:0,0:0:0:0:
293,342,5334,6,0,P|238:356|210:365,1,66.4999979705811,4|0,1:2|0:0,0:0:0:0:
115,289,5495,2,0,P|69:264|51:243,1,66.4999979705811,0|0,1:0|0:0,0:0:0:0:
140,86,5656,2,0,L|146:32,2,33.2499989852906,0|0|0,1:0|0:0|0:0,0:0:0:0:
12,183,5818,5,0,1:0:0:0:
65,155,5898,1,0,1:0:0:0:
123,167,5979,2,0,L|172:172,1,33.2499989852906,4|0,1:2|0:0,0:0:0:0:
173,201,6060,2,0,L|218:185,1,33.2499989852906,0|0,1:0|0:0,0:0:0:0:
232,209,6140,1,0,1:0:0:0:
285,179,6221,1,0,1:0:0:0:
314,127,6302,2,0,P|309:94|306:55,1,66.4999979705811,0|0,0:0|1:0,0:0:0:0:
431,43,6463,5,0,3:0:0:0:
446,36,6544,1,0,3:0:0:0:
474,40,6624,1,0,3:0:0:0:
500,70,6705,1,0,3:0:0:0:
506,121,6786,6,0,P|497:155|495:184,1,42.7499986953736,0|0,1:0|1:0,0:0:0:0:
504,187,6866,2,0,P|472:199|446:211,1,47.5,0|0,1:0|1:0,0:0:0:0:
437,229,6947,2,0,P|445:263|447:288,1,56.9999982604981,0|0,1:0|1:0,0:0:0:0:
429,326,7027,2,0,P|396:336|361:349,1,66.4999979705811,0|0,1:0|1:0,0:0:0:0:
288,313,7108,5,4,1:2:0:0:
288,313,7431,2,0,P|234:323|197:333,1,76,2|2,0:0|0:0,0:0:0:0:
297,228,7753,5,0,1:2:0:0:
297,228,7995,1,0,0:0:0:0:
297,228,8076,2,0,P|351:238|388:248,1,76,2|2,0:0|0:0,0:0:0:0:
239,158,8398,5,0,1:2:0:0:
239,158,8640,1,0,0:0:0:0:
239,158,8721,2,0,L|225:76,1,76,2|2,0:0|0:0,0:0:0:0:
274,9,9044,5,0,1:2:0:0:
274,9,9366,1,2,0:0:0:0:
274,9,9527,1,2,0:0:0:0:
338,132,9689,6,0,B|367:121|367:121|382:64,1,85.4999973907472,0|0,1:2|0:0,0:0:0:0:
187,249,10011,1,2,0:0:0:0:
216,161,10173,1,0,0:0:0:0:
174,252,10334,6,0,B|145:263|145:263|130:320,1,85.4999973907472,0|0,1:2|0:0,0:0:0:0:
51,255,10576,1,0,0:0:0:0:
56,269,10656,2,0,L|38:358,1,85.4999973907472,2|0,0:0|0:0,0:0:0:0:
219,347,10979,6,0,B|226:345|226:345|304:339|304:339|313:337,1,76,0|0,1:2|0:0,0:0:0:0:
340,261,11220,1,0,0:0:0:0:
333,249,11301,2,0,B|327:249|327:249|264:254|264:254|257:256,1,76,2|0,0:0|0:0,0:0:0:0:
122,44,11624,5,0,1:2:0:0:
284,164,11785,2,0,L|291:137,2,26.1250007972718,0|0|0,0:0|0:0|0:0,0:0:0:0:
206,55,11947,6,0,L|122:44,1,85.4999973907472,2|0,1:0|0:0,0:0:0:0:
296,29,12188,1,0,1:0:0:0:
290,43,12269,2,0,L|206:55,1,85.4999973907472,2|2,0:0|0:0,0:0:0:0:
376,185,12592,6,0,L|273:161,1,95,2|0,1:0|0:0,0:0:0:0:
476,143,12834,1,0,1:0:0:0:
468,163,12914,2,0,L|365:187,1,95,2|2,0:0|1:2,0:0:0:0:
168,359,13237,6,0,P|135:328|173:248,1,104.500003189087,2|0,1:0|0:0,0:0:0:0:
228,238,13478,1,0,1:0:0:0:
220,250,13559,2,0,P|253:281|215:361,1,104.500003189087,2|0,0:0|1:0,0:0:0:0:
139,272,13801,1,0,1:0:0:0:
127,262,13882,1,2,1:0:0:0:
155,171,14043,1,0,1:0:0:0:
32,117,14205,6,0,L|19:13,1,95,2|0,1:0|1:0,0:0:0:0:
120,98,14446,1,0,0:0:0:0:
113,89,14527,2,0,L|101:-8,1,76,2|2,1:2|1:2,0:0:0:0:
348,129,14850,6,0,L|361:25,1,95,2|0,1:0|1:0,0:0:0:0:
261,107,15092,1,0,1:0:0:0:
267,99,15172,2,0,L|277:7,1,56.9999982604981,2|0,1:2|1:0,0:0:0:0:
437,76,15334,2,0,L|447:-16,1,56.9999982604981,2|0,1:2|1:0,0:0:0:0:
227,238,15495,6,0,L|199:236,2,28.4999991302491,2|0|0,1:0|1:0|1:0,0:0:0:0:
275,378,15656,2,0,L|278:346,2,28.4999991302491,0|0|0,1:0|1:0|1:0,0:0:0:0:
341,158,15817,2,0,L|337:189,2,28.4999991302491,0|0|0,1:0|1:0|1:0,0:0:0:0:
418,302,15979,2,0,L|386:298,2,28.4999991302491,0|0|0,1:0|1:0|1:0,0:0:0:0:
304,267,16140,5,2,1:0:0:0:
309,271,16301,1,0,1:2:0:0:
308,264,16463,1,0,1:0:0:0:
41,94,16785,6,0,B|26:75|26:75|15:9,1,76,6|0,1:0|0:0,0:0:0:0:
226,72,16946,1,2,1:3:0:0:
212,86,17027,1,2,1:3:0:0:
201,165,17108,2,0,B|187:179|187:179|175:250,1,76,2|0,1:1|0:0,0:0:0:0:
9,220,17269,2,0,P|44:207|82:200,1,76,0|2,1:0|1:3,0:0:0:0:
167,318,17430,5,2,1:1:0:0:
167,318,17511,2,0,P|224:334|270:366,1,76,0|0,0:0|1:0,0:0:0:0:
400,371,17672,1,2,1:3:0:0:
306,239,17753,2,0,B|318:256|318:256|330:319|335:343,1,76,2|0,1:0|0:0,0:0:0:0:
459,262,17914,2,0,B|468:255|468:255|475:189,1,76,0|2,1:0|1:3,0:0:0:0:
328,7,18075,5,2,1:0:0:0:
304,13,18156,1,0,0:0:0:0:
263,91,18237,2,0,B|247:91|247:91|164:48,1,76,2|2,1:3|1:3,0:0:0:0:
387,142,18398,2,0,B|392:123|392:123|432:61,1,76,2|0,1:1|0:0,0:0:0:0:
203,172,18559,2,0,P|153:182|115:205,1,76,2|0,1:2|0:0,0:0:0:0:
346,367,18721,5,2,3:2:0:0:
346,367,18802,2,0,B|366:350|366:350|350:258,1,76,0|0,3:0|3:0,0:0:0:0:
459,215,18963,1,0,3:0:0:0:
464,203,19044,2,0,P|488:226|506:275,1,76,2|0,3:2|0:0,0:0:0:0:
269,330,19205,2,0,B|253:343|253:343|165:366,1,76,2|0,0:2|0:0,0:0:0:0:
324,159,19366,6,0,B|319:147|319:147|327:67,1,76,2|0,1:1|0:0,0:0:0:0:
114,14,19528,1,0,1:0:0:0:
127,30,19608,1,0,1:0:0:0:
93,109,19689,2,0,P|73:111|-9:130,1,76,2|0,1:0|0:0,0:0:0:0:
213,209,19850,2,0,P|260:233|283:252,1,76,2|2,0:2|0:3,0:0:0:0:
90,365,20010,5,2,1:0:0:0:
90,365,20091,2,0,B|101:351|101:351|119:274,1,76,0|0,0:0|1:3,0:0:0:0:
186,112,20252,1,2,1:3:0:0:
91,210,20333,2,0,B|79:209|79:209|13:250,1,76,2|0,1:1|0:0,0:0:0:0:
174,104,20494,2,0,P|182:73|186:16,1,76,0|2,0:0|1:3,0:0:0:0:
260,281,20656,6,0,P|277:319|281:368,1,76,2|0,1:0|0:0,0:0:0:0:
321,118,20817,1,0,1:0:0:0:
334,108,20897,1,2,1:3:0:0:
397,47,20977,2,0,B|384:34|384:34|306:13,1,76,2|0,1:0|0:0,0:0:0:0:
428,238,21139,2,0,P|462:224|502:217,1,76,2|0,1:2|0:0,0:0:0:0:
240,183,21301,5,2,1:2:0:0:
240,183,21463,1,0,1:0:0:0:
240,183,21624,6,0,B|222:177|222:177|184:132,1,76,4|0,0:2|3:0,0:0:0:0:
55,10,21785,1,0,1:0:0:0:
65,24,21866,1,0,3:0:0:0:
13,94,21947,2,0,B|2:114|2:114|-5:201,1,76,0|0,1:0|0:0,0:0:0:0:
206,54,22108,2,0,B|223:47|223:47|273:-2,1,76,0|2,1:0|3:2,0:0:0:0:
94,159,22269,5,2,1:2:0:0:
94,159,22350,2,0,P|104:217|106:258,1,76,2|0,0:2|1:0,0:0:0:0:
221,379,22511,1,0,3:0:0:0:
333,239,22592,2,0,B|313:290|313:290|311:311,1,76,2|2,1:2|0:2,0:0:0:0:
124,316,22753,2,0,B|108:329|108:329|9:355,1,76,0|0,1:0|1:0,0:0:0:0:
240,183,22915,6,0,B|232:165|232:165|227:129|230:93,1,76,2|0,1:2|1:0,0:0:0:0:
401,304,23076,1,0,1:0:0:0:
416,311,23157,1,0,1:0:0:0:
479,371,23238,2,0,B|494:351|494:351|512:286,1,76,2|0,1:2|1:0,0:0:0:0:
452,138,23399,2,0,B|438:148|438:148|358:175,1,76,2|0,1:2|1:0,0:0:0:0:
194,18,23560,6,0,B|211:16|211:16|275:52,1,76,2|0,1:2|0:0,0:0:0:0:
230,273,23722,2,0,P|223:236|217:199,1,76,0|0,1:0|0:0,0:0:0:0:
15,66,23882,6,0,B|26:49|26:49|26:11,2,45.1249987950325,0|0|0,1:0|1:0|1:0,0:0:0:0:
103,179,24043,2,0,P|90:182|49:196,2,45.1249987950325,0|0|0,1:0|1:0|1:0,0:0:0:0:
21,364,24205,6,0,B|35:347|35:347|53:280,1,76,0|0,1:0|1:0,0:0:0:0:
226,183,24366,2,0,B|238:192|238:192|317:210,1,76,0|0,1:0|1:0,0:0:0:0:
498,313,24527,6,0,B|494:322|494:322|505:364,2,49.8749984779358,0|0|0,1:0|1:0|1:0,0:0:0:0:
377,146,24689,2,0,P|384:122|394:99,2,49.8749984779358,0|0|0,1:0|1:0|1:0,0:0:0:0:
322,352,24850,6,0,P|301:355|217:384,1,76,0|0,1:0|1:0,0:0:0:0:
479,228,25011,2,0,B|471:206|471:206|463:118,1,76,0|0,1:0|1:0,0:0:0:0:
188,10,25172,5,0,1:0:0:0:
249,77,25253,1,0,1:0:0:0:
327,32,25334,2,0,B|336:17|336:17|325:-8,2,38,0|0|0,1:0|1:0|1:0,0:0:0:0:
134,171,25495,6,0,B|112:171|112:171|40:208,1,80.750001540184,0|0,1:0|1:0,0:0:0:0:
332,269,25656,2,0,P|366:284|407:318,1,80.750001540184,0|0,0:0|0:0,0:0:0:0:
171,381,25818,5,0,1:0:0:0:
167,382,25979,1,0,1:0:0:0:
168,377,26140,1,0,1:0:0:0:
165,376,26463,6,0,L|66:361,1,85.4999973907472,4|2,0:0|0:0,0:0:0:0:
166,289,26786,2,0,L|67:274,1,85.4999973907472,0|2,0:0|0:0,0:0:0:0:
82,189,27108,1,2,0:2:0:0:
167,202,27270,2,0,L|68:187,1,85.4999973907472,0|0,0:0|0:0,0:0:0:0:
83,102,27592,1,2,0:0:0:0:
168,115,27753,2,0,L|69:100,1,85.4999973907472,2|0,0:0|0:0,0:0:0:0:
169,28,28076,2,0,L|70:13,1,85.4999973907472,0|2,0:0|0:0,0:0:0:0:
431,20,28397,6,0,L|347:8,1,85.4999973907472,4|2,0:2|0:0,0:0:0:0:
346,95,28721,2,0,L|445:110,1,85.4999973907472,0|2,0:0|0:0,0:0:0:0:
429,194,29044,1,2,0:2:0:0:
345,182,29204,2,0,L|444:197,1,85.4999973907472,0|0,0:0|0:0,0:0:0:0:
428,281,29527,1,2,0:2:0:0:
344,269,29689,2,0,L|443:284,1,85.4999973907472,2|2,0:2|0:0,0:0:0:0:
427,368,30010,2,0,L|343:356,1,85.4999973907472,0|2,0:0|0:0,0:0:0:0:
84,15,30333,6,0,L|169:28,1,85.4999973907472,4|2,0:2|0:0,0:0:0:0:
167,114,30656,2,0,L|83:102,1,85.4999973907472,0|2,0:0|0:0,0:0:0:0:
83,102,30979,1,2,0:0:0:0:
82,189,31140,2,0,L|167:202,1,85.4999973907472,0|0,0:0|0:0,0:0:0:0:
82,189,31462,1,2,0:0:0:0:
166,289,31624,2,0,L|81:276,1,85.4999973907472,2|2,0:0|0:0,0:0:0:0:
80,363,31946,2,0,L|165:376,1,85.4999973907472,0|2,0:0|0:0,0:0:0:0:
427,368,32269,6,0,L|343:356,1,85.4999973907472,4|2,0:0|0:0,0:0:0:0:
344,269,32592,2,0,L|429:282,1,85.4999973907472,0|2,0:0|0:0,0:0:0:0:
429,282,32914,1,2,0:0:0:0:
429,194,33075,2,0,L|345:182,1,85.4999973907472,0|0,0:0|0:0,0:0:0:0:
345,182,33398,1,2,0:0:0:0:
430,107,33559,2,0,L|346:95,1,85.4999973907472,2|0,0:0|0:0,0:0:0:0:
431,20,33882,2,0,L|347:8,1,85.4999973907472,0|2,0:0|0:0,0:0:0:0:
61,116,34205,6,0,P|34:83|49:14,1,85.4999973907472,4|0,0:0|0:0,0:0:0:0:
109,23,34446,1,0,0:0:0:0:
115,15,34527,2,0,P|142:48|127:117,1,85.4999973907472,2|0,0:0|0:0,0:0:0:0:
182,218,34850,1,2,0:0:0:0:
98,206,35011,2,0,L|188:219,1,85.4999973907472,0|0,0:0|0:0,0:0:0:0:
77,288,35334,1,2,0:0:0:0:
161,300,35495,2,0,L|76:287,1,85.4999973907472,2|0,0:0|0:0,0:0:0:0:
139,381,35817,1,0,0:0:0:0:
451,268,35979,6,0,P|478:301|463:370,1,85.4999973907472,4|0,0:0|0:0,0:0:0:0:
403,361,36220,1,0,0:0:0:0:
397,369,36301,2,0,P|370:336|385:267,1,85.4999973907472,2|0,0:0|0:0,0:0:0:0:
319,96,36624,1,2,0:0:0:0:
305,180,36785,2,0,L|319:96,1,85.4999973907472,0|0,0:0|0:0,0:0:0:0:
392,177,37108,1,2,0:0:0:0:
406,93,37269,2,0,L|392:177,1,85.4999973907472,2|0,0:0|0:0,0:0:0:0:
492,89,37591,1,0,0:0:0:0:
226,5,37753,6,0,P|169:22|149:56,1,85.4999973907472,4|0,3:2|0:0,0:0:0:0:
194,118,37994,2,0,P|251:101|271:67,1,85.4999973907472,4|0,3:2|0:0,0:0:0:0:
267,78,38236,1,2,3:2:0:0:
267,74,38317,1,0,0:0:0:0:
265,71,38398,2,0,L|250:175,1,85.4999973907472,2|0,0:2|0:0,0:0:0:0:
329,240,38720,2,0,L|342:156,1,85.4999973907472,0|2,0:0|0:0,0:0:0:0:
251,279,39043,2,0,L|236:383,1,85.4999973907472,2|0,0:0|0:0,0:0:0:0:
40,284,39365,1,0,3:0:0:0:
43,288,39446,1,0,3:0:0:0:
46,293,39527,6,0,P|42:244|95:199,1,95,4|0,0:0|0:0,0:0:0:0:
103,58,39849,2,0,P|124:102|192:114,1,95,2|0,0:0|0:0,0:0:0:0:
322,199,40172,1,2,0:0:0:0:
231,221,40333,2,0,P|278:216|322:199,1,95,0|0,0:0|0:0,0:0:0:0:
493,114,40656,1,2,0:0:0:0:
397,355,40817,5,2,0:0:0:0:
401,270,40978,2,0,B|381:287|381:287|397:357,1,95,2|0,0:0|0:0,0:0:0:0:
411,181,41301,1,2,0:0:0:0:
487,290,41462,2,0,B|507:273|507:273|491:203,1,95,2|2,1:2|0:2,0:0:0:0:
388,37,41785,1,0,1:0:0:0:
388,37,42108,6,0,P|327:77|222:84,1,151.999995361328,0|0,3:0|0:0,0:0:0:0:
122,139,42430,2,0,P|187:171|245:259,1,151.999995361328,0|0,0:0|0:0,0:0:0:0:
343,318,42753,2,0,P|338:245|385:150,1,151.999995361328,0|0,1:0|0:0,0:0:0:0:
351,14,43075,6,0,P|302:68|202:102,1,151.999995361328,0|0,3:0|0:0,0:0:0:0:
120,181,43398,2,0,P|191:195|270:265,1,151.999995361328,0|0,0:0|3:0,0:0:0:0:
380,297,43720,2,0,P|357:227|377:124,1,151.999995361328,0|0,1:0|0:0,0:0:0:0:
310,2,44043,6,0,P|277:67|189:125,1,151.999995361328,0|0,3:0|0:0,0:0:0:0:
130,223,44366,2,0,P|202:218|297:265,1,151.999995361328,0|0,0:0|3:0,0:0:0:0:
411,268,44688,2,0,P|370:206|364:101,1,151.999995361328,0|0,1:0|0:0,0:0:0:0:
267,2,45011,6,0,P|251:73|181:152,1,151.999995361328,0|0,3:0|0:0,0:0:0:0:
150,261,45333,2,0,P|218:237|322:258,1,151.999995361328,0|0,0:0|1:0,0:0:0:0:
433,231,45656,2,0,P|377:181|361:92,1,88.6666639607748,0|0,0:0|0:0,0:0:0:0:
372,75,45871,1,0,0:0:0:0:
283,165,45978,5,2,0:0:0:0:
256,192,46086,12,0,46839,0:0:0:0:
207,123,46946,5,0,0:0:0:0:
350,214,47054,1,0,0:0:0:0:
189,201,47161,1,0,0:0:0:0:
332,293,47269,5,0,0:0:0:0:
329,137,47376,1,0,0:0:0:0:
210,279,47484,1,0,0:0:0:0:
207,289,47591,6,0,L|210:341,1,52.2500015945435,0|0,0:0|0:0,0:0:0:0:
329,137,47753,2,0,L|326:85,1,52.2500015945435,0|0,0:0|0:0,0:0:0:0:
128,37,47915,6,0,B|111:27|111:27|125:60|139:117,4,78.3750007474423,4|0|0|0|0,1:2|3:2|3:2|3:2|3:2,0:0:0:0:
84,156,48156,1,0,3:0:0:0:
84,156,48237,2,0,P|40:146|4:116,1,76,2|0,0:0|0:0,0:0:0:0:
220,66,48398,2,0,P|238:27|271:-1,1,76,2|0,0:0|0:0,0:0:0:0:
215,210,48560,6,0,P|200:191|182:175,4,47.5,2|0|0|0|0,1:0|3:0|3:0|3:0|3:0,0:0:0:0:
236,310,48802,1,0,3:0:0:0:
236,310,48882,2,0,P|200:357|191:388,1,76,2|0,0:0|0:0,0:0:0:0:
279,141,49044,2,0,P|333:128|365:110,1,76,2|0,0:0|0:0,0:0:0:0:
386,255,49205,6,0,P|350:247|327:235,4,45.1249987950325,2|0|0|0|0,1:0|3:0|3:0|3:0|3:0,0:0:0:0:
419,339,49447,1,0,3:0:0:0:
419,339,49527,2,0,P|461:359|484:385,1,76,2|0,0:0|0:0,0:0:0:0:
461,191,49689,2,0,P|478:150|479:99,1,76,2|0,0:0|0:0,0:0:0:0:
292,4,49850,5,2,1:0:0:0:
219,23,49931,1,0,3:0:0:0:
172,81,50011,1,0,3:0:0:0:
170,155,50092,1,0,3:0:0:0:
212,217,50173,6,0,P|252:229|293:255,1,76,2|0,0:0|0:0,0:0:0:0:
88,96,50334,2,0,P|78:50|53:11,1,76,2|0,0:0|0:0,0:0:0:0:
80,335,50495,6,0,P|41:347|11:373,4,80.750001540184,4|0|0|0|0,1:2|3:0|3:0|3:0|3:0,0:0:0:0:
39,250,50737,1,0,3:0:0:0:
39,250,50818,2,0,P|57:210|62:155,1,76,2|0,0:0|0:0,0:0:0:0:
167,373,50979,2,0,P|207:375|246:386,1,76,0|0,0:0|0:0,0:0:0:0:
212,217,51140,6,0,P|182:243|169:262,4,47.5,2|0|0|0|0,1:0|3:0|3:0|3:0|3:0,0:0:0:0:
156,145,51382,1,0,3:0:0:0:
156,145,51463,2,0,P|137:94|138:54,1,76,0|0,3:0|0:0,0:0:0:0:
263,296,51624,2,0,P|309:324|327:353,1,76,0|0,3:0|0:0,0:0:0:0:
332,109,51786,6,0,P|321:138|304:157,4,45.1249987950325,2|0|0|0|0,1:0|3:0|3:0|3:0|3:0,0:0:0:0:
257,46,52027,1,0,3:0:0:0:
257,46,52108,2,0,P|215:11|174:4,1,76,0|0,3:0|0:0,0:0:0:0:
415,154,52269,2,0,P|453:117|469:79,1,76,2|0,0:0|0:0,0:0:0:0:
259,220,52431,6,0,P|254:271|242:306,2,61.7499971733095,2|0|0,1:0|0:0|0:0,0:0:0:0:
371,270,52592,2,0,P|395:276|418:287,2,49.8749984779358,0|0|0,1:0|0:0|1:0,0:0:0:0:
214,366,52753,6,0,P|177:370|138:388,6,73.6250005617142,4|0|0|0|0|0|0,1:2|3:0|3:0|3:0|1:0|3:0|3:0,0:0:0:0:
111,305,53075,6,0,P|78:261|89:191,1,76,0|0,1:0|0:0,0:0:0:0:
256,165,53236,2,0,P|289:173|335:183,1,76,0|0,1:0|1:0,0:0:0:0:
78,48,53398,6,0,L|77:4,1,30.8749985866547,2|0,1:0|3:0,0:0:0:0:
74,50,53478,2,0,L|73:4,1,35.625001358986,0|0,3:0|3:0,0:0:0:0:
70,53,53559,2,0,P|39:82|29:134,1,85.4999973907472,0|0,1:0|0:0,0:0:0:0:
174,187,53720,2,0,P|229:174|281:157,1,85.4999973907472,0|0,1:0|0:0,0:0:0:0:
405,244,53882,2,0,P|419:284|410:340,1,85.4999973907472,0|0,1:0|1:0,0:0:0:0:
485,107,54044,6,0,L|488:63,1,30.8749985866547,2|0,1:0|3:0,0:0:0:0:
480,109,54124,2,0,L|483:63,1,35.625001358986,0|0,3:0|3:0,0:0:0:0:
476,111,54205,2,0,P|432:108|397:77,1,85.4999973907472,0|0,1:0|0:0,0:0:0:0:
246,5,54366,2,0,P|259:45|264:87,1,85.4999973907472,0|0,1:0|0:0,0:0:0:0:
306,291,54527,2,0,P|244:262|192:258,1,85.4999973907472,0|0,1:0|1:0,0:0:0:0:
28,122,54689,6,0,P|27:92|21:51,2,61.7499971733095,2|0|0,1:0|0:0|0:0,0:0:0:0:
41,275,54850,2,0,P|32:300|18:329,2,49.8749984779358,0|0|0,1:0|0:0|0:0,0:0:0:0:
120,166,55011,6,0,P|151:153|195:151,4,73.6250005617142,4|0|0|0|0,1:2|1:0|1:0|1:0|1:0,0:0:0:0:
256,89,55252,1,0,1:0:0:0:
256,89,55333,2,0,P|281:49|282:5,1,85.4999973907472,0|0,1:0|1:0,0:0:0:0:
212,236,55494,2,0,P|165:269|147:321,1,85.4999973907472,0|0,1:0|1:0,0:0:0:0:
317,159,55656,6,0,B|329:172|329:172|381:167|381:167|390:199,6,83.1250007927418,2|0|0|0|0|0|0,1:0|1:0|1:0|1:0|1:0|1:0|1:0,0:0:0:0:
511,226,55978,2,0,B|507:238|507:238|455:233|455:233|443:246,6,83.1250007927418,0|0|0|0|0|0|0,1:0|0:0|1:0|0:0|1:0|0:0|1:0,0:0:0:0:
450,14,56301,5,0,1:0:0:0:
437,65,56381,1,0,1:0:0:0:
424,117,56462,1,0,1:0:0:0:
412,168,56543,1,0,1:0:0:0:
399,220,56623,1,0,1:0:0:0:
387,272,56704,1,0,1:0:0:0:
374,323,56785,1,0,1:0:0:0:
362,375,56865,1,0,1:0:0:0:
268,256,56946,5,2,1:2:0:0:
268,256,57269,5,0,1:0:0:0:
220,176,57376,1,0,3:0:0:0:
132,207,57484,1,0,3:0:0:0:
181,296,57591,6,0,P|186:336|189:396,2,82.3333295644126,0|0|0,1:0|1:0|1:0,0:0:0:0:
220,176,57914,2,0,B|215:155|215:155|238:74,2,82.3333295644126,0|0|0,1:0|1:0|1:0,0:0:0:0:
35,126,58236,1,0,1:0:0:0:
54,206,58344,2,0,B|74:219|74:219|161:200,1,82.3333295644126,0|0,1:0|1:0,0:0:0:0:
316,58,58559,2,0,B|285:71|285:71|131:36,1,164.666659128825,0|0,1:0|0:0,0:0:0:0:
372,165,58881,6,0,B|391:146|391:146|469:184,2,82.3333295644126,0|0|0,1:0|1:0|1:0,0:0:0:0:
467,6,59204,2,0,B|456:22|456:22|465:104,2,82.3333295644126,0|0|0,1:0|1:0|1:0,0:0:0:0:
407,244,59527,2,0,B|413:286|413:286|275:312,1,164.666659128825,0|0,1:0|1:0,0:0:0:0:
121,153,59849,1,2,3:2:0:0:
61,215,59957,2,0,B|43:225|43:225|24:314,1,82.3333295644126,2|2,3:2|3:2,0:0:0:0:
165,61,60172,6,0,B|145:52|145:52|100:-13,2,82.3333295644126,0|0|0,1:0|1:0|1:0,0:0:0:0:
180,238,60494,2,0,B|206:227|206:227|256:251,2,82.3333295644126,0|0|0,1:0|1:0|1:0,0:0:0:0:
57,94,60817,1,0,1:0:0:0:
121,153,60924,2,0,B|128:160|128:160|220:140,1,82.3333295644126,0|0,1:0|1:0,0:0:0:0:
377,69,61140,2,0,B|387:-6|387:-6|345:111,1,164.666659128825,0|0,1:0|0:0,0:0:0:0:
406,339,61463,5,0,1:0:0:0:
480,301,61570,2,0,B|489:286|489:286|492:206,1,82.3333295644126,0|0,1:0|1:0,0:0:0:0:
283,230,61785,2,0,B|328:234|328:234|457:148,1,164.666659128825,0|0,1:0|1:0,0:0:0:0:
225,14,62108,6,0,B|191:26|191:26|207:99,1,82.3333295644126,2|0,1:1|0:0,0:0:0:0:
283,230,62269,2,0,B|299:217|299:217|280:196,2,41.1666647822063,2|0|0,1:1|1:0|1:0,0:0:0:0:
133,121,62431,6,0,B|113:139|113:139|25:159,1,88.6666639607748,4|0,1:2|1:0,0:0:0:0:
176,350,62646,1,0,1:0:0:0:
93,314,62753,2,0,B|77:294|77:294|64:227,1,88.6666639607748,0|0,1:0|1:0,0:0:0:0:
226,153,62968,1,0,1:0:0:0:
95,41,63076,6,0,B|50:27|50:27|94:70,2,88.6666639607748,0|0|0,1:0|1:0|1:0,0:0:0:0:
226,153,63398,2,0,B|249:132|249:132|337:110,1,88.6666639607748,0|0,1:0|3:0,0:0:0:0:
421,13,63613,1,0,3:0:0:0:
492,190,63721,6,0,B|502:211|502:211|527:285,1,88.6666639607748,0|0,1:0|1:0,0:0:0:0:
339,37,63936,1,0,1:0:0:0:
307,241,64043,2,0,B|288:226|288:226|180:265|180:265|139:223,1,177.33332792155,0|0,1:0|1:0,0:0:0:0:
72,58,64366,1,2,1:2:0:0:
226,153,64473,2,0,B|240:131|240:131|256:44,1,88.6666639607748,2|2,1:2|1:2,0:0:0:0:
67,248,64689,6,0,L|0:230,5,44.3333319803874,0|0|0|0|0|0,1:0|1:0|1:0|1:0|1:0|0:0,0:0:0:0:
180,369,65011,2,0,L|167:306,1,44.3333319803874,0|0,1:0|1:0,0:0:0:0:
251,238,65119,2,0,B|241:254|241:254|231:310,1,44.3333319803874,0|0,1:0|1:0,0:0:0:0:
304,340,65226,2,0,B|317:345|317:345|351:364,1,44.3333319803874,0|0,1:0|1:0,0:0:0:0:
467,309,65334,6,0,L|481:259,5,44.3333319803874,0|0|0|0|0|0,1:0|1:0|1:0|1:0|1:0|1:0,0:0:0:0:
329,201,65656,2,0,L|349:256,5,44.3333319803874,0|0|0|0|0|0,1:0|1:0|1:0|1:0|1:0|1:0,0:0:0:0:
509,16,65979,6,0,L|475:72,1,47.5000018119813,0|0,1:0|1:0,0:0:0:0:
429,143,66086,2,0,L|396:103,1,47.5000018119813,0|0,1:0|1:0,0:0:0:0:
333,14,66194,2,0,L|315:84,1,47.5000018119813,0|0,1:0|1:0,0:0:0:0:
235,185,66301,6,0,L|159:166,1,47.5000018119813,0|0,1:0|1:0,0:0:0:0:
137,48,66409,2,0,L|126:95,1,47.5000018119813,0|0,1:0|1:0,0:0:0:0:
38,157,66516,2,0,L|52:217,1,47.5000018119813,0|0,1:0|1:0,0:0:0:0:
19,353,66624,6,0,P|81:335|143:330,1,126.666666666667,2|0,1:2|0:0,0:0:0:0:
158,338,66947,6,0,P|140:305|141:266,1,44.3333319803874,0|0,1:0|1:0,0:0:0:0:
171,345,67054,2,0,P|150:314|147:275,1,47.5000018119813,0|0,1:0|1:0,0:0:0:0:
184,352,67162,2,0,P|161:323|155:284,1,50.6666666666667,0|0,1:0|1:0,0:0:0:0:
199,358,67269,6,0,P|173:331|164:293,1,53.8333343601227,0|0,1:0|1:0,0:0:0:0:
213,362,67377,2,0,P|185:337|173:300,1,56.9999982604981,0|0,1:0|1:0,0:0:0:0:
228,365,67484,2,0,P|198:343|183:307,1,60.1666650600434,0|0,1:0|1:0,0:0:0:0:
244,367,67592,6,0,P|212:347|193:313,1,63.3333333333333,0|0,1:0|1:0,0:0:0:0:
259,367,67699,2,0,P|225:351|204:318,1,66.4999979705811,0|0,1:0|1:0,0:0:0:0:
274,366,67807,2,0,P|239:353|215:322,1,69.6666687927247,0|0,1:0|1:0,0:0:0:0:
289,364,67914,6,0,P|253:353|227:325,1,72.833334722519,0|0,1:0|1:0,0:0:0:0:
304,360,68022,2,0,P|267:353|238:327,1,75.9999976806641,0|0,1:0|1:0,0:0:0:0:
319,356,68129,2,0,P|281:351|246:323,1,79.1666666666667,0|0,1:0|1:0,0:0:0:0:
333,349,68237,6,0,P|295:348|257:323,1,82.3333295644126,0|0,1:0|1:0,0:0:0:0:
346,342,68344,2,0,P|309:344|264:318,1,85.5000003261566,0|0,1:0|1:0,0:0:0:0:
359,334,68452,2,0,P|317:340|275:317,1,88.6666639607748,0|0,1:0|1:0,0:0:0:0:
328,259,68560,5,4,0:0:0:0:
256,192,68640,12,2,70495,0:0:0:0:
256,192,86301,12,0,87914,0:0:0:0:
52,70,88237,5,0,3:0:0:0:
71,61,88398,5,2,0:0:0:0:
99,53,88559,5,2,0:0:0:0:
136,49,88720,5,2,0:0:0:0:
184,49,88882,5,2,0:0:0:0:
240,57,89043,5,2,0:0:0:0:
304,77,89204,5,2,0:0:0:0:
370,113,89366,5,2,0:0:0:0:
375,125,89446,1,2,0:0:0:0:
437,171,89527,6,0,P|466:137|466:76,1,95,4|0,3:2|0:0,0:0:0:0:
406,10,89768,1,2,0:0:0:0:
440,81,89849,2,0,P|452:125|436:169,1,95,4|2,1:2|0:0,0:0:0:0:
357,346,90172,6,0,P|316:323|297:280,1,95,2|0,3:2|0:0,0:0:0:0:
350,186,90414,1,2,0:0:0:0:
323,262,90494,2,0,P|326:308|356:343,1,95,4|2,3:2|0:0,0:0:0:0:
287,122,90817,6,0,P|239:122|196:141,1,95,2|0,3:2|0:0,0:0:0:0:
123,138,91059,1,2,0:0:0:0:
200,94,91139,2,0,P|247:98|292:126,1,95,4|2,3:2|0:0,0:0:0:0:
197,271,91462,2,0,P|137:284|98:295,1,95,2|0,3:2|0:0,0:0:0:0:
19,324,91704,1,0,0:0:0:0:
4,329,91785,6,0,P|10:281|17:228,1,85.4999973907472,4|2,3:2|3:3,0:0:0:0:
103,120,92027,1,0,0:0:0:0:
91,205,92107,2,0,P|97:163|103:120,1,85.4999973907472,4|2,0:0|0:0,0:0:0:0:
183,0,92430,6,0,P|189:47|196:101,1,85.4999973907472,2|0,3:2|0:0,0:0:0:0:
277,224,92672,1,0,0:0:0:0:
266,140,92752,2,0,P|271:182|277:224,1,85.4999973907472,6|2,3:2|0:0,0:0:0:0:
343,384,93075,6,0,P|349:336|356:283,1,85.4999973907472,2|0,3:2|0:0,0:0:0:0:
440,133,93317,1,2,0:0:0:0:
429,218,93397,2,0,P|434:175|440:133,1,85.4999973907472,4|2,0:0|0:0,0:0:0:0:
499,7,93720,5,0,3:0:0:0:
307,82,93881,1,2,0:0:0:0:
307,82,93962,1,0,0:0:0:0:
307,82,94043,6,0,P|301:59|291:27,3,47.5,6|2|2|0,3:2|0:3|3:3|0:3,0:0:0:0:
217,0,94365,2,0,P|209:49|203:117,1,95,4|2,3:2|0:0,0:0:0:0:
28,292,94688,6,0,L|122:304,1,95,2|2,3:2|0:3,0:0:0:0:
204,273,94930,1,2,0:3:0:0:
187,367,95010,2,0,L|203:273,1,95,2|2,3:2|0:3,0:0:0:0:
470,197,95333,6,0,L|375:209,1,95,2|2,3:2|0:3,0:0:0:0:
293,178,95575,1,0,0:0:0:0:
309,271,95656,2,0,L|292:177,1,95,2|0,3:2|0:0,0:0:0:0:
114,72,95978,2,0,L|208:84,1,95,2|0,3:2|3:0,0:0:0:0:
279,26,96220,1,0,0:0:0:0:
286,19,96301,6,0,L|275:89,3,47.5,4|0|0|0,0:0|0:0|1:0|0:0,0:0:0:0:
347,112,96623,2,0,L|393:119,3,47.5,0|0|0|0,1:0|3:0|3:0|3:0,0:0:0:0:
270,152,96946,1,0,1:0:0:0:
247,144,97027,1,0,1:0:0:0:
224,141,97107,1,0,1:0:0:0:
200,142,97188,1,0,1:0:0:0:
177,149,97268,1,0,1:0:0:0:
156,160,97349,1,0,1:0:0:0:
138,175,97430,1,0,1:0:0:0:
123,193,97510,1,0,1:0:0:0:
110,213,97591,6,0,L|63:200,2,42.7499986953736,0|0|0,1:0|1:0|1:0,0:0:0:0:
55,326,97752,2,0,L|43:367,2,42.7499986953736,0|0|0,1:0|1:0|1:0,0:0:0:0:
166,373,97914,2,0,L|207:384,2,42.7499986953736,0|0|0,1:0|1:0|1:0,0:0:0:0:
215,265,98075,2,0,L|226:223,2,42.7499986953736,0|0|0,1:0|1:0|1:0,0:0:0:0:
134,292,98236,6,0,P|220:311|314:345,1,156.750004783631,0|0,0:0|0:0,0:0:0:0:
464,381,98560,6,0,B|463:356|463:356|507:274,1,76,6|0,1:0|0:0,0:0:0:0:
421,139,98721,1,0,1:0:0:0:
407,131,98801,1,0,0:0:0:0:
338,182,98882,2,0,B|323:164|323:164|299:64,1,76,2|0,1:0|1:0,0:0:0:0:
501,23,99043,2,0,P|482:15|430:-5,1,76,0|0,1:0|0:0,0:0:0:0:
409,228,99205,5,2,1:0:0:0:
409,228,99285,2,0,P|399:262|387:319,1,76,0|0,1:0|1:0,0:0:0:0:
231,163,99447,1,0,0:0:0:0:
233,337,99527,2,0,B|248:317|248:317|316:291,1,76,2|0,1:0|1:0,0:0:0:0:
152,196,99689,2,0,B|131:180|131:180|96:99,1,76,0|0,1:0|0:0,0:0:0:0:
16,363,99850,5,2,1:0:0:0:
31,359,99930,1,0,1:0:0:0:
110,379,100011,2,0,B|121:361|121:361|111:291,1,76,0|0,1:0|0:0,0:0:0:0:
231,163,100172,2,0,P|241:128|256:89,1,76,2|0,1:0|1:0,0:0:0:0:
11,21,100334,2,0,B|24:40|24:40|44:107,1,76,0|0,1:0|0:0,0:0:0:0:
8,250,100495,5,2,1:1:0:0:
8,250,100576,2,0,B|26:244|26:244|88:235,1,76,2|2,3:3|3:3,0:0:0:0:
231,163,100737,1,0,3:3:0:0:
242,180,100818,2,0,B|233:205|233:205|221:283,1,76,2|0,1:0|0:0,0:0:0:0:
368,371,100979,2,0,B|391:353|391:353|382:288,1,76,0|0,1:0|0:0,0:0:0:0:
284,61,101140,6,0,B|304:81|304:81|392:104,1,76,2|0,1:0|0:0,0:0:0:0:
506,232,101301,1,0,1:0:0:0:
491,237,101382,1,0,0:0:0:0:
414,204,101463,2,0,B|409:185|409:185|436:119,1,76,2|0,1:0|1:0,0:0:0:0:
192,21,101624,2,0,P|200:47|208:103,1,76,0|0,1:0|0:0,0:0:0:0:
255,279,101785,5,2,1:0:0:0:
255,279,101866,2,0,P|222:296|182:330,1,76,0|0,1:0|1:0,0:0:0:0:
6,195,102027,1,0,0:0:0:0:
58,361,102108,2,0,B|77:348|77:348|99:286,1,76,2|0,1:0|1:0,0:0:0:0:
134,94,102269,2,0,B|137:121|137:121|155:192,1,76,0|0,1:0|0:0,0:0:0:0:
303,213,102431,6,0,P|339:219|399:228,1,76,2|0,1:0|1:0,0:0:0:0:
446,26,102592,1,0,1:0:0:0:
433,30,102672,1,0,0:0:0:0:
366,93,102753,2,0,B|345:73|345:73|320:8,1,76,2|0,1:0|1:0,0:0:0:0:
472,207,102914,2,0,P|461:262|458:296,1,76,0|0,1:0|0:0,0:0:0:0:
315,372,103076,5,2,1:0:0:0:
315,372,103237,1,2,1:2:0:0:
315,372,103398,6,0,B|302:355|302:355|277:286,1,76,4|2,1:2|0:2,0:0:0:0:
159,78,103559,1,0,1:0:0:0:
166,90,103639,1,2,0:3:0:0:
105,158,103720,2,0,B|86:180|86:180|12:208,1,76,0|2,1:0|0:3,0:0:0:0:
251,78,103881,2,0,B|256:43|271:0,1,76,0|2,1:0|0:3,0:0:0:0:
172,223,104043,5,0,1:0:0:0:
172,223,104123,2,0,B|181:243|181:243|196:323,1,76,2|0,0:3|1:0,0:0:0:0:
331,127,104285,1,2,0:3:0:0:
354,326,104365,2,0,B|340:314|340:314|269:301,1,76,0|2,1:0|0:3,0:0:0:0:
413,160,104527,2,0,B|426:147|426:147|453:58,1,76,0|2,1:0|0:3,0:0:0:0:
200,3,104689,6,0,P|209:26|225:99,1,76,0|2,1:0|0:3,0:0:0:0:
91,271,104850,1,0,1:0:0:0:
76,265,104930,1,2,0:3:0:0:
34,190,105011,2,0,B|52:177|52:177|120:156,1,76,0|2,1:0|0:3,0:0:0:0:
209,311,105172,2,0,B|199:348|196:387,1,76,0|2,1:0|0:3,0:0:0:0:
400,240,105334,6,0,B|374:245|374:245|313:223,1,76,0|0,1:0|1:0,0:0:0:0:
188,113,105495,2,0,P|183:75|175:38,1,76,0|0,1:0|1:0,0:0:0:0:
116,319,105656,6,0,B|108:333|108:333|98:371,2,45.1249987950325,0|0|0,1:0|1:0|1:0,0:0:0:0:
258,183,105817,2,0,P|275:149|284:133,2,45.1249987950325,0|0|0,1:0|1:0|1:0,0:0:0:0:
69,108,105978,6,0,P|81:144|89:181,1,76,0|0,1:0|1:0,0:0:0:0:
253,334,106139,2,0,P|299:314|337:306,1,76,0|0,1:0|1:0,0:0:0:0:
450,70,106301,6,0,B|452:54|452:54|466:16,2,49.8749984779358,0|0|0,1:0|1:0|1:0,0:0:0:0:
400,240,106462,2,0,P|407:263|412:288,2,49.8749984779358,0|0|0,1:0|1:0|1:0,0:0:0:0:
288,66,106623,6,0,P|249:60|192:41,1,76,0|0,1:0|1:0,0:0:0:0:
440,167,106785,2,0,B|465:171|465:171|530:148,1,76,0|0,1:0|1:0,0:0:0:0:
253,334,106946,5,0,1:0:0:0:
177,289,107026,1,0,1:0:0:0:
222,215,107107,2,0,B|236:201|236:201|222:181,2,38,0|0|0,1:0|1:0|1:0,0:0:0:0:
97,334,107268,6,0,P|53:347|15:378,1,80.750001540184,0|0,1:0|1:0,0:0:0:0:
172,105,107430,2,0,P|187:68|189:5,1,80.750001540184,0|0,0:0|0:0,0:0:0:0:
22,195,107591,5,0,1:0:0:0:
18,196,107752,1,0,1:0:0:0:
19,191,107914,1,2,0:0:0:0:
24,194,108075,1,2,0:0:0:0:
21,193,108236,6,0,P|59:183|102:142,4,73.6250005617142,4|0|0|0|0,1:2|3:0|3:0|3:0|3:0,0:0:0:0:
90,263,108478,1,0,3:0:0:0:
90,263,108559,2,0,P|104:306|104:342,1,76,2|0,3:2|0:0,0:0:0:0:
111,83,108720,2,0,P|78:68|43:28,1,76,2|0,0:0|0:0,0:0:0:0:
191,211,108881,6,0,P|226:224|252:232,4,47.5,2|0|0|0|0,1:0|3:0|3:0|3:0|3:0,0:0:0:0:
206,314,109123,1,0,3:0:0:0:
206,314,109204,2,0,P|184:361|175:426,1,76,2|0,0:0|0:0,0:0:0:0:
198,116,109365,2,0,P|231:94|260:50,1,76,2|0,0:0|0:0,0:0:0:0:
325,192,109526,6,0,P|357:184|396:180,4,45.1249987950325,2|0|0|0|0,1:0|3:0|3:0|3:0|3:0,0:0:0:0:
403,268,109768,1,0,3:0:0:0:
403,268,109849,2,0,P|455:284|481:312,1,76,0|0,0:0|0:0,0:0:0:0:
410,108,110010,2,0,P|386:77|374:22,1,76,2|0,0:0|0:0,0:0:0:0:
307,348,110172,5,2,1:0:0:0:
234,329,110252,1,0,3:0:0:0:
187,271,110333,1,2,3:0:0:0:
185,197,110414,1,0,3:0:0:0:
227,135,110494,6,0,P|267:123|308:97,1,76,2|0,3:2|0:0,0:0:0:0:
110,254,110656,2,0,P|91:290|87:340,1,76,2|0,3:2|0:0,0:0:0:0:
52,85,110817,6,0,P|38:57|0:27,4,80.750001540184,4|0|0|0|0,1:2|3:0|3:0|3:0|3:0,0:0:0:0:
66,177,111059,1,0,3:0:0:0:
66,177,111139,2,0,P|16:195|-11:217,1,76,2|0,3:2|0:0,0:0:0:0:
142,69,111301,2,0,P|163:38|172:-5,1,76,0|0,0:0|0:0,0:0:0:0:
203,154,111462,6,0,P|170:165|146:183,4,47.5,2|0|0|0|0,1:0|3:0|3:0|3:0|3:0,0:0:0:0:
232,243,111704,1,0,3:0:0:0:
232,243,111785,2,0,P|217:292|194:321,1,76,2|0,3:2|0:0,0:0:0:0:
274,96,111946,2,0,P|316:79|361:78,1,76,2|0,3:2|0:0,0:0:0:0:
338,232,112108,6,0,P|351:263|354:291,4,45.1249987950325,2|0|0|0|0,1:0|3:0|3:0|3:0|3:0,0:0:0:0:
321,358,112349,1,0,3:0:0:0:
321,358,112430,2,0,P|282:379|238:383,1,76,0|0,1:0|0:0,0:0:0:0:
424,223,112591,2,0,P|439:177|472:145,1,76,2|0,1:2|0:0,0:0:0:0:
422,342,112753,6,0,P|451:351|474:371,2,61.7499971733095,2|0|0,1:0|0:0|0:0,0:0:0:0:
253,222,112914,2,0,P|266:186|271:156,2,49.8749984779358,0|0|0,1:0|0:0|1:0,0:0:0:0:
122,0,113076,6,0,B|113:38|146:84,6,76,4|0|0|0|0|0|0,1:2|3:0|3:0|3:0|3:0|3:0|3:0,0:0:0:0:
73,123,113398,2,0,P|46:104|0:97,1,76,2|0,1:2|3:0,0:0:0:0:
220,65,113559,2,0,P|258:33|275:1,1,76,2|0,1:2|1:0,0:0:0:0:
262,309,113721,6,0,P|253:331|249:354,4,47.5,2|0|0|0|0,1:1|3:0|3:0|3:0|3:0,0:0:0:0:
172,299,113963,1,0,0:0:0:0:
172,299,114043,2,0,P|131:317|104:348,1,76,2|0,1:2|3:0,0:0:0:0:
305,226,114205,2,0,P|295:189|275:157,1,76,0|0,1:0|1:0,0:0:0:0:
490,27,114366,6,0,P|480:60|478:78,4,45.1249987950325,2|0|0|0|0,1:1|3:0|3:0|3:0|3:0,0:0:0:0:
391,46,114607,1,0,3:0:0:0:
391,46,114688,2,0,P|350:34|313:3,1,76,2|0,1:2|3:0,0:0:0:0:
481,156,114849,2,0,P|507:195|511:240,1,76,0|0,1:0|1:0,0:0:0:0:
305,226,115011,6,0,P|252:236|184:265,1,76,2|0,1:0|1:0,0:0:0:0:
27,333,115172,2,0,P|38:304|39:220,1,76,0|0,1:0|1:0,0:0:0:0:
128,68,115334,6,0,P|122:44|112:22,4,49.8749984779358,0|0|0|0|0,1:0|1:0|1:0|1:0|1:0,0:0:0:0:
82,154,115575,1,0,1:0:0:0:
82,154,115656,2,0,P|41:167|-3:176,1,85.4999973907472,0|0,1:0|1:0,0:0:0:0:
211,24,115817,2,0,P|264:47|279:74,1,85.4999973907472,0|0,1:0|1:0,0:0:0:0:
261,281,115979,6,0,B|279:277|279:277|301:287|321:303|321:303|340:292,6,83.1250007927418,0|0|0|0|0|0|0,1:0|1:0|1:0|1:0|1:0|1:0|1:0,0:0:0:0:
391,193,116301,2,0,B|374:208|374:208|356:150,6,83.1250007927418,0|0|0|0|0|0|0,1:0|0:0|1:0|0:0|1:0|0:0|1:0,0:0:0:0:
458,82,116624,6,0,L|467:125,1,28.4999991302491,2|0,1:1|1:0,0:0:0:0:
448,79,116704,2,0,L|457:122,1,28.4999991302491,0|0,1:0|1:0,0:0:0:0:
436,76,116785,1,0,0:0:0:0:
248,186,116946,6,0,L|237:138,2,37.9999988403321,2|0|0,1:1|1:0|1:0,0:0:0:0:
258,189,117027,2,0,L|248:138,2,37.9999988403321,0|0|0,1:0|1:0|1:0,0:0:0:0:
269,192,117108,1,0,1:0:0:0:
388,359,117269,5,2,1:1:0:0:
388,359,117592,2,0,B|409:350|409:350|460:367|460:367|439:371|439:371|342:347,2,132.999995941162,0|2|2,1:0|3:3|3:3,0:0:0:0:
296,260,117914,5,0,1:0:0:0:
277,227,117995,1,0,1:0:0:0:
245,208,118075,1,0,1:0:0:0:
207,207,118156,1,0,1:0:0:0:
174,224,118237,1,0,1:0:0:0:
154,256,118317,1,0,1:0:0:0:
152,294,118398,1,0,1:0:0:0:
169,327,118479,1,0,1:0:0:0:
201,348,118559,5,0,1:0:0:0:
234,348,118640,1,0,1:0:0:0:
266,324,118721,1,0,1:0:0:0:
275,278,118801,1,0,1:0:0:0:
248,235,118882,1,0,1:0:0:0:
260,177,118963,1,0,1:0:0:0:
311,135,119043,1,0,1:0:0:0:
380,132,119124,1,0,1:0:0:0:
442,179,119204,6,0,P|431:207|417:274,1,76,0|0,1:0|1:0,0:0:0:0:
251,77,119366,2,0,P|237:41|228:4,1,76,0|0,1:0|1:0,0:0:0:0:
98,186,119527,1,0,1:0:0:0:
157,178,119608,1,0,1:0:0:0:
216,193,119688,1,0,1:0:0:0:
263,230,119769,1,0,1:0:0:0:
293,283,119850,6,0,P|269:339|266:367,1,76,0|0,1:0|1:0,0:0:0:0:
311,135,120011,2,0,P|342:119|384:66,1,76,0|0,1:0|1:0,0:0:0:0:
184,275,120172,2,0,P|128:276|41:319,1,152,0|0,1:0|0:0,0:0:0:0:
98,378,120414,1,0,0:0:0:0:
28,218,120495,5,0,1:0:0:0:
22,179,120575,1,0,1:0:0:0:
32,143,120656,1,0,1:0:0:0:
56,113,120737,1,0,1:0:0:0:
89,96,120817,1,0,1:0:0:0:
127,93,120898,1,0,1:0:0:0:
163,104,120979,1,0,1:0:0:0:
191,130,121059,1,0,1:0:0:0:
207,164,121140,5,0,1:0:0:0:
231,205,121221,1,0,1:0:0:0:
277,223,121301,1,0,1:0:0:0:
331,216,121382,1,0,1:0:0:0:
373,174,121463,1,0,1:0:0:0:
381,102,121543,1,0,1:0:0:0:
333,40,121624,1,0,1:0:0:0:
253,33,121704,1,0,1:0:0:0:
189,99,121786,6,0,P|146:105|99:115,1,76,0|0,1:0|1:0,0:0:0:0:
3,306,121947,1,0,1:0:0:0:
90,338,122027,1,0,1:0:0:0:
148,267,122108,2,0,B|140:239|140:239|156:169,1,76,0|0,1:0|1:0,0:0:0:0:
140,27,122269,1,0,1:0:0:0:
63,0,122350,1,0,1:0:0:0:
9,78,122431,6,0,B|-2:71|-2:71|18:59,3,23.75,2|0|0|0,0:0|0:0|0:0|0:0,0:0:0:0:
54,202,122753,5,2,1:1:0:0:
96,184,122833,1,0,1:0:0:0:
143,189,122914,1,0,1:0:0:0:
182,216,122994,1,0,1:0:0:0:
202,259,123075,1,2,1:1:0:0:
229,307,123156,1,0,1:0:0:0:
279,331,123236,1,0,1:0:0:0:
332,323,123317,1,0,1:0:0:0:
371,288,123398,6,0,P|376:263|385:238,4,38,2|0|0|0|0,1:1|1:0|1:0|0:0|0:0,0:0:0:0:
290,75,123640,2,0,P|299:91|304:125,4,38,2|0|0|0|0,1:1|0:0|1:0|1:0|1:0,0:0:0:0:
461,170,123882,2,0,P|481:161|505:155,2,38,2|0|0,1:1|0:0|1:0,0:0:0:0:
295,251,124044,6,0,P|255:233|168:220,1,76,2|0,1:1|1:0,0:0:0:0:
139,73,124205,1,0,1:0:0:0:
54,48,124285,1,0,1:1:0:0:
1,129,124366,2,0,P|10:165|14:203,1,76,2|0,1:1|1:0,0:0:0:0:
89,330,124527,2,0,P|123:313|159:303,1,76,2|0,1:1|1:0,0:0:0:0:
271,148,124689,6,0,P|276:112|296:67,1,76,2|0,0:0|0:0,0:0:0:0:
416,259,124850,2,0,P|381:242|345:232,1,76,0|0,1:0|1:0,0:0:0:0:
192,106,125011,6,0,P|164:122|121:121,6,45.1249987950325,2|0|0|0|0|0|0,1:1|1:0|1:0|0:0|1:0|0:0|1:0,0:0:0:0:
66,177,125333,2,0,B|51:169|51:169|18:86,2,59.375,2|0|0,1:1|1:0|1:0,0:0:0:0:
223,8,125494,2,0,B|245:22|245:22|318:33,2,59.375,2|0|0,1:1|0:0|1:0,0:0:0:0:
197,216,125656,6,0,P|186:251|181:278,4,45.1249987950325,2|0|0|0|0,1:1|1:0|1:0|0:0|1:0,0:0:0:0:
218,339,125898,1,0,1:0:0:0:
218,339,125978,2,0,B|200:343|200:343|153:377,2,66.4999979705811,2|0|0,1:1|1:0|1:0,0:0:0:0:
345,197,126140,2,0,P|312:189|281:180,2,66.4999979705811,2|0|0,1:1|1:0|1:0,0:0:0:0:
415,51,126302,6,0,P|442:40|464:29,6,45.1249987950325,2|0|0|0|0|0|0,1:1|1:0|1:0|0:0|1:0|1:0|1:0,0:0:0:0:
483,160,126624,2,0,B|491:182|491:182|496:242,2,73.6250005617142,2|0|0,1:1|0:0|0:0,0:0:0:0:
321,67,126785,2,0,B|299:49|299:49|277:3,2,73.6250005617142,0|0|0,1:0|0:0|0:0,0:0:0:0:
256,266,126947,5,2,1:1:0:0:
256,266,127108,1,0,0:0:0:0:
256,266,127269,5,4,1:2:0:0:
239,259,127349,1,0,1:0:0:0:
223,245,127430,1,0,1:0:0:0:
212,223,127510,1,4,1:2:0:0:
214,193,127591,1,0,1:0:0:0:
232,163,127672,1,0,1:0:0:0:
264,150,127752,1,4,1:2:0:0:
295,151,127833,1,0,1:2:0:0:
322,175,127914,5,0,1:0:0:0:
362,198,127994,1,4,1:2:0:0:
414,190,128075,2,0,B|425:201|425:201|427:238,1,38,0|0,1:0|1:0,0:0:0:0:
460,145,128156,2,0,B|481:152|481:152|506:181,1,38,0|0,1:0|1:0,0:0:0:0:
472,74,128236,1,4,1:2:0:0:
450,26,128317,1,0,1:0:0:0:
422,5,128398,1,0,1:0:0:0:
402,0,128478,1,0,1:0:0:0:
380,5,128559,5,4,1:2:0:0:
339,24,128639,1,0,1:0:0:0:
315,70,128720,1,0,1:0:0:0:
326,120,128801,1,4,1:2:0:0:
308,164,128881,1,0,1:0:0:0:
262,176,128962,1,0,1:0:0:0:
214,150,129043,2,0,P|208:128|210:98,2,28.4999991302491,4|0|0,1:2|0:0|1:0,0:0:0:0:
153,27,129204,5,0,1:0:0:0:
94,3,129285,1,4,1:2:0:0:
62,59,129365,2,0,P|41:65|24:68,2,38,0|0|0,1:0|1:0|1:0,0:0:0:0:
128,122,129527,5,4,1:2:0:0:
76,162,129607,1,0,1:0:0:0:
122,201,129688,1,0,1:0:0:0:
98,231,129769,1,0,1:0:0:0:
108,255,129849,6,0,P|143:261|184:271,1,59.375,0|0,1:0|0:0,0:0:0:0:
111,263,129930,2,0,P|146:269|185:279,1,59.375,0|0,1:0|0:0,0:0:0:0:
114,271,130011,2,0,P|149:277|188:287,1,59.375,0|0,1:0|0:0,0:0:0:0:
117,279,130092,2,0,P|152:285|191:295,1,59.375,0|0,1:0|0:0,0:0:0:0:
115,290,130172,6,0,P|80:296|41:306,1,59.375,0|0,1:0|0:0,0:0:0:0:
112,298,130253,2,0,P|77:304|38:314,1,59.375,2|0,1:2|0:0,0:0:0:0:
109,306,130334,2,0,P|74:312|35:322,1,59.375,2|0,1:2|0:0,0:0:0:0:
106,314,130414,2,0,P|71:320|32:330,1,59.375,2|0,1:2|0:0,0:0:0:0:
113,325,130495,6,0,B|125:365|82:378|98:341|142:344,11,79.1666666666667,2|2|2|2|2|2|2|2|0|2|2|2,0:0|0:0|0:0|0:0|0:0|0:0|0:0|0:0|0:0|0:0|0:0|0:0,0:0:0:0:
218,378,131140,1,4,1:2:0:0:
256,192,131180,12,0,132672,0:0:0:0:
512,0,132752,5,4,0:2:0:0:
