osu file format v14

[General]
AudioFilename: Tanaka.mp3
AudioLeadIn: 0
PreviewTime: 16745
Countdown: 0
SampleSet: Soft
StackLeniency: 0.5
Mode: 0
LetterboxInBreaks: 0
WidescreenStoryboard: 1

[Editor]
Bookmarks: 757,7208,16894,26563,34302,36076,37850,39624,42208,48015,57692,68660,70588,84780,89627,98655,108337,118015,127369,131240,132834
DistanceSpacing: 1.1
BeatDivisor: 4
GridSize: 32
TimelineZoom: 1.6

[Metadata]
Title:Tanaka
TitleUnicode:田中
Artist:Rish feat. Choko
ArtistUnicode:立秋 feat. ちょこ
Creator:Len
Version:Hyper
Source:THE BMS OF FIGHTERS XVII -VISION THE RETRO FUTURE-
Tags:electronic video game rissyuu risshuu japanese Neoskylove Affirmation zzx Gimbab yf_bmp yf fanzhen0019 fanzhen fast fa featured artist bofxvii 石王マサト masato Ishioh
BeatmapID:3320734
BeatmapSetID:1626188

[Difficulty]
HPDrainRate:4.5
CircleSize:4
OverallDifficulty:6.7
ApproachRate:8.3
SliderMultiplier:1.5
SliderTickRate:1

[Events]
//Background and Video events
0,0,"taka.png",0,0
Video,-150,"bga.mp4"
//Break Periods
2,70695,84688
//Storyboard Layer 0 (Background)
//Storyboard Layer 1 (Fail)
//Storyboard Layer 2 (Pass)
//Storyboard Layer 3 (Foreground)
//Storyboard Layer 4 (Overlay)
//Storyboard Sound Samples

[TimingPoints]
657,322.58064516129,4,2,1,53,1,0
10979,322.58064516129,3,2,1,53,1,0
11947,322.58064516129,4,2,1,53,1,0
13237,322.58064516129,3,2,1,53,1,0
14205,322.58064516129,4,2,1,53,1,0
20656,322.58064516129,3,2,1,53,1,0
21624,322.58064516129,4,2,1,53,1,0
22915,322.58064516129,3,2,1,53,1,0
23882,322.58064516129,4,2,1,53,1,0
26463,322.58064516129,6,2,1,53,1,0
34205,322.58064516129,11,2,1,53,1,0
35979,322.58064516129,11,2,1,53,1,0
37753,322.58064516129,11,2,1,53,1,0
39527,322.58064516129,4,2,1,53,1,0
42108,322.58064516129,3,2,1,53,1,0
47915,322.58064516129,4,2,1,53,1,0
51786,322.58064516129,3,2,1,53,1,0
52753,322.58064516129,4,2,1,53,1,0
54044,322.58064516129,3,2,1,53,1,0
55011,322.58064516129,4,2,1,53,1,0
61463,322.58064516129,3,2,1,53,1,0
62431,322.58064516129,4,2,1,53,1,0
63721,322.58064516129,3,2,1,53,1,0
64689,322.58064516129,4,2,1,53,1,0
65979,322.58064516129,3,2,1,53,1,0
66947,322.58064516129,5,2,1,53,1,0
68560,322.58064516129,3,2,1,53,1,0
70495,322.58064516129,11,2,1,53,1,0
88237,322.58064516129,4,2,1,53,1,0
89527,322.58064516129,7,2,1,53,1,0
98560,322.58064516129,4,2,1,53,1,0
102431,322.58064516129,3,2,1,53,1,0
103398,322.58064516129,4,2,1,53,1,0
104689,322.58064516129,3,2,1,53,1,0
105656,322.58064516129,4,2,1,53,1,0
112108,322.58064516129,3,2,1,53,1,0
113076,322.58064516129,4,2,1,53,1,0
114366,322.58064516129,3,2,1,53,1,0
115334,322.58064516129,4,2,1,53,1,0
121786,322.58064516129,3,2,1,53,1,0
122753,322.58064516129,4,2,1,53,1,0
124044,322.58064516129,3,2,1,53,1,0
125011,322.58064516129,4,2,1,53,1,0
126302,322.58064516129,3,2,1,53,1,0
127269,322.58064516129,4,2,1,53,1,0
131140,322.58064516129,5,2,1,53,1,0
131785,-100,5,2,1,5,0,0
132752,-100,5,2,1,53,0,0

[Colours]
Combo1 : 255,236,179
Combo2 : 172,255,172
Combo3 : 181,215,255
Combo4 : 250,165,177

[HitObjects]
32,41,657,6,0,L|37:104,3,37.5,2|2|2|0,0:0|0:0|0:0|0:0,0:0:0:0:
50,90,979,2,0,L|55:153,3,37.5,0|0|0|0,0:0|0:0|0:0|0:0,0:0:0:0:
25,168,1302,6,0,L|92:175,5,37.5,4|0|0|0|4|0,1:2|0:0|0:0|1:0|1:2|0:0,0:0:0:0:
97,209,1786,2,0,L|164:202,5,37.5,0|4|0|0|4|0,1:0|1:2|0:0|1:0|1:2|1:0,0:0:0:0:
168,135,2269,6,0,L|235:142,5,37.5,4|0|0|0|0|0,1:2|0:0|1:0|1:0|0:0|1:0,0:0:0:0:
240,176,2753,2,0,L|307:169,5,37.5,4|0|0|0|0|0,1:2|0:0|1:0|0:0|1:0|1:0,0:0:0:0:
311,94,3237,6,0,L|378:101,5,37.5,4|0|0|0|2|2,1:2|1:0|1:0|3:0|3:2|3:2,0:0:0:0:
383,135,3721,2,0,L|447:122,1,37.5,2|0,3:2|3:0,0:0:0:0:
460,158,3882,6,0,L|451:206,5,37.5,4|0|0|0|4|0,1:2|0:0|0:0|1:0|1:2|0:0,0:0:0:0:
483,237,4366,2,0,L|474:285,5,37.5,0|4|0|0|4|0,1:0|0:2|0:0|1:0|1:2|1:0,0:0:0:0:
389,294,4850,6,0,L|398:246,5,37.5,0|0|0|0|0|0,1:0|0:0|1:0|1:0|1:0|1:0,0:0:0:0:
374,219,5334,2,0,L|383:171,5,37.5,4|0|0|0|0|0,1:2|0:0|1:0|0:0|1:0|0:0,0:0:0:0:
306,262,5818,6,0,L|255:250,3,37.5,0|0|4|0,1:0|1:0|1:2|1:0,0:0:0:0:
255,202,6140,2,0,L|190:216,3,37.5,0|0|0|0,1:0|1:0|0:0|1:0,0:0:0:0:
178,241,6463,2,0,L|113:227,3,37.5,0|0|0|0,3:0|3:0|3:0|3:0,0:0:0:0:
86,238,6786,2,0,L|96:186,3,37.5,0|0|0|0,1:0|1:0|1:0|1:0,0:0:0:0:
87,127,7108,6,0,L|12:119,1,75,4|0,1:2|0:0,0:0:0:0:
150,43,7431,1,2,0:0:0:0:
150,43,7592,1,2,0:0:0:0:
150,43,7753,2,0,L|54:50,1,75,0|0,1:2|0:0,0:0:0:0:
221,135,8076,1,2,0:0:0:0:
221,135,8237,1,2,0:0:0:0:
221,135,8398,2,0,L|139:123,1,75,0|0,1:2|0:0,0:0:0:0:
161,205,8721,2,0,L|86:215,1,75,2|2,0:0|0:0,0:0:0:0:
194,282,9044,2,0,P|254:264|322:333,1,150,0|2,1:2|0:0,0:0:0:0:
265,378,9527,1,2,0:0:0:0:
383,367,9689,6,0,B|402:349|402:349|417:253,1,112.5,0|0,1:2|0:0,0:0:0:0:
402,253,10011,2,0,L|391:165,1,75,2|0,0:0|0:0,0:0:0:0:
482,131,10334,2,0,L|468:226,1,75,0|0,1:2|0:0,0:0:0:0:
416,85,10656,2,0,L|426:10,1,75,2|0,0:0|0:0,0:0:0:0:
341,32,10979,2,0,B|311:18|311:18|302:28|302:28|293:26|293:26|259:35|259:35|239:23|178:20,2,150,0|2|0,1:2|0:0|1:2,0:0:0:0:
220,221,11947,5,2,1:0:0:0:
306,207,12108,1,0,0:0:0:0:
306,207,12188,1,0,1:0:0:0:
306,207,12269,2,0,P|298:249|290:303,1,75,2|2,0:0|0:0,0:0:0:0:
222,324,12592,5,2,1:0:0:0:
136,310,12753,1,0,0:0:0:0:
136,310,12834,1,0,1:0:0:0:
136,310,12914,2,0,P|144:352|152:406,1,75,2|2,0:0|1:2,0:0:0:0:
67,367,13237,2,0,B|29:343|29:343|55:247,1,112.5,2|0,1:0|1:0,0:0:0:0:
35,269,13559,2,0,L|26:181,1,75,2|0,0:0|1:0,0:0:0:0:
118,126,13882,2,0,L|108:203,1,75,2|0,1:0|1:0,0:0:0:0:
167,257,14205,5,2,1:0:0:0:
234,209,14366,1,0,1:0:0:0:
234,209,14446,1,0,0:0:0:0:
234,209,14527,2,0,L|243:134,1,75,2|2,1:2|1:2,0:0:0:0:
317,96,14850,1,2,1:0:0:0:
356,179,15011,1,0,1:0:0:0:
356,179,15092,1,0,1:0:0:0:
356,179,15172,2,0,L|346:236,3,37.5,2|0|2|0,1:2|1:0|1:2|1:0,0:0:0:0:
360,232,15495,6,0,P|407:226|505:218,1,112.5,2|0,1:0|1:0,0:0:0:0:
480,203,15817,2,0,P|502:255|446:314,1,112.5,0|0,1:0|1:0,0:0:0:0:
474,343,16140,2,0,P|422:350|387:354,1,75,2|0,1:0|1:2,0:0:0:0:
361,336,16382,1,0,0:0:0:0:
349,333,16463,1,0,1:0:0:0:
156,382,16785,6,0,P|111:355|122:256,1,150,6|2,1:0|1:1,0:0:0:0:
162,199,17269,1,0,1:0:0:0:
229,245,17430,2,0,P|274:258|311:274,1,75,2|0,1:1|1:0,0:0:0:0:
317,187,17753,2,0,P|351:173|388:163,1,75,2|0,1:0|1:0,0:0:0:0:
507,187,18075,6,0,P|508:125|436:93,1,150,2|2,1:0|1:1,0:0:0:0:
382,29,18559,1,2,1:2:0:0:
336,98,18721,2,0,P|290:84|252:78,1,75,2|0,3:2|3:0,0:0:0:0:
232,3,19043,2,0,P|186:17|148:23,1,75,2|2,3:2|0:2,0:0:0:0:
31,60,19366,6,0,P|97:70|142:138,1,150,2|2,1:1|1:0,0:0:0:0:
85,196,19850,1,2,0:2:0:0:
116,271,20011,2,0,P|76:283|40:306,1,75,2|0,1:0|1:3,0:0:0:0:
88,371,20334,2,0,P|128:359|164:336,1,75,2|2,1:1|1:3,0:0:0:0:
237,353,20656,6,0,L|252:258,1,75,2|0,1:0|1:0,0:0:0:0:
237,239,20897,1,2,1:3:0:0:
231,232,20978,2,0,P|286:244|321:252,1,75,2|2,1:0|1:2,0:0:0:0:
354,314,21301,1,2,1:2:0:0:
418,262,21462,1,0,1:0:0:0:
488,304,21624,6,0,P|520:262|496:165,1,150,4|0,0:2|1:0,0:0:0:0:
491,90,22107,1,0,1:0:0:0:
411,112,22269,2,0,P|406:68|404:25,1,75,2|0,1:2|1:0,0:0:0:0:
322,26,22591,2,0,P|326:63|328:100,1,75,2|0,1:2|1:0,0:0:0:0:
264,235,22915,6,0,B|172:237|232:192|113:195,1,150,2|2,1:2|1:2,0:0:0:0:
74,260,23398,1,2,1:2:0:0:
6,212,23560,2,0,P|5:176|-8:135,1,75,2|0,1:2|1:0,0:0:0:0:
84,32,23882,6,0,P|77:63|73:82,3,37.5,0|0|0|0,1:0|1:0|1:0|1:0,0:0:0:0:
72,81,24204,2,0,P|119:72|176:68,1,75,0|0,1:0|1:0,0:0:0:0:
191,138,24527,2,0,B|177:196,2,37.5,0|0|0,1:0|1:0|1:0,0:0:0:0:
266,105,24849,2,0,L|351:92,1,75,0|0,1:0|1:0,0:0:0:0:
490,208,25172,6,0,L|448:196,3,37.5,0|0|0|0,1:0|1:0|1:0|1:0,0:0:0:0:
433,205,25494,2,0,P|426:164|418:115,1,75,0|0,1:0|0:0,0:0:0:0:
365,262,25817,2,0,L|351:345,1,75,0|0,1:0|1:0,0:0:0:0:
424,378,26140,1,0,1:0:0:0:
231,308,26463,6,0,P|180:317|146:322,1,75,4|2,0:0|0:0,0:0:0:0:
89,368,26785,2,0,P|39:325|65:231,4,150,0|2|0|2|0,0:0|0:2|0:0|0:0|0:0,0:0:0:0:
234,222,28398,6,0,P|285:231|319:236,1,75,4|2,0:2|0:0,0:0:0:0:
376,282,28721,2,0,P|426:239|400:145,4,150,0|2|0|2|0,0:0|0:2|0:0|0:2|0:0,0:0:0:0:
195,123,30333,6,0,P|144:132|110:137,1,75,4|2,0:2|0:0,0:0:0:0:
53,183,30656,2,0,P|3:140|29:46,4,150,0|2|0|2|0,0:0|0:0|0:0|0:0|0:0,0:0:0:0:
257,75,32269,6,0,P|308:84|342:89,1,75,4|2,0:0|0:0,0:0:0:0:
399,135,32592,2,0,P|449:92|423:-2,4,150,0|2|0|2|0,0:0|0:0|0:0|0:0|0:0,0:0:0:0:
171,19,34205,6,0,L|183:116,1,75,4|0,0:0|0:0,0:0:0:0:
100,71,34527,2,0,L|117:236,1,150,2|2,0:0|0:0,0:0:0:0:
192,249,35011,1,0,0:0:0:0:
192,249,35172,2,0,L|204:346,1,75,0|2,0:0|0:0,0:0:0:0:
273,283,35495,2,0,L|285:380,1,75,2|0,0:0|0:0,0:0:0:0:
366,378,35817,1,0,0:0:0:0:
473,280,35979,6,0,P|478:237|493:186,1,75,4|0,0:0|0:0,0:0:0:0:
404,217,36301,2,0,P|401:164|389:45,1,150,2|2,0:0|0:0,0:0:0:0:
320,35,36785,1,0,0:0:0:0:
320,35,36946,2,0,P|312:95|311:113,1,75,0|2,0:0|0:0,0:0:0:0:
231,130,37269,2,0,P|224:80|211:22,1,75,2|0,0:0|0:0,0:0:0:0:
146,16,37591,1,0,0:0:0:0:
128,136,37753,6,0,P|135:171|141:260,1,112.5,4|4,3:2|3:2,0:0:0:0:
138,292,38075,2,0,P|191:278|223:271,1,75,2|2,0:0|3:2,0:0:0:0:
246,293,38317,1,0,0:0:0:0:
252,300,38398,2,0,P|306:312|333:322,1,75,2|0,0:2|0:0,0:0:0:0:
393,363,38720,2,0,P|405:311|414:286,1,75,0|2,0:0|0:0,0:0:0:0:
494,284,39043,2,0,P|478:249|467:213,1,75,2|0,0:0|0:0,0:0:0:0:
506,98,39365,1,0,3:0:0:0:
506,98,39446,1,0,3:0:0:0:
506,98,39527,6,0,P|454:131|415:134,1,75,4|0,0:0|0:0,0:0:0:0:
362,154,39849,2,0,P|340:115|335:5,1,150,2|2,0:0|0:0,0:0:0:0:
256,44,40333,1,0,0:0:0:0:
179,12,40494,2,0,P|175:64|167:113,1,75,0|2,0:0|0:0,0:0:0:0:
210,159,40817,5,2,0:0:0:0:
131,185,40978,1,2,0:0:0:0:
156,263,41139,2,0,P|206:274|234:286,1,75,0|2,0:0|0:0,0:0:0:0:
293,334,41462,2,0,P|307:284|319:253,1,75,2|2,1:2|0:2,0:0:0:0:
298,181,41785,1,0,1:0:0:0:
424,353,42108,6,0,P|482:338|503:268,1,100,0|0,3:0|0:0,0:0:0:0:
474,259,42430,2,0,P|453:198|453:144,1,100,0|0,0:0|0:0,0:0:0:0:
472,111,42753,1,0,1:0:0:0:
334,19,43075,6,0,P|276:34|255:104,1,100,0|0,3:0|0:0,0:0:0:0:
284,113,43398,2,0,P|305:174|305:228,1,100,0|0,0:0|3:0,0:0:0:0:
286,261,43720,1,0,1:0:0:0:
171,380,44043,6,0,P|113:365|92:295,1,100,0|0,3:0|0:0,0:0:0:0:
121,286,44366,2,0,P|142:225|142:171,1,100,0|0,0:0|3:0,0:0:0:0:
123,138,44688,1,0,1:0:0:0:
5,21,45011,6,0,P|58:30|116:36,1,100,0|0,3:0|0:0,0:0:0:0:
148,3,45333,2,0,P|170:49|234:54,1,100,0|0,0:0|1:0,0:0:0:0:
259,29,45656,2,0,P|294:24|318:20,2,50,0|0|0,0:0|0:0|0:0,0:0:0:0:
256,192,45978,12,0,47591,0:0:0:0:
109,57,47914,6,0,P|116:81|123:117,3,37.5,4|0|0|0,0:0|3:0|3:0|3:0,0:0:0:0:
139,101,48237,2,0,P|122:143|113:185,1,75,2|2,0:0|0:0,0:0:0:0:
47,220,48560,1,0,1:0:0:0:
47,220,48640,1,0,3:0:0:0:
47,220,48721,1,0,3:0:0:0:
80,295,48882,2,0,P|126:300|171:313,1,75,2|2,0:0|0:0,0:0:0:0:
216,361,49205,6,0,P|246:348|270:343,3,37.5,0|0|0|0,1:0|3:0|3:0|3:0,0:0:0:0:
267,356,49527,2,0,P|279:308|294:265,1,75,2|2,0:0|0:0,0:0:0:0:
347,226,49850,1,0,1:0:0:0:
347,226,49931,1,0,3:0:0:0:
347,226,50011,1,0,3:0:0:0:
409,280,50173,2,0,P|452:267|489:262,1,75,2|2,0:0|0:0,0:0:0:0:
502,182,50495,6,0,P|476:177|454:168,3,37.5,0|0|0|0,1:0|3:0|3:0|3:0,0:0:0:0:
444,182,50818,2,0,P|436:145|425:109,1,75,2|0,0:0|0:0,0:0:0:0:
457,38,51140,1,0,1:0:0:0:
457,38,51221,1,0,3:0:0:0:
457,38,51302,1,0,3:0:0:0:
378,13,51463,2,0,P|342:26|299:38,1,75,0|0,3:0|3:0,0:0:0:0:
273,111,51786,6,0,P|230:92|187:84,1,75,0|0,1:0|3:0,0:0:0:0:
174,70,52027,1,0,3:0:0:0:
164,66,52108,2,0,P|175:121|181:174,1,75,0|2,3:0|0:0,0:0:0:0:
120,200,52431,1,0,1:0:0:0:
172,263,52592,1,0,1:0:0:0:
120,326,52753,6,0,P|155:371|257:349,1,150,0|0,1:0|1:0,0:0:0:0:
283,295,53236,1,0,1:0:0:0:
350,342,53398,2,0,P|391:346|427:351,1,75,0|0,1:0|1:0,0:0:0:0:
448,271,53720,2,0,P|407:267|371:262,1,75,0|0,1:0|1:0,0:0:0:0:
312,206,54044,6,0,P|326:171|339:125,1,75,0|0,1:0|1:0,0:0:0:0:
363,104,54285,1,0,0:0:0:0:
371,98,54366,2,0,P|328:83|278:69,1,75,0|0,1:0|1:0,0:0:0:0:
245,12,54689,2,0,P|207:30|168:45,1,75,0|0,1:0|1:0,0:0:0:0:
12,46,55011,6,0,P|73:58|143:120,1,150,0|0,1:0|1:0,0:0:0:0:
92,181,55494,1,0,1:0:0:0:
149,240,55656,2,0,P|168:235|198:229,3,37.5,0|0|0|0,1:0|1:0|1:0|1:0,0:0:0:0:
206,215,55978,2,0,L|185:311,1,75,0|0,1:0|1:0,0:0:0:0:
306,381,56301,6,0,L|297:335,3,37.5,0|0|0|0,1:0|1:0|1:0|1:0,0:0:0:0:
309,324,56623,2,0,L|300:278,3,37.5,0|0|0|0,1:0|1:0|1:0|1:0,0:0:0:0:
342,224,56946,1,2,1:2:0:0:
470,40,57269,6,0,B|498:49|498:49|528:84,2,50,0|0|0,1:0|3:0|3:0,0:0:0:0:
398,75,57591,6,0,B|387:88|387:88|376:141,2,50,0|0|0,1:0|1:0|1:0,0:0:0:0:
323,44,57914,2,0,B|311:29|311:29|267:7,2,50,0|0|0,1:0|1:0|1:0,0:0:0:0:
299,122,58236,1,0,1:0:0:0:
299,122,58344,2,0,B|288:137|288:137|247:160,1,50,0|0,1:0|1:0,0:0:0:0:
186,183,58559,2,0,P|184:142|168:72,1,100,0|0,1:0|0:0,0:0:0:0:
109,35,58881,6,0,P|84:21|57:2,2,50,0|0|0,1:0|1:0|1:0,0:0:0:0:
97,117,59204,1,0,1:0:0:0:
97,117,59312,2,0,P|55:145|42:163,1,50,0|0,1:0|1:0,0:0:0:0:
5,207,59527,2,0,P|57:223|103:263,1,100,0|0,1:0|1:0,0:0:0:0:
123,323,59849,2,0,P|109:353|102:385,2,50,2|2|2,3:2|3:2|3:2,0:0:0:0:
204,305,60172,5,0,1:0:0:0:
204,305,60279,2,0,P|197:264|197:231,1,50,0|0,1:0|1:0,0:0:0:0:
261,208,60494,1,0,1:0:0:0:
261,208,60602,2,0,P|300:227|316:241,1,50,0|0,1:0|1:0,0:0:0:0:
321,309,60817,2,0,P|281:341|261:366,2,50,0|0|0,1:0|1:0|1:0,0:0:0:0:
391,347,61140,2,0,B|410:361|410:361|506:335,1,100,0|0,1:0|0:0,0:0:0:0:
501,263,61463,6,0,P|465:246|450:233,1,50,0|0,1:0|1:0,0:0:0:0:
405,184,61678,1,0,1:0:0:0:
405,184,61785,2,0,P|419:152|437:80,1,100,0|0,1:0|1:0,0:0:0:0:
430,9,62108,2,0,P|459:0|479:-5,2,50,2|0|0,1:1|0:0|1:0,0:0:0:0:
343,108,62431,5,4,1:2:0:0:
343,108,62538,2,0,P|282:91|249:87,1,50,0|0,1:0|1:0,0:0:0:0:
244,31,62753,1,0,1:0:0:0:
244,31,62861,2,0,P|212:54|195:74,1,50,0|0,1:0|1:0,0:0:0:0:
137,105,63076,2,0,P|127:65|118:44,2,50,0|0|0,1:0|1:0|1:0,0:0:0:0:
188,166,63398,2,0,B|173:192|173:192|161:222|156:302,1,100,0|0,1:0|3:0,0:0:0:0:
190,334,63721,6,0,P|161:346|132:366,2,50,0|0|0,1:0|1:0|1:0,0:0:0:0:
269,336,64043,2,0,P|281:372|291:404,2,50,0|0|0,1:0|0:0|1:0,0:0:0:0:
317,272,64366,2,0,P|360:284|383:288,1,50,2|2,1:2|1:2,0:0:0:0:
435,246,64581,1,2,1:2:0:0:
435,246,64689,6,0,P|422:207|416:180,1,50,0|0,1:0|1:0,0:0:0:0:
445,124,64904,1,0,1:0:0:0:
445,124,65011,2,0,P|460:87|464:63,2,50,0|0|0,1:0|1:0|1:0,0:0:0:0:
365,137,65334,2,0,P|306:128|239:126,1,100,0|0,1:0|1:0,0:0:0:0:
223,58,65656,2,0,P|253:34|272:10,2,50,0|0|0,1:0|1:0|1:0,0:0:0:0:
143,70,65979,6,0,P|132:37|121:15,2,50,0|0|0,1:0|1:0|1:0,0:0:0:0:
187,142,66301,1,0,1:0:0:0:
187,142,66409,2,0,P|174:171|167:210,1,50,0|0,1:0|1:0,0:0:0:0:
91,208,66624,2,0,P|115:257|125:318,1,100,2|0,1:2|1:0,0:0:0:0:
64,354,66947,6,0,B|48:343|58:327,30,25,0|0|0|0|0|0|0|0|0|0|0|0|0|0|0|0|0|0|0|0|0|0|0|0|0|0|0|0|0|0|4,1:0|1:0|1:0|1:0|1:0|1:0|1:0|1:0|1:0|1:0|1:0|1:0|1:0|1:0|1:0|1:0|1:0|1:0|1:0|1:0|1:0|1:0|1:0|1:0|1:0|1:0|1:0|1:0|1:0|1:0|0:0,0:0:0:0:
256,192,68640,12,2,70495,0:0:0:0:
256,192,86301,12,0,88236,3:0:0:0:
377,81,89366,5,2,0:0:0:0:
377,81,89446,1,2,0:0:0:0:
377,81,89527,6,0,P|378:120|383:175,1,75,4|0,3:2|0:0,0:0:0:0:
460,134,89849,2,0,P|461:173|466:228,1,75,4|2,1:2|0:0,0:0:0:0:
502,282,90172,2,0,B|419:272|453:332|348:316,1,150,2|4,3:2|3:2,0:0:0:0:
323,244,90656,1,2,0:0:0:0:
240,250,90817,2,0,P|248:194|259:132,1,112.5,2|2,3:2|0:0,0:0:0:0:
266,125,91139,2,0,P|232:146|169:146,1,75,4|2,3:2|0:0,0:0:0:0:
129,106,91462,2,0,P|124:53|117:20,1,75,2|0,3:2|0:0,0:0:0:0:
124,194,91785,6,0,P|60:197|15:283,1,150,4|4,3:2|0:0,0:0:0:0:
34,343,92268,1,2,0:0:0:0:
112,317,92430,2,0,P|144:324|186:334,1,75,2|0,3:2|0:0,0:0:0:0:
262,361,92752,2,0,P|256:316|252:265,1,75,6|2,3:2|0:0,0:0:0:0:
202,220,93075,2,0,B|298:206|232:173|347:155,1,150,2|4,3:2|0:0,0:0:0:0:
392,215,93559,1,2,0:0:0:0:
431,142,93720,2,0,P|421:91|418:56,1,75,0|2,3:0|0:0,0:0:0:0:
320,2,94043,2,0,P|323:22|327:49,3,37.5,6|2|2|0,3:2|0:3|3:3|0:3,0:0:0:0:
335,59,94365,6,0,P|295:46|256:39,1,75,4|2,3:2|0:0,0:0:0:0:
238,119,94688,2,0,P|195:45|123:46,1,150,2|2,3:2|3:2,0:0:0:0:
63,2,95172,1,2,0:3:0:0:
12,67,95333,2,0,P|23:118|32:187,1,112.5,2|0,3:2|0:0,0:0:0:0:
22,192,95656,2,0,P|62:177|106:165,1,75,2|0,3:2|0:0,0:0:0:0:
154,223,95978,2,0,P|135:273|125:315,1,75,2|0,3:2|3:0,0:0:0:0:
93,368,96301,6,0,P|134:317|234:328,1,150,4|0,0:0|1:0,0:0:0:0:
265,379,96785,1,0,3:0:0:0:
334,334,96946,2,0,P|328:286|325:253,1,75,0|0,1:0|1:0,0:0:0:0:
388,206,97268,1,0,1:0:0:0:
388,206,97349,1,0,1:0:0:0:
388,206,97430,1,0,1:0:0:0:
464,237,97591,6,0,P|456:269|451:293,2,37.5,0|0|0,1:0|1:0|1:0,0:0:0:0:
509,167,97914,2,0,P|526:182|535:197,2,37.5,0|0|0,1:0|1:0|1:0,0:0:0:0:
474,92,98236,2,0,P|470:68|467:41,3,37.5,0|0|0|0,0:0|0:0|0:0|0:0,0:0:0:0:
475,38,98560,6,0,P|413:26|361:94,1,150,6|2,1:0|1:0,0:0:0:0:
286,52,99043,1,0,1:0:0:0:
255,129,99205,2,0,P|214:135|174:143,1,75,2|0,1:0|1:0,0:0:0:0:
143,67,99527,2,0,P|96:55|41:34,1,75,2|0,1:0|1:0,0:0:0:0:
4,175,99850,6,0,P|67:189|163:226,1,150,2|2,1:0|1:0,0:0:0:0:
181,293,100334,1,0,1:0:0:0:
252,251,100495,2,0,P|258:209|265:156,1,75,2|2,1:1|3:3,0:0:0:0:
334,135,100818,2,0,P|323:84|319:45,1,75,2|0,1:0|1:0,0:0:0:0:
475,9,101140,6,0,P|464:62|453:164,1,150,2|2,1:0|1:0,0:0:0:0:
504,222,101624,1,0,1:0:0:0:
439,272,101785,2,0,P|391:258|356:250,1,75,2|0,1:0|1:0,0:0:0:0:
343,331,102108,2,0,P|306:339|270:350,1,75,2|0,1:0|1:0,0:0:0:0:
198,311,102430,6,0,P|211:266|218:222,1,75,2|0,1:0|1:0,0:0:0:0:
239,204,102672,1,0,0:0:0:0:
249,196,102753,2,0,P|200:209|147:219,1,75,2|0,1:0|1:0,0:0:0:0:
117,272,103076,1,2,1:0:0:0:
70,204,103237,1,2,1:2:0:0:
3,251,103398,6,0,P|22:193|35:83,1,150,4|0,1:2|1:0,0:0:0:0:
12,25,103881,1,0,1:0:0:0:
91,1,104043,2,0,P|101:47|109:87,1,75,0|0,1:0|1:0,0:0:0:0:
174,120,104365,2,0,P|219:104|266:92,1,75,0|0,1:0|1:0,0:0:0:0:
361,25,104689,6,0,P|310:54|317:143,1,150,0|0,1:0|1:0,0:0:0:0:
380,183,105172,1,0,1:0:0:0:
444,130,105334,2,0,P|453:87|462:49,1,75,0|0,1:0|1:0,0:0:0:0:
458,213,105656,6,0,P|466:242|474:275,3,37.5,0|0|0|0,1:0|1:0|1:0|1:0,0:0:0:0:
481,266,105978,2,0,P|441:279|396:306,1,75,0|0,1:0|1:0,0:0:0:0:
347,346,106301,2,0,P|340:373|336:393,2,37.5,0|0|0,1:0|1:0|1:0,0:0:0:0:
282,294,106623,2,0,P|273:252|266:214,1,75,0|0,1:0|1:0,0:0:0:0:
235,77,106946,6,0,P|225:111|220:125,3,37.5,0|0|0|0,1:0|1:0|1:0|1:0,0:0:0:0:
229,132,107268,2,0,P|184:117|131:108,1,75,0|0,1:0|0:0,0:0:0:0:
75,96,107591,2,0,P|85:131|94:168,1,75,0|0,1:0|1:0,0:0:0:0:
48,236,107914,1,2,0:0:0:0:
121,272,108075,1,2,0:0:0:0:
93,349,108236,6,0,P|122:357|133:362,3,37.5,4|0|0|0,1:2|3:0|3:0|3:0,0:0:0:0:
141,378,108559,2,0,P|181:362|230:352,1,75,2|2,3:2|0:0,0:0:0:0:
248,280,108881,1,2,1:0:0:0:
248,280,108962,1,0,3:0:0:0:
248,280,109043,1,0,3:0:0:0:
315,327,109204,2,0,P|360:338|394:350,1,75,2|2,0:0|0:0,0:0:0:0:
462,314,109526,6,0,P|472:287|485:258,3,37.5,2|0|0|0,1:0|3:0|3:0|3:0,0:0:0:0:
499,271,109849,2,0,P|486:231|473:180,1,75,0|2,0:0|0:0,0:0:0:0:
420,153,110172,1,2,1:0:0:0:
420,153,110252,1,0,3:0:0:0:
420,153,110333,1,2,3:0:0:0:
482,99,110494,2,0,P|494:52|507:15,1,75,2|2,3:2|3:2,0:0:0:0:
423,1,110817,6,0,P|417:23|413:40,3,37.5,2|0|0|0,1:0|3:0|3:0|3:0,0:0:0:0:
417,55,111139,2,0,P|373:42|339:37,1,75,2|0,3:2|0:0,0:0:0:0:
284,93,111462,1,2,1:0:0:0:
284,93,111543,1,0,3:0:0:0:
284,93,111623,1,0,3:0:0:0:
336,157,111785,2,0,P|326:206|319:250,1,75,2|2,3:2|3:2,0:0:0:0:
329,312,112108,6,0,P|283:298|240:287,1,75,2|0,1:0|3:0,0:0:0:0:
223,267,112349,1,0,3:0:0:0:
212,260,112430,2,0,P|226:314|230:346,1,75,0|2,1:0|1:2,0:0:0:0:
159,379,112753,1,0,1:0:0:0:
100,321,112914,1,0,1:0:0:0:
29,363,113076,6,0,P|15:289|-8:202,1,150,4|2,1:2|1:2,0:0:0:0:
63,168,113559,1,2,1:2:0:0:
13,101,113721,2,0,P|56:91|100:72,1,75,2|0,1:2|1:0,0:0:0:0:
158,115,114043,2,0,P|169:73|185:19,1,75,2|0,1:2|1:0,0:0:0:0:
250,2,114366,6,0,P|295:20|327:30,1,75,2|0,1:2|1:0,0:0:0:0:
359,16,114607,1,0,3:0:0:0:
371,10,114688,2,0,P|352:73|348:93,1,75,2|0,1:2|1:0,0:0:0:0:
298,147,115011,2,0,P|341:160|372:175,1,75,2|0,1:2|1:0,0:0:0:0:
512,132,115334,6,0,P|466:158|422:260,1,150,0|0,1:0|1:0,0:0:0:0:
469,309,115817,1,0,1:0:0:0:
402,358,115979,2,0,P|375:348|353:341,3,37.5,0|0|0|0,1:0|1:0|1:0|1:0,0:0:0:0:
358,327,116301,2,0,P|319:338|269:348,1,75,0|0,1:0|1:0,0:0:0:0:
204,363,116624,6,0,P|198:389|198:395,4,18.75,2|0|0|0|0,1:1|1:0|1:0|1:0|0:0,0:0:0:0:
194,281,116946,2,0,P|200:261|203:246,4,18.75,2|0|0|0|0,1:1|1:0|1:0|1:0|0:0,0:0:0:0:
116,310,117269,1,2,1:1:0:0:
51,58,117592,6,0,B|41:65|41:65|-18:77,2,50,0|2|2,1:0|3:3|3:3,0:0:0:0:
117,10,117914,6,0,B|125:24|125:24|130:58,3,37.5,0|0|0|0,1:0|1:0|1:0|1:0,0:0:0:0:
142,61,118237,2,0,P|133:82|123:117,3,37.5,0|0|0|0,1:0|1:0|1:0|1:0,0:0:0:0:
120,141,118559,5,0,1:0:0:0:
120,141,118640,1,0,1:0:0:0:
120,141,118721,1,0,1:0:0:0:
120,141,118801,1,0,1:0:0:0:
120,141,118882,2,0,P|125:169|128:192,3,37.5,0|0|0|0,1:0|1:0|1:0|1:0,0:0:0:0:
95,250,119204,6,0,P|114:253|136:258,3,37.5,0|0|0|0,1:0|1:0|1:0|1:0,0:0:0:0:
143,272,119527,2,0,P|166:265|186:261,3,37.5,0|0|0|0,1:0|1:0|1:0|1:0,0:0:0:0:
198,245,119850,6,0,L|218:277,3,37.5,0|0|0|0,1:0|1:0|1:0|1:0,0:0:0:0:
241,306,120172,2,0,P|252:265|273:215,1,75,0|0,1:0|0:0,0:0:0:0:
358,166,120495,6,0,P|349:135|345:118,3,37.5,0|0|0|0,1:0|1:0|1:0|1:0,0:0:0:0:
330,117,120817,2,0,P|350:93|365:75,3,37.5,0|0|0|0,1:0|1:0|1:0|1:0,0:0:0:0:
377,71,121140,1,0,1:0:0:0:
377,71,121221,1,0,1:0:0:0:
377,71,121301,1,0,0:0:0:0:
377,71,121382,1,0,0:0:0:0:
377,71,121463,2,0,P|414:78|434:83,3,37.5,0|0|0|0,1:0|1:0|1:0|1:0,0:0:0:0:
486,42,121786,6,0,L|493:98,3,37.5,0|0|0|0,1:0|1:0|1:0|1:0,0:0:0:0:
506,93,122108,2,0,P|488:124|476:141,3,37.5,0|0|0|0,1:0|1:0|1:0|1:0,0:0:0:0:
505,162,122431,6,0,P|464:170|411:183,1,75,2|0,0:0|0:0,0:0:0:0:
409,212,122673,1,0,0:0:0:0:
402,222,122753,6,0,P|356:201|271:174,1,112.5,2|0,1:1|1:0,0:0:0:0:
282,187,123075,2,0,P|294:153|305:112,1,75,2|0,1:1|1:0,0:0:0:0:
285,34,123398,2,0,B|267:23|267:23|222:26|169:70,1,112.5,2|2,1:1|1:1,0:0:0:0:
173,73,123720,2,0,P|162:37|148:-4,1,75,0|2,1:0|1:1,0:0:0:0:
129,144,124044,6,0,P|112:202|104:241,1,75,2|0,1:1|1:0,0:0:0:0:
32,248,124366,2,0,P|45:279|51:296,3,37.5,2|0|2|0,1:1|1:0|1:1|1:0,0:0:0:0:
40,300,124689,2,0,P|82:311|129:331,1,75,2|0,0:0|1:0,0:0:0:0:
245,380,125011,6,0,P|249:324|196:288,1,112.5,2|0,1:1|1:0,0:0:0:0:
195,296,125333,2,0,P|212:255|229:213,1,75,2|2,1:1|1:1,0:0:0:0:
187,95,125656,2,0,B|201:123|201:123|291:169,1,112.5,2|0,1:1|1:0,0:0:0:0:
286,169,125978,2,0,P|273:122|268:65,1,75,2|2,1:1|1:1,0:0:0:0:
364,0,126302,6,0,P|354:26|348:53,3,37.5,2|0|0|0,1:1|1:0|1:0|1:0,0:0:0:0:
340,45,126624,2,0,P|385:69|419:84,1,75,2|0,1:1|1:0,0:0:0:0:
487,0,126947,2,0,B|500:50|500:50|489:70,1,75,2|0,1:1|0:0,0:0:0:0:
395,167,127269,6,0,P|402:190|408:218,31,37.5,4|0|0|4|0|0|4|0|0|4|0|0|4|0|0|0|4|0|0|4|0|0|0|0|0|4|0|0|4|0|0|0,1:2|1:0|1:0|1:2|1:0|1:0|1:2|1:2|1:0|1:2|1:0|1:0|1:2|1:0|1:0|1:0|1:2|1:0|1:0|1:2|1:0|0:0|0:0|1:0|1:0|1:2|1:0|1:0|1:2|1:0|1:0|1:0,0:0:0:0:
325,212,129849,2,0,L|340:259,7,37.5,0|0|0|0|0|2|2|2,1:0|1:0|1:0|1:0|1:0|1:2|1:2|1:2,0:0:0:0:
255,260,130494,2,0,L|263:291,12,25,2|2|2|2|2|2|2|2|2|2|2|2|4,0:0|0:0|0:0|0:0|0:0|0:0|0:0|0:0|0:0|0:0|0:0|0:0|1:2,0:0:0:0:
256,192,131220,12,0,132430,0:0:0:0:
40,40,132752,5,4,0:2:0:0:
