osu file format v14

[General]
AudioFilename: Tanaka.mp3
AudioLeadIn: 0
PreviewTime: 16745
Countdown: 0
SampleSet: Soft
StackLeniency: 0.5
Mode: 0
LetterboxInBreaks: 0
WidescreenStoryboard: 1

[Editor]
Bookmarks: 757,7208,16894,26563,34302,36076,37850,39624,42208,48015,57692,68660,70588,84780,89627,98655,108337,118015,127369,131240,132834
DistanceSpacing: 1.3
BeatDivisor: 4
GridSize: 16
TimelineZoom: 1.6

[Metadata]
Title:Tanaka
TitleUnicode:田中
Artist:Rish feat. Choko
ArtistUnicode:立秋 feat. ちょこ
Creator:Len
Version:Hard
Source:THE BMS OF FIGHTERS XVII -VISION THE RETRO FUTURE-
Tags:electronic video game rissyuu risshuu japanese Neoskylove Affirmation zzx Gimbab yf_bmp yf fanzhen0019 fanzhen fast fa featured artist bofxvii 石王マサト masato Ishioh
BeatmapID:3348062
BeatmapSetID:1626188

[Difficulty]
HPDrainRate:4
CircleSize:4
OverallDifficulty:5.5
ApproachRate:7.2
SliderMultiplier:1.27
SliderTickRate:0.5

[Events]
//Background and Video events
0,0,"taka.png",0,0
Video,-150,"bga.mp4"
//Break Periods
2,70695,84688
//Storyboard Layer 0 (Background)
//Storyboard Layer 1 (Fail)
//Storyboard Layer 2 (Pass)
//Storyboard Layer 3 (Foreground)
//Storyboard Layer 4 (Overlay)
//Storyboard Sound Samples

[TimingPoints]
657,322.58064516129,4,2,1,53,1,0
10979,322.58064516129,3,2,1,53,1,0
11947,322.58064516129,4,2,1,53,1,0
13237,322.58064516129,3,2,1,53,1,0
14205,322.58064516129,4,2,1,53,1,0
20656,322.58064516129,3,2,1,53,1,0
21624,322.58064516129,4,2,1,53,1,0
22915,322.58064516129,3,2,1,53,1,0
23882,322.58064516129,4,2,1,53,1,0
26463,322.58064516129,6,2,1,53,1,0
34205,322.58064516129,11,2,1,53,1,0
35979,322.58064516129,11,2,1,53,1,0
37753,322.58064516129,11,2,1,53,1,0
39527,322.58064516129,4,2,1,53,1,0
42108,322.58064516129,3,2,1,53,1,0
47915,322.58064516129,4,2,1,53,1,0
51786,322.58064516129,3,2,1,53,1,0
52753,322.58064516129,4,2,1,53,1,0
54044,322.58064516129,3,2,1,53,1,0
55011,322.58064516129,4,2,1,53,1,0
61463,322.58064516129,3,2,1,53,1,0
62431,322.58064516129,4,2,1,53,1,0
63721,322.58064516129,3,2,1,53,1,0
64689,322.58064516129,4,2,1,53,1,0
65979,322.58064516129,3,2,1,53,1,0
66947,322.58064516129,5,2,1,53,1,0
68560,322.58064516129,3,2,1,53,1,0
70495,322.58064516129,11,2,1,53,1,0
88237,322.58064516129,4,2,1,53,1,0
89527,322.58064516129,7,2,1,53,1,0
98560,322.58064516129,4,2,1,53,1,0
102431,322.58064516129,3,2,1,53,1,0
103398,322.58064516129,4,2,1,53,1,0
104689,322.58064516129,3,2,1,53,1,0
105656,322.58064516129,4,2,1,53,1,0
112108,322.58064516129,3,2,1,53,1,0
113076,322.58064516129,4,2,1,53,1,0
114366,322.58064516129,3,2,1,53,1,0
115334,322.58064516129,4,2,1,53,1,0
121786,322.58064516129,3,2,1,53,1,0
122753,322.58064516129,4,2,1,53,1,0
124044,322.58064516129,3,2,1,53,1,0
125011,322.58064516129,4,2,1,53,1,0
126302,322.58064516129,3,2,1,53,1,0
127269,322.58064516129,4,2,1,53,1,0
131140,322.58064516129,5,2,1,53,1,0
131220,-100,5,2,1,5,0,0
132752,-100,5,2,1,53,0,0

[Colours]
Combo1 : 255,236,179
Combo2 : 172,255,172
Combo3 : 181,215,255
Combo4 : 250,165,177

[HitObjects]
454,93,657,6,0,B|389:100|327:121|327:121|296:103|266:62,1,190.5,2|0,0:0|0:0,0:0:0:0:
230,138,1302,6,0,P|222:74|214:27,1,95.25,4|0,1:2|1:0,0:0:0:0:
108,7,1786,2,0,P|115:54|120:101,1,95.25,0|0,1:0|1:0,0:0:0:0:
35,177,2270,2,0,P|85:181|125:222,1,95.25,4|0,1:2|1:0,0:0:0:0:
172,310,2753,2,0,P|218:307|255:277,1,95.25,4|0,1:2|0:0,0:0:0:0:
359,230,3237,2,0,P|351:276|344:324,1,95.25,4|0,1:2|3:0,0:0:0:0:
451,365,3721,1,2,3:2:0:0:
451,365,3882,6,0,P|458:318|465:270,1,95.25,4|0,1:2|1:0,0:0:0:0:
508,164,4367,2,0,P|507:110|474:74,1,95.25,0|0,1:0|1:0,0:0:0:0:
395,4,4850,2,0,P|394:58|361:94,1,95.25,0|0,1:0|1:0,0:0:0:0:
268,143,5334,2,0,P|219:129|153:117,1,95.25,4|0,1:2|0:0,0:0:0:0:
126,223,5818,2,0,P|168:233|197:240,1,63.5,0|4,1:0|1:2,0:0:0:0:
231,307,6140,6,0,P|267:298|287:295,11,31.75,0|0|0|0|0|0|0|0|0|0|0|0,1:0|1:0|0:0|1:0|3:0|3:0|3:0|3:0|1:0|1:0|1:0|1:0,0:0:0:0:
300,359,7108,6,0,P|340:364|431:382,1,127,4|2,1:2|0:0,0:0:0:0:
371,224,7753,2,0,P|412:232|502:247,1,127,0|2,1:2|0:0,0:0:0:0:
365,144,8398,2,0,P|302:133|239:121,1,127,0|2,1:2|0:0,0:0:0:0:
362,10,9044,1,0,1:2:0:0:
362,10,9366,1,2,0:0:0:0:
203,55,9689,6,0,P|218:115|233:195,1,127,0|2,1:2|0:0,0:0:0:0:
85,98,10334,2,0,P|100:158|115:238,1,127,0|2,1:2|0:0,0:0:0:0:
0,343,10979,2,0,P|12:280|27:219,1,127,0|2,1:2|0:0,0:0:0:0:
174,305,11624,1,0,1:2:0:0:
174,305,11946,6,0,P|200:268|300:279,1,127,2|2,1:0|0:0,0:0:0:0:
328,331,12430,1,2,0:0:0:0:
328,331,12592,2,0,P|377:338|461:356,1,127,2|2,1:0|0:0,0:0:0:0:
495,194,13237,2,0,P|446:187|362:169,1,127,2|2,1:0|0:0,0:0:0:0:
416,104,13720,1,0,1:0:0:0:
416,104,13882,1,2,1:0:0:0:
310,231,14204,6,0,P|253:238|166:251,1,127,2|2,1:0|1:2,0:0:0:0:
125,190,14688,1,2,1:2:0:0:
125,190,14850,2,0,P|112:151|168:84,1,127,2|2,1:0|1:2,0:0:0:0:
311,22,15495,2,0,P|316:77|328:165,1,127,2|0,1:0|1:0,0:0:0:0:
310,231,15979,1,0,1:0:0:0:
310,231,16140,2,0,P|312:262|316:294,2,63.5,2|0|0,1:0|1:2|1:0,0:0:0:0:
459,354,16785,6,0,P|494:333|490:234,1,127,6|2,1:0|1:1,0:0:0:0:
456,185,17269,1,0,1:0:0:0:
456,185,17430,2,0,P|392:193|306:204,1,127,2|2,1:1|1:0,0:0:0:0:
185,281,18075,6,0,P|174:325|170:350,2,63.5,2|2|2,1:0|1:3|1:1,0:0:0:0:
121,227,18559,1,2,1:2:0:0:
121,227,18721,2,0,P|118:174|110:83,1,127,2|2,3:2|3:2,0:0:0:0:
249,8,19366,6,0,P|298:24|375:35,1,127,2|2,1:1|1:0,0:0:0:0:
448,2,19850,1,2,0:2:0:0:
448,2,20011,2,0,P|476:32|448:127,1,127,2|2,1:0|1:1,0:0:0:0:
369,246,20656,6,0,P|328:253|286:269,1,63.5,2|0,1:0|1:0,0:0:0:0:
267,331,20978,2,0,P|235:326|205:317,1,63.5,2|2,1:0|1:2,0:0:0:0:
144,373,21301,1,2,1:2:0:0:
5,284,21624,6,0,P|-2:223|41:180,1,127,4|0,0:2|1:0,0:0:0:0:
91,116,22107,1,0,1:0:0:0:
91,116,22269,2,0,P|148:124|231:137,1,127,2|2,1:2|1:2,0:0:0:0:
373,80,22914,6,0,P|384:42|396:11,2,63.5,2|0|2,1:2|1:0|1:2,0:0:0:0:
425,149,23398,1,2,1:2:0:0:
425,149,23560,1,2,1:2:0:0:
366,302,23882,6,0,P|311:284|226:273,1,127,0|0,1:0|1:0,0:0:0:0:
205,200,24365,1,0,1:0:0:0:
205,200,24527,2,0,P|172:243|84:231,1,127,0|0,1:0|1:0,0:0:0:0:
10,108,25172,6,0,P|3:67|-4:35,1,63.5,0|0,1:0|1:0,0:0:0:0:
71,6,25494,2,0,P|78:47|85:79,1,63.5,0|0,1:0|0:0,0:0:0:0:
74,149,25817,2,0,P|104:161|132:175,1,63.5,0|0,1:0|1:0,0:0:0:0:
193,118,26140,1,0,1:0:0:0:
242,304,26463,6,0,P|158:301|39:341,1,190.5,4|2,0:0|0:0,0:0:0:0:
16,258,27108,2,0,P|63:249|145:218,1,127,2|0,0:2|0:0,0:0:0:0:
83,65,27753,2,0,P|142:87|204:101,1,127,2|0,0:0|0:0,0:0:0:0:
346,16,28398,6,0,P|391:30|396:160,1,190.5,4|2,0:2|0:0,0:0:0:0:
322,133,29043,2,0,P|285:179|311:252,1,127,2|0,0:2|0:0,0:0:0:0:
454,298,29688,2,0,P|432:242|356:228,1,127,2|0,0:2|0:0,0:0:0:0:
236,318,30333,6,0,P|152:315|33:355,1,190.5,4|2,0:2|0:0,0:0:0:0:
10,272,30979,2,0,P|57:263|139:232,1,127,2|0,0:0|0:0,0:0:0:0:
77,79,31624,2,0,P|136:101|198:115,1,127,2|0,0:0|0:0,0:0:0:0:
340,30,32269,6,0,P|385:44|390:174,1,190.5,4|2,0:0|0:0,0:0:0:0:
316,147,32914,2,0,P|279:193|305:266,1,127,2|0,0:0|0:0,0:0:0:0:
448,312,33559,2,0,P|426:256|350:242,1,127,2|0,0:0|0:0,0:0:0:0:
224,325,34205,6,0,P|151:323|29:360,1,190.5,4|0,0:0|0:0,0:0:0:0:
8,277,34850,2,0,P|29:238|44:133,1,127,2|0,0:0|0:0,0:0:0:0:
154,33,35495,1,2,0:0:0:0:
154,33,35656,2,0,P|135:76|128:111,1,63.5,0|0,0:0|0:0,0:0:0:0:
128,174,35979,6,0,P|193:202|277:109,1,190.5,4|0,0:0|0:0,0:0:0:0:
265,49,36624,2,0,P|319:65|416:82,1,127,2|0,0:0|0:0,0:0:0:0:
490,208,37269,1,2,0:0:0:0:
490,208,37430,2,0,P|448:216|414:232,1,63.5,0|0,0:0|0:0,0:0:0:0:
385,294,37753,6,0,P|431:305|473:326,2,95.25,4|4|2,3:2|3:2|3:2,0:0:0:0:
325,352,38398,2,0,P|269:359|223:301,1,127,2|0,0:2|0:0,0:0:0:0:
146,164,39043,1,2,0:0:0:0:
146,164,39204,2,0,P|156:124|162:92,1,63.5,0|0,0:0|3:0,0:0:0:0:
89,58,39527,6,0,P|80:105|55:245,1,190.5,4|0,0:0|0:0,0:0:0:0:
5,312,40172,2,0,P|44:358|105:353,1,127,2|0,0:0|0:0,0:0:0:0:
258,291,40817,1,2,0:0:0:0:
258,291,40978,2,0,P|247:248|240:204,2,63.5,2|0|2,0:0|0:0|0:0,0:0:0:0:
321,344,41462,2,0,P|358:357|387:374,2,63.5,2|2|0,1:2|0:2|1:0,0:0:0:0:
348,154,42108,6,0,P|357:96|363:13,2,127,0|0|0,3:0|0:0|1:0,0:0:0:0:
192,209,43075,2,0,P|183:151|177:68,2,127,0|0|0,3:0|0:0|1:0,0:0:0:0:
348,154,44043,6,0,P|343:217|333:280,2,127,0|0|0,3:0|0:0|1:0,0:0:0:0:
190,206,45011,2,0,P|194:269|204:332,2,127,0|0|0,3:0|0:0|0:0,0:0:0:0:
265,59,45978,5,2,0:0:0:0:
256,192,46059,12,4,47914,0:0:0:0:
63,107,48560,6,0,P|110:102|184:44,1,127,0|2,1:0|0:0,0:0:0:0:
329,115,49205,6,0,P|339:71|341:43,2,63.5,0|0|2,1:0|3:0|0:0,0:0:0:0:
253,148,49689,1,2,0:0:0:0:
253,148,49850,2,0,P|258:194|267:288,1,127,0|2,1:0|0:0,0:0:0:0:
395,377,50495,6,0,P|451:376|493:309,1,127,0|2,1:0|0:0,0:0:0:0:
432,265,50979,1,0,0:0:0:0:
432,265,51140,2,0,P|442:215|456:133,1,127,0|0,1:0|3:0,0:0:0:0:
339,21,51786,6,0,P|294:30|261:34,1,63.5,0|0,1:0|3:0,0:0:0:0:
240,106,52108,2,0,P|195:97|162:93,1,63.5,0|2,3:0|0:0,0:0:0:0:
141,20,52431,1,0,1:0:0:0:
9,119,52753,6,0,P|17:158|27:268,1,127,0|0,1:0|1:0,0:0:0:0:
2,323,53236,1,0,1:0:0:0:
2,323,53398,2,0,P|46:354|122:324,1,127,0|0,1:0|1:0,0:0:0:0:
184,186,54044,6,0,P|176:142|175:103,2,63.5,0|0|0,1:0|1:0|1:0,0:0:0:0:
249,237,54527,1,0,1:0:0:0:
249,237,54689,1,0,1:0:0:0:
173,383,55011,6,0,P|225:372|322:367,1,127,0|0,1:0|1:0,0:0:0:0:
346,299,55494,1,0,1:0:0:0:
346,299,55656,2,0,P|397:308|454:237,1,127,0|0,1:0|1:0,0:0:0:0:
489,100,56301,6,0,P|481:60|474:18,1,63.5,0|0,1:0|1:0,0:0:0:0:
395,25,56623,2,0,P|403:65|410:107,1,63.5,0|0,1:0|1:0,0:0:0:0:
364,158,56946,1,2,1:2:0:0:
236,53,57269,2,0,P|242:26|244:2,2,42.3333333333333,0|0|0,1:0|3:0|3:0,0:0:0:0:
184,111,57591,6,0,P|141:98|85:91,1,84.6666666666667,0|0,1:0|1:0,0:0:0:0:
73,55,57914,2,0,P|30:90|28:151,1,84.6666666666667,0|0,1:0|1:0,0:0:0:0:
2,152,58236,2,0,P|16:198|24:258,1,84.6666666666667,0|0,1:0|1:0,0:0:0:0:
6,274,58559,1,0,1:0:0:0:
131,381,58881,6,0,P|173:358|272:360,2,127,0|0|0,1:0|1:0|1:0,0:0:0:0:
176,282,59742,1,0,1:0:0:0:
176,282,59849,2,0,P|190:236|190:193,1,84.6666666666667,2|2,3:2|3:2,0:0:0:0:
173,125,60172,6,0,P|222:134|268:142,1,84.6666666666667,0|0,1:0|1:0,0:0:0:0:
301,152,60494,2,0,P|287:97|281:56,1,84.6666666666667,0|0,1:0|1:0,0:0:0:0:
296,24,60817,2,0,P|260:16|237:6,2,42.3333333333333,0|0|0,1:0|1:0|1:0,0:0:0:0:
336,0,61140,1,0,1:0:0:0:
460,108,61463,6,0,P|492:76|473:-17,2,127,0|0|2,1:0|1:0|1:1,0:0:0:0:
419,88,62215,1,0,0:0:0:0:
346,170,62431,6,0,P|357:214|361:261,1,84.6666666666667,4|0,1:2|1:0,0:0:0:0:
393,286,62753,2,0,P|360:317|321:344,1,84.6666666666667,0|0,1:0|1:0,0:0:0:0:
316,384,63076,2,0,P|272:371|229:351,1,84.6666666666667,0|0,1:0|1:0,0:0:0:0:
226,313,63398,1,0,1:0:0:0:
66,354,63721,6,0,P|78:309|85:264,1,84.6666666666667,0|0,1:0|1:0,0:0:0:0:
58,233,64043,2,0,P|45:190|40:140,1,84.6666666666667,0|0,1:0|1:0,0:0:0:0:
69,113,64366,2,0,P|82:79|87:57,2,42.3333333333333,2|2|2,1:2|1:2|1:2,0:0:0:0:
136,149,64689,6,0,P|190:161|229:172,1,84.6666666666667,0|0,1:0|1:0,0:0:0:0:
261,152,65011,2,0,P|277:109|291:59,1,84.6666666666667,0|0,1:0|1:0,0:0:0:0:
282,26,65334,2,0,P|322:36|364:45,1,84.6666666666667,0|0,1:0|1:0,0:0:0:0:
406,24,65656,1,0,1:0:0:0:
509,152,65979,6,0,P|456:160|417:184,1,84.6666666666667,0|0,1:0|1:0,0:0:0:0:
387,157,66301,2,0,P|411:215|417:263,1,84.6666666666667,0|0,1:0|1:0,0:0:0:0:
402,281,66624,1,2,1:2:0:0:
264,371,66947,6,0,P|245:365|238:362,30,21.1666666666667,0|0|0|0|0|0|0|0|0|0|0|0|0|0|0|0|0|0|0|0|0|0|0|0|0|0|0|0|0|0|4,1:0|1:0|1:0|1:0|1:0|1:0|1:0|1:0|1:0|1:0|1:0|1:0|1:0|1:0|1:0|1:0|1:0|1:0|1:0|1:0|1:0|1:0|1:0|1:0|1:0|1:0|1:0|1:0|1:0|1:0|0:0,0:0:0:0:
256,192,68640,12,2,70495,0:0:0:0:
256,192,86301,12,0,88236,3:0:0:0:
392,53,89366,6,0,P|403:39|410:3,1,31.75,2|2,0:0|0:0,0:0:0:0:
395,56,89527,6,0,P|406:113|411:137,1,63.5,4|0,3:2|0:0,0:0:0:0:
448,189,89849,2,0,P|396:202|362:208,1,63.5,4|2,1:2|0:0,0:0:0:0:
356,281,90172,2,0,P|285:281|251:232,1,127,2|4,3:2|3:2,0:0:0:0:
264,75,90817,2,0,P|210:86|123:105,1,127,2|4,3:2|3:2,0:0:0:0:
81,41,91301,1,2,0:0:0:0:
81,41,91462,1,2,3:2:0:0:
19,194,91785,6,0,P|11:243|8:272,1,63.5,4|2,3:2|3:3,0:0:0:0:
82,295,92107,2,0,P|90:246|93:217,1,63.5,4|2,0:0|0:0,0:0:0:0:
165,194,92430,2,0,P|217:193|263:264,1,127,2|6,3:2|3:2,0:0:0:0:
358,381,93075,2,0,P|402:365|489:348,1,127,2|4,3:2|0:0,0:0:0:0:
502,271,93559,1,2,0:0:0:0:
502,271,93720,1,0,3:0:0:0:
351,201,94043,6,0,P|358:154|366:82,1,95.25,6|0,3:2|0:3,0:0:0:0:
375,91,94365,2,0,P|328:102|300:108,1,63.5,4|2,3:2|0:0,0:0:0:0:
244,151,94688,2,0,P|228:107|198:21,1,127,2|2,3:2|3:2,0:0:0:0:
37,11,95333,2,0,P|10:38|24:129,1,127,2|2,3:2|3:2,0:0:0:0:
95,95,95817,1,0,0:0:0:0:
95,95,95978,1,2,3:2:0:0:
24,244,96301,6,0,P|31:283|34:306,1,63.5,4|0,0:0|1:0,0:0:0:0:
105,265,96623,2,0,P|112:304|115:327,1,63.5,0|0,1:0|3:0,0:0:0:0:
196,340,96946,2,0,P|191:308|185:277,1,63.5,0|0,1:0|1:0,0:0:0:0:
267,289,97268,2,0,P|262:257|256:226,1,63.5,0|0,1:0|1:0,0:0:0:0:
331,189,97591,2,0,L|340:147,8,31.75,0|0|0|0|0|0|0|0|0,1:0|1:0|1:0|1:0|1:0|1:0|1:0|1:0|0:0,0:0:0:0:
401,338,98560,6,0,P|446:348|505:291,1,127,6|2,1:0|1:0,0:0:0:0:
451,234,99043,1,0,1:0:0:0:
451,234,99205,2,0,P|444:186|437:90,1,127,2|2,1:0|1:0,0:0:0:0:
278,61,99850,6,0,P|289:21|293:-6,2,63.5,2|0|2,1:0|1:0|1:0,0:0:0:0:
218,119,100334,1,0,1:0:0:0:
218,119,100495,2,0,P|203:83|107:61,1,127,2|2,1:1|1:0,0:0:0:0:
9,173,101140,6,0,P|16:226|24:318,1,127,2|2,1:0|1:0,0:0:0:0:
73,364,101624,1,0,1:0:0:0:
73,364,101785,2,0,P|126:364|166:280,1,127,2|2,1:0|1:0,0:0:0:0:
236,158,102431,6,0,P|279:174|301:181,1,63.5,2|0,1:0|1:0,0:0:0:0:
310,260,102753,2,0,P|349:253|379:248,1,63.5,2|0,1:0|1:0,0:0:0:0:
430,308,103076,1,2,1:0:0:0:
511,164,103398,6,0,P|503:113|496:28,1,127,4|0,1:2|1:0,0:0:0:0:
420,5,103881,1,0,1:0:0:0:
420,5,104043,2,0,B|340:19|391:51|280:62,1,127,0|0,1:0|1:0,0:0:0:0:
200,184,104689,6,0,P|192:224|187:255,2,63.5,0|0|0,1:0|1:0|1:0,0:0:0:0:
153,116,105172,1,0,1:0:0:0:
153,116,105334,1,0,1:0:0:0:
15,207,105656,6,0,P|27:280|29:361,1,127,0|0,1:0|1:0,0:0:0:0:
105,376,106139,1,0,1:0:0:0:
105,376,106301,2,0,P|164:369|197:303,1,127,0|0,1:0|1:0,0:0:0:0:
358,278,106946,6,0,P|346:205|344:124,1,127,0|0,1:0|1:0,0:0:0:0:
392,85,107430,1,0,0:0:0:0:
392,85,107591,1,0,1:0:0:0:
237,26,107914,2,0,B|218:43|218:43|165:61,1,63.5,2|2,0:0|0:0,0:0:0:0:
145,130,108236,6,0,P|158:191|167:272,1,127,4|2,1:2|3:2,0:0:0:0:
119,325,108720,1,2,0:0:0:0:
119,325,108881,2,0,P|144:357|227:348,1,127,2|2,1:0|0:0,0:0:0:0:
377,290,109526,6,0,P|414:302|449:318,2,63.5,2|0|0,1:0|3:0|0:0,0:0:0:0:
325,225,110010,1,2,0:0:0:0:
325,225,110172,2,0,P|319:170|317:87,1,127,2|2,1:0|3:2,0:0:0:0:
177,8,110817,6,0,P|126:5|78:67,1,127,2|2,1:0|3:2,0:0:0:0:
31,126,111301,1,0,0:0:0:0:
31,126,111462,2,0,P|87:143|168:171,1,127,2|2,1:0|3:2,0:0:0:0:
263,287,112108,6,0,P|253:322|245:368,1,63.5,2|0,1:0|3:0,0:0:0:0:
324,378,112430,2,0,P|334:343|342:297,1,63.5,0|2,1:0|1:2,0:0:0:0:
413,278,112753,1,0,1:0:0:0:
297,160,113076,6,0,P|290:104|282:24,1,127,4|2,1:2|1:2,0:0:0:0:
361,4,113559,1,2,1:2:0:0:
361,4,113721,2,0,P|416:14|451:82,1,127,2|2,1:2|1:2,0:0:0:0:
427,235,114366,6,0,P|466:223|502:217,2,63.5,2|0|2,1:2|1:0|1:2,0:0:0:0:
361,184,114849,1,0,1:0:0:0:
361,184,115011,1,2,1:2:0:0:
297,335,115334,6,0,P|246:342|171:363,1,127,0|0,1:0|1:0,0:0:0:0:
100,323,115817,1,0,1:0:0:0:
100,323,115979,2,0,P|79:285|127:207,1,127,0|0,1:0|1:0,0:0:0:0:
214,84,116624,6,0,P|253:95|340:113,2,127,2|2|2,1:1|1:1|1:1,0:0:0:0:
66,8,117592,6,0,P|43:5|15:-3,2,42.3333333333333,0|2|2,1:0|3:3|3:3,0:0:0:0:
37,78,117914,6,0,P|42:117|49:166,1,63.5,0|0,1:0|1:0,0:0:0:0:
118,180,118237,2,0,P|113:219|106:268,1,63.5,0|0,1:0|1:0,0:0:0:0:
38,283,118559,2,0,P|95:281|145:351,1,127,0|0,1:0|1:0,0:0:0:0:
212,380,119043,1,0,1:0:0:0:
212,380,119204,6,0,P|221:329|229:298,1,63.5,0|0,1:0|1:0,0:0:0:0:
290,268,119527,2,0,P|296:236|301:205,1,63.5,0|0,1:0|1:0,0:0:0:0:
362,149,119850,2,0,P|399:158|441:175,1,63.5,0|0,1:0|1:0,0:0:0:0:
491,120,120172,1,0,1:0:0:0:
374,3,120495,6,0,P|330:13|304:18,1,63.5,0|0,1:0|1:0,0:0:0:0:
262,82,120817,2,0,P|230:71|191:63,1,63.5,0|0,1:0|1:0,0:0:0:0:
139,9,121140,2,0,P|153:63|158:160,1,127,0|0,1:0|1:0,0:0:0:0:
112,202,121624,1,0,1:0:0:0:
112,202,121786,6,0,P|57:213|33:221,1,63.5,0|0,1:0|1:0,0:0:0:0:
3,283,122108,2,0,P|58:294|82:302,1,63.5,0|0,1:0|1:0,0:0:0:0:
101,370,122431,1,2,0:0:0:0:
248,296,122753,6,0,P|255:245|273:161,1,127,2|2,1:1|1:1,0:0:0:0:
237,95,123236,1,0,1:0:0:0:
237,95,123398,2,0,P|281:64|365:102,1,127,2|0,1:1|1:0,0:0:0:0:
476,185,124044,6,0,P|488:144|501:113,2,63.5,2|0|2,1:1|1:0|1:1,0:0:0:0:
404,221,124527,1,2,1:1:0:0:
404,221,124689,1,2,0:0:0:0:
486,363,125011,6,0,P|436:352|341:341,1,127,2|2,1:1|1:1,0:0:0:0:
288,382,125494,1,2,1:1:0:0:
288,382,125656,2,0,P|245:356|251:262,1,127,2|2,1:1|1:1,0:0:0:0:
298,131,126302,6,0,P|238:139|205:142,1,63.5,2|0,1:1|1:0,0:0:0:0:
159,171,126624,2,0,P|148:132|134:98,1,63.5,2|0,1:1|1:0,0:0:0:0:
172,34,126947,1,2,1:1:0:0:
19,96,127269,6,0,B|15:102|4:100|4:100|15:105|19:120,48,31.75,4|0|0|4|0|0|4|0|0|4|0|0|4|0|0|0|4|0|0|4|0|0|4|0|0|4|0|0|4|0|0|0|0|0|0|0|0|2|2|2|2|0|2|0|2|0|2|0|4,1:2|1:0|1:0|1:2|1:0|1:0|1:2|1:2|1:0|1:2|1:0|1:0|1:2|1:0|1:0|1:0|1:2|1:0|1:0|1:2|1:0|1:0|1:2|1:0|1:0|1:2|1:0|1:0|1:2|1:0|1:0|1:0|1:0|1:0|1:0|1:0|1:0|1:2|1:2|1:2|0:0|0:0|0:0|0:0|0:0|0:0|0:0|0:0|1:2,0:0:0:0:
256,192,131220,12,4,132752,0:2:0:0:
