osu file format v14

[General]
AudioFilename: audio.mp3
AudioLeadIn: 0
PreviewTime: 98565
Countdown: 0
SampleSet: Soft
StackLeniency: 0.7
Mode: 2
LetterboxInBreaks: 0
WidescreenStoryboard: 1

[Editor]
Bookmarks: 121140,121463
DistanceSpacing: 3.5
BeatDivisor: 4
GridSize: 4
TimelineZoom: 4.699996

[Metadata]
Title:Tanaka
TitleUnicode:田中
Artist:Rish feat. Choko
ArtistUnicode:立秋 feat. ちょこ
Creator:Kukkai
Version:Tanaka
Source:THE BMS OF FIGHTERS XVII -VISION THE RETRO FUTURE-
Tags:R-34 Natsuko -Rustyy bof BOFXVII risshuu rissyuu 石王マサト masato novelty Japanese Electronic video game vg fa featured artist
BeatmapID:3510391
BeatmapSetID:1717748

[Difficulty]
HPDrainRate:3
CircleSize:4.2
OverallDifficulty:9.9
ApproachRate:9.9
SliderMultiplier:2.2
SliderTickRate:2

[Events]
//Background and Video events
0,0,"taka.png",0,0
Video,-80,"vdoo.mp4"
//Break Periods
2,70700,85822
//Storyboard Layer 0 (Background)
//Storyboard Layer 1 (Fail)
//Storyboard Layer 2 (Pass)
//Storyboard Layer 3 (Foreground)
//Storyboard Layer 4 (Overlay)
//Storyboard Sound Samples

[TimingPoints]
662,322.58064516129,4,2,1,60,1,0
1307,-100,4,2,1,70,0,1
7113,-100,4,2,1,70,0,0
10984,322.58064516129,3,2,1,70,1,0
11952,322.58064516129,4,2,1,70,1,0
11952,-90.9090909090909,4,2,1,70,0,0
13242,322.58064516129,3,2,1,70,1,0
13242,-90.9090909090909,4,2,1,70,0,0
14210,322.58064516129,4,2,1,70,1,0
14210,-90.9090909090909,4,2,1,70,0,0
16790,-90.9090909090909,4,2,1,70,0,1
20661,322.58064516129,3,2,1,70,1,1
20661,-90.9090909090909,4,2,1,70,0,1
21306,-90.9090909090909,4,2,1,70,0,0
21629,322.58064516129,4,2,1,70,1,0
21629,-90.9090909090909,4,2,1,70,0,1
22920,322.58064516129,3,2,1,70,1,1
22920,-90.9090909090909,4,2,1,70,0,1
23887,322.58064516129,4,2,1,70,1,1
23887,-90.9090909090909,4,2,1,70,0,1
26468,322.58064516129,6,2,1,60,1,0
34210,322.58064516129,11,2,1,60,1,0
35984,322.58064516129,11,2,1,60,1,0
37758,322.58064516129,11,2,1,60,1,0
39532,322.58064516129,4,2,1,60,1,0
42113,322.58064516129,3,2,1,60,1,0
42113,-90.9090909090909,3,2,1,60,0,0
47920,322.58064516129,4,2,1,70,1,0
51791,322.58064516129,3,2,1,70,1,0
52758,322.58064516129,4,2,1,70,1,0
52758,-90.9090909090909,4,2,1,70,0,0
54049,322.58064516129,3,2,1,70,1,0
54049,-90.9090909090909,4,2,1,70,0,0
55016,322.58064516129,4,2,1,70,1,0
55016,-90.9090909090909,4,2,1,70,0,0
57596,-90.9090909090909,4,2,1,70,0,1
61468,322.58064516129,3,2,1,70,1,1
61468,-90.9090909090909,3,2,1,70,0,1
62113,-90.9090909090909,3,2,1,70,0,0
62436,322.58064516129,4,2,1,70,1,0
62436,-90.9090909090909,4,2,1,70,0,1
63726,322.58064516129,3,2,1,70,1,1
63726,-90.9090909090909,3,2,1,70,0,1
64694,322.58064516129,4,2,1,70,1,1
64694,-90.9090909090909,4,2,1,70,0,1
65984,322.58064516129,3,2,1,70,1,1
65984,-90.9090909090909,3,2,1,70,0,1
66629,-90.9090909090909,3,2,1,70,0,0
66952,322.58064516129,5,2,1,70,1,0
66952,-90.9090909090909,5,2,1,70,0,1
68577,322.58064516129,3,2,1,20,1,0
68738,-100,3,2,1,5,0,0
70500,322.58064516129,11,2,1,20,1,0
70500,-200,11,2,1,20,0,0
88242,322.58064516129,4,2,1,50,1,0
89532,322.58064516129,7,2,1,60,1,0
98565,322.58064516129,4,2,1,70,1,0
98565,-90.9090909090909,4,2,1,70,0,1
102436,322.58064516129,3,2,1,70,1,1
102436,-90.9090909090909,4,2,1,70,0,1
103081,-90.9090909090909,4,2,1,70,0,0
103403,322.58064516129,4,2,1,70,1,1
103403,-90.9090909090909,4,2,1,70,0,1
104694,322.58064516129,3,2,1,70,1,1
104694,-90.9090909090909,4,2,1,70,0,1
105661,322.58064516129,4,2,1,70,1,1
105661,-90.9090909090909,4,2,1,70,0,1
107919,-90.9090909090909,4,2,1,70,0,0
112113,322.58064516129,3,2,1,70,1,0
112113,-90.9090909090909,4,2,1,70,0,0
113081,322.58064516129,4,2,1,70,1,0
113081,-90.9090909090909,4,2,1,70,0,0
114371,322.58064516129,3,2,1,70,1,0
114371,-90.9090909090909,4,2,1,70,0,0
115339,322.58064516129,4,2,1,70,1,0
115339,-90.9090909090909,4,2,1,70,0,0
117919,-90.9090909090909,4,2,1,70,0,1
121791,322.58064516129,3,2,1,70,1,1
121791,-90.9090909090909,4,2,1,70,0,1
122436,-90.9090909090909,4,2,1,70,0,0
122758,322.58064516129,4,2,1,70,1,1
122758,-90.9090909090909,4,2,1,70,0,1
124049,322.58064516129,3,2,1,70,1,1
124049,-90.9090909090909,4,2,1,70,0,1
125016,322.58064516129,4,2,1,70,1,1
125016,-90.9090909090909,4,2,1,70,0,1
126307,322.58064516129,3,2,1,70,1,1
126307,-90.9090909090909,4,2,1,70,0,1
126952,-90.9090909090909,4,2,1,70,0,0
127274,322.58064516129,4,2,1,70,1,0
127274,-90.9090909090909,4,2,1,70,0,1
131147,322.58064516129,5,2,1,70,1,0

[Colours]
Combo1 : 232,227,72
Combo2 : 255,77,77
Combo3 : 171,88,88
Combo4 : 87,255,130

[HitObjects]
264,340,662,5,0,0:2:0:0:
240,351,702,1,0,0:2:0:0:
213,358,742,1,0,0:2:0:0:
186,360,782,1,0,0:2:0:0:
158,357,823,1,2,0:2:0:0:
132,350,863,1,0,0:2:0:0:
107,338,903,1,2,0:2:0:0:
85,322,944,1,0,0:2:0:0:
66,302,984,1,2,0:2:0:0:
50,279,1024,1,0,0:2:0:0:
39,254,1065,1,2,0:2:0:0:
33,227,1105,1,0,0:2:0:0:
31,200,1145,1,2,0:2:0:0:
34,173,1186,1,0,0:2:0:0:
44,136,1226,1,0,0:2:0:0:
185,244,1307,5,4,1:1:0:0:
36,248,1387,2,0,L|36:168,1,55,0|0,1:2|0:2,0:0:0:0:
188,188,1549,1,2,1:2:0:0:
40,184,1629,2,0,L|68:117,1,55,0|0,1:2|0:2,0:0:0:0:
212,136,1791,1,2,1:2:0:0:
44,133,1871,2,0,L|100:86,1,55,0|0,1:2|0:2,0:0:0:0:
236,96,2032,1,2,1:2:0:0:
86,98,2113,2,0,L|156:60,1,55,0|0,1:2|1:2,0:0:0:0:
308,346,2274,5,2,1:2:0:0:
456,352,2355,2,0,L|456:271,1,55,0|0,1:2|0:2,0:0:0:0:
309,295,2516,1,2,1:2:0:0:
456,297,2597,2,0,L|420:248,1,55,0|0,1:2|0:2,0:0:0:0:
276,251,2758,1,2,1:2:0:0:
424,252,2839,2,0,L|351:215,1,55,0|0,1:2|0:2,0:0:0:0:
227,234,3000,1,2,1:2:0:0:
375,227,3081,2,0,L|292:192,1,55,0|0,1:2|1:2,0:0:0:0:
172,236,3242,6,2,L|172:152,1,55,2|2,1:2|1:2,0:0:0:0:
320,116,3403,2,2,L|244:116,1,55,2|2,1:2|1:2,0:0:0:0:
32,66,3565,1,2,1:2:0:0:
112,68,3672,1,2,1:2:0:0:
32,66,3780,1,2,1:2:0:0:
229,347,3887,5,4,1:1:0:0:
380,348,3968,2,0,L|380:269,1,55,0|0,1:2|0:2,0:0:0:0:
230,296,4129,1,2,1:2:0:0:
380,293,4210,2,0,L|406:218,1,55,0|0,1:2|0:2,0:0:0:0:
248,238,4371,1,2,1:2:0:0:
399,241,4452,2,0,L|439:187,1,55,0|0,1:2|0:2,0:0:0:0:
281,189,4613,1,2,1:2:0:0:
432,196,4694,1,0,1:2:0:0:
457,183,4734,1,0,0:2:0:0:
481,170,4774,1,0,1:2:0:0:
326,349,4855,5,2,1:2:0:0:
176,348,4936,2,0,L|176:269,1,55,0|0,1:2|0:2,0:0:0:0:
325,298,5097,1,2,1:2:0:0:
176,293,5178,2,0,L|150:218,1,55,0|0,1:2|0:2,0:0:0:0:
307,240,5339,1,2,1:2:0:0:
158,241,5420,2,0,L|119:187,1,55,0|0,1:2|0:2,0:0:0:0:
274,191,5581,1,2,1:2:0:0:
126,196,5662,1,0,1:2:0:0:
102,183,5702,1,0,0:2:0:0:
78,170,5742,1,0,1:2:0:0:
272,136,5823,6,2,L|272:72,1,55,2|2,1:2|1:2,0:0:0:0:
132,72,5984,1,2,1:2:0:0:
159,72,6024,1,0,0:0:0:0:
187,72,6064,1,2,1:2:0:0:
364,232,6145,6,2,L|436:232,1,55,2|2,1:2|1:2,0:0:0:0:
268,168,6307,2,2,L|344:168,1,55,2|2,1:2|1:2,0:0:0:0:
148,168,6468,2,2,L|76:168,1,55,2|2,1:2|1:2,0:0:0:0:
244,104,6630,2,2,L|168:104,1,55,2|2,1:2|1:2,0:0:0:0:
368,336,6791,2,0,L|416:336,1,27.5,2|0,1:2|1:2,0:0:0:0:
288,336,6871,2,0,L|236:336,1,27.5,2|0,1:2|1:2,0:0:0:0:
148,336,6952,2,0,L|192:336,1,27.5,2|0,1:2|1:2,0:0:0:0:
288,336,7032,2,0,L|332:336,1,27.5,2|0,1:2|1:2,0:0:0:0:
424,336,7113,5,6,1:2:0:0:
270,228,7436,2,2,L|386:228,1,110,2|2,0:2|0:2,0:0:0:0:
156,152,7758,1,6,1:2:0:0:
320,156,8000,2,2,L|260:156,1,55,2|2,0:2|0:2,0:0:0:0:
376,156,8242,1,2,0:2:0:0:
128,80,8403,5,6,1:2:0:0:
292,84,8645,2,2,L|292:156,1,55,2|2,0:2|0:2,0:0:0:0:
180,140,8887,1,2,0:2:0:0:
412,280,9049,1,6,1:2:0:0:
300,276,9371,2,2,L|428:276,1,110,2|2,0:2|0:2,0:0:0:0:
152,208,9694,5,6,1:2:0:0:
372,208,10016,2,2,L|236:208,1,110,10|2,0:2|0:2,0:0:0:0:
496,136,10339,1,6,1:2:0:0:
332,132,10581,2,2,L|400:132,1,55,2|10,0:2|0:2,0:0:0:0:
276,132,10823,1,2,0:2:0:0:
496,68,10984,5,6,1:2:0:0:
332,64,11225,2,2,L|332:128,1,55,2|10,0:2|0:2,0:0:0:0:
444,120,11467,1,2,0:2:0:0:
196,352,11629,1,6,1:2:0:0:
356,356,11790,1,2,0:2:0:0:
88,217,11952,6,0,L|220:216,1,121.000003692627,4|0,1:2|0:2,0:0:0:0:
268,216,12193,1,0,3:2:0:0:
208,216,12274,1,10,0:2:0:0:
88,217,12435,1,10,0:2:0:0:
320,272,12597,6,0,L|192:272,1,121.000003692627,4|0,1:2|0:2,0:0:0:0:
140,272,12839,1,10,3:2:0:0:
199,272,12919,2,0,L|28:272,1,121.000003692627,10|10,0:2|0:2,0:0:0:0:
140,272,13161,1,0,0:2:0:0:
369,173,13242,6,0,L|501:173,1,121.000003692627,6|0,1:2|0:2,0:0:0:0:
429,173,13483,1,8,3:2:0:0:
369,173,13564,1,10,0:2:0:0:
490,173,13725,1,10,0:2:0:0:
160,200,13887,2,0,L|32:200,1,121.000003692627,6|8,1:2|3:2,0:0:0:0:
100,200,14129,1,0,0:2:0:0:
320,88,14210,6,0,L|472:88,1,121.000003692627,6|0,1:2|3:2,0:0:0:0:
380,88,14451,1,0,3:2:0:0:
320,88,14532,1,2,3:2:0:0:
440,88,14693,1,2,3:2:0:0:
180,192,14855,6,0,L|108:192,2,60.5000018463135,6|0|8,1:2|3:2|3:2,0:0:0:0:
240,192,15097,1,8,3:2:0:0:
180,192,15177,2,0,L|180:108,1,60.5000018463135,2|0,3:2|3:2,0:0:0:0:
240,128,15339,2,8,L|320:128,1,60.5000018463135,10|8,3:2|3:2,0:0:0:0:
112,364,15500,5,6,1:2:0:0:
82,367,15540,1,0,3:2:0:0:
57,351,15580,1,0,3:2:0:0:
45,324,15620,1,0,3:2:0:0:
53,295,15661,1,0,3:2:0:0:
77,277,15701,1,0,3:2:0:0:
107,277,15741,1,0,3:2:0:0:
272,164,15822,6,0,L|312:164,2,30.2500009231568,2|0|0,3:2|3:2|3:2,0:0:0:0:
240,164,15943,1,0,3:2:0:0:
208,164,15984,2,0,L|172:164,2,30.2500009231568,2|0|0,3:2|3:2|3:2,0:0:0:0:
392,64,16145,6,0,L|244:64,1,121.000003692627,6|10,1:2|3:2,0:0:0:0:
212,64,16387,1,8,0:2:0:0:
404,368,16468,2,0,P|464:332|384:288,1,181.500005538941,2|0,3:2|0:2,0:0:0:0:
216,280,16790,5,4,3:1:0:0:
156,280,16871,1,0,0:2:0:0:
216,280,16951,1,0,1:2:0:0:
276,280,17032,1,0,0:2:0:0:
120,212,17113,2,0,L|56:212,1,60.5000018463135,2|0,3:2|0:2,0:0:0:0:
212,212,17274,2,0,L|292:212,1,60.5000018463135,2|0,1:2|0:2,0:0:0:0:
116,124,17435,6,0,L|216:124,1,60.5000018463135,2|0,3:2|0:2,0:0:0:0:
236,124,17597,2,0,L|236:48,1,60.5000018463135,0|0,1:2|0:2,0:0:0:0:
80,48,17758,2,0,L|12:48,1,60.5000018463135,2|0,3:2|0:2,0:0:0:0:
172,48,17919,2,0,L|248:48,1,60.5000018463135,2|0,1:2|0:2,0:0:0:0:
80,228,18080,5,2,3:2:0:0:
20,228,18161,1,0,0:2:0:0:
20,228,18242,1,0,1:2:0:0:
80,228,18322,1,0,0:2:0:0:
232,228,18403,2,0,L|316:228,1,60.5000018463135,2|0,3:2|0:2,0:0:0:0:
140,228,18564,2,0,L|140:140,1,60.5000018463135,2|0,1:2|0:2,0:0:0:0:
316,116,18726,6,0,L|384:116,1,60.5000018463135,2|0,3:2|0:2,0:0:0:0:
316,116,18887,2,0,L|212:116,1,60.5000018463135,0|0,1:2|0:2,0:0:0:0:
432,40,19048,2,0,L|356:40,1,60.5000018463135,2|0,3:2|0:2,0:0:0:0:
208,44,19209,2,0,L|296:44,1,60.5000018463135,2|0,1:2|0:2,0:0:0:0:
100,180,19371,5,2,3:2:0:0:
40,180,19451,1,0,0:2:0:0:
100,180,19532,1,0,1:2:0:0:
160,180,19613,1,0,0:2:0:0:
312,176,19693,2,0,L|232:176,1,60.5000018463135,2|0,3:2|0:2,0:0:0:0:
100,116,19855,2,0,L|100:52,1,60.5000018463135,2|0,1:2|0:2,0:0:0:0:
264,288,20016,6,0,L|332:288,1,60.5000018463135,2|0,3:2|0:2,0:0:0:0:
264,288,20177,2,0,L|264:192,1,60.5000018463135,0|0,1:2|0:2,0:0:0:0:
432,220,20339,2,0,L|500:220,1,60.5000018463135,2|0,3:2|0:2,0:0:0:0:
340,160,20500,2,0,L|256:160,1,60.5000018463135,2|0,1:2|0:2,0:0:0:0:
432,104,20661,5,2,3:2:0:0:
432,104,20741,1,0,0:2:0:0:
372,104,20822,1,0,1:2:0:0:
432,100,20902,1,0,0:2:0:0:
256,328,20983,2,0,L|256:248,1,60.5000018463135,2|0,3:2|0:2,0:0:0:0:
316,268,21144,2,0,L|408:268,1,60.5000018463135,2|0,1:2|0:2,0:0:0:0:
196,220,21306,1,2,3:2:0:0:
324,148,21467,1,2,3:2:0:0:
100,152,21629,5,4,3:1:0:0:
40,152,21709,1,0,0:2:0:0:
40,152,21790,1,0,1:2:0:0:
100,152,21870,1,0,0:2:0:0:
276,180,21951,2,0,L|340:180,1,60.5000018463135,2|0,3:2|0:2,0:0:0:0:
160,128,22112,2,0,L|232:128,1,60.5000018463135,2|0,1:2|0:2,0:0:0:0:
400,296,22274,5,2,3:2:0:0:
340,296,22354,1,0,0:2:0:0:
280,296,22435,1,0,1:2:0:0:
280,236,22516,1,0,0:2:0:0:
448,228,22596,2,0,L|516:228,1,60.5000018463135,2|0,3:2|0:2,0:0:0:0:
328,176,22758,2,0,L|240:176,1,60.5000018463135,2|0,1:2|0:2,0:0:0:0:
440,140,22920,5,2,3:2:0:0:
440,80,23000,1,0,0:2:0:0:
380,80,23081,1,0,1:2:0:0:
440,80,23161,1,0,0:2:0:0:
264,268,23242,1,2,3:2:0:0:
204,268,23323,1,0,0:2:0:0:
380,244,23403,1,2,1:2:0:0:
380,244,23484,1,0,0:2:0:0:
204,200,23565,5,2,3:2:0:0:
204,140,23645,1,0,0:2:0:0:
276,140,23726,1,0,1:2:0:0:
276,140,23807,1,0,0:2:0:0:
96,348,23887,5,2,3:2:0:0:
66,347,23927,1,0,3:2:0:0:
42,329,23967,1,0,3:2:0:0:
31,301,24007,1,0,3:2:0:0:
38,272,24048,1,0,1:2:0:0:
60,252,24088,1,0,3:2:0:0:
89,248,24128,1,0,3:2:0:0:
268,244,24209,5,2,3:2:0:0:
328,244,24290,1,0,3:2:0:0:
152,176,24370,1,2,1:2:0:0:
212,176,24451,1,0,3:2:0:0:
396,176,24532,5,2,3:2:0:0:
425,176,24572,1,0,3:2:0:0:
449,159,24612,1,0,3:2:0:0:
458,131,24652,1,0,3:2:0:0:
448,103,24693,1,0,1:2:0:0:
422,87,24733,1,0,3:2:0:0:
393,90,24773,1,0,3:2:0:0:
220,100,24854,5,2,3:2:0:0:
160,100,24935,1,0,3:2:0:0:
336,36,25016,1,2,1:2:0:0:
276,36,25096,1,0,3:2:0:0:
92,364,25177,5,0,3:2:0:0:
62,364,25217,1,0,3:2:0:0:
37,348,25257,1,0,3:2:0:0:
26,320,25297,1,0,3:2:0:0:
33,291,25338,1,0,1:2:0:0:
56,271,25378,1,0,3:2:0:0:
85,268,25418,1,0,3:2:0:0:
264,224,25499,5,2,3:2:0:0:
324,224,25580,1,0,3:2:0:0:
148,172,25661,1,2,1:2:0:0:
88,172,25741,1,0,3:2:0:0:
264,108,25822,1,2,3:2:0:0:
124,80,25983,1,2,1:2:0:0:
384,72,26145,1,2,3:2:0:0:
156,352,26468,5,6,1:2:0:0:
300,352,26629,1,2,0:2:0:0:
156,352,26790,2,0,L|156:208,1,110,2|0,3:2|0:2,0:0:0:0:
300,244,27113,1,2,3:2:0:0:
156,244,27274,1,2,0:2:0:0:
300,244,27435,2,0,L|300:128,1,110,2|0,3:2|0:2,0:0:0:0:
156,132,27758,2,0,L|40:132,1,110,2|2,3:2|0:2,0:0:0:0:
188,132,28080,1,2,3:2:0:0:
44,132,28242,1,2,0:2:0:0:
280,356,28403,5,6,1:2:0:0:
136,356,28564,1,2,0:2:0:0:
280,356,28726,2,0,L|280:232,1,110,2|0,3:2|0:2,0:0:0:0:
136,248,29048,1,2,3:2:0:0:
280,248,29209,1,2,0:2:0:0:
136,248,29371,2,0,L|0:248,1,110,2|0,3:2|0:2,0:0:0:0:
168,248,29693,2,2,L|288:248,1,110,2|2,3:2|0:2,0:0:0:0:
136,248,30016,1,2,3:2:0:0:
280,248,30177,1,2,0:2:0:0:
40,180,30338,5,6,1:2:0:0:
184,180,30500,1,2,0:2:0:0:
40,180,30661,2,0,L|156:180,1,110,2|0,3:2|0:2,0:0:0:0:
292,180,30984,1,2,3:2:0:0:
148,180,31145,1,2,0:2:0:0:
292,180,31306,2,0,L|420:180,1,110,2|0,3:2|0:2,0:0:0:0:
260,180,31629,2,2,L|260:64,1,110,2|2,3:2|0:2,0:0:0:0:
404,68,31951,1,2,3:2:0:0:
260,68,32113,1,2,0:2:0:0:
488,168,32274,5,6,1:2:0:0:
344,172,32435,1,2,0:2:0:0:
488,168,32597,2,0,L|488:48,1,110,2|0,3:2|0:2,0:0:0:0:
344,56,32919,1,2,3:2:0:0:
488,56,33080,1,2,0:2:0:0:
344,56,33242,2,0,L|200:56,1,110,2|0,3:2|0:2,0:0:0:0:
376,60,33564,2,2,L|376:184,1,110,2|2,3:2|0:2,0:0:0:0:
264,176,33887,1,2,3:2:0:0:
376,172,34048,1,2,0:2:0:0:
76,256,34210,6,2,L|260:256,2,165,6|2|2,1:2|0:2|0:2,0:0:0:0:
220,256,34855,1,2,3:2:0:0:
76,256,35016,2,0,L|8:256,2,55,2|0|0,0:2|0:2|3:2,0:0:0:0:
220,256,35339,1,2,0:2:0:0:
76,256,35500,2,2,L|208:256,2,110,2|2|2,3:2|0:2|3:2,0:0:0:0:
328,168,35984,6,2,L|128:168,2,165,6|2|2,1:2|0:2|0:2,0:0:0:0:
184,168,36629,1,2,3:2:0:0:
328,168,36790,1,2,0:2:0:0:
384,164,36871,2,0,L|384:92,1,55,0|0,0:2|3:2,0:0:0:0:
240,108,37113,1,2,0:2:0:0:
384,104,37274,2,2,L|248:104,2,110,2|2|2,3:2|0:2|3:2,0:0:0:0:
128,272,37758,6,0,L|256:272,1,110,6|0,1:2|0:2,0:0:0:0:
400,200,37999,2,0,L|272:200,1,110,6|0,1:2|0:2,0:0:0:0:
128,200,38241,1,6,1:2:0:0:
272,200,38403,1,2,3:2:0:0:
128,140,38564,2,0,L|60:140,1,55,2|0,0:2|0:2,0:0:0:0:
73,140,38725,1,0,3:2:0:0:
216,140,38887,1,2,0:2:0:0:
73,140,39048,2,2,L|208:140,2,110,2|2|2,3:2|0:2|3:2,0:0:0:0:
128,140,39451,1,0,3:2:0:0:
316,264,39532,6,2,L|128:264,2,165,6|2|2,1:2|0:2|0:2,0:0:0:0:
424,264,40177,1,2,3:2:0:0:
276,268,40338,2,0,L|212:268,2,55,2|0|2,0:2|0:2|3:2,0:0:0:0:
424,264,40661,6,0,L|424:128,1,110,2|0,0:2|3:2,0:0:0:0:
280,160,40983,1,2,0:2:0:0:
424,160,41144,2,2,L|424:36,1,110,2|2,3:2|0:2,0:0:0:0:
280,56,41467,2,2,L|404:56,2,110,2|2|2,3:2|0:2|3:2,0:0:0:0:
476,220,42113,6,2,L|292:220,1,161.333338256836,2|2,3:2|0:2,0:0:0:0:
396,220,42435,2,2,L|212:216,1,161.333338256836,2|2,3:2|0:2,0:0:0:0:
428,172,42758,2,0,P|476:120|388:92,1,161.333338256836,8|0,0:1|0:2,0:0:0:0:
216,336,43080,6,2,L|384:336,1,161.333338256836,2|2,3:2|0:2,0:0:0:0:
296,336,43403,2,2,L|112:336,1,161.333338256836,2|2,3:2|0:2,0:0:0:0:
328,272,43725,2,0,P|380:216|308:192,1,161.333338256836,8|0,0:1|0:2,0:0:0:0:
128,176,44048,6,2,L|300:176,1,161.333338256836,2|2,3:2|0:2,0:0:0:0:
208,176,44371,2,2,L|376:176,1,161.333338256836,2|2,3:2|0:2,0:0:0:0:
184,332,44693,2,0,P|128:280|200:248,1,161.333338256836,8|0,0:1|0:2,0:0:0:0:
404,228,45016,6,2,L|224:228,1,161.333338256836,2|2,3:2|0:2,0:0:0:0:
324,228,45338,1,2,3:2:0:0:
32,232,45553,2,0,L|32:140,1,80.6666691284181,8|0,0:1|0:2,0:0:0:0:
112,151,45768,2,0,L|28:151,1,80.6666691284181,0|0,0:2|0:2,0:0:0:0:
312,148,45983,6,0,L|400:148,2,80.6666691284181,2|0|0,3:2|0:2|0:2,0:0:0:0:
120,336,46306,2,0,L|24:336,2,80.6666691284181,8|0|0,0:1|0:2|0:2,0:0:0:0:
320,236,46629,1,0,3:2:0:0:
400,236,46736,2,0,L|400:128,1,80.6666691284181,0|0,0:2|0:2,0:0:0:0:
152,124,46951,5,0,3:2:0:0:
232,124,47059,1,0,3:2:0:0:
152,124,47166,1,8,3:2:0:0:
392,72,47274,1,8,3:2:0:0:
312,72,47381,1,8,3:2:0:0:
392,72,47489,1,8,3:2:0:0:
132,292,47596,6,2,L|132:224,1,40.333334564209,2|2,3:2|0:2,0:0:0:0:
288,252,47704,2,2,L|288:176,1,40.333334564209,2|2,0:2|0:2,0:0:0:0:
440,204,47811,2,2,L|440:136,1,40.333334564209,2|2,0:2|0:2,0:0:0:0:
272,368,47920,5,4,1:2:0:0:
219,365,48000,1,0,3:2:0:0:
194,318,48081,1,0,3:2:0:0:
220,273,48161,1,0,3:2:0:0:
273,271,48242,1,2,3:2:0:0:
416,268,48403,1,2,0:2:0:0:
176,208,48565,5,0,1:2:0:0:
120,208,48645,1,0,3:2:0:0:
120,148,48726,1,0,3:2:0:0:
176,148,48807,1,0,3:2:0:0:
232,148,48887,1,2,3:2:0:0:
88,152,49049,1,2,0:2:0:0:
340,352,49210,5,0,1:2:0:0:
340,280,49290,1,0,3:2:0:0:
268,280,49371,1,0,3:2:0:0:
268,208,49452,1,0,3:2:0:0:
340,208,49532,1,2,3:2:0:0:
196,212,49694,1,2,0:2:0:0:
444,92,49855,5,0,1:2:0:0:
389,92,49935,1,0,3:2:0:0:
334,92,50016,1,0,3:2:0:0:
279,92,50096,1,0,3:2:0:0:
224,92,50177,1,2,3:2:0:0:
368,88,50339,1,2,0:2:0:0:
116,360,50500,5,0,1:2:0:0:
116,300,50581,1,0,3:2:0:0:
172,300,50661,1,0,3:2:0:0:
228,300,50742,1,0,3:2:0:0:
284,300,50823,1,2,3:2:0:0:
140,224,50984,1,2,0:2:0:0:
384,216,51145,6,0,L|384:140,1,55,0|0,1:2|3:2,0:0:0:0:
328,160,51307,2,0,L|256:160,2,55,0|0|2,3:2|3:2|3:2,0:0:0:0:
476,160,51629,1,2,3:2:0:0:
204,272,51791,5,0,1:2:0:0:
148,272,51871,1,0,3:2:0:0:
204,272,51952,1,0,3:2:0:0:
260,272,52032,1,0,3:2:0:0:
260,216,52113,1,2,3:2:0:0:
116,216,52274,1,2,3:2:0:0:
356,140,52436,6,0,L|448:140,1,55,0|0,1:2|3:2,0:0:0:0:
236,96,52597,2,0,L|164:96,1,55,2|0,3:2|3:2,0:0:0:0:
348,364,52758,5,4,1:1:0:0:
348,304,52838,1,0,3:2:0:0:
288,304,52919,1,0,3:2:0:0:
228,304,52999,1,0,3:2:0:0:
392,216,53080,2,0,L|324:216,1,60.5000018463135,2|0,3:2|3:2,0:0:0:0:
164,176,53241,2,0,L|84:176,1,60.5000018463135,2|0,3:2|3:2,0:0:0:0:
292,168,53403,6,0,L|292:84,1,60.5000018463135,0|0,1:2|3:2,0:0:0:0:
224,112,53564,2,0,L|224:32,1,60.5000018463135,0|0,3:2|3:2,0:0:0:0:
384,56,53725,2,0,L|452:56,1,60.5000018463135,2|0,3:2|3:2,0:0:0:0:
276,56,53887,2,0,L|348:56,1,60.5000018463135,2|0,3:2|3:2,0:0:0:0:
152,372,54049,6,0,L|152:296,1,60.5000018463135,0|0,1:2|3:2,0:0:0:0:
212,312,54210,2,0,L|292:312,1,60.5000018463135,0|0,3:2|3:2,0:0:0:0:
56,232,54371,2,0,L|132:232,1,60.5000018463135,2|0,3:2|3:2,0:0:0:0:
280,232,54532,2,0,L|192:232,1,60.5000018463135,2|0,3:2|3:2,0:0:0:0:
384,240,54694,6,0,L|480:240,1,60.5000018463135,0|0,1:2|3:2,0:0:0:0:
444,168,54855,2,0,L|364:168,1,60.5000018463135,0|0,3:2|3:2,0:0:0:0:
192,336,55016,5,0,1:2:0:0:
162,339,55056,1,0,3:2:0:0:
137,324,55096,1,0,3:2:0:0:
126,296,55136,1,0,3:2:0:0:
134,268,55177,1,0,3:2:0:0:
158,251,55217,1,0,3:2:0:0:
188,252,55257,1,0,3:2:0:0:
368,176,55338,6,0,L|280:176,1,60.5000018463135,2|0,3:2|3:2,0:0:0:0:
128,176,55499,2,0,L|128:104,1,60.5000018463135,2|0,3:2|3:2,0:0:0:0:
304,352,55661,5,0,1:2:0:0:
334,353,55701,1,0,3:2:0:0:
363,346,55741,1,0,3:2:0:0:
389,330,55781,1,0,3:2:0:0:
409,308,55822,1,0,3:2:0:0:
423,281,55862,1,0,3:2:0:0:
428,251,55902,1,0,3:2:0:0:
256,248,55983,6,0,L|176:248,1,60.5000018463135,2|0,3:2|3:2,0:0:0:0:
376,192,56145,2,0,L|376:120,1,60.5000018463135,2|0,3:2|3:2,0:0:0:0:
196,196,56306,5,0,1:2:0:0:
166,199,56346,1,0,3:2:0:0:
136,192,56386,1,0,3:2:0:0:
110,177,56426,1,0,3:2:0:0:
91,153,56467,1,0,3:2:0:0:
81,125,56507,1,0,3:2:0:0:
80,95,56547,1,0,3:2:0:0:
256,96,56628,6,0,L|336:96,1,60.5000018463135,2|0,3:2|3:2,0:0:0:0:
136,48,56790,2,0,L|52:48,1,60.5000018463135,2|0,3:2|3:2,0:0:0:0:
256,40,56951,1,0,1:2:0:0:
76,308,57274,5,2,3:2:0:0:
156,308,57381,1,2,0:2:0:0:
76,308,57489,1,2,0:2:0:0:
280,248,57596,5,4,3:1:0:0:
200,248,57704,1,10,0:2:0:0:
120,248,57811,1,10,1:2:0:0:
200,248,57919,1,10,3:2:0:0:
120,244,58026,1,10,0:2:0:0:
40,244,58134,1,10,1:2:0:0:
248,344,58241,1,10,3:2:0:0:
168,344,58349,5,10,0:2:0:0:
248,344,58456,1,10,1:2:0:0:
40,296,58564,1,10,3:2:0:0:
120,296,58671,1,8,0:2:0:0:
320,296,58779,1,10,1:2:0:0:
124,224,58886,1,10,3:2:0:0:
204,224,58994,1,10,0:2:0:0:
124,224,59102,5,10,1:2:0:0:
44,224,59209,1,10,3:2:0:0:
248,328,59317,1,10,0:2:0:0:
168,328,59424,1,10,1:2:0:0:
368,124,59532,1,10,3:2:0:0:
364,44,59639,1,8,0:2:0:0:
176,56,59747,1,10,1:2:0:0:
368,200,59854,5,10,3:2:0:0:
288,204,59962,1,10,0:2:0:0:
208,204,60069,1,10,1:2:0:0:
428,112,60177,1,10,3:2:0:0:
348,112,60284,1,10,0:2:0:0:
428,112,60392,1,10,1:2:0:0:
348,112,60499,1,10,3:2:0:0:
268,112,60607,5,10,0:2:0:0:
348,112,60714,1,10,1:2:0:0:
140,64,60822,1,10,3:2:0:0:
220,64,60929,1,10,0:2:0:0:
140,64,61037,1,10,1:2:0:0:
348,360,61145,1,10,3:2:0:0:
348,280,61252,1,8,0:2:0:0:
140,212,61360,5,8,1:2:0:0:
348,152,61468,1,10,3:2:0:0:
268,152,61575,1,10,0:2:0:0:
456,100,61683,1,10,1:2:0:0:
264,88,61790,1,10,3:2:0:0:
184,92,61898,1,8,0:2:0:0:
184,172,62005,1,8,1:2:0:0:
380,208,62113,5,2,3:2:0:0:
184,228,62220,1,0,3:2:0:0:
144,228,62274,1,2,3:2:0:0:
144,188,62328,1,0,3:2:0:0:
184,188,62381,1,0,3:2:0:0:
376,120,62436,5,4,3:1:0:0:
296,120,62543,1,10,3:2:0:0:
376,120,62651,1,10,1:2:0:0:
176,344,62758,1,10,3:2:0:0:
256,344,62866,1,10,0:2:0:0:
56,288,62973,1,10,1:2:0:0:
256,280,63081,1,10,3:2:0:0:
176,248,63188,5,10,0:2:0:0:
424,192,63296,1,10,1:2:0:0:
256,128,63403,1,10,3:2:0:0:
176,128,63511,1,8,3:2:0:0:
368,72,63618,1,10,1:2:0:0:
172,60,63726,1,10,3:2:0:0:
252,60,63833,1,10,0:2:0:0:
172,64,63941,5,10,1:2:0:0:
368,304,64048,1,10,3:2:0:0:
368,224,64156,1,8,0:2:0:0:
172,236,64263,1,10,1:2:0:0:
416,148,64371,5,10,3:2:0:0:
252,148,64478,1,10,3:2:0:0:
84,148,64586,1,10,0:2:0:0:
268,80,64694,5,2,3:2:0:0:
308,80,64747,1,0,3:2:0:0:
348,80,64801,1,2,3:2:0:0:
308,80,64855,1,0,3:2:0:0:
120,316,64909,1,2,1:2:0:0:
160,316,64962,1,0,3:2:0:0:
292,244,65016,5,2,3:2:0:0:
332,244,65070,1,0,3:2:0:0:
292,244,65124,1,2,3:2:0:0:
252,244,65177,1,0,3:2:0:0:
384,160,65231,1,2,1:2:0:0:
424,160,65285,1,0,3:2:0:0:
216,160,65339,5,2,3:2:0:0:
195,152,65366,1,0,3:2:0:0:
181,140,65392,1,0,3:2:0:0:
174,120,65419,1,0,3:2:0:0:
182,102,65446,1,0,3:2:0:0:
195,89,65473,1,0,3:2:0:0:
214,83,65500,1,0,3:2:0:0:
376,40,65554,2,0,L|428:40,1,40.333334564209,2|0,1:2|3:2,0:0:0:0:
292,356,65661,5,2,3:2:0:0:
271,348,65688,1,0,3:2:0:0:
257,336,65714,1,0,3:2:0:0:
250,316,65741,1,0,3:2:0:0:
258,298,65768,1,2,3:2:0:0:
271,285,65795,1,0,3:2:0:0:
290,279,65822,1,0,3:2:0:0:
452,284,65876,2,0,L|508:284,1,40.333334564209,2|0,1:2|3:2,0:0:0:0:
284,224,65984,5,2,3:2:0:0:
264,224,66010,1,0,3:2:0:0:
244,224,66037,1,0,3:2:0:0:
204,224,66091,1,2,3:2:0:0:
244,224,66145,1,0,3:2:0:0:
392,164,66199,5,2,1:2:0:0:
412,164,66225,1,0,3:2:0:0:
432,164,66252,1,0,3:2:0:0:
472,164,66306,1,2,3:2:0:0:
432,164,66360,1,0,3:2:0:0:
208,168,66414,5,2,3:2:0:0:
189,160,66440,1,0,3:2:0:0:
178,144,66467,1,0,3:2:0:0:
172,126,66494,1,0,3:2:0:0:
179,106,66521,1,2,1:2:0:0:
193,93,66548,1,0,3:2:0:0:
213,87,66575,1,0,3:2:0:0:
372,60,66629,5,2,3:2:0:0:
452,60,66736,2,0,L|364:60,1,80.6666691284181,2|0,3:2|3:2,0:0:0:0:
144,356,66952,6,2,L|96:356,1,40.333334564209,2|2,0:2|0:2,0:0:0:0:
252,296,67059,2,2,L|296:296,1,40.333334564209,2|2,0:2|0:2,0:0:0:0:
444,228,67167,2,2,L|400:228,1,40.333334564209,2|2,0:2|0:2,0:0:0:0:
256,232,67274,6,2,L|196:232,1,40.333334564209,2|2,0:2|0:2,0:0:0:0:
64,168,67382,2,2,L|132:168,1,40.333334564209,2|2,0:2|0:2,0:0:0:0:
252,144,67489,2,2,L|300:144,1,40.333334564209,2|2,0:2|0:2,0:0:0:0:
444,100,67597,6,2,L|388:100,1,40.333334564209,2|2,0:2|0:2,0:0:0:0:
256,96,67704,2,2,L|196:96,1,40.333334564209,2|2,0:2|0:2,0:0:0:0:
64,80,67812,2,2,L|132:80,1,40.333334564209,2|2,0:2|0:2,0:0:0:0:
268,48,67919,6,2,L|324:48,1,40.333334564209,2|2,0:2|0:2,0:0:0:0:
160,48,68027,2,2,L|108:48,1,40.333334564209,2|2,0:2|0:2,0:0:0:0:
308,48,68134,2,2,L|364:48,1,40.333334564209,2|2,0:2|0:2,0:0:0:0:
200,48,68242,6,2,L|148:48,1,40.333334564209,2|2,0:2|0:2,0:0:0:0:
308,48,68349,1,2,0:2:0:0:
432,48,68403,1,2,0:2:0:0:
282,108,68457,1,2,0:2:0:0:
133,177,68511,1,2,0:2:0:0:
282,193,68577,5,4,3:1:0:0:
256,192,68738,12,0,70500,0:0:0:0:
256,192,86306,12,0,87919,0:2:0:0:
192,373,88242,5,2,0:2:0:0:
304,376,88403,1,2,0:2:0:0:
192,373,88564,1,2,0:2:0:0:
304,376,88725,1,2,0:2:0:0:
192,373,88886,1,2,0:2:0:0:
304,376,89048,1,2,0:2:0:0:
192,373,89209,1,2,0:2:0:0:
304,376,89371,1,2,0:2:0:0:
248,376,89451,1,2,0:2:0:0:
32,320,89532,6,0,L|32:180,1,110,4|0,1:2|0:2,0:0:0:0:
88,212,89773,1,0,0:2:0:0:
244,160,89854,1,2,3:2:0:0:
136,160,90015,1,2,0:2:0:0:
372,112,90177,2,0,L|484:112,1,110,6|0,3:2|0:2,0:0:0:0:
428,116,90419,1,0,0:2:0:0:
276,284,90499,1,2,3:2:0:0:
388,284,90661,1,2,0:2:0:0:
152,216,90822,6,0,L|16:216,1,110,2|0,3:2|0:2,0:0:0:0:
96,216,91064,1,0,0:2:0:0:
264,164,91144,1,2,3:2:0:0:
140,120,91306,1,2,0:2:0:0:
400,220,91467,2,0,L|400:92,1,110,2|0,3:2|0:2,0:0:0:0:
344,112,91709,1,0,0:2:0:0:
172,56,91790,6,0,L|304:56,1,110,4|0,1:2|0:2,0:0:0:0:
336,52,92032,1,0,0:2:0:0:
184,320,92112,1,2,3:2:0:0:
292,320,92273,1,2,0:2:0:0:
56,268,92435,2,0,P|40:204|84:168,1,110,6|0,3:2|0:2,0:0:0:0:
120,180,92677,1,0,0:2:0:0:
288,180,92757,1,2,3:2:0:0:
176,180,92919,1,2,0:2:0:0:
412,104,93080,6,0,L|264:104,1,110,2|0,3:2|0:2,0:0:0:0:
248,104,93322,1,0,0:2:0:0:
424,360,93402,2,2,L|424:240,1,110,2|2,3:2|0:2,0:0:0:0:
192,248,93725,2,2,L|328:248,1,110,2|2,3:2|0:2,0:0:0:0:
356,248,93967,1,0,0:2:0:0:
180,176,94048,5,4,0:2:0:0:
180,120,94128,1,8,0:2:0:0:
236,120,94209,1,8,0:2:0:0:
292,120,94290,1,8,0:2:0:0:
128,76,94370,6,2,L|16:76,1,110,6|10,1:2|0:2,0:0:0:0:
72,76,94612,1,8,0:2:0:0:
240,352,94693,1,10,3:2:0:0:
240,296,94773,1,8,0:2:0:0:
172,296,94854,1,8,0:2:0:0:
172,240,94935,1,8,0:2:0:0:
340,184,95015,6,2,L|208:184,1,110,6|2,3:2|0:2,0:0:0:0:
176,184,95257,1,8,0:2:0:0:
356,116,95338,1,10,3:2:0:0:
412,116,95419,1,8,0:2:0:0:
468,116,95499,1,8,0:2:0:0:
412,116,95580,1,8,0:2:0:0:
240,352,95661,1,2,3:2:0:0:
240,296,95741,1,0,0:2:0:0:
304,296,95822,1,2,0:2:0:0:
304,240,95902,1,0,0:2:0:0:
136,204,95983,1,2,3:2:0:0:
80,204,96064,1,0,0:2:0:0:
80,204,96144,1,0,0:2:0:0:
136,204,96225,1,0,0:2:0:0:
296,132,96306,5,4,3:2:0:0:
240,132,96386,1,8,0:2:0:0:
184,132,96467,1,8,3:2:0:0:
184,76,96548,1,8,0:2:0:0:
352,72,96628,1,14,3:2:0:0:
296,72,96709,1,2,0:2:0:0:
448,72,96790,1,2,3:2:0:0:
448,72,96870,1,8,0:2:0:0:
276,304,96951,5,10,3:2:0:0:
220,304,97032,1,8,3:2:0:0:
276,304,97112,1,8,3:2:0:0:
332,304,97193,1,8,3:2:0:0:
168,248,97273,1,14,3:2:0:0:
112,248,97354,1,8,3:2:0:0:
272,188,97435,1,10,3:2:0:0:
328,188,97515,1,8,3:2:0:0:
160,172,97596,5,2,3:2:0:0:
133,167,97636,1,0,3:2:0:0:
112,149,97676,1,0,3:2:0:0:
104,123,97716,1,0,3:2:0:0:
111,97,97757,1,10,3:2:0:0:
131,78,97797,1,0,3:2:0:0:
158,73,97837,1,8,3:2:0:0:
328,44,97919,6,0,L|356:44,2,27.5,10|0|8,3:2|3:2|3:2,0:0:0:0:
216,44,98040,1,0,3:2:0:0:
108,24,98080,2,0,L|76:24,2,27.5,10|0|8,3:2|3:2|3:2,0:0:0:0:
332,332,98241,5,0,0:2:0:0:
388,332,98322,1,0,0:2:0:0:
388,332,98402,1,0,0:2:0:0:
332,332,98483,1,0,0:2:0:0:
164,272,98565,5,4,1:1:0:0:
164,212,98645,1,0,0:2:0:0:
224,212,98726,1,0,1:2:0:0:
284,212,98806,1,0,0:2:0:0:
104,160,98887,1,2,3:2:0:0:
44,160,98968,1,0,0:2:0:0:
216,120,99048,1,2,1:2:0:0:
276,120,99129,1,0,0:2:0:0:
104,88,99210,5,2,3:2:0:0:
104,28,99290,1,0,0:2:0:0:
164,28,99371,1,0,1:2:0:0:
104,28,99452,1,0,0:2:0:0:
284,28,99532,1,2,3:2:0:0:
344,28,99613,1,0,0:2:0:0:
168,300,99694,1,2,1:2:0:0:
228,304,99774,1,0,0:2:0:0:
400,256,99855,5,2,3:2:0:0:
400,196,99935,1,0,0:2:0:0:
340,200,100016,1,0,1:2:0:0:
280,200,100097,1,0,0:2:0:0:
448,152,100177,1,2,3:2:0:0:
448,92,100258,1,0,0:2:0:0:
276,96,100339,1,2,1:2:0:0:
216,96,100419,1,0,0:2:0:0:
392,48,100500,5,2,3:2:0:0:
452,44,100581,1,0,0:2:0:0:
452,44,100661,1,0,1:2:0:0:
392,48,100742,1,0,0:2:0:0:
208,356,100823,1,2,3:2:0:0:
148,356,100903,1,0,0:2:0:0:
328,312,100984,1,2,1:2:0:0:
328,252,101065,1,0,0:2:0:0:
144,208,101145,5,2,3:2:0:0:
204,208,101226,1,0,0:2:0:0:
264,204,101306,1,0,1:2:0:0:
264,144,101387,1,0,0:2:0:0:
96,112,101468,1,2,3:2:0:0:
36,112,101548,1,0,0:2:0:0:
204,68,101629,1,2,1:2:0:0:
264,68,101710,1,0,0:2:0:0:
96,332,101790,5,2,3:2:0:0:
36,332,101871,1,0,0:2:0:0:
32,272,101952,1,0,1:2:0:0:
92,268,102032,1,0,0:2:0:0:
260,264,102113,1,2,3:2:0:0:
260,324,102194,1,0,0:2:0:0:
92,204,102274,1,2,1:2:0:0:
152,204,102355,1,0,0:2:0:0:
328,140,102435,5,2,3:2:0:0:
268,140,102516,1,0,0:2:0:0:
208,140,102597,1,0,1:2:0:0:
208,80,102677,1,0,0:2:0:0:
384,64,102758,1,2,3:2:0:0:
384,124,102839,1,0,0:2:0:0:
216,272,102919,1,2,1:2:0:0:
156,272,103000,1,0,0:2:0:0:
328,200,103081,5,2,3:2:0:0:
200,200,103242,1,2,3:2:0:0:
428,156,103403,5,4,3:1:0:0:
484,156,103483,1,0,0:2:0:0:
484,156,103564,1,0,1:2:0:0:
428,156,103644,1,0,0:2:0:0:
256,104,103725,1,2,3:2:0:0:
316,104,103806,1,0,0:2:0:0:
156,64,103886,1,2,1:2:0:0:
96,64,103967,1,0,0:2:0:0:
268,364,104048,5,2,3:2:0:0:
268,304,104128,1,0,0:2:0:0:
208,304,104209,1,0,1:2:0:0:
208,244,104290,1,0,0:2:0:0:
376,196,104370,1,2,3:2:0:0:
316,196,104451,1,0,0:2:0:0:
472,124,104532,1,2,1:2:0:0:
412,124,104612,1,0,0:2:0:0:
224,128,104694,5,2,3:2:0:0:
164,128,104774,1,0,0:2:0:0:
224,128,104855,1,0,1:2:0:0:
284,128,104935,1,0,0:2:0:0:
120,68,105016,1,2,3:2:0:0:
180,68,105097,1,0,0:2:0:0:
336,64,105177,1,2,1:2:0:0:
396,64,105258,1,0,0:2:0:0:
216,372,105339,5,2,3:2:0:0:
216,312,105419,1,0,0:2:0:0:
276,312,105500,1,0,1:2:0:0:
336,312,105581,1,0,0:2:0:0:
148,272,105661,5,2,3:2:0:0:
118,269,105701,1,0,3:2:0:0:
94,251,105741,1,0,3:2:0:0:
83,223,105781,1,0,3:2:0:0:
88,194,105822,1,0,1:2:0:0:
108,172,105862,1,0,3:2:0:0:
137,164,105902,1,0,3:2:0:0:
320,156,105983,6,0,L|248:156,1,60.5000018463135,2|0,3:2|3:2,0:0:0:0:
100,124,106144,2,0,L|100:56,1,60.5000018463135,2|0,1:2|3:2,0:0:0:0:
288,352,106306,5,2,3:2:0:0:
317,349,106346,1,0,3:2:0:0:
341,331,106386,1,0,3:2:0:0:
352,303,106426,1,0,3:2:0:0:
347,274,106467,1,0,1:2:0:0:
327,252,106507,1,0,3:2:0:0:
298,244,106547,1,0,3:2:0:0:
116,236,106628,6,0,L|188:236,1,60.5000018463135,2|0,3:2|3:2,0:0:0:0:
336,204,106789,2,0,L|336:136,1,60.5000018463135,2|0,1:2|3:2,0:0:0:0:
116,96,106951,5,2,3:2:0:0:
146,96,106991,1,0,3:2:0:0:
176,96,107031,1,0,3:2:0:0:
206,96,107071,1,0,3:2:0:0:
237,96,107112,1,0,1:2:0:0:
267,96,107152,1,0,3:2:0:0:
297,96,107192,1,0,3:2:0:0:
132,336,107273,2,0,L|44:336,1,60.5000018463135,0|0,3:2|3:2,0:0:0:0:
240,272,107435,2,0,L|328:272,1,60.5000018463135,2|0,1:2|3:2,0:0:0:0:
128,212,107596,6,0,L|48:212,1,60.5000018463135,2|0,3:2|0:2,0:0:0:0:
68,152,107757,2,0,L|148:152,1,60.5000018463135,0|0,1:2|0:2,0:0:0:0:
192,152,107919,1,2,0:2:0:0:
72,152,108080,1,2,0:2:0:0:
304,356,108241,6,0,L|324:260,1,60.5000018463135,4|0,1:1|3:2,0:0:0:0:
244,288,108402,2,0,L|264:204,1,60.5000018463135,0|0,3:2|3:2,0:0:0:0:
328,224,108564,1,2,3:2:0:0:
184,172,108725,1,2,0:2:0:0:
448,168,108886,6,0,L|332:148,1,60.5000018463135,2|0,1:2|3:2,0:0:0:0:
328,148,109048,2,0,L|308:60,1,60.5000018463135,0|0,3:2|3:2,0:0:0:0:
376,76,109209,1,2,3:2:0:0:
496,76,109370,1,2,0:2:0:0:
216,348,109531,6,0,L|200:272,1,60.5000018463135,2|0,1:2|3:2,0:0:0:0:
264,284,109693,2,0,L|332:284,2,60.5000018463135,0|0|2,3:2|3:2|3:2,0:0:0:0:
144,284,110015,1,2,0:2:0:0:
428,204,110177,6,0,L|440:136,1,60.5000018463135,2|0,1:2|3:2,0:0:0:0:
376,148,110338,1,0,3:2:0:0:
316,144,110419,2,0,L|280:80,1,60.5000018463135,0|2,3:2|3:2,0:0:0:0:
436,88,110661,1,2,0:2:0:0:
172,352,110822,6,0,L|168:280,1,60.5000018463135,2|0,1:2|3:2,0:0:0:0:
228,284,110983,2,0,L|240:204,1,60.5000018463135,0|0,3:2|3:2,0:0:0:0:
176,220,111144,1,2,3:2:0:0:
320,180,111306,1,2,0:2:0:0:
48,208,111467,5,2,1:2:0:0:
52,148,111547,1,0,3:2:0:0:
85,97,111628,1,0,3:2:0:0:
137,68,111708,1,0,3:2:0:0:
196,66,111789,1,2,3:2:0:0:
56,28,111951,1,2,3:2:0:0:
320,360,112113,6,0,L|344:296,1,60.5000018463135,2|0,1:2|3:2,0:0:0:0:
280,300,112274,2,0,L|268:208,1,60.5000018463135,0|0,3:2|3:2,0:0:0:0:
332,236,112435,1,2,3:2:0:0:
168,176,112596,1,2,3:2:0:0:
440,176,112758,5,2,1:2:0:0:
493,159,112838,1,0,3:2:0:0:
324,104,112919,1,2,3:2:0:0:
270,90,112999,1,0,3:2:0:0:
460,352,113081,6,0,L|464:280,1,60.5000018463135,4|0,1:1|0:2,0:0:0:0:
404,288,113242,2,0,L|328:284,1,60.5000018463135,0|0,3:2|0:2,0:0:0:0:
168,276,113403,2,0,L|164:200,1,60.5000018463135,2|0,3:2|0:2,0:0:0:0:
320,208,113564,2,0,L|392:208,1,60.5000018463135,2|0,3:2|0:2,0:0:0:0:
192,144,113726,6,0,L|108:144,1,60.5000018463135,2|0,1:2|0:2,0:0:0:0:
72,144,113887,2,0,L|64:72,1,60.5000018463135,0|0,3:2|0:2,0:0:0:0:
244,76,114048,2,0,L|152:76,1,60.5000018463135,2|0,3:2|0:2,0:0:0:0:
364,80,114210,2,0,L|444:80,1,60.5000018463135,2|0,3:2|0:2,0:0:0:0:
236,328,114371,6,0,L|228:252,1,60.5000018463135,2|0,1:2|3:2,0:0:0:0:
296,264,114532,2,0,L|304:188,1,60.5000018463135,0|0,3:2|3:2,0:0:0:0:
120,200,114693,2,0,L|48:200,1,60.5000018463135,2|0,3:2|3:2,0:0:0:0:
232,128,114854,2,0,L|140:128,1,60.5000018463135,2|0,3:2|3:2,0:0:0:0:
360,220,115016,6,0,L|432:216,1,60.5000018463135,2|0,1:2|3:2,0:0:0:0:
480,208,115177,2,0,L|484:128,1,60.5000018463135,0|0,3:2|3:2,0:0:0:0:
296,360,115339,5,2,1:2:0:0:
265,362,115379,1,0,3:2:0:0:
235,359,115419,1,0,3:2:0:0:
206,352,115459,1,0,3:2:0:0:
178,339,115500,1,0,3:2:0:0:
153,322,115540,1,0,3:2:0:0:
131,302,115580,1,0,3:2:0:0:
312,272,115661,6,0,L|332:188,1,60.5000018463135,2|0,3:2|3:2,0:0:0:0:
144,200,115822,2,0,L|52:200,1,60.5000018463135,2|0,3:2|3:2,0:0:0:0:
276,196,115984,5,2,1:2:0:0:
306,197,116024,1,0,3:2:0:0:
335,192,116064,1,0,3:2:0:0:
364,181,116104,1,0,3:2:0:0:
389,165,116145,1,0,3:2:0:0:
411,144,116185,1,0,3:2:0:0:
427,119,116225,1,0,3:2:0:0:
240,120,116306,6,0,L|236:48,1,60.5000018463135,2|0,3:2|3:2,0:0:0:0:
424,52,116468,2,0,L|488:52,1,60.5000018463135,2|0,3:2|3:2,0:0:0:0:
160,352,116629,6,0,L|120:352,4,30.2500009231568,2|0|0|0|0,1:2|3:2|3:2|3:2|3:2,0:0:0:0:
424,280,116951,6,0,L|460:280,4,30.2500009231568,2|0|0|0|0,1:2|3:2|3:2|3:2|3:2,0:0:0:0:
100,232,117274,6,0,L|56:232,4,30.2500009231568,2|0|0|0|0,1:2|3:2|3:2|3:2|3:2,0:0:0:0:
244,248,117597,6,8,L|244:144,1,80.6666691284181,10|8,0:2|0:2,0:0:0:0:
160,168,117812,1,8,0:0:0:0:
380,328,117919,6,0,L|416:328,1,30.2500009231568,6|0,3:1|3:2,0:0:0:0:
308,332,118000,2,0,L|272:332,1,30.2500009231568,2|0,3:2|3:2,0:0:0:0:
180,332,118080,2,0,L|180:288,1,30.2500009231568,2|0,1:2|3:2,0:0:0:0:
356,260,118161,6,0,L|392:260,1,30.2500009231568,2|0,3:2|3:2,0:0:0:0:
284,260,118242,2,0,L|248:260,1,30.2500009231568,2|0,3:2|3:2,0:0:0:0:
156,260,118322,2,0,L|156:216,1,30.2500009231568,2|0,3:2|3:2,0:0:0:0:
328,188,118403,6,0,L|364:188,1,30.2500009231568,2|0,1:2|3:2,0:0:0:0:
256,188,118484,2,0,L|220:188,1,30.2500009231568,2|0,3:2|3:2,0:0:0:0:
128,188,118564,2,0,L|128:144,1,30.2500009231568,2|0,3:2|3:2,0:0:0:0:
304,116,118645,6,0,L|340:116,1,30.2500009231568,2|0,3:2|3:2,0:0:0:0:
232,116,118726,2,0,L|196:116,1,30.2500009231568,2|0,1:2|3:2,0:0:0:0:
104,116,118806,2,0,L|104:72,1,30.2500009231568,2|0,3:2|3:2,0:0:0:0:
243,19,118887,6,0,L|283:19,1,30.2500009231568,2|0,3:2|3:2,0:0:0:0:
411,19,118968,2,0,L|367:19,1,30.2500009231568,2|0,3:2|3:2,0:0:0:0:
244,200,119048,2,0,L|208:200,1,30.2500009231568,2|0,1:2|3:2,0:0:0:0:
75,200,119129,2,0,L|123:200,1,30.2500009231568,2|0,3:2|3:2,0:0:0:0:
312,324,119209,6,0,L|352:324,1,30.2500009231568,2|0,3:2|3:2,0:0:0:0:
240,324,119290,2,0,L|192:324,1,30.2500009231568,2|0,3:2|3:2,0:0:0:0:
108,324,119371,2,0,L|138:324,1,30.2500009231568,2|0,1:2|3:2,0:0:0:0:
296,252,119451,6,0,L|336:252,1,30.2500009231568,2|0,3:2|3:2,0:0:0:0:
224,252,119532,2,0,L|176:252,1,30.2500009231568,2|0,3:2|3:2,0:0:0:0:
92,252,119613,2,0,L|122:252,1,30.2500009231568,2|0,3:2|3:2,0:0:0:0:
244,156,119693,2,0,L|288:156,1,30.2500009231568,2|0,1:2|3:2,0:0:0:0:
398,92,119774,2,0,L|434:92,2,30.2500009231568,2|0|0,3:2|3:2|3:2,0:0:0:0:
316,92,119935,5,2,0:2:0:0:
468,164,120016,1,2,1:2:0:0:
404,160,120097,1,2,3:2:0:0:
243,166,120177,1,2,3:2:0:0:
242,123,120258,1,0,0:2:0:0:
296,124,120339,1,2,1:2:0:0:
352,124,120419,1,2,3:2:0:0:
132,320,120500,6,0,L|96:320,1,30.2500009231568,2|0,3:2|3:2,0:0:0:0:
204,320,120581,2,0,L|240:320,1,30.2500009231568,2|0,3:2|3:2,0:0:0:0:
332,320,120661,2,0,L|332:276,1,30.2500009231568,2|0,1:2|3:2,0:0:0:0:
160,260,120742,6,0,L|124:260,1,30.2500009231568,2|0,3:2|3:2,0:0:0:0:
232,260,120823,2,0,L|268:260,1,30.2500009231568,2|0,3:2|3:2,0:0:0:0:
360,260,120903,2,0,L|360:216,1,30.2500009231568,2|0,3:2|3:2,0:0:0:0:
188,184,120984,6,0,L|152:184,1,30.2500009231568,2|0,1:2|3:2,0:0:0:0:
280,184,121065,2,0,L|316:184,1,30.2500009231568,2|0,3:2|3:2,0:0:0:0:
433,220,121145,6,0,L|457:220,2,15.1250004615784,2|0|0,3:2|3:2|3:2,0:0:0:0:
341,220,121205,2,0,L|321:220,1,15.1250004615784,0|2,3:2|3:2,0:0:0:0:
233,220,121246,2,0,L|213:220,1,15.1250004615784,0|0,3:2|3:2,0:0:0:0:
129,216,121286,2,0,L|101:216,2,15.1250004615784,0|2|0,3:2|1:2|3:2,0:0:0:0:
225,220,121347,2,0,L|249:220,1,15.1250004615784,0|0,3:2|3:2,0:0:0:0:
325,220,121387,2,0,L|341:220,1,15.1250004615784,2|0,3:2|3:2,0:0:0:0:
433,220,121427,2,0,L|433:192,1,15.1250004615784,0|0,3:2|3:2,0:0:0:0:
296,140,121468,6,0,L|256:140,1,30.2500009231568,2|0,3:2|3:2,0:0:0:0:
140,144,121549,2,0,L|140:104,1,30.2500009231568,2|0,3:2|3:2,0:0:0:0:
260,100,121629,2,0,L|296:100,1,30.2500009231568,2|0,1:2|3:2,0:0:0:0:
416,100,121710,2,0,L|368:100,1,30.2500009231568,2|0,3:2|3:2,0:0:0:0:
200,324,121791,6,0,L|160:324,1,30.2500009231568,2|0,3:2|3:2,0:0:0:0:
268,328,121871,2,0,L|316:328,1,30.2500009231568,2|0,3:2|3:2,0:0:0:0:
400,332,121952,2,0,L|370:332,1,30.2500009231568,2|0,1:2|3:2,0:0:0:0:
216,208,122032,6,0,L|168:208,1,30.2500009231568,2|0,3:2|3:2,0:0:0:0:
288,208,122113,2,0,L|336:208,1,30.2500009231568,2|0,3:2|3:2,0:0:0:0:
420,208,122194,2,0,L|390:208,1,30.2500009231568,2|0,3:2|3:2,0:0:0:0:
268,116,122274,2,0,L|224:116,1,30.2500009231568,2|0,1:2|3:2,0:0:0:0:
114,48,122355,2,0,L|78:48,1,30.2500009231568,2|0,3:2|3:2,0:0:0:0:
212,120,122436,6,0,L|308:120,2,90.7500027694703,2|2|2,3:2|0:2|0:2,0:0:0:0:
364,360,122758,5,4,3:1:0:0:
390,346,122798,1,0,3:2:0:0:
400,319,122838,1,0,3:2:0:0:
389,291,122878,1,0,3:2:0:0:
362,279,122919,1,2,1:2:0:0:
332,280,122959,1,0,3:2:0:0:
224,280,122999,2,0,L|184:280,1,30.2500009231568,2|0,3:2|3:2,3:2:0:0:
304,224,123080,5,2,3:2:0:0:
336,224,123120,1,0,3:2:0:0:
369,222,123161,1,0,3:2:0:0:
336,224,123201,1,0,3:2:0:0:
232,216,123241,1,2,1:2:0:0:
198,215,123282,1,0,3:2:0:0:
165,213,123322,1,0,3:2:0:0:
198,215,123362,1,0,3:2:0:0:
320,160,123403,5,2,3:2:0:0:
335,158,123423,1,0,3:2:0:0:
347,149,123443,1,0,3:2:0:0:
354,136,123463,1,0,3:2:0:0:
357,123,123483,1,0,3:2:0:0:
354,108,123503,1,0,3:2:0:0:
344,95,123524,1,0,3:2:0:0:
331,89,123544,1,0,3:2:0:0:
316,87,123564,1,2,1:2:0:0:
256,92,123645,1,2,3:2:0:0:
117,155,123725,5,0,3:2:0:0:
102,153,123745,1,0,3:2:0:0:
90,144,123765,1,0,3:2:0:0:
83,131,123785,1,0,3:2:0:0:
80,118,123805,1,0,3:2:0:0:
83,103,123825,1,0,3:2:0:0:
93,90,123846,1,0,3:2:0:0:
106,84,123866,1,0,3:2:0:0:
120,82,123886,1,2,1:2:0:0:
181,87,123967,1,0,3:2:0:0:
332,316,124049,5,2,3:2:0:0:
301,316,124089,1,0,3:2:0:0:
271,316,124129,1,0,3:2:0:0:
241,316,124169,1,0,3:2:0:0:
211,316,124210,1,2,1:2:0:0:
180,316,124250,1,0,3:2:0:0:
150,316,124290,1,0,3:2:0:0:
120,316,124331,1,0,3:2:0:0:
232,248,124371,5,2,3:2:0:0:
265,248,124411,1,0,3:2:0:0:
265,248,124452,1,0,3:2:0:0:
232,248,124492,1,0,3:2:0:0:
124,212,124532,1,2,1:2:0:0:
90,212,124572,1,0,3:2:0:0:
90,212,124613,1,0,3:2:0:0:
124,212,124653,1,0,3:2:0:0:
248,121,124694,5,2,3:2:0:0:
308,121,124774,1,0,3:2:0:0:
156,61,124855,1,2,1:2:0:0:
96,61,124936,1,0,3:2:0:0:
246,295,125016,5,2,3:2:0:0:
261,294,125036,1,0,3:2:0:0:
276,293,125056,1,0,3:2:0:0:
291,293,125076,1,0,3:2:0:0:
306,293,125096,1,0,3:2:0:0:
321,293,125116,1,0,3:2:0:0:
336,293,125136,1,0,3:2:0:0:
351,293,125157,1,0,3:2:0:0:
366,293,125177,1,2,1:2:0:0:
432,296,125257,1,0,3:2:0:0:
230,227,125338,5,2,3:2:0:0:
213,226,125358,1,0,3:2:0:0:
196,226,125378,1,0,3:2:0:0:
178,226,125399,1,0,3:2:0:0:
161,226,125419,1,0,3:2:0:0:
312,168,125499,1,2,1:2:0:0:
380,168,125580,1,0,3:2:0:0:
180,128,125661,5,2,3:2:0:0:
163,128,125681,1,0,3:2:0:0:
146,129,125701,1,0,3:2:0:0:
129,129,125721,1,0,3:2:0:0:
112,128,125741,1,0,3:2:0:0:
146,129,125782,1,0,3:2:0:0:
253,32,125822,1,2,1:2:0:0:
282,33,125862,1,0,3:2:0:0:
312,33,125903,2,0,L|268:33,1,30.2500009231568,2|0,3:2|3:2,3:2:0:0:
173,364,125983,5,2,3:2:0:0:
159,356,126003,1,0,3:2:0:0:
154,342,126024,1,0,3:2:0:0:
160,328,126044,1,0,3:2:0:0:
172,323,126064,1,0,3:2:0:0:
331,305,126145,5,2,1:2:0:0:
345,297,126165,1,0,3:2:0:0:
350,283,126186,1,0,3:2:0:0:
344,269,126206,1,0,3:2:0:0:
331,264,126226,1,0,3:2:0:0:
176,336,126307,5,2,3:2:0:0:
160,333,126327,1,0,3:2:0:0:
147,324,126347,1,0,3:2:0:0:
140,310,126367,1,0,3:2:0:0:
139,295,126387,1,0,3:2:0:0:
143,282,126407,1,0,3:2:0:0:
153,269,126427,1,0,3:2:0:0:
167,265,126448,1,0,3:2:0:0:
181,264,126468,1,2,1:2:0:0:
210,264,126508,1,0,3:2:0:0:
316,268,126548,2,0,L|316:224,1,30.2500009231568,2|0,3:2|3:2,3:2:0:0:
200,144,126629,5,2,3:2:0:0:
167,144,126669,1,0,3:2:0:0:
133,145,126710,1,0,3:2:0:0:
167,144,126750,1,0,3:2:0:0:
271,98,126790,1,2,1:2:0:0:
304,98,126831,1,0,3:2:0:0:
337,98,126871,1,0,3:2:0:0:
304,98,126911,1,0,3:2:0:0:
132,228,126952,6,0,L|240:228,2,80.6666691284181,2|0|0,3:2|3:2|3:2,0:0:0:0:
401,343,127274,6,0,L|437:343,2,30.2500009231568,4|0|2,1:1|3:2|1:2,0:0:0:0:
292,344,127394,1,0,3:2:0:0:
180,344,127435,1,0,3:2:0:0:
348,284,127515,6,0,L|384:284,2,30.2500009231568,2|0|2,1:2|3:2|1:2,0:0:0:0:
240,284,127635,1,0,3:2:0:0:
128,284,127676,1,0,3:2:0:0:
296,212,127757,6,0,L|332:212,2,30.2500009231568,2|0|2,1:2|3:2|1:2,0:0:0:0:
188,216,127877,1,0,3:2:0:0:
76,216,127918,1,0,3:2:0:0:
288,144,127999,2,0,L|364:144,1,60.5000018463135,2|2,1:2|1:2,0:0:0:0:
316,88,128120,1,0,3:2:0:0:
284,88,128160,1,0,3:2:0:0:
96,344,128241,6,0,L|60:344,2,30.2500009231568,2|0|2,1:2|3:2|1:2,0:0:0:0:
208,344,128362,1,0,3:2:0:0:
320,344,128403,1,0,3:2:0:0:
152,288,128483,6,0,L|116:288,2,30.2500009231568,2|0|2,1:2|3:2|1:2,0:0:0:0:
264,288,128604,1,0,3:2:0:0:
372,288,128644,1,0,3:2:0:0:
204,228,128725,6,0,L|168:228,2,30.2500009231568,2|0|2,1:2|3:2|1:2,0:0:0:0:
316,228,128846,1,0,3:2:0:0:
424,228,128886,1,0,3:2:0:0:
256,184,128967,2,0,L|188:184,1,60.5000018463135,2|2,1:2|1:2,0:0:0:0:
228,132,129088,1,2,3:2:0:0:
260,132,129128,1,2,3:2:0:0:
424,120,129209,6,0,L|472:120,1,30.2500009231568,2|0,1:2|3:2,0:0:0:0:
485,122,129290,1,2,1:2:0:0:
452,120,129330,1,0,3:2:0:0:
320,72,129370,1,2,3:2:0:0:
290,72,129410,1,2,3:2:0:0:
260,72,129450,1,2,3:2:0:0:
292,72,129491,1,2,3:2:0:0:
420,344,129532,6,2,L|504:344,1,60.5000018463135,2|2,3:2|3:2,0:0:0:0:
320,280,129693,2,2,L|392:280,1,60.5000018463135,2|2,3:2|3:2,0:0:0:0:
196,232,129854,6,2,L|116:232,1,60.5000018463135,2|2,3:2|3:2,0:0:0:0:
304,168,130015,2,2,L|232:168,1,60.5000018463135,2|2,3:2|3:2,0:0:0:0:
432,116,130177,6,2,L|504:116,1,60.5000018463135,2|2,3:2|3:2,0:0:0:0:
324,228,130338,2,2,L|385:228,1,60.5000018463135,2|2,3:2|3:2,0:0:0:0:
216,144,130499,6,2,L|176:144,1,30.2500009231568,2|2,3:2|3:2,0:0:0:0:
64,88,130580,2,2,L|112:88,1,30.2500009231568,2|2,3:2|3:2,0:0:0:0:
232,92,130661,2,2,L|272:92,1,30.2500009231568,2|2,3:2|3:2,0:0:0:0:
400,92,130742,2,2,L|352:92,1,30.2500009231568,2|2,3:2|3:2,0:0:0:0:
196,44,130822,6,2,L|156:44,1,30.2500009231568,2|2,3:2|3:2,0:0:0:0:
304,48,130903,2,2,L|340:48,1,30.2500009231568,2|2,3:2|3:2,0:0:0:0:
472,244,130983,1,2,3:2:0:0:
364,249,131024,1,2,3:2:0:0:
258,249,131064,1,2,3:2:0:0:
153,247,131104,1,2,3:2:0:0:
373,179,131147,5,4,1:1:0:0:
256,192,131308,12,6,132759,0:2:0:0:
