osu file format v14

[General]
AudioFilename: audio.mp3
AudioLeadIn: 0
PreviewTime: 98565
Countdown: 0
SampleSet: Soft
StackLeniency: 0.7
Mode: 2
LetterboxInBreaks: 0
WidescreenStoryboard: 1

[Editor]
Bookmarks: 121140,121463
DistanceSpacing: 3.5
BeatDivisor: 4
GridSize: 4
TimelineZoom: 3.299998

[Metadata]
Title:Tanaka
TitleUnicode:田中
Artist:Rish feat. Choko
ArtistUnicode:立秋 feat. ちょこ
Creator:Kukkai
Version:Rain
Source:THE BMS OF FIGHTERS XVII -VISION THE RETRO FUTURE-
Tags:R-34 Natsuko -Rustyy bof BOFXVII risshuu rissyuu 石王マサト masato novelty Japanese Electronic video game vg fa featured artist
BeatmapID:3615457
BeatmapSetID:1717748

[Difficulty]
HPDrainRate:5
CircleSize:4
OverallDifficulty:9
ApproachRate:9
SliderMultiplier:1.68
SliderTickRate:1

[Events]
//Background and Video events
0,0,"taka.png",0,0
Video,-80,"vdoo.mp4"
//Break Periods
2,70700,85706
//Storyboard Layer 0 (Background)
//Storyboard Layer 1 (Fail)
//Storyboard Layer 2 (Pass)
//Storyboard Layer 3 (Foreground)
//Storyboard Layer 4 (Overlay)
//Storyboard Sound Samples

[TimingPoints]
662,322.58064516129,4,2,1,60,1,0
1307,-90.9090909090909,4,2,1,70,0,1
7113,-100,4,2,1,70,0,0
10984,322.58064516129,3,2,1,70,1,0
11952,322.58064516129,4,2,1,70,1,0
11952,-100,4,2,1,70,0,0
13242,322.58064516129,3,2,1,70,1,0
13242,-100,4,2,1,70,0,0
14210,322.58064516129,4,2,1,70,1,0
14210,-100,4,2,1,70,0,0
16790,-100,4,2,1,70,0,1
20661,322.58064516129,3,2,1,70,1,1
20661,-100,4,2,1,70,0,1
21306,-100,4,2,1,70,0,0
21629,322.58064516129,4,2,1,70,1,1
21629,-100,4,2,1,70,0,1
22920,322.58064516129,3,2,1,70,1,1
22920,-100,4,2,1,70,0,1
23887,322.58064516129,4,2,1,70,1,1
23887,-100,4,2,1,70,0,1
26468,322.58064516129,6,2,1,60,1,0
34210,322.58064516129,11,2,1,60,1,0
35984,322.58064516129,11,2,1,60,1,0
37758,322.58064516129,11,2,1,60,1,0
39532,322.58064516129,4,2,1,60,1,0
42113,322.58064516129,3,2,1,60,1,0
42113,-100,3,2,1,60,0,0
47920,322.58064516129,4,2,1,70,1,0
51791,322.58064516129,3,2,1,70,1,0
52758,322.58064516129,4,2,1,70,1,0
52758,-100,4,2,1,70,0,0
54049,322.58064516129,3,2,1,70,1,0
54049,-100,4,2,1,70,0,0
55016,322.58064516129,4,2,1,70,1,0
55016,-100,4,2,1,70,0,0
57596,-90.9090909090909,4,2,1,70,0,1
61468,322.58064516129,3,2,1,70,1,1
61468,-90.9090909090909,3,2,1,70,0,1
62113,-90.9090909090909,3,2,1,70,0,0
62436,322.58064516129,4,2,1,70,1,1
62436,-90.9090909090909,4,2,1,70,0,1
63726,322.58064516129,3,2,1,70,1,1
63726,-90.9090909090909,3,2,1,70,0,1
64694,322.58064516129,4,2,1,70,1,1
64694,-90.9090909090909,4,2,1,70,0,1
65984,322.58064516129,3,2,1,70,1,1
65984,-90.9090909090909,3,2,1,70,0,1
66629,-90.9090909090909,3,2,1,70,0,0
66952,322.58064516129,5,2,1,70,1,1
66952,-90.9090909090909,5,2,1,70,0,1
68577,322.58064516129,3,2,1,20,1,0
68738,-100,3,2,1,5,0,0
70500,322.58064516129,11,2,1,20,1,0
70500,-100,11,2,1,20,0,0
88242,322.58064516129,4,2,1,50,1,0
89532,322.58064516129,7,2,1,60,1,0
98565,322.58064516129,4,2,1,70,1,1
98565,-100,4,2,1,70,0,1
102436,322.58064516129,3,2,1,70,1,1
102436,-100,4,2,1,70,0,1
103081,-100,4,2,1,70,0,0
103403,322.58064516129,4,2,1,70,1,1
103403,-100,4,2,1,70,0,1
104694,322.58064516129,3,2,1,70,1,1
104694,-100,4,2,1,70,0,1
105661,322.58064516129,4,2,1,70,1,1
105661,-100,4,2,1,70,0,1
107919,-100,4,2,1,70,0,0
112113,322.58064516129,3,2,1,70,1,0
112113,-100,4,2,1,70,0,0
113081,322.58064516129,4,2,1,70,1,0
113081,-100,4,2,1,70,0,0
114371,322.58064516129,3,2,1,70,1,0
114371,-100,4,2,1,70,0,0
115339,322.58064516129,4,2,1,70,1,0
115339,-100,4,2,1,70,0,0
117919,-100,4,2,1,70,0,1
121791,322.58064516129,3,2,1,70,1,1
121791,-100,4,2,1,70,0,1
122436,-100,4,2,1,70,0,0
122758,322.58064516129,4,2,1,70,1,1
122758,-100,4,2,1,70,0,1
124049,322.58064516129,3,2,1,70,1,1
124049,-100,4,2,1,70,0,1
125016,322.58064516129,4,2,1,70,1,1
125016,-100,4,2,1,70,0,1
126307,322.58064516129,3,2,1,70,1,1
126307,-100,4,2,1,70,0,1
126952,-100,4,2,1,70,0,0
127274,322.58064516129,4,2,1,70,1,1
127274,-90.9090909090909,4,2,1,70,0,1
131147,322.58064516129,5,2,1,70,1,0

[Colours]
Combo1 : 232,227,72
Combo2 : 255,77,77
Combo3 : 171,88,88
Combo4 : 87,255,130

[HitObjects]
384,352,662,6,0,P|464:316|368:220,1,252,0|2,0:2|0:2,0:0:0:0:
128,220,1307,6,0,L|128:108,1,92.4000028198243,4|0,1:1|0:2,0:0:0:0:
176,128,1549,2,0,L|280:128,1,92.4000028198243,2|0,1:2|0:2,0:0:0:0:
316,128,1791,2,0,L|200:124,1,92.4000028198243,2|0,1:2|0:2,0:0:0:0:
176,124,2032,2,0,L|176:24,1,92.4000028198243,2|0,1:2|1:2,0:0:0:0:
320,268,2274,6,0,L|416:268,1,92.4000028198243,2|0,1:2|0:2,0:0:0:0:
460,268,2516,2,0,L|352:268,1,92.4000028198243,2|0,1:2|0:2,0:0:0:0:
320,268,2758,2,0,L|320:156,1,92.4000028198243,2|0,1:2|0:2,0:0:0:0:
368,172,3000,2,0,L|368:72,1,92.4000028198243,2|0,1:2|1:2,0:0:0:0:
224,308,3242,5,2,1:2:0:0:
176,308,3323,1,2,1:2:0:0:
128,308,3403,1,2,1:2:0:0:
176,308,3484,1,2,1:2:0:0:
316,308,3565,2,0,L|384:308,2,61.6000018798829,2|2|2,1:2|1:2|1:2,0:0:0:0:
128,264,3887,6,0,L|20:264,1,92.4000028198243,4|0,1:1|0:2,0:0:0:0:
80,264,4129,2,0,L|192:264,1,92.4000028198243,2|0,1:2|0:2,0:0:0:0:
220,260,4371,2,0,L|220:156,1,92.4000028198243,2|0,1:2|0:2,0:0:0:0:
172,168,4613,2,0,L|172:76,1,92.4000028198243,2|0,1:2|1:2,0:0:0:0:
320,288,4855,6,0,L|424:288,1,92.4000028198243,2|0,1:2|0:2,0:0:0:0:
364,288,5097,2,0,L|264:288,1,92.4000028198243,2|0,1:2|0:2,0:0:0:0:
224,292,5339,2,0,L|224:196,1,92.4000028198243,2|0,1:2|0:2,0:0:0:0:
272,200,5581,2,0,L|392:200,1,92.4000028198243,2|0,1:2|1:2,0:0:0:0:
216,136,5823,5,2,1:2:0:0:
172,136,5903,1,2,1:2:0:0:
172,136,5984,1,2,1:2:0:0:
216,136,6065,1,2,1:2:0:0:
360,80,6145,1,2,1:2:0:0:
408,80,6226,1,2,1:2:0:0:
408,80,6307,1,2,1:2:0:0:
360,80,6387,1,2,1:2:0:0:
208,360,6468,5,2,1:2:0:0:
162,358,6548,1,2,1:2:0:0:
116,356,6629,1,2,1:2:0:0:
162,358,6709,1,0,0:0:0:0:
316,220,6790,1,2,1:2:0:0:
364,220,6871,1,2,1:2:0:0:
212,192,6951,1,2,1:2:0:0:
166,192,7032,1,2,1:2:0:0:
328,368,7113,6,0,P|364:340|296:252,1,168,6|2,1:2|0:2,0:0:0:0:
232,252,7597,1,2,0:2:0:0:
72,256,7758,2,0,L|72:64,1,168,6|2,1:2|0:2,0:0:0:0:
156,92,8242,1,2,0:2:0:0:
316,212,8403,6,0,L|136:212,1,168,6|2,1:2|0:2,0:0:0:0:
232,212,8887,1,2,0:2:0:0:
392,344,9049,2,0,L|392:148,1,168,6|2,1:2|0:2,0:0:0:0:
308,180,9532,1,2,0:2:0:0:
144,96,9694,6,0,L|320:96,1,168,6|10,1:2|0:2,0:0:0:0:
396,96,10178,1,2,0:2:0:0:
240,356,10339,2,0,L|64:356,1,168,6|10,1:2|0:2,0:0:0:0:
156,356,10823,1,2,0:2:0:0:
316,360,10984,6,0,P|352:328|292:236,1,168,6|10,1:2|0:2,0:0:0:0:
220,240,11467,1,2,0:2:0:0:
60,244,11629,2,0,L|60:152,1,84,6|2,1:2|0:2,0:0:0:0:
280,164,11952,6,0,L|416:164,1,126,4|0,1:2|3:2,0:0:0:0:
364,164,12274,2,0,L|268:164,1,84,10|10,0:2|0:2,0:0:0:0:
436,160,12597,2,0,P|464:124|412:56,1,126,4|10,1:2|3:2,0:0:0:0:
388,60,12919,2,0,L|512:60,1,84,10|10,0:2|0:2,0:0:0:0:
312,264,13242,6,0,L|168:264,1,126,6|8,1:2|3:2,0:0:0:0:
228,264,13564,2,0,L|324:264,1,84,10|10,0:2|0:2,0:0:0:0:
148,236,13887,2,0,L|148:136,1,84,6|8,1:2|3:2,0:0:0:0:
396,152,14210,5,6,1:2:0:0:
480,152,14371,1,0,3:2:0:0:
480,152,14532,1,2,3:2:0:0:
396,152,14693,1,2,3:2:0:0:
168,352,14855,6,0,L|168:292,1,42,6|0,1:2|3:2,0:0:0:0:
212,312,15016,1,8,3:2:0:0:
256,312,15097,1,8,3:2:0:0:
296,312,15177,2,0,L|356:312,1,42,2|0,3:2|3:2,0:0:0:0:
338,312,15339,1,10,3:2:0:0:
296,312,15419,1,8,3:2:0:0:
140,248,15500,5,6,1:2:0:0:
100,248,15580,1,0,3:2:0:0:
100,204,15661,1,0,3:2:0:0:
140,204,15742,1,0,3:2:0:0:
292,188,15822,2,0,L|348:188,1,42,2|0,3:2|3:2,0:0:0:0:
184,136,15984,2,0,L|184:80,1,42,2|0,3:2|3:2,0:0:0:0:
408,132,16145,6,0,L|492:132,2,84,6|10|2,1:2|3:2|3:2,0:0:0:0:
16,328,16790,5,4,3:1:0:0:
16,244,16951,1,0,1:2:0:0:
168,244,17113,1,2,3:2:0:0:
84,244,17274,1,2,1:2:0:0:
312,248,17435,5,2,3:2:0:0:
312,248,17596,1,0,1:2:0:0:
160,244,17758,1,2,3:2:0:0:
160,160,17919,1,2,1:2:0:0:
412,100,18080,5,2,3:2:0:0:
412,100,18241,1,0,1:2:0:0:
260,100,18403,1,2,3:2:0:0:
408,100,18564,1,2,1:2:0:0:
104,372,18726,2,0,P|60:340|124:256,1,168,2|2,3:2|3:2,0:0:0:0:
188,256,19209,1,2,1:2:0:0:
460,252,19371,5,2,3:2:0:0:
460,252,19532,1,0,1:2:0:0:
308,256,19693,1,2,3:2:0:0:
392,256,19855,1,2,1:2:0:0:
160,176,20016,5,2,3:2:0:0:
76,172,20177,1,0,1:2:0:0:
228,176,20339,1,2,3:2:0:0:
144,172,20500,1,2,1:2:0:0:
388,344,20661,5,2,3:2:0:0:
388,260,20822,1,0,1:2:0:0:
236,264,20983,1,2,3:2:0:0:
152,264,21144,1,2,1:2:0:0:
448,176,21306,2,0,L|448:60,1,84,2|2,3:2|3:2,0:0:0:0:
224,84,21629,5,4,3:1:0:0:
136,84,21790,1,0,1:2:0:0:
288,84,21951,1,2,3:2:0:0:
204,84,22112,1,2,1:2:0:0:
440,276,22274,5,2,3:2:0:0:
440,276,22435,1,0,1:2:0:0:
288,276,22596,1,2,3:2:0:0:
372,276,22758,1,2,1:2:0:0:
80,296,22920,5,2,3:2:0:0:
80,212,23081,1,0,1:2:0:0:
232,212,23242,1,2,3:2:0:0:
80,212,23403,1,2,1:2:0:0:
312,208,23565,2,0,L|312:96,1,84,2|0,3:2|1:2,0:0:0:0:
88,368,23887,5,2,3:2:0:0:
48,356,23967,1,0,3:2:0:0:
31,319,24048,1,0,1:2:0:0:
48,282,24128,1,0,3:2:0:0:
86,270,24209,1,2,3:2:0:0:
172,272,24370,1,2,1:2:0:0:
424,180,24532,5,2,3:2:0:0:
382,180,24612,1,0,3:2:0:0:
340,180,24693,1,0,1:2:0:0:
298,180,24773,1,0,3:2:0:0:
256,180,24854,1,2,3:2:0:0:
172,180,25016,1,2,1:2:0:0:
424,304,25177,5,0,3:2:0:0:
463,295,25257,1,0,3:2:0:0:
480,258,25338,1,0,1:2:0:0:
462,222,25418,1,0,3:2:0:0:
423,214,25499,1,2,3:2:0:0:
340,220,25661,1,2,1:2:0:0:
104,316,25822,6,0,L|8:316,2,84,2|2|2,3:2|1:2|3:2,0:0:0:0:
496,308,26468,5,6,1:2:0:0:
412,308,26629,1,2,0:2:0:0:
496,308,26790,2,0,L|496:188,1,84,2|0,3:2|0:2,0:0:0:0:
336,176,27113,1,2,3:2:0:0:
420,176,27274,1,2,0:2:0:0:
336,176,27435,2,0,L|336:68,1,84,2|0,3:2|0:2,0:0:0:0:
496,88,27758,2,0,L|408:88,1,84,2|2,3:2|0:2,0:0:0:0:
328,88,28080,1,2,3:2:0:0:
412,88,28241,1,2,0:2:0:0:
184,312,28403,5,6,1:2:0:0:
268,312,28564,1,2,0:2:0:0:
184,312,28726,2,0,L|184:196,1,84,2|0,3:2|0:2,0:0:0:0:
344,168,29048,1,2,3:2:0:0:
260,168,29209,1,2,0:2:0:0:
176,168,29371,2,0,L|176:76,1,84,2|0,3:2|0:2,0:0:0:0:
336,88,29693,2,0,L|452:88,1,84,2|2,3:2|0:2,0:0:0:0:
336,84,30016,1,2,3:2:0:0:
420,88,30177,1,2,0:2:0:0:
192,356,30338,5,6,1:2:0:0:
276,356,30500,1,2,0:2:0:0:
192,356,30661,2,0,L|72:356,1,84,2|0,3:2|0:2,0:0:0:0:
264,280,30984,1,2,3:2:0:0:
180,280,31145,1,2,0:2:0:0:
264,280,31306,2,0,L|264:168,1,84,2|0,3:2|0:2,0:0:0:0:
104,192,31629,2,0,L|104:100,1,84,2|2,3:2|0:2,0:0:0:0:
188,112,31951,1,2,3:2:0:0:
104,108,32113,1,2,0:2:0:0:
328,256,32274,5,6,1:2:0:0:
244,256,32435,1,2,0:2:0:0:
328,260,32597,2,0,L|432:260,1,84,2|0,3:2|0:2,0:0:0:0:
252,180,32919,1,2,3:2:0:0:
336,176,33080,1,2,0:2:0:0:
252,180,33242,2,0,L|252:68,1,84,2|0,3:2|0:2,0:0:0:0:
412,96,33564,1,2,3:2:0:0:
496,96,33726,1,2,0:2:0:0:
496,96,33887,1,2,3:2:0:0:
412,96,34048,1,2,0:2:0:0:
180,348,34210,6,0,L|328:348,2,126,6|2|2,1:2|0:2|0:2,0:0:0:0:
340,284,34855,1,2,3:2:0:0:
256,284,35016,2,0,L|256:176,1,84,2|0,0:2|3:2,0:0:0:0:
340,200,35339,1,2,0:2:0:0:
180,200,35500,2,0,L|92:200,2,84,2|2|2,3:2|0:2|3:2,0:0:0:0:
404,124,35984,6,0,L|264:124,2,126,6|2|2,1:2|0:2|0:2,0:0:0:0:
244,316,36629,1,2,3:2:0:0:
328,316,36790,2,0,L|328:220,1,84,2|0,0:2|3:2,0:0:0:0:
244,232,37113,1,2,0:2:0:0:
404,164,37274,2,0,L|512:164,2,84,2|2|2,3:2|0:2|3:2,0:0:0:0:
160,368,37758,6,0,L|160:260,1,84,6|0,1:2|0:2,0:0:0:0:
312,288,37999,2,0,L|408:288,1,84,6|0,1:2|0:2,0:0:0:0:
352,288,38241,1,6,1:2:0:0:
192,232,38403,1,2,3:2:0:0:
108,232,38564,2,0,L|108:112,1,84,2|0,0:2|3:2,0:0:0:0:
192,148,38887,1,2,0:2:0:0:
356,148,39048,2,0,L|472:148,2,84,2|2|2,3:2|0:2|3:2,0:0:0:0:
124,288,39532,6,0,L|264:288,2,126,6|2|2,1:2|0:2|0:2,0:0:0:0:
284,224,40177,2,0,L|284:128,1,84,2|2,3:2|0:2,0:0:0:0:
200,140,40499,1,2,3:2:0:0:
364,88,40661,6,0,L|460:88,2,84,2|0|2,0:2|3:2|0:2,0:0:0:0:
204,344,41144,2,0,L|324:344,1,84,2|2,3:2|0:2,0:0:0:0:
124,288,41467,1,2,3:2:0:0:
40,284,41628,2,0,L|40:168,1,84,2|2,0:2|3:2,0:0:0:0:
440,304,42113,6,0,P|460:240|424:196,1,112,2|2,3:2|0:2,0:0:0:0:
384,204,42435,2,0,L|496:204,1,112,2|2,3:2|0:2,0:0:0:0:
312,344,42758,6,0,L|188:344,1,112,8|0,0:1|0:2,0:0:0:0:
144,344,43080,6,0,L|276:344,1,112,2|2,3:2|0:2,0:0:0:0:
312,344,43403,2,0,P|332:288|292:236,1,112,2|2,3:2|0:2,0:0:0:0:
128,216,43725,6,0,P|108:152|152:116,1,112,8|0,0:1|0:2,0:0:0:0:
188,120,44048,6,0,L|316:120,1,112,2|2,3:2|0:2,0:0:0:0:
245,122,44371,2,0,L|113:122,1,112,2|2,3:2|0:2,0:0:0:0:
316,360,44693,6,0,P|340:300|296:272,1,112,8|0,0:1|0:2,0:0:0:0:
256,276,45016,6,0,L|128:276,1,112,2|2,3:2|0:2,0:0:0:0:
198,274,45338,2,0,L|346:274,1,112,2|8,3:2|0:1,0:0:0:0:
128,224,45661,2,0,P|104:168|164:136,1,112,0|0,0:2|0:2,0:0:0:0:
388,352,45983,6,0,L|448:352,2,56,2|0|0,3:2|0:2|0:2,0:0:0:0:
216,352,46306,1,8,0:1:0:0:
216,296,46414,1,0,0:2:0:0:
276,296,46521,1,0,0:2:0:0:
336,296,46629,1,0,3:2:0:0:
392,292,46736,1,0,0:2:0:0:
336,240,46844,1,0,0:2:0:0:
168,220,46951,5,0,3:2:0:0:
112,220,47058,1,0,3:2:0:0:
168,220,47166,1,8,3:2:0:0:
224,220,47273,1,8,3:2:0:0:
168,220,47381,1,8,3:2:0:0:
112,220,47488,1,8,3:2:0:0:
288,132,47596,1,2,3:2:0:0:
348,132,47704,1,2,0:2:0:0:
288,132,47811,1,2,0:2:0:0:
116,360,47920,6,0,P|88:308|148:208,1,168,4|2,1:2|3:2,0:0:0:0:
220,236,48403,1,2,0:2:0:0:
388,232,48565,2,0,P|432:204|372:124,1,168,0|2,1:2|3:2,0:0:0:0:
300,124,49049,1,2,0:2:0:0:
136,64,49210,6,0,L|332:64,1,168,0|2,1:2|3:2,0:0:0:0:
388,64,49694,1,2,0:2:0:0:
220,344,49855,2,0,L|32:344,1,168,0|2,1:2|3:2,0:0:0:0:
136,344,50339,1,2,0:2:0:0:
372,348,50500,6,0,P|408:312|352:224,1,168,0|2,1:2|3:2,0:0:0:0:
272,228,50984,1,2,0:2:0:0:
104,168,51145,2,0,L|280:168,1,168,0|2,1:2|3:2,0:0:0:0:
188,168,51629,1,2,3:2:0:0:
360,168,51791,6,0,P|396:128|336:40,1,168,0|2,1:2|3:2,0:0:0:0:
264,40,52274,1,2,3:2:0:0:
92,204,52436,2,0,L|92:108,1,84,0|2,1:2|3:2,0:0:0:0:
336,324,52758,5,4,1:1:0:0:
336,240,52919,1,0,3:2:0:0:
244,240,53080,1,2,3:2:0:0:
152,236,53241,1,2,3:2:0:0:
392,176,53403,1,0,1:2:0:0:
484,176,53564,1,0,3:2:0:0:
392,176,53725,1,2,3:2:0:0:
484,176,53887,1,2,3:2:0:0:
260,124,54049,5,0,1:2:0:0:
168,124,54210,1,0,3:2:0:0:
260,124,54371,1,2,3:2:0:0:
344,124,54532,1,2,3:2:0:0:
120,64,54694,2,0,L|8:64,1,84,0|0,1:2|3:2,0:0:0:0:
328,356,55016,5,0,1:2:0:0:
370,356,55096,1,0,3:2:0:0:
412,356,55177,1,0,3:2:0:0:
454,356,55257,1,0,3:2:0:0:
496,356,55338,1,2,3:2:0:0:
412,356,55499,1,2,3:2:0:0:
184,296,55661,5,0,1:2:0:0:
142,296,55741,1,0,3:2:0:0:
100,296,55822,1,0,3:2:0:0:
58,296,55902,1,0,3:2:0:0:
16,296,55983,1,2,3:2:0:0:
100,296,56145,1,2,3:2:0:0:
344,288,56306,5,0,1:2:0:0:
381,271,56386,1,0,3:2:0:0:
395,233,56467,1,0,3:2:0:0:
378,196,56547,1,0,3:2:0:0:
339,183,56628,1,2,3:2:0:0:
256,188,56790,1,2,3:2:0:0:
20,88,56951,5,0,1:2:0:0:
188,40,57274,1,2,3:2:0:0:
128,40,57381,1,2,0:2:0:0:
68,40,57489,1,2,0:2:0:0:
264,280,57596,5,4,3:1:0:0:
264,220,57704,1,10,0:2:0:0:
204,220,57811,1,10,1:2:0:0:
264,220,57919,1,10,3:2:0:0:
204,220,58026,1,10,0:2:0:0:
144,220,58134,1,10,1:2:0:0:
320,148,58241,2,0,L|388:148,2,61.6000018798829,10|10|10,3:2|0:2|1:2,0:0:0:0:
124,360,58564,6,0,P|100:296|148:256,1,123.200003759766,10|10,3:2|1:2,0:0:0:0:
192,260,58886,1,10,3:2:0:0:
252,260,58994,1,10,0:2:0:0:
252,200,59102,1,10,1:2:0:0:
40,200,59209,1,10,3:2:0:0:
40,200,59317,1,10,0:2:0:0:
100,200,59424,1,10,1:2:0:0:
272,144,59532,6,0,P|300:88|256:48,1,123.200003759766,10|10,3:2|1:2,0:0:0:0:
196,52,59854,2,0,L|104:52,2,61.6000018798829,10|10|10,3:2|0:2|1:2,0:0:0:0:
376,368,60177,5,10,3:2:0:0:
376,300,60284,1,10,0:2:0:0:
316,300,60392,1,10,1:2:0:0:
376,300,60499,1,10,3:2:0:0:
436,300,60607,1,10,0:2:0:0:
376,296,60714,1,10,1:2:0:0:
204,244,60822,2,0,L|140:244,2,61.6000018798829,10|10|10,3:2|0:2|1:2,0:0:0:0:
376,236,61145,6,0,P|396:168|352:120,1,123.200003759766,10|8,3:2|1:2,0:0:0:0:
308,128,61468,1,10,3:2:0:0:
248,128,61575,1,10,0:2:0:0:
248,68,61683,1,10,1:2:0:0:
432,84,61790,2,0,L|432:216,1,123.200003759766,10|8,3:2|1:2,0:0:0:0:
256,216,62113,6,0,L|176:216,2,61.6000018798829,2|0|0,3:2|3:2|3:2,0:0:0:0:
432,280,62435,5,4,3:1:0:0:
432,220,62543,1,10,3:2:0:0:
372,220,62651,1,10,1:2:0:0:
312,220,62758,1,10,3:2:0:0:
372,220,62866,1,10,0:2:0:0:
372,160,62973,1,10,1:2:0:0:
204,136,63081,1,10,3:2:0:0:
265,136,63188,1,10,0:2:0:0:
327,136,63296,1,10,1:2:0:0:
160,364,63403,6,0,P|128:308|176:268,1,123.200003759766,10|10,3:2|1:2,0:0:0:0:
224,272,63726,2,0,L|304:272,2,61.6000018798829,10|10|10,3:2|0:2|1:2,0:0:0:0:
56,280,64048,2,0,P|24:228|72:188,1,123.200003759766,10|10,3:2|1:2,0:0:0:0:
124,188,64371,1,10,3:2:0:0:
62,188,64478,1,10,3:2:0:0:
64,136,64586,1,10,0:2:0:0:
232,264,64694,5,2,3:2:0:0:
292,264,64801,1,2,3:2:0:0:
352,264,64909,1,2,1:2:0:0:
292,264,65016,1,2,3:2:0:0:
352,264,65124,1,2,3:2:0:0:
412,264,65231,1,2,1:2:0:0:
216,272,65339,6,0,P|192:208|232:168,1,123.200003759766,2|2,3:2|1:2,0:0:0:0:
284,168,65661,1,2,3:2:0:0:
344,168,65769,1,2,3:2:0:0:
284,168,65876,1,2,1:2:0:0:
96,168,65984,5,2,3:2:0:0:
92,108,66091,1,2,3:2:0:0:
152,108,66199,1,2,1:2:0:0:
212,108,66306,1,2,3:2:0:0:
152,108,66414,1,2,3:2:0:0:
92,108,66521,1,2,1:2:0:0:
264,52,66629,2,0,L|340:52,2,61.6000018798829,2|2|0,3:2|3:2|3:2,0:0:0:0:
88,368,66952,5,2,0:2:0:0:
61,353,67005,1,2,0:2:0:0:
42,329,67059,1,2,0:2:0:0:
35,299,67113,1,2,0:2:0:0:
41,269,67167,1,2,0:2:0:0:
59,244,67220,1,2,0:2:0:0:
85,229,67274,1,2,0:2:0:0:
116,226,67328,1,2,0:2:0:0:
336,224,67435,5,2,0:2:0:0:
366,227,67488,1,2,0:2:0:0:
393,213,67542,1,2,0:2:0:0:
409,187,67596,1,2,0:2:0:0:
408,157,67650,1,2,0:2:0:0:
391,132,67703,1,2,0:2:0:0:
363,120,67757,1,2,0:2:0:0:
333,125,67811,1,2,0:2:0:0:
128,360,67919,5,2,0:2:0:0:
97,359,67972,1,2,0:2:0:0:
68,356,68026,1,2,0:2:0:0:
36,356,68080,1,2,0:2:0:0:
68,356,68134,1,2,0:2:0:0:
288,328,68241,1,2,0:2:0:0:
320,328,68295,1,2,0:2:0:0:
352,328,68348,1,2,0:2:0:0:
384,328,68402,1,2,0:2:0:0:
352,328,68456,1,2,0:2:0:0:
132,236,68577,5,4,3:1:0:0:
256,192,68738,12,0,70500,0:2:0:0:
256,192,86306,12,0,87919,0:2:0:0:
340,220,88242,6,0,L|444:220,7,84,2|2|2|2|2|2|2|2,0:2|0:2|0:2|0:2|0:2|0:2|0:2|0:2,0:0:0:0:
380,220,89452,1,2,0:2:0:0:
212,160,89532,6,0,L|88:160,3,84,4|0|2|2,1:2|0:2|3:2|0:2,0:0:0:0:
288,316,90177,2,0,L|288:216,1,84,6|0,3:2|0:2,0:0:0:0:
204,232,90499,2,0,L|304:232,1,84,2|2,3:2|0:2,0:0:0:0:
128,144,90822,2,0,L|128:52,1,84,2|0,3:2|0:2,0:0:0:0:
288,56,91144,2,0,L|168:56,1,84,2|2,3:2|0:2,0:0:0:0:
364,56,91467,2,0,L|364:168,1,84,2|0,3:2|0:2,0:0:0:0:
120,352,91790,6,0,L|120:252,1,84,4|0,1:2|0:2,0:0:0:0:
204,268,92112,2,0,L|112:268,1,84,2|2,3:2|0:2,0:0:0:0:
280,212,92435,2,0,L|280:112,1,84,6|0,3:2|0:2,0:0:0:0:
196,128,92757,2,0,L|292:128,1,84,2|2,3:2|0:2,0:0:0:0:
104,60,93080,2,0,L|104:156,1,84,2|0,3:2|0:2,0:0:0:0:
276,324,93402,2,0,L|168:324,1,84,2|2,3:2|0:2,0:0:0:0:
352,328,93725,2,0,L|468:328,1,84,2|2,3:2|0:2,0:0:0:0:
200,264,94048,5,4,0:2:0:0:
162,247,94128,1,8,0:2:0:0:
147,209,94209,1,8,0:2:0:0:
164,172,94289,1,8,0:2:0:0:
203,158,94370,1,6,1:2:0:0:
288,156,94532,1,10,0:2:0:0:
448,104,94693,5,10,3:2:0:0:
406,104,94773,1,8,0:2:0:0:
364,104,94854,1,8,0:2:0:0:
322,104,94934,1,8,0:2:0:0:
280,104,95015,1,6,3:2:0:0:
196,104,95177,1,2,0:2:0:0:
356,360,95339,5,10,3:2:0:0:
394,347,95419,1,8,0:2:0:0:
410,309,95500,1,8,0:2:0:0:
390,274,95580,1,8,0:2:0:0:
351,265,95661,1,2,3:2:0:0:
268,268,95822,1,2,0:2:0:0:
104,264,95983,2,0,L|104:160,1,84,2|0,3:2|0:2,0:0:0:0:
344,312,96306,5,4,3:2:0:0:
385,306,96386,1,8,0:2:0:0:
418,282,96467,1,8,3:2:0:0:
437,244,96547,1,8,0:2:0:0:
436,203,96628,1,14,3:2:0:0:
415,167,96709,1,2,0:2:0:0:
380,144,96789,1,2,3:2:0:0:
339,141,96870,1,8,0:2:0:0:
176,144,96951,5,10,3:2:0:0:
132,144,97032,1,8,3:2:0:0:
132,104,97112,1,8,3:2:0:0:
176,104,97193,1,8,3:2:0:0:
328,100,97273,1,14,3:2:0:0:
372,100,97354,1,8,3:2:0:0:
416,100,97435,1,10,3:2:0:0:
372,100,97515,1,8,3:2:0:0:
228,368,97596,6,0,L|168:368,1,42,2|0,3:2|3:2,0:0:0:0:
228,368,97757,2,0,L|300:368,1,42,10|8,3:2|3:2,0:0:0:0:
124,320,97919,2,0,L|80:320,1,42,10|8,3:2|3:2,0:0:0:0:
312,296,98080,5,10,3:2:0:0:
351,285,98160,1,8,3:2:0:0:
375,252,98241,1,0,0:2:0:0:
373,211,98321,1,0,0:2:0:0:
344,181,98402,1,0,0:2:0:0:
304,176,98483,1,0,0:2:0:0:
156,168,98565,5,4,1:1:0:0:
156,168,98726,1,0,1:2:0:0:
308,168,98887,1,2,3:2:0:0:
224,168,99048,1,2,1:2:0:0:
452,112,99210,5,2,3:2:0:0:
452,112,99371,1,0,1:2:0:0:
300,112,99532,1,2,3:2:0:0:
384,112,99694,1,2,1:2:0:0:
152,248,99855,5,2,3:2:0:0:
68,248,100016,1,0,1:2:0:0:
220,248,100177,1,2,3:2:0:0:
68,248,100339,1,2,1:2:0:0:
292,248,100500,2,0,L|460:248,1,168,2|2,3:2|3:2,0:0:0:0:
376,248,100984,1,2,1:2:0:0:
144,76,101145,5,2,3:2:0:0:
144,76,101306,1,0,1:2:0:0:
296,76,101467,1,2,3:2:0:0:
212,76,101629,1,2,1:2:0:0:
440,208,101790,5,2,3:2:0:0:
440,148,101952,1,0,1:2:0:0:
288,148,102113,1,2,3:2:0:0:
372,148,102274,1,2,1:2:0:0:
148,216,102435,5,2,3:2:0:0:
64,220,102597,1,0,1:2:0:0:
216,220,102758,1,2,3:2:0:0:
132,220,102919,1,2,1:2:0:0:
388,116,103081,2,0,L|388:12,1,84,2|2,3:2|3:2,0:0:0:0:
152,288,103403,5,4,3:1:0:0:
152,204,103564,1,0,1:2:0:0:
304,204,103725,1,2,3:2:0:0:
220,204,103886,1,2,1:2:0:0:
448,200,104048,5,2,3:2:0:0:
448,200,104209,1,0,1:2:0:0:
296,196,104370,1,2,3:2:0:0:
380,196,104532,1,2,1:2:0:0:
148,344,104694,5,2,3:2:0:0:
148,260,104855,1,0,1:2:0:0:
300,260,105016,1,2,3:2:0:0:
300,260,105177,1,2,1:2:0:0:
72,192,105339,2,0,L|72:84,1,84,2|0,3:2|1:2,0:0:0:0:
324,360,105661,5,2,3:2:0:0:
366,360,105741,1,0,3:2:0:0:
408,360,105822,1,0,1:2:0:0:
448,360,105902,1,0,3:2:0:0:
404,356,105983,1,2,3:2:0:0:
320,356,106144,1,2,1:2:0:0:
88,316,106306,5,2,3:2:0:0:
48,304,106386,1,0,3:2:0:0:
31,267,106467,1,0,1:2:0:0:
48,231,106547,1,0,3:2:0:0:
87,220,106628,1,2,3:2:0:0:
172,220,106790,1,2,1:2:0:0:
392,152,106951,5,2,3:2:0:0:
350,152,107031,1,0,3:2:0:0:
308,152,107112,1,0,1:2:0:0:
266,152,107192,1,0,3:2:0:0:
224,152,107273,1,0,3:2:0:0:
140,152,107435,1,2,1:2:0:0:
380,184,107596,6,0,L|468:184,1,84,2|0,3:2|1:2,0:0:0:0:
312,184,107919,1,2,0:2:0:0:
464,184,108080,1,2,0:2:0:0:
244,360,108241,6,0,P|204:328|264:240,1,168,4|2,1:1|3:2,0:0:0:0:
336,244,108725,1,2,0:2:0:0:
176,248,108886,2,0,L|0:248,1,168,2|2,1:2|3:2,0:0:0:0:
92,248,109370,1,2,0:2:0:0:
252,248,109531,6,0,L|424:248,1,168,2|2,1:2|3:2,0:0:0:0:
336,248,110015,1,2,0:2:0:0:
176,244,110177,2,0,L|352:244,1,168,2|2,1:2|3:2,0:0:0:0:
428,244,110661,1,2,0:2:0:0:
196,376,110822,6,0,P|152:340|216:260,1,168,2|2,1:2|3:2,0:0:0:0:
288,260,111306,1,2,0:2:0:0:
448,264,111467,2,0,P|496:240|448:164,1,168,2|2,1:2|3:2,0:0:0:0:
364,164,111951,1,2,3:2:0:0:
204,160,112113,6,0,L|384:160,1,168,2|2,1:2|3:2,0:0:0:0:
284,160,112596,1,2,3:2:0:0:
124,160,112758,2,0,L|124:48,1,84,2|2,1:2|3:2,0:0:0:0:
352,296,113081,5,4,1:1:0:0:
436,296,113242,1,0,3:2:0:0:
352,296,113403,1,2,3:2:0:0:
436,296,113564,1,2,3:2:0:0:
188,252,113726,1,2,1:2:0:0:
188,168,113887,1,0,3:2:0:0:
272,168,114048,1,2,3:2:0:0:
356,80,114210,1,2,3:2:0:0:
136,104,114371,5,2,1:2:0:0:
52,104,114532,1,0,3:2:0:0:
136,104,114693,1,2,3:2:0:0:
52,104,114854,1,2,3:2:0:0:
284,108,115016,2,0,L|376:108,1,84,2|0,1:2|3:2,0:0:0:0:
76,368,115339,5,2,1:2:0:0:
38,351,115418,1,0,3:2:0:0:
23,313,115499,1,0,3:2:0:0:
40,276,115579,1,0,3:2:0:0:
78,261,115660,1,2,3:2:0:0:
164,268,115822,1,2,3:2:0:0:
404,272,115984,5,2,1:2:0:0:
443,263,116064,1,0,3:2:0:0:
460,226,116145,1,0,3:2:0:0:
441,190,116225,1,0,3:2:0:0:
402,183,116306,1,2,3:2:0:0:
316,188,116468,1,2,3:2:0:0:
88,148,116629,6,0,L|88:96,2,42,2|0|0,1:2|3:2|3:2,0:0:0:0:
248,156,116951,2,0,L|248:96,2,42,2|0|0,1:2|3:2|3:2,0:0:0:0:
412,160,117274,2,0,L|412:104,2,42,2|0|0,1:2|3:2|3:2,0:0:0:0:
328,160,117597,2,0,L|440:160,1,84,10|10,0:2|0:2,0:0:0:0:
156,296,117919,5,6,3:1:0:0:
116,286,117999,1,2,3:2:0:0:
98,250,118080,1,2,1:2:0:0:
116,214,118160,1,2,3:2:0:0:
156,205,118241,1,2,3:2:0:0:
308,196,118403,5,2,1:2:0:0:
308,152,118484,1,2,3:2:0:0:
268,152,118564,1,2,3:2:0:0:
224,152,118645,1,2,3:2:0:0:
224,108,118726,1,2,1:2:0:0:
376,104,118887,5,2,3:2:0:0:
420,104,118968,1,2,3:2:0:0:
460,104,119048,1,2,1:2:0:0:
420,104,119129,1,2,3:2:0:0:
236,244,119209,5,2,3:2:0:0:
192,244,119290,1,2,3:2:0:0:
192,200,119371,1,2,1:2:0:0:
236,244,119451,1,2,3:2:0:0:
280,244,119532,1,2,3:2:0:0:
324,244,119613,1,2,3:2:0:0:
364,244,119693,1,2,1:2:0:0:
324,244,119774,1,2,3:2:0:0:
136,172,119855,6,0,L|136:80,1,84,0|2,3:2|1:2,0:0:0:0:
180,88,120097,1,2,3:2:0:0:
220,88,120177,1,2,3:2:0:0:
136,88,120339,1,2,1:2:0:0:
396,220,120500,5,2,3:2:0:0:
431,200,120580,1,2,3:2:0:0:
443,161,120661,1,2,1:2:0:0:
423,125,120741,1,2,3:2:0:0:
384,114,120822,1,2,3:2:0:0:
232,116,120984,5,2,1:2:0:0:
232,76,121064,1,2,3:2:0:0:
276,76,121145,1,2,3:2:0:0:
320,76,121226,1,2,3:2:0:0:
320,36,121306,1,2,1:2:0:0:
168,36,121468,5,2,3:2:0:0:
128,36,121548,1,2,3:2:0:0:
84,36,121629,1,2,1:2:0:0:
128,36,121709,1,2,3:2:0:0:
312,336,121791,5,2,3:2:0:0:
352,336,121871,1,2,3:2:0:0:
352,292,121952,1,2,1:2:0:0:
312,292,122032,1,2,3:2:0:0:
268,292,122113,1,2,3:2:0:0:
224,292,122194,1,2,3:2:0:0:
184,288,122274,1,2,1:2:0:0:
184,244,122355,1,2,3:2:0:0:
328,208,122436,6,0,L|406:208,2,63,2|2|2,3:2|0:2|0:2,0:0:0:0:
152,216,122758,5,4,1:1:0:0:
112,216,122838,1,0,3:2:0:0:
112,168,122919,1,0,1:2:0:0:
264,172,123080,2,0,L|168:172,1,84,2|2,3:2|1:2,0:0:0:0:
408,180,123403,2,0,L|496:180,1,84,2|0,3:2|1:2,0:0:0:0:
496,72,123645,2,0,L|396:112,1,84,2|0,3:2|0:0,0:0:0:0:
384,124,123887,1,2,1:2:0:0:
148,360,124049,5,2,3:2:0:0:
108,360,124129,1,0,3:2:0:0:
148,360,124210,1,0,1:2:0:0:
300,360,124371,2,0,L|300:272,1,84,2|2,3:2|1:2,0:0:0:0:
52,272,124694,2,0,L|52:172,1,84,2|0,3:2|1:2,0:0:0:0:
280,216,125016,5,2,3:2:0:0:
320,216,125096,1,0,3:2:0:0:
280,216,125177,1,0,1:2:0:0:
128,216,125338,2,0,L|128:316,1,84,2|2,3:2|1:2,0:0:0:0:
376,312,125661,5,2,3:2:0:0:
416,312,125741,1,0,3:2:0:0:
376,312,125822,1,0,1:2:0:0:
224,312,125983,2,0,L|340:312,1,84,2|2,3:2|1:2,0:0:0:0:
88,216,126307,5,2,3:2:0:0:
48,216,126387,1,0,3:2:0:0:
88,216,126468,1,0,1:2:0:0:
240,172,126629,2,0,L|124:172,1,84,2|2,3:2|1:2,0:0:0:0:
376,372,126952,2,0,L|376:280,1,84,2|0,3:2|0:0,0:0:0:0:
112,212,127274,6,0,L|112:104,1,92.4000028198243,4|0,1:1|3:2,0:0:0:0:
156,120,127515,2,0,L|256:120,1,92.4000028198243,2|0,1:2|3:2,0:0:0:0:
296,120,127757,2,0,L|196:120,1,92.4000028198243,2|0,1:2|3:2,0:0:0:0:
156,124,127999,2,0,P|136:72|184:40,1,92.4000028198243,2|0,1:2|3:2,0:0:0:0:
332,364,128241,6,0,L|444:364,1,92.4000028198243,2|0,1:2|3:2,0:0:0:0:
380,364,128483,2,0,L|276:364,1,92.4000028198243,2|0,1:2|3:2,0:0:0:0:
240,364,128725,2,0,L|240:236,1,92.4000028198243,2|0,1:2|3:2,0:0:0:0:
288,276,128967,2,0,L|288:172,1,92.4000028198243,2|2,1:2|3:2,0:0:0:0:
124,184,129209,6,0,L|24:148,1,92.4000028198243,2|2,1:2|3:2,0:0:0:0:
80,168,129451,1,2,3:2:0:0:
240,124,129532,1,2,3:2:0:0:
284,124,129612,1,2,3:2:0:0:
328,124,129693,1,2,3:2:0:0:
284,124,129774,1,2,3:2:0:0:
188,300,129854,5,2,3:2:0:0:
140,300,129935,1,2,3:2:0:0:
140,256,130015,1,2,3:2:0:0:
188,256,130096,1,2,3:2:0:0:
356,252,130177,1,2,3:2:0:0:
400,252,130257,1,2,3:2:0:0:
404,200,130338,1,2,3:2:0:0:
356,200,130419,1,2,3:2:0:0:
196,160,130499,5,2,3:2:0:0:
152,164,130579,1,2,3:2:0:0:
104,164,130660,1,2,3:2:0:0:
152,164,130740,1,0,3:0:0:0:
304,156,130822,2,0,L|364:156,1,46.2000014099122,2|2,3:2|3:2,0:0:0:0:
192,112,130983,2,0,L|120:112,1,46.2000014099122,2|2,3:2|3:2,0:0:0:0:
364,60,131147,5,4,1:1:0:0:
256,192,131308,12,6,132759,0:2:0:0:
