osu file format v14

[General]
AudioFilename: audio.mp3
AudioLeadIn: 0
PreviewTime: 98565
Countdown: 0
SampleSet: Soft
StackLeniency: 0.7
Mode: 2
LetterboxInBreaks: 0
WidescreenStoryboard: 1

[Editor]
Bookmarks: 121140,121463
DistanceSpacing: 1
BeatDivisor: 4
GridSize: 4
TimelineZoom: 2.399999

[Metadata]
Title:Tanaka
TitleUnicode:田中
Artist:Rish feat. Choko
ArtistUnicode:立秋 feat. ちょこ
Creator:Kukkai
Version:Platter
Source:THE BMS OF FIGHTERS XVII -VISION THE RETRO FUTURE-
Tags:R-34 Natsuko -Rustyy bof BOFXVII risshuu rissyuu 石王マサト masato novelty Japanese Electronic video game vg fa featured artist
BeatmapID:3613486
BeatmapSetID:1717748

[Difficulty]
HPDrainRate:4
CircleSize:3.5
OverallDifficulty:8
ApproachRate:8
SliderMultiplier:1.38
SliderTickRate:1

[Events]
//Background and Video events
0,0,"taka.png",0,0
Video,-80,"vdoo.mp4"
//Break Periods
2,70700,85556
//Storyboard Layer 0 (Background)
//Storyboard Layer 1 (Fail)
//Storyboard Layer 2 (Pass)
//Storyboard Layer 3 (Foreground)
//Storyboard Layer 4 (Overlay)
//Storyboard Sound Samples

[TimingPoints]
662,322.58064516129,4,2,1,60,1,0
1307,-100,4,2,1,70,0,1
7113,-100,4,2,1,70,0,0
10984,322.58064516129,3,2,1,70,1,0
11952,322.58064516129,4,2,1,70,1,0
11952,-100,4,2,1,70,0,0
13242,322.58064516129,3,2,1,70,1,0
13242,-100,4,2,1,70,0,0
14210,322.58064516129,4,2,1,70,1,0
14210,-100,4,2,1,70,0,0
16790,-90.9090909090909,4,2,1,70,0,1
20661,322.58064516129,3,2,1,70,1,1
20661,-90.9090909090909,4,2,1,70,0,1
21306,-90.9090909090909,4,2,1,70,0,0
21629,322.58064516129,4,2,1,70,1,1
21629,-90.9090909090909,4,2,1,70,0,1
22920,322.58064516129,3,2,1,70,1,1
22920,-90.9090909090909,4,2,1,70,0,1
23887,322.58064516129,4,2,1,70,1,1
23887,-90.9090909090909,4,2,1,70,0,1
26468,322.58064516129,6,2,1,60,1,0
34210,322.58064516129,11,2,1,60,1,0
35984,322.58064516129,11,2,1,60,1,0
37758,322.58064516129,11,2,1,60,1,0
39532,322.58064516129,4,2,1,60,1,0
42113,322.58064516129,3,2,1,60,1,0
42113,-90.9090909090909,3,2,1,60,0,0
47920,322.58064516129,4,2,1,70,1,0
51791,322.58064516129,3,2,1,70,1,0
52758,322.58064516129,4,2,1,70,1,0
52758,-100,4,2,1,70,0,0
54049,322.58064516129,3,2,1,70,1,0
54049,-100,4,2,1,70,0,0
55016,322.58064516129,4,2,1,70,1,0
55016,-100,4,2,1,70,0,0
57596,-90.9090909090909,4,2,1,70,0,1
61468,322.58064516129,3,2,1,70,1,1
61468,-90.9090909090909,3,2,1,70,0,1
62113,-90.9090909090909,3,2,1,70,0,0
62436,322.58064516129,4,2,1,70,1,1
62436,-90.9090909090909,4,2,1,70,0,1
63726,322.58064516129,3,2,1,70,1,1
63726,-90.9090909090909,3,2,1,70,0,1
64694,322.58064516129,4,2,1,70,1,1
64694,-90.9090909090909,4,2,1,70,0,1
65984,322.58064516129,3,2,1,70,1,1
65984,-90.9090909090909,3,2,1,70,0,1
66629,-90.9090909090909,3,2,1,70,0,0
66952,322.58064516129,5,2,1,70,1,1
66952,-90.9090909090909,5,2,1,70,0,1
68577,322.58064516129,3,2,1,20,1,0
68738,-100,3,2,1,5,0,0
70500,322.58064516129,11,2,1,20,1,0
70500,-100,11,2,1,20,0,0
88242,322.58064516129,4,2,1,50,1,0
89532,322.58064516129,7,2,1,60,1,0
98565,322.58064516129,4,2,1,70,1,1
98565,-90.9090909090909,4,2,1,70,0,1
102436,322.58064516129,3,2,1,70,1,1
102436,-90.9090909090909,4,2,1,70,0,1
103081,-90.9090909090909,4,2,1,70,0,0
103403,322.58064516129,4,2,1,70,1,1
103403,-90.9090909090909,4,2,1,70,0,1
104694,322.58064516129,3,2,1,70,1,1
104694,-90.9090909090909,4,2,1,70,0,1
105661,322.58064516129,4,2,1,70,1,1
105661,-90.9090909090909,4,2,1,70,0,1
107919,-90.9090909090909,4,2,1,70,0,0
112113,322.58064516129,3,2,1,70,1,0
112113,-90.9090909090909,4,2,1,70,0,0
113081,322.58064516129,4,2,1,70,1,0
113081,-90.9090909090909,4,2,1,70,0,0
114371,322.58064516129,3,2,1,70,1,0
114371,-90.9090909090909,4,2,1,70,0,0
115339,322.58064516129,4,2,1,70,1,0
115339,-90.9090909090909,4,2,1,70,0,0
117919,-90.9090909090909,4,2,1,70,0,1
121791,322.58064516129,3,2,1,70,1,1
121791,-90.9090909090909,4,2,1,70,0,1
122436,-90.9090909090909,4,2,1,70,0,0
122758,322.58064516129,4,2,1,70,1,1
122758,-90.9090909090909,4,2,1,70,0,1
124049,322.58064516129,3,2,1,70,1,1
124049,-90.9090909090909,4,2,1,70,0,1
125016,322.58064516129,4,2,1,70,1,1
125016,-90.9090909090909,4,2,1,70,0,1
126307,322.58064516129,3,2,1,70,1,1
126307,-90.9090909090909,4,2,1,70,0,1
126952,-90.9090909090909,4,2,1,70,0,0
127274,322.58064516129,4,2,1,70,1,1
127274,-90.9090909090909,4,2,1,70,0,1
131147,322.58064516129,5,2,1,70,1,0

[Colours]
Combo1 : 232,227,72
Combo2 : 255,77,77
Combo3 : 171,88,88
Combo4 : 87,255,130

[HitObjects]
172,368,1307,6,0,L|172:256,1,103.5,4|2,1:1|1:2,0:0:0:0:
276,256,1791,2,0,L|388:256,1,103.5,2|2,1:2|1:2,0:0:0:0:
164,200,2274,5,2,1:2:0:0:
60,200,2516,1,2,1:2:0:0:
60,96,2758,1,2,1:2:0:0:
164,100,3000,1,2,1:2:0:0:
388,336,3242,6,0,L|508:336,2,103.5,2|2|0,1:2|1:2|0:0,0:0:0:0:
144,340,3887,5,4,1:1:0:0:
148,236,4129,1,2,1:2:0:0:
252,240,4371,1,2,1:2:0:0:
144,340,4613,1,2,1:2:0:0:
364,344,4855,5,2,1:2:0:0:
468,344,5097,1,2,1:2:0:0:
468,344,5339,1,2,1:2:0:0:
364,344,5581,1,2,1:2:0:0:
140,344,5823,5,2,1:2:0:0:
140,276,5984,1,2,1:2:0:0:
208,276,6145,1,2,1:2:0:0:
276,276,6307,1,2,1:2:0:0:
208,216,6468,1,2,1:2:0:0:
140,212,6629,1,2,1:2:0:0:
140,172,6791,1,2,1:2:0:0:
208,168,6952,1,2,1:2:0:0:
480,232,7113,5,6,1:2:0:0:
480,232,7436,1,2,0:2:0:0:
344,236,7758,1,6,1:2:0:0:
480,232,8081,1,2,0:2:0:0:
228,216,8403,5,6,1:2:0:0:
228,216,8726,1,2,0:2:0:0:
368,216,9049,1,6,1:2:0:0:
368,216,9371,1,2,0:2:0:0:
120,332,9694,5,6,1:2:0:0:
120,332,10016,1,10,0:2:0:0:
260,328,10339,1,6,1:2:0:0:
120,332,10661,1,10,0:2:0:0:
372,228,10984,5,6,1:2:0:0:
372,92,11306,1,10,0:2:0:0:
512,92,11629,1,6,1:2:0:0:
96,360,11952,5,4,1:2:0:0:
200,360,12193,2,0,L|200:244,1,103.5,0|10,3:2|0:2,0:0:0:0:
132,260,12597,2,0,L|24:260,2,103.5,4|10|10,1:2|3:2|0:2,0:0:0:0:
292,192,13242,6,0,L|408:192,2,103.5,6|8|10,1:2|3:2|0:2,0:0:0:0:
224,192,13887,1,6,1:2:0:0:
156,192,14048,1,8,3:2:0:0:
380,304,14210,5,6,1:2:0:0:
448,304,14371,1,0,3:2:0:0:
448,240,14532,1,2,3:2:0:0:
380,240,14693,1,2,3:2:0:0:
228,240,14855,5,6,1:2:0:0:
192,240,14935,1,0,3:2:0:0:
156,240,15016,1,8,3:2:0:0:
84,240,15177,1,2,3:2:0:0:
156,240,15339,1,10,3:2:0:0:
308,176,15500,5,6,1:2:0:0:
344,176,15580,1,0,3:2:0:0:
380,176,15661,1,0,3:2:0:0:
380,108,15822,1,2,3:2:0:0:
312,108,15984,1,2,3:2:0:0:
88,148,16145,5,6,1:2:0:0:
20,148,16306,1,10,3:2:0:0:
88,148,16468,1,2,3:2:0:0:
484,352,16790,6,0,L|484:176,1,151.800004632568,4|2,3:1|3:2,0:0:0:0:
408,204,17274,1,2,1:2:0:0:
244,208,17435,2,0,L|84:208,1,151.800004632568,2|2,3:2|3:2,0:0:0:0:
168,208,17919,1,2,1:2:0:0:
328,208,18080,6,0,P|372:168|312:108,1,151.800004632568,2|2,3:2|3:2,0:0:0:0:
248,112,18564,1,2,1:2:0:0:
88,368,18726,2,0,P|48:344|104:276,1,151.800004632568,2|2,3:2|3:2,0:0:0:0:
168,276,19209,1,2,1:2:0:0:
412,184,19371,6,0,L|236:184,1,151.800004632568,2|2,3:2|3:2,0:0:0:0:
184,184,19855,1,2,1:2:0:0:
348,368,20016,2,0,P|388:340|328:272,1,151.800004632568,2|2,3:2|3:2,0:0:0:0:
264,272,20500,1,2,1:2:0:0:
112,276,20661,6,0,P|76:240|128:156,1,151.800004632568,2|2,3:2|3:2,0:0:0:0:
188,156,21144,1,2,1:2:0:0:
348,148,21306,2,0,L|348:60,1,75.9000023162842,2|2,3:2|3:2,0:0:0:0:
124,368,21628,6,0,P|92:344|148:254,1,151.800004632568,4|2,3:1|3:2,0:0:0:0:
204,256,22112,1,2,1:2:0:0:
364,176,22274,2,0,L|188:176,1,151.800004632568,2|2,3:2|3:2,0:0:0:0:
136,180,22758,1,2,1:2:0:0:
296,360,22920,6,0,P|336:344|272:284,1,151.800004632568,2|2,3:2|3:2,0:0:0:0:
216,272,23403,1,2,1:2:0:0:
60,272,23565,2,0,L|60:188,1,75.9000023162842,2|0,3:2|1:2,0:0:0:0:
304,192,23887,5,2,3:2:0:0:
340,192,23967,1,0,3:2:0:0:
380,192,24048,1,0,1:2:0:0:
456,192,24209,1,2,3:2:0:0:
380,188,24370,1,2,1:2:0:0:
216,352,24532,5,2,3:2:0:0:
180,348,24612,1,0,3:2:0:0:
140,348,24693,1,0,1:2:0:0:
64,348,24854,1,2,3:2:0:0:
140,348,25016,1,2,1:2:0:0:
300,280,25177,5,0,3:2:0:0:
336,280,25257,1,0,3:2:0:0:
300,280,25338,1,0,1:2:0:0:
236,244,25499,1,2,3:2:0:0:
168,208,25661,1,2,1:2:0:0:
432,136,25822,5,2,3:2:0:0:
508,136,25983,1,2,1:2:0:0:
432,136,26145,1,2,3:2:0:0:
36,320,26468,5,6,1:2:0:0:
36,320,26629,1,2,0:2:0:0:
36,320,26790,1,2,3:2:0:0:
176,316,27113,1,2,3:2:0:0:
244,316,27274,1,2,0:2:0:0:
244,316,27435,1,2,3:2:0:0:
104,312,27758,5,2,3:2:0:0:
36,312,27919,1,2,0:2:0:0:
36,244,28080,1,2,3:2:0:0:
104,244,28242,1,2,0:2:0:0:
280,200,28403,5,6,1:2:0:0:
348,200,28564,1,2,0:2:0:0:
280,200,28726,1,2,3:2:0:0:
144,204,29048,1,2,3:2:0:0:
144,136,29209,1,2,0:2:0:0:
212,136,29371,1,2,3:2:0:0:
348,132,29693,5,2,3:2:0:0:
416,132,29855,1,2,0:2:0:0:
484,132,30016,1,2,3:2:0:0:
416,132,30177,1,2,0:2:0:0:
248,352,30338,5,6,1:2:0:0:
180,352,30500,1,2,0:2:0:0:
180,284,30661,1,2,3:2:0:0:
320,288,30984,1,2,3:2:0:0:
388,288,31145,1,2,0:2:0:0:
320,288,31306,1,2,3:2:0:0:
180,284,31629,5,2,3:2:0:0:
180,216,31790,1,2,0:2:0:0:
248,216,31951,1,2,3:2:0:0:
248,148,32113,1,2,0:2:0:0:
76,156,32274,5,6,1:2:0:0:
8,156,32435,1,2,0:2:0:0:
76,160,32597,1,2,3:2:0:0:
212,160,32919,1,2,3:2:0:0:
280,160,33080,1,2,0:2:0:0:
280,92,33242,1,2,3:2:0:0:
144,92,33564,5,2,3:2:0:0:
76,92,33726,1,2,0:2:0:0:
8,92,33887,1,2,3:2:0:0:
76,92,34048,1,2,0:2:0:0:
300,304,34210,6,0,L|408:304,2,103.5,6|2|2,1:2|0:2|0:2,0:0:0:0:
132,308,34855,2,0,L|132:228,1,69,2|2,3:2|0:2,0:0:0:0:
272,236,35339,5,2,0:2:0:0:
340,236,35500,1,2,3:2:0:0:
408,240,35661,1,2,0:2:0:0:
340,240,35822,1,2,3:2:0:0:
116,192,35984,6,0,L|4:192,2,103.5,6|2|2,1:2|0:2|0:2,0:0:0:0:
284,192,36629,2,0,L|284:116,1,69,2|2,3:2|0:2,0:0:0:0:
144,128,37113,5,2,0:2:0:0:
76,128,37274,1,2,3:2:0:0:
76,128,37435,1,2,0:2:0:0:
144,128,37596,1,2,3:2:0:0:
368,248,37758,6,0,L|244:248,2,103.5,6|6|6,1:2|1:2|1:2,0:0:0:0:
196,196,38403,2,0,L|196:108,1,69,2|2,3:2|0:2,0:0:0:0:
336,120,38887,5,2,0:2:0:0:
404,120,39048,1,2,3:2:0:0:
404,120,39209,1,2,0:2:0:0:
336,120,39370,1,2,3:2:0:0:
108,124,39532,6,0,L|236:124,2,103.5,6|2|2,1:2|0:2|0:2,0:0:0:0:
272,360,40177,2,0,L|272:276,1,69,2|2,3:2|0:2,0:0:0:0:
192,292,40499,2,0,L|96:292,1,69,2|2,3:2|0:2,0:0:0:0:
268,224,40983,5,2,0:2:0:0:
336,224,41144,1,2,3:2:0:0:
268,224,41306,1,2,0:2:0:0:
100,244,41467,1,2,3:2:0:0:
32,244,41628,1,2,0:2:0:0:
32,176,41790,1,2,3:2:0:0:
448,352,42113,6,0,L|448:236,1,101.200003088379,2|2,3:2|0:2,0:0:0:0:
396,252,42435,2,0,L|284:252,1,101.200003088379,2|2,3:2|0:2,0:0:0:0:
176,256,42758,6,0,L|176:144,1,101.200003088379,8|0,0:1|0:2,0:0:0:0:
228,156,43080,6,0,L|348:156,1,101.200003088379,2|2,3:2|0:2,0:0:0:0:
277,154,43403,2,0,L|161:154,1,101.200003088379,2|2,3:2|0:2,0:0:0:0:
280,368,43725,6,0,L|280:252,1,101.200003088379,8|0,0:1|0:2,0:0:0:0:
228,272,44048,6,0,L|120:272,1,101.200003088379,2|2,3:2|0:2,0:0:0:0:
76,272,44371,2,0,L|192:272,1,101.200003088379,2|2,3:2|0:2,0:0:0:0:
292,276,44693,6,0,L|292:148,1,101.200003088379,8|0,0:1|0:2,0:0:0:0:
240,176,45016,6,0,L|240:60,1,101.200003088379,2|2,3:2|0:2,0:0:0:0:
292,76,45338,1,2,3:2:0:0:
460,76,45553,2,0,L|520:76,2,50.6000015441895,8|0|0,0:1|0:2|0:2,0:0:0:0:
144,332,45983,5,2,3:2:0:0:
99,310,46090,1,0,0:2:0:0:
82,263,46198,1,0,0:2:0:0:
102,218,46305,1,8,0:1:0:0:
148,199,46413,1,0,0:2:0:0:
340,196,46629,5,0,3:2:0:0:
385,176,46736,1,0,0:2:0:0:
401,130,46844,1,0,0:2:0:0:
378,86,46951,1,0,3:2:0:0:
331,73,47059,1,0,3:2:0:0:
148,96,47274,5,8,3:2:0:0:
198,96,47381,1,8,3:2:0:0:
248,95,47489,1,8,3:2:0:0:
298,95,47596,1,2,3:2:0:0:
348,95,47704,1,2,0:2:0:0:
66,368,47920,6,0,P|38:328|98:248,1,138,4|2,1:2|3:2,0:0:0:0:
212,260,48565,2,0,L|48:260,1,138,0|2,1:2|3:2,0:0:0:0:
336,256,49210,6,0,L|336:92,1,138,0|2,1:2|3:2,0:0:0:0:
196,124,49855,2,0,L|196:272,1,138,0|2,1:2|3:2,0:0:0:0:
456,252,50500,6,0,P|488:228|436:156,1,138,0|2,1:2|3:2,0:0:0:0:
312,156,51145,2,0,L|476:156,1,138,0|2,1:2|3:2,0:0:0:0:
380,156,51629,1,2,3:2:0:0:
208,360,51790,6,0,L|208:192,1,138,0|2,1:2|3:2,0:0:0:0:
276,224,52274,1,2,3:2:0:0:
344,224,52436,2,0,L|344:140,1,69,0|2,1:2|3:2,0:0:0:0:
116,164,52758,5,4,1:1:0:0:
48,164,52919,1,0,3:2:0:0:
48,96,53080,1,2,3:2:0:0:
116,96,53241,1,2,3:2:0:0:
264,92,53403,1,0,1:2:0:0:
332,92,53564,1,0,3:2:0:0:
400,92,53725,1,2,3:2:0:0:
332,88,53887,1,2,3:2:0:0:
180,328,54049,5,0,1:2:0:0:
112,328,54210,1,0,3:2:0:0:
44,324,54371,1,2,3:2:0:0:
112,328,54532,1,2,3:2:0:0:
268,332,54694,2,0,L|268:248,1,69,0|0,1:2|3:2,0:0:0:0:
44,248,55016,5,0,1:2:0:0:
44,248,55096,1,0,3:2:0:0:
44,248,55177,1,0,3:2:0:0:
112,248,55338,1,2,3:2:0:0:
44,248,55499,1,2,3:2:0:0:
196,196,55661,5,0,1:2:0:0:
232,196,55741,1,0,3:2:0:0:
268,196,55822,1,0,3:2:0:0:
336,196,55983,1,2,3:2:0:0:
336,128,56145,1,2,3:2:0:0:
184,128,56306,5,0,1:2:0:0:
148,128,56386,1,0,3:2:0:0:
112,128,56467,1,0,3:2:0:0:
44,128,56628,1,2,3:2:0:0:
44,60,56790,1,2,3:2:0:0:
268,332,56951,5,0,1:2:0:0:
116,332,57274,1,2,3:2:0:0:
500,336,57596,6,0,L|360:336,1,101.200003088379,4|10,3:1|1:2,0:0:0:0:
348,336,57919,2,0,L|468:336,1,101.200003088379,10|10,3:2|1:2,0:0:0:0:
500,336,58241,1,10,3:2:0:0:
244,272,58564,6,0,L|128:272,1,101.200003088379,10|10,3:2|1:2,0:0:0:0:
92,276,58886,2,0,L|212:276,1,101.200003088379,10|10,3:2|1:2,0:0:0:0:
244,272,59209,1,10,3:2:0:0:
488,264,59532,6,0,L|488:108,1,151.800004632568,10|10,3:2|3:2,0:0:0:0:
232,132,60177,6,0,L|232:264,1,101.200003088379,10|10,3:2|1:2,0:0:0:0:
284,236,60499,2,0,L|408:236,1,101.200003088379,10|10,3:2|1:2,0:0:0:0:
436,236,60822,1,10,3:2:0:0:
188,172,61145,6,0,L|308:172,1,101.200003088379,10|8,3:2|1:2,0:0:0:0:
340,172,61468,1,10,3:2:0:0:
392,172,61575,1,10,0:2:0:0:
444,172,61683,1,10,1:2:0:0:
392,172,61790,1,10,3:2:0:0:
204,348,62113,2,0,L|204:264,1,75.9000023162842,2|0,3:2|3:2,0:0:0:0:
432,352,62436,6,0,L|432:236,1,101.200003088379,4|10,3:1|1:2,0:0:0:0:
380,252,62758,2,0,L|264:252,1,101.200003088379,10|10,3:2|1:2,0:0:0:0:
228,252,63081,1,10,3:2:0:0:
476,148,63403,6,0,L|364:148,1,101.200003088379,10|10,3:2|1:2,0:0:0:0:
324,148,63726,2,0,L|464:148,1,101.200003088379,10|10,3:2|1:2,0:0:0:0:
476,148,64048,2,0,L|476:28,1,101.200003088379,10|10,3:2|1:2,0:0:0:0:
424,48,64371,1,10,3:2:0:0:
372,48,64478,1,10,3:2:0:0:
56,360,64694,5,2,3:2:0:0:
56,308,64801,1,2,3:2:0:0:
108,308,64909,1,2,1:2:0:0:
160,308,65016,1,2,3:2:0:0:
212,308,65124,1,2,3:2:0:0:
160,308,65231,1,2,1:2:0:0:
36,244,65339,6,0,L|36:140,1,101.200003088379,2|2,3:2|1:2,0:0:0:0:
88,144,65661,1,2,3:2:0:0:
140,144,65769,1,2,3:2:0:0:
332,360,65984,5,2,3:2:0:0:
378,346,66091,1,2,3:2:0:0:
397,301,66199,1,2,1:2:0:0:
375,257,66306,1,2,3:2:0:0:
327,248,66414,1,2,3:2:0:0:
136,248,66629,2,0,L|136:176,1,50.6000015441895,2|2,3:2|3:2,0:0:0:0:
420,348,66952,5,2,0:2:0:0:
420,272,67113,1,2,0:2:0:0:
344,272,67274,1,2,0:2:0:0:
344,196,67435,1,2,0:2:0:0:
420,200,67597,1,2,0:2:0:0:
496,200,67758,1,2,0:2:0:0:
236,192,67919,5,2,0:2:0:0:
215,178,67972,1,2,0:2:0:0:
207,154,68026,1,2,0:2:0:0:
217,131,68080,1,2,0:2:0:0:
239,120,68134,1,2,0:2:0:0:
304,116,68241,1,2,0:2:0:0:
328,116,68295,1,2,0:2:0:0:
328,92,68349,1,2,0:2:0:0:
304,96,68402,1,2,0:2:0:0:
46,66,68577,5,4,3:1:0:0:
256,192,68899,12,0,70500,0:2:0:0:
256,192,86306,12,0,87919,0:2:0:0:
104,308,88242,5,2,0:2:0:0:
104,308,88403,1,2,0:2:0:0:
104,308,88564,1,2,0:2:0:0:
104,308,88725,1,2,0:2:0:0:
104,308,88887,1,2,0:2:0:0:
104,308,89048,1,2,0:2:0:0:
104,308,89209,1,2,0:2:0:0:
104,308,89371,1,2,0:2:0:0:
328,312,89532,6,0,L|480:312,1,138,4|2,1:2|3:2,0:0:0:0:
396,312,90015,1,2,0:2:0:0:
328,312,90177,1,6,3:2:0:0:
164,308,90499,1,2,3:2:0:0:
233,308,90660,1,2,0:2:0:0:
302,308,90821,1,2,3:2:0:0:
136,308,91144,2,0,L|56:308,2,69,2|2|2,3:2|0:2|3:2,0:0:0:0:
412,196,91790,6,0,L|260:196,1,138,4|2,1:2|3:2,0:0:0:0:
204,196,92273,1,2,0:2:0:0:
136,196,92435,1,6,3:2:0:0:
304,136,92757,1,2,3:2:0:0:
372,136,92919,1,2,0:2:0:0:
372,136,93080,1,2,3:2:0:0:
200,360,93402,1,2,3:2:0:0:
200,292,93564,1,2,0:2:0:0:
268,296,93725,1,2,3:2:0:0:
336,296,93886,1,2,0:2:0:0:
112,224,94048,6,0,L|112:140,1,69,4|8,0:2|0:2,0:0:0:0:
268,160,94370,2,0,L|360:160,2,69,6|10|10,1:2|0:2|3:2,0:0:0:0:
104,160,95015,2,0,L|20:160,2,69,6|2|10,3:2|0:2|3:2,0:0:0:0:
268,160,95661,1,2,3:2:0:0:
199,160,95822,1,2,0:2:0:0:
130,160,95983,1,2,3:2:0:0:
396,200,96306,5,4,3:2:0:0:
464,200,96467,1,8,3:2:0:0:
464,200,96628,1,14,3:2:0:0:
396,200,96790,1,2,3:2:0:0:
244,200,96951,5,10,3:2:0:0:
209,200,97031,1,8,3:2:0:0:
175,200,97112,1,8,3:2:0:0:
108,200,97273,1,14,3:2:0:0:
176,200,97435,1,10,3:2:0:0:
328,128,97596,5,2,3:2:0:0:
362,128,97676,1,0,3:2:0:0:
397,128,97757,1,10,3:2:0:0:
364,128,97838,1,8,3:2:0:0:
328,128,97919,1,10,3:2:0:0:
176,292,98080,2,0,P|140:268|192:200,1,138,10|0,3:2|0:2,0:0:0:0:
428,88,98565,6,0,L|252:88,1,151.800004632568,4|2,1:1|3:2,0:0:0:0:
200,92,99048,1,2,1:2:0:0:
368,92,99210,2,0,P|392:132|368:232,1,151.800004632568,2|2,3:2|3:2,0:0:0:0:
292,236,99694,1,2,1:2:0:0:
124,236,99855,6,0,P|96:200|144:100,1,151.800004632568,2|2,3:2|3:2,0:0:0:0:
204,104,100339,1,2,1:2:0:0:
372,100,100500,2,0,L|208:100,1,151.800004632568,2|2,3:2|3:2,0:0:0:0:
144,100,100984,1,2,1:2:0:0:
392,352,101145,6,0,P|424:316|372:228,1,151.800004632568,2|2,3:2|3:2,0:0:0:0:
304,232,101629,1,2,1:2:0:0:
136,228,101790,2,0,P|80:188|80:84,1,151.800004632568,2|2,3:2|3:2,0:0:0:0:
148,112,102274,1,2,1:2:0:0:
316,104,102436,6,0,L|472:104,1,151.800004632568,2|2,3:2|3:2,0:0:0:0:
392,104,102919,1,2,1:2:0:0:
224,104,103081,2,0,L|224:200,1,75.9000023162842,2|2,3:2|3:2,0:0:0:0:
472,368,103403,6,0,P|492:328|452:232,1,151.800004632568,4|2,3:1|3:2,0:0:0:0:
376,236,103886,1,2,1:2:0:0:
208,236,104048,2,0,L|388:236,1,151.800004632568,2|2,3:2|3:2,0:0:0:0:
436,240,104532,1,2,1:2:0:0:
268,236,104694,6,0,L|108:236,1,151.800004632568,2|2,3:2|3:2,0:0:0:0:
192,236,105177,1,2,1:2:0:0:
360,236,105339,2,0,L|360:144,1,75.9000023162842,2|0,3:2|1:2,0:0:0:0:
116,340,105661,5,2,3:2:0:0:
80,340,105741,1,0,3:2:0:0:
40,340,105822,1,0,1:2:0:0:
40,340,105983,1,2,3:2:0:0:
116,340,106144,1,2,1:2:0:0:
284,276,106306,1,2,3:2:0:0:
284,240,106386,1,0,3:2:0:0:
284,200,106467,1,0,1:2:0:0:
208,200,106628,1,2,3:2:0:0:
208,200,106790,1,2,1:2:0:0:
372,120,106951,5,2,3:2:0:0:
408,120,107031,1,0,3:2:0:0:
448,120,107112,1,0,1:2:0:0:
192,344,107273,2,0,L|84:344,2,75.9000023162842,0|2|2,3:2|1:2|3:2,0:0:0:0:
268,344,107757,1,0,1:2:0:0:
436,344,107919,2,0,L|436:252,1,75.9000023162842,2|2,0:2|0:2,0:0:0:0:
184,264,108241,6,0,L|184:104,1,151.800004632568,4|2,1:1|3:2,0:0:0:0:
336,116,108886,2,0,L|504:116,1,151.800004632568,2|2,1:2|3:2,0:0:0:0:
204,372,109531,6,0,L|204:204,1,151.800004632568,2|2,1:2|3:2,0:0:0:0:
356,232,110177,2,0,L|356:72,1,151.800004632568,2|2,1:2|3:2,0:0:0:0:
76,208,110822,6,0,L|264:208,1,151.800004632568,2|2,1:2|3:2,0:0:0:0:
76,212,111467,2,0,L|76:48,1,151.800004632568,2|2,1:2|3:2,0:0:0:0:
352,360,112113,6,0,L|172:360,1,151.800004632568,2|2,1:2|3:2,0:0:0:0:
48,356,112758,1,2,1:2:0:0:
452,356,113081,6,0,P|480:320|432:228,1,151.800004632568,4|2,1:1|3:2,0:0:0:0:
368,232,113564,1,2,3:2:0:0:
200,232,113726,2,0,L|24:232,1,151.800004632568,2|2,1:2|3:2,0:0:0:0:
124,232,114210,1,2,3:2:0:0:
292,236,114371,6,0,L|448:236,1,151.800004632568,2|2,1:2|3:2,0:0:0:0:
368,232,114854,1,2,3:2:0:0:
200,232,115016,2,0,L|200:136,1,75.9000023162842,2|0,1:2|3:2,0:0:0:0:
444,148,115339,6,0,L|484:148,2,37.9500011581421,2|0|0,1:2|3:2|3:2,0:0:0:0:
368,148,115661,1,2,3:2:0:0:
444,152,115822,1,2,3:2:0:0:
276,96,115984,1,2,1:2:0:0:
238,96,116064,1,0,3:2:0:0:
200,96,116145,1,0,3:2:0:0:
124,100,116306,1,2,3:2:0:0:
200,100,116468,1,2,3:2:0:0:
472,304,116629,5,2,1:2:0:0:
336,252,116951,1,2,1:2:0:0:
472,304,117274,1,2,1:2:0:0:
472,304,117597,1,10,0:2:0:0:
88,360,117919,5,6,3:1:0:0:
52,360,117999,1,2,3:2:0:0:
12,360,118080,1,2,1:2:0:0:
12,360,118241,1,2,3:2:0:0:
88,360,118403,1,2,1:2:0:0:
256,280,118564,5,2,3:2:0:0:
293,280,118644,1,2,3:2:0:0:
331,280,118725,1,2,1:2:0:0:
407,280,118886,1,2,3:2:0:0:
332,280,119048,1,2,1:2:0:0:
160,216,119209,5,2,3:2:0:0:
122,216,119289,1,2,3:2:0:0:
84,216,119370,1,2,1:2:0:0:
8,216,119531,1,2,3:2:0:0:
84,216,119693,1,2,1:2:0:0:
256,212,119855,6,0,L|256:108,1,75.9000023162842,0|2,3:2|1:2,0:0:0:0:
216,136,120097,1,2,3:2:0:0:
180,136,120177,2,0,L|180:48,1,75.9000023162842,2|2,3:2|1:2,0:0:0:0:
428,188,120500,5,2,3:2:0:0:
464,188,120580,1,2,3:2:0:0:
504,188,120661,1,2,1:2:0:0:
504,188,120822,1,2,3:2:0:0:
428,188,120984,1,2,1:2:0:0:
256,116,121145,6,0,L|216:116,2,37.9500011581421,2|2|2,3:2|3:2|1:2,0:0:0:0:
332,116,121468,1,2,3:2:0:0:
332,40,121629,1,2,1:2:0:0:
164,40,121791,5,2,3:2:0:0:
128,40,121871,1,2,3:2:0:0:
88,40,121952,1,2,1:2:0:0:
12,40,122113,1,2,3:2:0:0:
88,40,122274,1,2,1:2:0:0:
260,348,122436,2,0,L|260:272,1,75.9000023162842,2|0,3:2|0:0,0:0:0:0:
20,280,122758,5,4,1:1:0:0:
20,242,122838,1,0,3:2:0:0:
20,204,122919,1,0,1:2:0:0:
96,204,123080,1,2,3:2:0:0:
20,204,123241,1,2,1:2:0:0:
192,156,123403,6,0,L|236:156,2,37.9500011581421,2|0|0,3:2|3:2|1:2,0:0:0:0:
116,156,123725,2,0,L|116:64,1,75.9000023162842,0|2,3:2|1:2,0:0:0:0:
364,84,124048,5,2,3:2:0:0:
401,84,124128,1,0,3:2:0:0:
439,84,124209,1,0,1:2:0:0:
364,84,124371,1,2,3:2:0:0:
288,84,124532,1,2,1:2:0:0:
456,352,124694,2,0,L|456:264,1,75.9000023162842,2|0,3:2|1:2,0:0:0:0:
204,284,125016,5,2,3:2:0:0:
168,284,125096,1,0,3:2:0:0:
168,244,125177,1,0,1:2:0:0:
244,244,125338,1,2,3:2:0:0:
320,244,125499,1,2,1:2:0:0:
152,168,125661,6,0,L|104:168,2,37.9500011581421,2|0|0,3:2|3:2|1:2,0:0:0:0:
228,168,125983,1,2,3:2:0:0:
152,168,126145,1,2,1:2:0:0:
400,116,126307,6,0,L|444:116,2,37.9500011581421,2|0|0,3:2|3:2|1:2,0:0:0:0:
324,116,126629,2,0,L|324:28,1,75.9000023162842,2|2,3:2|1:2,0:0:0:0:
492,44,126952,2,0,L|492:136,1,75.9000023162842,2|0,3:2|0:0,0:0:0:0:
232,364,127274,6,0,L|232:236,1,113.850003474426,4|2,1:1|1:2,0:0:0:0:
344,248,127757,2,0,L|344:104,1,113.850003474426,2|2,1:2|1:2,0:0:0:0:
92,144,128241,5,2,1:2:0:0:
204,144,128483,1,2,1:2:0:0:
316,144,128725,1,2,1:2:0:0:
204,144,128967,1,2,1:2:0:0:
420,240,129209,5,2,1:2:0:0:
420,172,129370,1,2,3:2:0:0:
196,368,129532,5,2,3:2:0:0:
159,359,129612,1,2,3:2:0:0:
126,341,129693,1,2,3:2:0:0:
100,313,129773,1,2,3:2:0:0:
84,278,129854,1,2,3:2:0:0:
80,241,129935,1,2,3:2:0:0:
86,204,130015,1,2,3:2:0:0:
104,170,130096,1,2,3:2:0:0:
131,144,130177,1,2,3:2:0:0:
165,127,130257,1,2,3:2:0:0:
202,121,130338,1,2,3:2:0:0:
436,308,130499,5,2,3:2:0:0:
436,268,130580,1,2,3:2:0:0:
396,268,130661,1,2,3:2:0:0:
360,268,130741,1,2,3:2:0:0:
320,268,130822,1,2,3:2:0:0:
280,268,130903,1,2,3:2:0:0:
244,268,130983,1,2,3:2:0:0:
488,164,131147,5,4,1:1:0:0:
256,192,131469,12,6,132759,0:2:0:0:
