osu file format v14

[General]
AudioFilename: audio.mp3
AudioLeadIn: 0
PreviewTime: 31112
Countdown: 0
SampleSet: Normal
StackLeniency: 0.7
Mode: 0
LetterboxInBreaks: 0
WidescreenStoryboard: 1

[Editor]
Bookmarks: 16001,31056,38141,45226,52311,67366,82422,94820,106333,120946,122274,127145
DistanceSpacing: 1.4
BeatDivisor: 2
GridSize: 8
TimelineZoom: 2.999999

[Metadata]
Title:Punai Punai Sensou
TitleUnicode:プナイプナイせんそう
Artist:Rish feat. Choko
ArtistUnicode:立秋 feat. ちょこ
Creator:Mixagji
Version:Normal
Source:
Tags:rissyuu risshuu fa featured artist novelty G2R2018 Climax GO BACK 2 YOUR ROOTS 2018 japanese pop hard 石王マサト Patchouli electronic iyasine teruyama Muya denpa speedcore Muse Dash SOUND VOLTEX EXCEED GEAR SDVX VI maimai でらっくす Deluxe DX
BeatmapID:2756428
BeatmapSetID:1328903

[Difficulty]
HPDrainRate:4
CircleSize:3
OverallDifficulty:3
ApproachRate:5.7
SliderMultiplier:0.499999904632568
SliderTickRate:1

[Events]
//Background and Video events
Video,0,"waraa_x264_001.mp4"
0,0,"vIFlpFA.jpeg",0,0
//Break Periods
//Storyboard Layer 0 (Background)
//Storyboard Layer 1 (Fail)
//Storyboard Layer 2 (Pass)
//Storyboard Layer 3 (Foreground)
//Storyboard Layer 4 (Overlay)
//Storyboard Sound Samples

[TimingPoints]
116,221.40221402214,4,1,1,60,1,0
1887,-100,4,2,1,40,0,0
5429,-100,4,1,1,45,0,0
8972,-100,4,1,1,60,0,0
16056,-100,4,1,2,70,0,0
31112,-100,4,2,1,45,0,0
38197,-100,4,1,1,60,0,0
45282,-100,4,1,1,40,0,0
47496,-100,4,1,1,45,0,0
47938,-100,4,1,1,50,0,0
48824,-100,4,1,1,60,0,0
52366,-100,4,1,2,70,0,1
63437,-100,4,1,1,50,0,1
63879,-100,4,1,2,70,0,1
64765,-100,4,1,2,60,0,1
66979,-100,4,1,1,50,0,0
69636,-100,4,1,1,40,0,0
70964,-100,4,1,1,50,0,0
73178,-100,4,1,1,40,0,0
74507,-100,4,1,1,50,0,0
76278,-100,4,1,1,40,0,0
76721,-100,4,1,1,50,0,0
80263,-100,4,1,1,40,0,0
80706,-100,4,1,1,50,0,0
81813,-100,4,1,1,40,0,0
82477,-100,4,1,1,60,0,0
94876,-100,4,1,2,70,0,1
105946,-100,4,1,2,50,0,0
106389,-100,4,1,2,75,0,1
120558,-100,4,1,2,50,0,0
121444,-100,4,1,1,45,0,0
126758,-100,4,1,1,50,0,0

[Colours]
Combo1 : 255,128,64
Combo2 : 220,160,200
Combo3 : 255,230,140
Combo4 : 130,200,244
Combo5 : 180,220,200

[HitObjects]
390,83,1887,6,0,P|424:117|394:160,1,99.9999904632568,4|0,0:1|0:0,0:0:0:0:
276,219,2772,2,0,P|255:207|249:172,2,49.9999952316284,0|0|0,0:0|0:0|0:0,0:0:0:0:
410,260,3658,2,0,B|399:300|433:328|433:328|385:383|308:361,1,199.999980926514
192,317,4986,1,0,0:0:0:0:
53,338,5429,6,0,L|39:282,1,49.9999952316284,0|0,0:0|0:0,0:0:0:0:
44,219,5872,1,8,0:0:0:0:
183,201,6315,2,0,P|227:191|222:140,1,99.9999904632568,0|8,0:0|0:0,0:0:0:0:
101,79,7200,2,0,B|143:90|168:43|168:43|226:13|291:60,1,199.999961853027,2|0,0:0|0:0,0:0:0:0:
417,28,8529,1,8,0:0:0:0:
334,140,8972,5,4,0:0:0:0:
296,199,9193,1,2,0:0:0:0:
302,268,9414,1,8,0:0:0:0:
415,351,9857,2,0,P|481:309|475:238,1,149.999985694885
469,174,10743,2,0,L|425:152,1,49.9999952316284,2|2,0:0|0:0,0:0:0:0:
363,117,11186,1,8,0:0:0:0:
240,48,11628,2,0,P|194:35|138:52,1,99.9999809265136
53,155,12514,6,0,B|107:241|176:119|239:197,2,199.999980926514,4|0|6,0:0|0:0|0:0,0:0:0:0:
89,290,14728,1,2,0:0:0:0:
208,363,15171,2,0,P|224:343|231:315,1,49.9999952316284
249,252,15614,1,2,0:2:0:0:
388,248,16056,6,0,P|440:258|472:298,2,99.9999904632568,2|2|2,0:0|0:0|0:0,0:0:0:0:
289,148,17385,1,0,0:0:0:0:
426,122,17828,2,0,B|428:70|428:70|383:55,1,99.9999904632568,2|2,0:0|0:0,0:0:0:0:
248,14,18713,2,0,B|232:64|232:64|175:63,1,99.9999809265136,0|2,0:0|0:0,0:0:0:0:
46,32,19599,6,0,L|62:135,1,99.9999809265136,2|2,0:0|0:0,0:0:0:0:
200,151,20485,1,2,0:0:0:0:
200,220,20706,1,2,0:0:0:0:
202,289,20927,1,2,0:0:0:0:
68,330,21370,2,0,B|16:312|13:255,2,99.9999809265136,2|2|2,0:0|0:0|0:0,0:0:0:0:
205,357,22699,1,2,0:0:0:0:
338,316,23141,6,0,B|389:302|433:339,2,99.9999809265136,2|2|2,0:0|0:0|0:0,0:0:0:0:
287,186,24470,1,2,0:0:0:0:
170,108,24913,2,0,P|125:127|141:174,1,99.9999904632568,2|2,0:0|0:0,0:0:0:0:
196,294,25798,1,2,0:0:0:0:
132,323,26020,1,2,0:0:0:0:
68,294,26241,1,2,0:0:0:0:
256,192,26684,12,2,28455,0:0:0:0:
305,188,29341,6,0,L|251:162,2,49.9999952316284,2|0|2,0:0|0:0|0:0,0:0:0:0:
445,191,30226,2,0,L|435:298,1,99.9999904632568,0|2,0:0|0:0,0:0:0:0:
306,346,31112,6,0,P|280:336|255:341,1,49.9999952316284,4|0,0:1|0:0,0:0:0:0:
190,357,31555,1,2,0:0:0:0:
98,252,31997,1,0,0:0:0:0:
86,182,32219,1,0,0:0:0:0:
75,112,32440,1,2,0:0:0:0:
199,46,32883,2,0,B|244:97|208:165|208:165|219:201|263:220,1,199.999961853027,2|0,0:0|0:0,0:0:0:0:
385,275,34211,1,2,0:0:0:0:
450,151,34654,6,0,L|396:128,1,49.9999952316284,0|0,0:0|0:0,0:0:0:0:
339,103,35097,1,2,0:0:0:0:
221,179,35540,1,0,0:0:0:0:
151,185,35761,1,0,0:0:0:0:
87,154,35983,1,2,0:0:0:0:
146,27,36425,2,0,L|249:42,1,99.9999904632568,2|0,0:0|0:0,0:0:0:0:
319,160,37311,2,0,P|404:193|429:108,1,199.999980926514,8|4,0:3|0:0,0:0:0:0:
326,15,38639,5,8,0:0:0:0:
229,116,39082,2,0,P|209:138|187:145,1,49.9999952316284,0|2,0:0|0:0,0:0:0:0:
129,110,39525,1,8,0:0:0:0:
27,206,39968,2,0,P|39:260|85:291,1,99.9999904632568,2|8,0:0|0:0,0:0:0:0:
197,350,40854,1,0,0:0:0:0:
256,313,41075,1,0,0:0:0:0:
320,340,41296,1,8,0:0:0:0:
445,278,41739,6,0,P|419:232|431:187,1,99.9999904632568,0|8,0:0|0:0,0:0:0:0:
470,54,42625,1,0,0:0:0:0:
400,56,42846,1,2,0:0:0:0:
330,62,43068,1,8,0:0:0:0:
219,147,43510,2,0,P|136:192|66:129,1,199.999980926514,8|8,0:0|0:0,0:0:0:0:
157,22,44839,1,2,0:0:0:0:
296,35,45282,6,0,L|355:41,1,49.9999952316284,6|0,0:0|0:0,0:0:0:0:
414,50,45724,1,2,0:3:0:0:
481,172,46167,2,0,B|401:176|394:256|394:256|475:277,1,199.999980926514,8|2,0:0|0:0,0:0:0:0:
334,341,47496,1,2,0:3:0:0:
239,238,47938,2,0,P|137:232|94:312,1,199.999980926514,8|2,0:0|0:0,0:0:0:0:
218,372,49267,5,2,0:3:0:0:
342,307,49710,2,0,P|365:259|355:207,1,99.9999904632568,8|2,0:0|0:0,0:0:0:0:
277,100,50595,2,0,L|220:103,1,49.9999952316284,2|2,0:0|0:0,0:0:0:0:
165,68,51038,2,0,L|108:71,1,49.9999952316284,2|2,0:0|0:0,0:0:0:0:
44,67,51481,2,0,B|49:121|49:121|94:141,1,99.9999904632568,10|2,0:0|0:2,0:0:0:0:
217,206,52366,6,0,P|223:234|217:259,1,49.9999952316284,6|2,0:0|0:0,0:0:0:0:
172,307,52809,1,0,0:0:0:0:
264,355,53141,2,0,P|282:333|337:325,1,74.9999856948852,2|0,0:0|0:0,0:0:0:0:
395,329,53695,1,2,0:0:0:0:
488,224,54138,6,0,L|452:127,1,99.9999904632568,2|2,0:2|0:3,0:0:0:0:
321,82,55023,2,0,P|267:92|223:77,1,99.9999904632568,6|2,0:2|0:2,0:0:0:0:
165,41,55687,1,2,0:2:0:0:
100,69,55909,6,0,P|89:87|87:118,1,49.9999952316284,2|2,0:0|0:0,0:0:0:0:
101,183,56352,1,2,0:0:0:0:
205,193,56684,2,0,P|204:227|174:258,1,74.9999856948852,2|0,0:0|0:0,0:0:0:0:
120,296,57237,1,2,0:0:0:0:
243,362,57680,6,0,P|256:311|297:278,1,99.9999809265136,2|2,0:2|0:3,0:0:0:0:
361,159,58566,2,0,B|399:170|418:204|418:204|472:185|468:141,1,149.999985694885,4|0,0:2|0:0,0:0:0:0:
471,83,59451,6,0,L|412:77,1,49.9999952316284,6|2,0:0|0:0,0:0:0:0:
351,67,59894,1,2,0:0:0:0:
261,121,60226,2,0,L|181:113,1,74.9999856948852,2|2,0:0|0:0,0:0:0:0:
117,101,60780,1,2,0:0:0:0:
55,226,61223,6,0,P|99:246|153:235,1,99.9999904632568,2|0,0:2|0:0,0:0:0:0:
286,214,62108,2,0,P|294:262|275:314,1,99.9999809265136
223,352,62772,1,0,0:0:0:0:
153,342,62994,6,0,L|47:328,1,99.9999904632568,2|2,0:0|0:3,0:0:0:0:
34,190,63879,1,2,0:0:0:0:
41,120,64101,1,2,0:0:0:0:
96,77,64322,1,2,0:0:0:0:
235,57,64765,6,0,B|268:93|325:23|381:58,1,149.999985694885,2|2,0:0|0:0,0:0:0:0:
446,42,65651,2,0,P|451:64|437:94,1,49.9999904632568,2|2,0:2|0:2,0:0:0:0:
403,147,66093,2,0,P|405:175|427:195,1,49.9999904632568
471,237,66536,1,2,0:2:0:0:
84,293,68307,6,0,B|167:236|167:236|246:312|246:312|311:267|402:306,1,349.999966621399,4|0,0:0|0:0,0:0:0:0:
433,252,70079,2,0,B|472:158|472:158|368:176,1,199.999980926514,2|8,0:0|0:0,0:0:0:0:
239,141,71407,1,0,0:0:0:0:
123,62,71850,1,2,0:0:0:0:
261,38,72293,6,0,L|326:49,1,49.9999952316284,2|2,0:3|0:3,0:0:0:0:
378,33,72735,2,0,P|415:69|412:121,1,99.9999904632568,8|0,0:0|0:0,0:0:0:0:
450,250,73621,2,0,B|382:259|361:337|361:337|297:310,1,199.999980926514,2|8,0:0|0:0,0:0:0:0:
242,269,74728,2,0,P|191:251|145:285,1,99.9999904632568,4|2,0:2|0:0,0:0:0:0:
114,330,75392,1,4,0:0:0:0:
54,203,75835,6,0,P|98:181|112:135,1,99.9999904632568,2|0,0:3|0:0,0:0:0:0:
220,46,76721,2,0,P|242:62|248:93,1,49.9999904632568,8|2,0:0|0:0,0:0:0:0:
263,151,77163,2,0,B|313:182|313:182|391:139|391:139|434:171,1,199.999980926514,4|8,0:0|0:0,0:0:0:0:
476,306,78492,1,0,0:0:0:0:
406,298,78713,1,2,0:0:0:0:
347,337,78935,1,4,0:0:0:0:
218,282,79377,6,0,P|248:243|302:249,1,99.9999904632568,2|8,0:3|0:0,0:0:0:0:
429,204,80263,2,0,P|468:167|464:122,1,99.9999904632568,0|2,0:0|0:0,0:0:0:0:
356,35,81149,1,0,0:0:0:0:
216,24,81592,2,0,L|63:68,1,149.999985694885,8|2,0:0|0:0,0:0:0:0:
43,129,82477,6,0,P|54:152|55:180,1,49.9999952316284,2|2,0:2|0:2,0:0:0:0:
25,239,82920,1,0,0:0:0:0:
143,313,83363,2,0,P|169:269|166:218,1,99.9999904632568,0|0,0:0|0:0,0:0:0:0:
186,82,84248,6,0,P|211:98|233:101,1,49.9999952316284,4|4,0:2|0:2,0:0:0:0:
300,109,84691,2,0,L|342:72,1,49.9999952316284,4|4,0:2|0:2,0:0:0:0:
395,36,85134,2,0,P|419:40|439:55,2,49.9999952316284,2|2|4,0:3|0:3|0:3,0:0:0:0:
496,132,86020,6,0,P|461:145|444:144,1,49.9999952316284,2|8,0:0|0:3,0:0:0:0:
383,120,86462,1,2,0:0:0:0:
341,253,86905,1,0,0:0:0:0:
270,248,87127,1,8,0:3:0:0:
225,194,87348,1,2,0:0:0:0:
85,191,87791,6,0,L|75:243,1,49.9999952316284,2|8,0:0|0:3,0:0:0:0:
62,309,88234,1,2,0:0:0:0:
192,359,88676,2,0,P|240:339|293:344,1,99.9999904632568,2|2,0:0|0:3,0:0:0:0:
355,360,89341,1,0,0:0:0:0:
400,306,89562,6,0,P|426:296|452:297,2,49.9999952316284,8|0|8,0:0|0:0|0:0,0:0:0:0:
303,204,90448,2,0,P|317:177|335:165,1,49.9999952316284,10|2,0:0|0:0,0:0:0:0:
402,173,90890,1,8,0:0:0:0:
464,48,91333,5,10,0:0:0:0:
394,60,91555,1,2,0:0:0:0:
327,37,91776,1,8,0:0:0:0:
204,104,92219,2,0,B|191:146|191:146|213:202|213:202|191:251,1,149.999985694885,10|8,0:0|0:0,0:0:0:0:
155,302,93104,6,0,L|103:288,1,49.9999952316284,10|2,0:0|0:0,0:0:0:0:
38,274,93547,1,8,0:0:0:0:
17,135,93990,2,0,P|65:139|105:194,1,99.9999809265136,0|2,0:0|0:2,0:0:0:0:
144,228,94654,1,0,0:0:0:0:
189,173,94876,6,0,L|191:117,1,49.9999952316284,6|2,0:0|0:0,0:0:0:0:
197,53,95319,1,2,0:0:0:0:
299,76,95651,2,0,P|336:89|375:76,1,74.9999856948852,2|0,0:0|0:0,0:0:0:0:
432,48,96205,1,2,0:0:0:0:
448,186,96648,6,0,L|412:283,1,99.9999904632568,2|2,0:2|0:2,0:0:0:0:
276,308,97533,2,0,P|222:298|178:313,1,99.9999904632568,8|4,0:3|0:2,0:0:0:0:
119,347,98197,1,2,0:2:0:0:
59,310,98419,6,0,P|48:292|46:261,1,49.9999952316284,2|0,0:0|0:0,0:0:0:0:
75,200,98862,1,2,0:0:0:0:
171,158,99193,2,0,P|142:138|133:96,1,74.9999856948852,2|0,0:0|0:0,0:0:0:0:
154,34,99747,1,2,0:0:0:0:
293,31,100190,6,0,P|311:77|296:124,1,99.9999904632568,2|2,0:3|0:3,0:0:0:0:
345,242,101076,2,0,B|383:231|402:197|402:197|456:216|452:260,1,149.999985694885,4|0,0:2|0:0,0:0:0:0:
443,318,101961,6,0,L|384:324,1,49.9999952316284,6|2,0:0|0:0,0:0:0:0:
323,331,102404,1,2,0:0:0:0:
222,303,102735,2,0,L|140:308,1,74.9999856948852,2|2,0:0|0:0,0:0:0:0:
76,312,103290,1,2,0:0:0:0:
12,187,103733,6,0,P|56:167|110:178,1,99.9999904632568,2|8,0:3|0:3,0:0:0:0:
234,229,104618,2,0,L|256:128,1,99.9999904632568,2|2,0:2|0:2,0:0:0:0:
271,62,105282,1,0,0:0:0:0:
201,68,105503,2,0,L|137:78,1,49.9999952316284,2|0,0:0|0:0,0:0:0:0:
82,85,105946,1,4,0:2:0:0:
31,261,106389,6,0,B|129:269|92:153|205:192,1,199.999961853027,2|2,0:0|0:0,0:0:0:0:
338,218,107717,1,2,0:0:0:0:
458,145,108161,6,0,L|443:90,1,49.9999904632568,2|0,0:0|0:0,0:0:0:0:
424,30,108603,1,2,0:0:0:0:
286,54,109045,2,0,P|336:94|303:163,1,149.999985694885,0|2,0:0|0:0,0:0:0:0:
254,211,109931,6,0,L|199:202,1,49.9999952316284,2|2,0:0|0:0,0:0:0:0:
135,192,110374,1,2,0:0:0:0:
70,67,110817,2,0,P|121:48|172:60,1,99.9999904632568,2|2,0:0|0:0,0:0:0:0:
221,97,111481,1,0,0:0:0:0:
190,159,111702,2,0,B|158:222|158:222|197:309,1,149.99997138977,2|2,0:0|0:0,0:0:0:0:
245,337,112588,6,0,B|317:354|298:266|375:278,1,149.99997138977
404,338,113473,6,0,P|424:355|456:349,1,49.9999904632568,2|2,0:0|0:0,0:0:0:0:
494,303,113916,1,2,0:0:0:0:
469,165,114359,2,0,L|456:116,2,49.9999904632568,2|0|2,0:0|0:0|0:0,0:0:0:0:
334,126,115245,6,0,B|334:178|334:178|359:219,1,99.9999809265136
398,277,115909,1,0,0:0:0:0:
344,321,116130,2,0,L|193:297,1,149.99997138977,0|2,0:0|0:0,0:0:0:0:
125,302,117016,6,0,L|133:248,1,49.9999952316284,2|2,0:0|0:0,0:0:0:0:
95,192,117459,2,0,B|139:166|139:166|175:199,1,99.9999904632568,2|2,0:0|0:0,0:0:0:0:
244,205,118123,1,0,0:0:0:0:
313,214,118344,1,2,0:0:0:0:
390,97,118787,6,0,P|439:87|499:110,2,99.9999904632568,0|0|2,0:0|0:0|0:0,0:0:0:0:
324,111,119894,1,0,0:0:0:0:
254,120,120115,2,0,B|202:130|162:91,1,99.9999809265136,2|2,0:0|0:0,0:0:0:0:
39,159,121001,1,0,0:0:0:0:
14,296,121444,2,0,B|50:329|50:329|96:258|179:267,1,199.999961853027,2|4,0:0|0:0,0:0:0:0:
316,289,122772,5,8,0:0:0:0:
398,175,123215,2,0,P|442:202|458:250,1,99.9999904632568,0|8,0:0|0:0,0:0:0:0:
367,353,124101,2,0,L|268:334,1,99.9999904632568,0|8,0:0|0:0,0:0:0:0:
133,296,124986,6,0,L|82:315,2,49.9999952316284,0|2|8,0:0|0:0|0:0,0:0:0:0:
81,165,125872,2,0,L|28:162,2,49.9999952316284,2|2|8,0:0|0:0|0:0,0:0:0:0:
161,50,126758,1,2,0:0:0:0:
227,72,126979,1,2,0:0:0:0:
292,96,127200,1,4,0:0:0:0:
