osu file format v14

[General]
AudioFilename: audio.mp3
AudioLeadIn: 0
PreviewTime: 31112
Countdown: 0
SampleSet: Normal
StackLeniency: 0.7
Mode: 0
LetterboxInBreaks: 0
WidescreenStoryboard: 1

[Editor]
Bookmarks: 16001,31056,38141,45226,52311,67366,82422,94820,106333,120946,122274,127145
DistanceSpacing: 1.2
BeatDivisor: 3
GridSize: 8
TimelineZoom: 2.999999

[Metadata]
Title:Punai Punai Sensou
TitleUnicode:プナイプナイせんそう
Artist:Rish feat. Choko
ArtistUnicode:立秋 feat. ちょこ
Creator:Mixagji
Version:Insane
Source:
Tags:rissyuu risshuu fa featured artist novelty G2R2018 Climax GO BACK 2 YOUR ROOTS 2018 japanese pop hard 石王マサト Patchouli electronic iyasine teruyama Muya denpa speedcore Muse Dash SOUND VOLTEX EXCEED GEAR SDVX VI maimai でらっくす Deluxe DX
BeatmapID:2757797
BeatmapSetID:1328903

[Difficulty]
HPDrainRate:5
CircleSize:4
OverallDifficulty:7
ApproachRate:9
SliderMultiplier:0.89999990463257
SliderTickRate:1

[Events]
//Background and Video events
Video,0,"waraa_x264_001.mp4"
0,0,"vIFlpFA.jpeg",0,0
//Break Periods
//Storyboard Layer 0 (Background)
//Storyboard Layer 1 (Fail)
//Storyboard Layer 2 (Pass)
//Storyboard Layer 3 (Foreground)
//Storyboard Layer 4 (Overlay)
//Storyboard Sound Samples

[TimingPoints]
116,221.40221402214,4,1,1,60,1,0
1887,-100,4,2,1,40,0,0
5429,-100,4,1,1,45,0,0
8972,-100,4,1,1,60,0,0
16056,-100,4,1,2,70,0,0
31112,-100,4,2,1,45,0,0
38197,-100,4,1,1,60,0,0
45282,-100,4,1,1,40,0,0
47496,-100,4,1,1,45,0,0
47938,-100,4,1,1,50,0,0
48824,-100,4,1,1,60,0,0
52366,-66.6666666666667,4,1,2,70,0,1
63437,-200,4,1,1,50,0,1
63879,-66.6666666666667,4,1,2,70,0,1
64765,-66.6666666666667,4,1,2,60,0,1
66979,-100,4,1,1,50,0,0
69636,-100,4,1,1,40,0,0
70964,-100,4,1,1,50,0,0
73178,-100,4,1,1,40,0,0
74507,-100,4,1,1,50,0,0
76278,-100,4,1,1,40,0,0
76721,-100,4,1,1,50,0,0
77385,-100,4,1,1,50,0,0
80263,-100,4,1,1,40,0,0
80706,-100,4,1,1,50,0,0
81813,-100,4,1,1,40,0,0
82477,-100,4,1,1,60,0,0
94876,-66.6666666666667,4,1,2,70,0,1
105946,-100,4,1,2,50,0,0
106389,-66.6666666666667,4,1,2,75,0,1
120558,-100,4,1,2,50,0,0
121444,-100,4,1,1,45,0,0
126758,-100,4,1,1,50,0,0

[Colours]
Combo1 : 255,128,64
Combo2 : 220,160,200
Combo3 : 255,230,140
Combo4 : 130,200,244
Combo5 : 180,220,200

[HitObjects]
155,199,1887,6,0,P|197:223|239:217,1,89.9999952316285,4|0,0:1|0:0,0:0:0:0:
348,181,2330,2,0,L|357:226,1,44.9999976158143,0|0,0:0|0:0,0:0:0:0:
455,39,2662,6,0,P|420:86|337:69,1,134.999992847443,0|0,0:0|0:0,0:0:0:0:
301,47,3104,1,0,0:0:0:0:
301,47,3215,2,0,L|259:71,1,44.9999976158143,0|0,0:0|0:0,0:0:0:0:
205,50,3437,2,0,L|159:72,1,44.9999976158143,0|0,0:0|0:0,0:0:0:0:
106,63,3658,5,0,0:0:0:0:
37,268,3879,1,0,0:0:0:0:
141,172,4101,1,0,0:0:0:0:
141,172,4211,1,0,0:0:0:0:
257,156,4433,6,0,L|284:289,1,134.999992847443,0|0,0:0|0:0,0:0:0:0:
294,345,4876,1,0,0:0:0:0:
294,345,4986,1,0,0:0:0:0:
480,202,5429,6,0,P|439:219|419:260,1,89.9999952316285,0|0,0:0|0:0,0:0:0:0:
385,132,5872,2,0,P|358:117|352:106,1,44.9999976158143,8|0,0:0|0:0,0:0:0:0:
351,37,6093,1,0,0:0:0:0:
285,51,6204,2,0,P|250:78|206:73,1,89.9999952316285,8|0,0:0|0:0,0:0:0:0:
69,70,6536,2,0,P|102:41|147:41,1,89.9999952316285,8|0,0:0|0:0,0:0:0:0:
215,150,6868,2,0,P|246:173|255:232,1,89.999990463257,10|0,0:0|0:0,0:0:0:0:
286,289,7200,6,0,P|312:296|330:293,1,44.9999976158143,2|0,0:0|0:0,0:0:0:0:
211,274,7422,2,0,P|163:284|137:320,1,89.9999952316285,2|8,0:0|0:0,0:0:0:0:
79,346,7754,1,0,0:0:0:0:
60,280,7865,1,0,0:0:0:0:
45,214,7975,2,0,B|84:184|84:184|131:204,1,89.9999952316285,8|0,0:0|0:0,0:0:0:0:
180,166,8307,2,0,P|179:140|172:121,1,44.9999976158143,2|0,0:0|0:0,0:0:0:0:
111,92,8529,1,8,0:0:0:0:
345,35,8972,6,0,L|351:83,1,44.9999976158143,4|0,0:0|0:0,0:0:0:0:
270,127,9193,2,0,L|264:79,1,44.9999976158143,2|0,0:0|0:0,0:0:0:0:
431,36,9414,2,0,L|437:84,1,44.9999976158143,8|0,0:0|0:0,0:0:0:0:
446,148,9636,1,0,0:0:0:0:
482,204,9746,6,0,B|447:237|447:237|412:212,1,89.9999952316285,8|0,0:0|0:0,0:0:0:0:
349,187,10079,2,0,P|316:218|314:261,1,89.9999952316285,8|0,0:0|0:0,0:0:0:0:
250,283,10411,2,0,P|277:320|326:328,1,89.9999952316285,10|0,0:0|0:0,0:0:0:0:
375,294,10743,6,0,P|399:292|418:300,1,44.9999976158143,2|0,0:0|0:0,0:0:0:0:
479,217,10964,2,0,P|455:215|436:223,1,44.9999976158143,2|0,0:0|0:0,0:0:0:0:
340,155,11186,2,0,P|364:157|383:149,1,44.9999976158143,8|0,0:0|0:0,0:0:0:0:
424,95,11407,1,0,0:0:0:0:
392,35,11518,6,0,L|296:46,1,89.9999952316285,8|0,0:0|0:0,0:0:0:0:
238,24,11850,2,0,B|224:66|224:66|256:100,1,89.9999952316285,10|0,0:0|0:0,0:0:0:0:
219,156,12182,2,0,L|171:146,1,44.9999952316285,0|10,0:0|0:0,0:0:0:0:
109,130,12403,1,0,0:0:0:0:
41,127,12514,6,0,P|52:171|89:194,1,89.9999952316285,4|8,0:0|0:0,0:0:0:0:
146,44,12957,1,0,0:0:0:0:
146,44,13068,1,8,0:0:0:0:
241,276,13289,6,0,P|177:261|145:316,1,134.999992847443,4|12,0:0|0:0,0:0:0:0:
217,358,13732,1,0,0:0:0:0:
217,358,13842,2,0,L|310:356,1,89.9999952316285,0|8,0:0|0:0,0:0:0:0:
375,352,14175,1,0,0:0:0:0:
458,238,14285,6,0,P|461:266|453:285,1,44.9999976158143,6|0,0:0|0:0,0:0:0:0:
386,283,14507,2,0,L|341:273,1,44.9999976158143,6|0,0:0|0:0,0:0:0:0:
294,225,14728,2,0,L|205:241,1,89.9999952316285,2|0,0:0|0:0,0:0:0:0:
150,201,15060,1,0,0:0:0:0:
225,104,15171,6,0,L|184:128,1,44.9999952316285,0|0,0:0|0:0,0:0:0:0:
204,27,15392,2,0,L|163:51,1,44.9999952316285,0|0,0:0|0:0,0:0:0:0:
92,27,15614,2,0,L|79:61,7,22.4999988079071,2|2|2|2|2|2|0|0,0:2|0:2|0:2|0:2|0:2|0:2|0:0|0:0,0:0:0:0:
77,80,16056,6,0,P|110:105|113:154,1,89.9999952316285,2|2,0:0|0:0,0:0:0:0:
76,207,16389,1,0,0:0:0:0:
86,273,16499,2,0,P|110:267|126:252,1,44.9999952316285,0|0,0:0|0:0,0:0:0:0:
187,180,16721,1,0,0:0:0:0:
187,180,16831,6,0,B|204:232|259:236,1,89.999990463257,2|0,0:0|0:0,0:0:0:0:
323,230,17163,2,0,P|346:224|364:211,1,44.9999976158143,2|0,0:0|0:0,0:0:0:0:
374,144,17385,2,0,P|423:137|457:167,1,89.9999952316285,0|2,0:0|0:0,0:0:0:0:
473,244,17717,1,0,0:0:0:0:
473,244,17828,6,0,L|461:296,1,44.9999952316285,2|0,0:0|0:0,0:0:0:0:
370,314,18049,2,0,L|328:298,1,44.9999976158143,2|0,0:0|0:0,0:0:0:0:
240,292,18270,1,0,0:0:0:0:
240,292,18381,1,2,0:0:0:0:
240,292,18492,2,0,P|246:318|243:338,1,44.9999976158143,2|0,0:0|0:0,0:0:0:0:
133,346,18713,6,0,L|93:313,1,44.9999976158143,2|0,0:0|0:0,0:0:0:0:
46,272,18935,2,0,B|85:239|85:239|135:258,1,89.999990463257,2|6,0:0|0:0,0:0:0:0:
300,48,19599,6,0,P|271:72|217:72,1,89.9999952316285,2|2,0:0|0:0,0:0:0:0:
150,41,19931,1,0,0:0:0:0:
150,41,20042,2,0,L|110:67,1,44.9999976158143,0|0,0:0|0:0,0:0:0:0:
44,119,20263,1,0,0:0:0:0:
44,119,20374,6,0,P|61:162|114:178,1,89.9999952316285,2|0,0:0|0:0,0:0:0:0:
106,262,20706,2,0,L|201:233,1,89.9999952316285,2|0,0:0|0:0,0:0:0:0:
307,201,21038,1,2,0:0:0:0:
307,201,21149,2,0,L|261:193,1,44.9999976158143,2|0,0:0|0:0,0:0:0:0:
264,300,21370,6,0,L|310:292,1,44.9999976158143,2|0,0:0|0:0,0:0:0:0:
392,320,21592,2,0,L|438:312,1,44.9999976158143,2|0,0:0|0:0,0:0:0:0:
480,212,21813,1,2,0:0:0:0:
480,212,21924,2,0,L|434:220,1,44.9999976158143,2|0,0:0|0:0,0:0:0:0:
370,134,22145,1,0,0:0:0:0:
370,134,22256,6,0,L|309:130,1,59.9999936421713,2|0,0:0|0:0,0:0:0:0:
234,83,22477,2,0,L|173:79,1,59.9999936421713,2|0,0:0|0:0,0:0:0:0:
99,29,22699,2,0,L|35:23,2,64.285707473755,2|2|2,0:0|0:0|0:0,0:0:0:0:
101,118,23141,6,0,P|136:152|181:161,1,89.999990463257,2|2,0:0|0:0,0:0:0:0:
407,131,23584,2,0,L|444:103,1,44.9999952316285,0|2,0:0|0:0,0:0:0:0:
412,30,23806,1,0,0:0:0:0:
412,30,23916,6,0,P|366:42|342:85,1,89.999990463257,2|0,0:0|0:0,0:0:0:0:
309,134,24248,2,0,P|306:180|333:216,1,89.999990463257,2|0,0:0|0:0,0:0:0:0:
385,253,24580,1,0,0:0:0:0:
452,259,24691,2,0,L|463:210,1,44.9999952316285,2|0,0:0|0:0,0:0:0:0:
385,253,24913,6,0,P|375:275|376:296,1,44.9999952316285,2|0,0:0|0:0,0:0:0:0:
283,354,25134,2,0,P|293:332|292:311,1,44.9999952316285,2|0,0:0|0:0,0:0:0:0:
231,217,25355,1,0,0:0:0:0:
231,217,25466,1,2,0:0:0:0:
231,217,25577,2,0,L|180:221,1,44.9999952316285,2|0,0:0|0:0,0:0:0:0:
47,142,25798,6,0,L|108:135,1,59.9999936421713,2|0,0:0|0:0,0:0:0:0:
167,124,26020,2,0,B|173:93|173:93|161:66,1,59.9999936421713,2|0,0:0|0:0,0:0:0:0:
177,24,26241,6,0,L|221:26,1,44.9999952316285,2|2,0:0|0:0,0:0:0:0:
302,70,26462,2,0,L|346:72,1,44.9999952316285,2|2,0:0|0:0,0:0:0:0:
442,135,26684,6,0,L|428:188,3,44.9999952316285,2|2|2|2,0:0|0:0|0:0|0:0,0:0:0:0:
344,190,27127,6,0,L|358:137,3,44.9999952316285,2|2|2|2,0:0|0:0|0:0|0:0,0:0:0:0:
392,258,27569,6,0,P|369:272|346:273,3,44.9999952316285,2|2|2|2,0:0|0:0|0:0|0:0,0:0:0:0:
253,267,28012,6,0,P|233:286|230:312,3,44.9999952316285,2|2|2|2,0:0|0:0|0:0|0:0,0:0:0:0:
158,344,28455,6,0,L|151:311,3,22.4999976158142,2|0|2|0,0:0|0:0|0:0|0:0,0:0:0:0:
90,261,28676,2,0,L|96:234,3,22.4999976158142,2|0|2|0,0:0|0:0|0:0|0:0,0:0:0:0:
62,165,28898,6,0,L|84:147,7,22.4999976158142,2|0|2|0|2|0|2|0,0:0|0:0|0:0|0:0|0:0|0:0|0:0|0:0,0:0:0:0:
96,75,29341,5,2,0:0:0:0:
96,75,29451,2,0,P|124:79|157:131,1,89.999990463257,2|0,0:0|0:0,0:0:0:0:
213,163,29783,2,0,P|216:211|192:245,1,89.999990463257,2|0,0:0|0:0,0:0:0:0:
81,256,30115,6,0,B|86:313|86:313|136:346,2,112.499988079071,2|2|2,0:0|0:0|0:0,0:0:0:0:
433,113,31112,5,4,0:1:0:0:
433,113,31223,2,0,L|337:102,1,89.999990463257,2|2,0:0|0:0,0:0:0:0:
276,92,31555,1,2,0:0:0:0:
450,207,31997,5,0,0:0:0:0:
450,207,32108,2,0,L|354:196,1,89.999990463257,2|0,0:0|0:0,0:0:0:0:
293,186,32440,1,2,0:0:0:0:
462,308,32883,6,0,L|366:297,1,89.999990463257,2|0,0:0|0:0,0:0:0:0:
305,287,33215,1,2,0:0:0:0:
305,287,33326,2,0,L|209:276,1,89.999990463257,2|0,0:0|0:0,0:0:0:0:
149,264,33658,1,2,0:0:0:0:
98,219,33769,6,0,B|67:253|67:253|85:294,2,89.999990463257,0|0|2,0:0|0:0|0:0,0:0:0:0:
79,113,34654,5,0,0:0:0:0:
79,113,34765,2,0,L|175:102,1,89.999990463257,2|0,0:0|0:0,0:0:0:0:
236,92,35097,1,2,0:0:0:0:
62,207,35539,5,0,0:0:0:0:
62,207,35650,2,0,L|158:196,1,89.999990463257,2|0,0:0|0:0,0:0:0:0:
219,186,35982,1,2,0:0:0:0:
50,308,36425,6,0,L|146:297,1,89.999990463257,2|2,0:0|0:0,0:0:0:0:
207,287,36757,1,0,0:0:0:0:
207,287,36868,2,0,L|303:276,1,89.999990463257,0|2,0:0|0:0,0:0:0:0:
363,264,37200,1,0,0:0:0:0:
414,219,37311,6,0,B|445:253|445:253|427:294,2,89.999990463257,8|2|0,0:3|0:0|0:0,0:0:0:0:
363,173,37865,1,8,0:3:0:0:
363,173,37975,2,0,L|378:117,1,44.9999952316285,4|0,0:3|0:0,0:0:0:0:
443,54,38197,6,0,P|471:85|475:132,1,89.999990463257,4|0,0:0|0:0,0:0:0:0:
276,156,38639,2,0,L|235:128,1,44.9999952316285,8|0,0:0|0:0,0:0:0:0:
49,63,38972,2,0,P|86:35|131:41,1,89.999990463257,2|0,0:0|0:0,0:0:0:0:
180,81,39304,2,0,L|168:173,1,89.999990463257,2|8,0:0|0:0,0:0:0:0:
195,232,39636,2,0,B|155:257|155:257|127:222,1,89.999990463257,0|0,0:0|0:0,0:0:0:0:
179,348,39968,6,0,L|263:295,1,89.999990463257,2|2,0:0|0:0,0:0:0:0:
383,355,40411,1,8,0:0:0:0:
383,355,40521,1,0,0:0:0:0:
347,224,40743,6,0,P|393:210|415:168,1,89.999990463257,0|0,0:0|0:0,0:0:0:0:
464,77,41075,2,0,P|420:62|407:99,1,89.999990463257,0|8,0:0|0:0,0:0:0:0:
489,154,41407,1,0,0:0:0:0:
494,121,41518,1,0,0:0:0:0:
489,87,41628,1,0,0:0:0:0:
470,58,41739,6,0,L|431:88,1,44.9999952316285,0|0,0:0|0:0,0:0:0:0:
366,81,41961,2,0,L|327:111,1,44.9999952316285,0|0,0:0|0:0,0:0:0:0:
277,150,42182,1,8,0:0:0:0:
248,167,42293,1,0,0:0:0:0:
228,33,42514,6,0,P|186:52|139:42,1,89.999990463257,0|0,0:0|0:0,0:0:0:0:
61,30,42846,2,0,L|26:113,1,89.999990463257,2|8,0:0|0:0,0:0:0:0:
116,201,43178,1,0,0:0:0:0:
116,201,43289,2,0,P|118:176|110:155,1,44.9999952316285,2|0,0:0|0:0,0:0:0:0:
36,228,43510,6,0,P|69:287|132:291,1,134.999985694885,8|0,0:0|0:0,0:0:0:0:
222,248,43953,1,8,0:0:0:0:
256,248,44064,1,0,0:0:0:0:
288,257,44175,1,0,0:0:0:0:
314,278,44285,1,0,0:0:0:0:
331,307,44396,6,0,P|323:335|292:347,1,59.9999936421713,8|0,0:0|0:0,0:0:0:0:
219,321,44617,2,0,P|242:302|251:273,1,59.9999936421713,2|0,0:2|0:0,0:0:0:0:
302,225,44839,2,0,P|279:206|270:177,1,59.9999936421713,2|0,0:0|0:0,0:0:0:0:
222,123,45060,2,0,P|245:104|254:75,1,59.9999936421713,4|0,0:2|0:0,0:0:0:0:
326,26,45282,5,6,0:0:0:0:
173,61,45503,2,0,L|122:50,1,44.9999952316285,0|0,0:0|0:0,0:0:0:0:
57,81,45724,1,2,0:3:0:0:
59,115,45835,1,2,0:3:0:0:
61,148,45946,1,2,0:3:0:0:
131,343,46167,6,0,P|151:293|97:241,1,134.999985694885,8|0,0:0|0:0,0:0:0:0:
77,305,46610,1,0,0:0:0:0:
254,355,46831,1,2,0:0:0:0:
361,162,47053,5,2,0:0:0:0:
389,293,47274,2,0,P|369:316|351:323,1,44.9999952316285,2|2,0:3|0:3,0:0:0:0:
300,281,47496,1,2,0:3:0:0:
492,212,47717,1,0,0:0:0:0:
248,63,47938,6,0,P|285:93|333:90,1,89.999990463257,8|0,0:0|0:0,0:0:0:0:
353,72,48215,2,0,L|360:42,3,22.4999976158142,0|0|0|0,0:0|0:0|0:0|0:0,0:0:0:0:
189,203,48603,1,2,0:0:0:0:
120,50,48824,6,0,B|123:98|123:98|83:107,1,89.999990463257,2|0,0:0|0:0,0:0:0:0:
54,281,49267,2,0,B|51:233|51:233|91:224,1,89.999990463257,2|2,0:3|0:3,0:0:0:0:
150,298,49599,1,0,0:0:0:0:
150,298,49710,6,0,L|111:383,1,89.999990463257,8|0,0:0|0:0,0:0:0:0:
224,203,50152,2,0,L|260:287,1,89.999990463257,2|2,0:0|0:0,0:0:0:0:
341,106,50595,5,2,0:0:0:0:
239,103,50817,1,2,0:0:0:0:
385,289,51038,1,2,0:0:0:0:
487,271,51259,1,2,0:0:0:0:
442,113,51481,6,0,B|438:135|450:162,1,44.9999952316285,10|0,0:0|0:0,0:0:0:0:
418,290,51702,1,2,0:0:0:0:
402,289,51813,1,2,0:0:0:0:
385,289,51924,6,0,L|359:262,3,22.4999976158142,2|2|2|2,0:2|0:2|0:2|0:2,0:0:0:0:
301,226,52145,2,0,L|274:228,3,22.4999976158142,2|2|2|2,0:2|0:2|0:2|0:2,0:0:0:0:
196,249,52366,6,0,L|196:323,1,67.4999954223632,6|0,0:0|0:0,0:0:0:0:
280,370,52588,2,0,P|290:340|278:305,1,67.4999954223632,2|0,0:0|0:0,0:0:0:0:
118,307,52809,1,0,0:0:0:0:
118,307,52920,2,0,P|107:338|117:370,1,67.4999954223632,2|0,0:0|0:0,0:0:0:0:
196,249,53141,6,0,P|191:185|130:147,1,134.999990844726,2|2,0:0|0:0,0:0:0:0:
16,129,53473,2,0,P|52:131|73:105,1,67.4999954223632,0|2,0:0|0:0,0:0:0:0:
102,33,53695,1,2,0:0:0:0:
304,34,53916,6,0,P|374:26|425:73,1,134.999990844726,8|0,0:3|0:0,0:0:0:0:
462,146,54248,1,2,0:2:0:0:
462,146,54359,2,0,P|441:175|398:187,1,67.4999954223632
445,277,54580,1,2,0:3:0:0:
445,277,54690,1,2,0:3:0:0:
445,277,54802,2,0,P|411:286|376:275,1,67.4999954223632
265,207,55023,6,0,P|230:196|199:205,1,67.4999954223632,6|0,0:2|0:0,0:0:0:0:
199,280,55245,2,0,P|234:291|265:282,1,67.4999954223632,4|0,0:2|0:0,0:0:0:0:
338,238,55466,1,2,0:2:0:0:
347,164,55577,1,0,0:0:0:0:
311,99,55687,1,2,0:2:0:0:
237,89,55798,1,2,0:2:0:0:
201,154,55909,6,0,P|236:165|266:158,1,67.4999954223632,2|0,0:0|0:0,0:0:0:0:
357,114,56130,2,0,P|385:90|393:60,1,67.4999954223632,2|0,0:0|0:0,0:0:0:0:
300,16,56352,1,2,0:0:0:0:
300,16,56462,2,0,L|230:18,1,67.4999954223632,2|0,0:0|0:0,0:0:0:0:
66,49,56684,6,0,B|130:72|130:72|100:137,1,134.999990844726,2|2,0:0|0:0,0:0:0:0:
22,204,57016,2,0,B|47:232|47:232|83:215,1,67.4999954223632,2|2,0:0|0:0,0:0:0:0:
151,195,57237,1,2,0:0:0:0:
349,166,57459,6,0,P|301:128|220:142,1,134.999990844726,2|2,0:3|0:3,0:0:0:0:
151,195,57791,1,2,0:2:0:0:
151,195,57901,2,0,P|145:231|161:264,1,67.4999954223632,0|0,0:0|0:0,0:0:0:0:
258,363,58123,1,2,0:3:0:0:
258,363,58234,2,0,P|274:295|256:232,1,134.999990844726,0|0,0:0|0:0,0:0:0:0:
317,152,58566,6,0,P|361:148|401:172,2,89.9999938964843,4|0|0,0:2|0:0|0:0,0:0:0:0:
186,120,59008,2,0,P|142:124|102:100,2,89.9999938964843
250,57,59451,6,0,P|282:41|314:40,1,67.4999954223632,6|0,0:0|0:0,0:0:0:0:
414,53,59673,2,0,L|395:130,1,67.4999954223632,2|0,0:0|0:0,0:0:0:0:
444,275,59894,1,2,0:0:0:0:
444,275,60005,2,0,L|463:198,1,67.4999954223632,2|0,0:0|0:0,0:0:0:0:
347,312,60226,6,0,P|309:323|281:317,1,67.4999954223632,2|0,0:0|0:0,0:0:0:0:
226,267,60448,1,0,0:0:0:0:
175,213,60558,2,0,P|140:215|111:240,1,67.4999954223632,2|2,0:0|0:0,0:0:0:0:
51,286,60780,1,2,0:0:0:0:
59,83,61001,6,0,P|94:129|153:92,1,134.999990844726,2|2,0:3|0:2,0:0:0:0:
219,46,61333,1,0,0:0:0:0:
219,46,61444,2,0,P|284:43|307:106,1,134.999990844726,2|2,0:2|0:2,0:0:0:0:
284,189,61775,1,2,0:3:0:0:
284,189,61886,2,0,P|296:219|340:226,1,67.4999954223632,0|2,0:0|0:3,0:0:0:0:
395,323,62108,6,0,P|407:292|401:259,1,67.4999954223632,0|2,0:0|0:3,0:0:0:0:
441,165,62330,2,0,P|428:129|395:108,1,67.4999954223632,0|2,0:0|0:3,0:0:0:0:
332,38,62551,1,0,0:0:0:0:
332,38,62662,2,0,P|264:43|241:106,1,134.999990844726,0|2,0:0|0:3,0:0:0:0:
211,202,62994,6,0,P|191:230|159:240,1,67.4999954223632,2|0,0:0|0:0,0:0:0:0:
72,291,63215,2,0,P|62:332|100:364,1,89.9999938964843,2|0,0:0|0:0,0:0:0:0:
176,346,63437,6,0,L|209:338,2,32.1428537368775,2|2|2,0:3|0:3|0:3,0:0:0:0:
282,370,63879,6,0,P|313:378|354:361,1,67.4999954223632,2|2,0:0|0:0,0:0:0:0:
425,276,64101,2,0,P|372:242|313:281,1,134.999990844726,2|2,0:0|0:0,0:0:0:0:
372,72,64544,6,0,P|411:123|481:119,1,134.999990844726,0|2,0:0|0:0,0:0:0:0:
301,113,64986,1,2,0:0:0:0:
103,98,65208,2,0,P|95:163|32:187,1,134.999990844726,2|2,0:0|0:0,0:0:0:0:
107,259,65540,1,2,0:0:0:0:
143,353,65651,6,0,B|196:308|196:308|266:326,1,134.999990844726,2|2,0:2|0:2,0:0:0:0:
383,164,66093,2,0,B|330:119|330:119|260:137,1,134.999990844726,0|0,0:0|0:0,0:0:0:0:
307,228,66425,1,0,0:0:0:0:
307,228,66536,1,2,0:2:0:0:
307,228,66979,6,0,P|365:200|429:251,1,134.999985694885,0|0,0:0|0:0,0:0:0:0:
364,283,67422,6,0,P|279:302|233:228,1,179.999980926514,2|2,0:0|0:0,0:0:0:0:
271,112,68307,5,4,0:0:0:0:
143,67,68529,1,0,0:0:0:0:
118,89,68639,1,0,0:0:0:0:
93,112,68750,2,0,L|35:44,1,89.999990463257,2|2,0:3|0:3,0:0:0:0:
174,159,69193,6,0,P|181:205|154:243,1,89.999990463257,8|0,0:0|0:0,0:0:0:0:
52,323,69636,2,0,B|24:340|24:340|64:365|126:350,1,134.999985694885,0|0,0:0|0:0,0:0:0:0:
189,340,70079,5,2,0:0:0:0:
313,288,70300,1,2,0:3:0:0:
341,306,70411,1,2,0:3:0:0:
369,324,70521,1,2,0:3:0:0:
489,261,70743,1,0,0:0:0:0:
406,75,70964,6,0,P|381:113|397:162,1,89.999990463257,8|0,0:0|0:0,0:0:0:0:
417,174,71241,2,0,L|445:164,3,22.4999976158142,0|0|0|0,0:0|0:0|0:0|0:0,0:0:0:0:
157,39,71628,2,0,L|70:67,1,89.999990463257,2|2,0:0|0:0,0:0:0:0:
206,165,72071,6,0,L|256:151,1,44.9999952316285,0|0,0:0|0:0,0:0:0:0:
286,110,72293,1,2,0:3:0:0:
275,78,72403,1,2,0:3:0:0:
264,46,72514,1,2,0:3:0:0:
459,49,72735,6,0,L|444:139,1,89.999990463257,8|0,0:0|0:0,0:0:0:0:
375,305,73178,2,0,P|413:330|454:319,1,89.999990463257,0|0,0:0|0:0,0:0:0:0:
493,206,73621,6,0,B|401:216,1,89.999990463257,2|2,0:0|0:3,0:0:0:0:
369,220,73953,1,2,0:3:0:0:
335,223,74064,1,2,0:3:0:0:
201,240,74285,1,0,0:0:0:0:
67,260,74507,5,8,0:0:0:0:
251,163,74728,2,0,B|182:150|182:150|127:188,1,134.999985694885,4|0,0:2|0:0,0:0:0:0:
201,240,75171,1,2,0:0:0:0:
306,67,75392,5,4,0:0:0:0:
170,76,75614,2,0,L|119:80,1,44.9999952316285,0|0,0:0|0:0,0:0:0:0:
57,83,75835,1,2,0:3:0:0:
55,116,75946,1,2,0:3:0:0:
53,150,76056,1,2,0:3:0:0:
82,282,76278,6,0,P|146:249|168:191,1,134.999985694885,0|0,0:0|0:0,0:0:0:0:
212,142,76721,6,0,L|231:236,1,89.999990463257,8|2,0:0|0:0,0:0:0:0:
252,363,77163,5,4,0:0:0:0:
369,295,77385,1,2,0:3:0:0:
369,295,77496,1,2,0:3:0:0:
369,295,77606,1,2,0:3:0:0:
482,221,77828,1,0,0:0:0:0:
328,73,78049,6,0,P|332:120|371:146,1,89.999990463257,8|0,0:0|0:0,0:0:0:0:
398,145,78326,2,0,L|424:129,3,22.4999976158142,0|0|0|0,0:0|0:0|0:0|0:0,0:0:0:0:
196,38,78713,1,2,0:0:0:0:
65,74,78935,1,4,0:0:0:0:
224,171,79156,6,0,L|265:153,1,44.9999952316285,0|0,0:0|0:0,0:0:0:0:
327,125,79377,1,2,0:3:0:0:
333,158,79488,1,2,0:3:0:0:
339,190,79599,1,2,0:3:0:0:
373,338,79820,6,0,L|458:308,1,89.999990463257,8|0,0:0|0:0,0:0:0:0:
253,250,80263,6,0,L|125:295,1,134.999985694885,0|0,0:0|0:0,0:0:0:0:
60,314,80706,1,2,0:0:0:0:
120,193,80927,1,0,0:0:0:0:
120,193,81038,1,0,0:0:0:0:
120,193,81149,1,0,0:0:0:0:
70,67,81370,1,0,0:0:0:0:
205,58,81592,6,0,P|186:78|164:77,1,44.9999952316285,8|0,0:0|0:0,0:0:0:0:
70,67,81813,6,0,B|94:113|66:177|66:177|91:209|125:197,1,179.999980926514,4|2,0:0|0:0,0:0:0:0:
246,152,82477,5,2,0:2:0:0:
374,108,82699,1,2,0:2:0:0:
269,22,82920,1,0,0:0:0:0:
269,22,83031,1,0,0:0:0:0:
403,20,83252,6,0,P|449:69|452:136,1,134.999985694885,2|2,0:2|0:2,0:0:0:0:
435,199,83695,1,0,0:0:0:0:
425,265,83806,2,0,P|452:276|471:273,1,44.9999952316285,0|0,0:0|0:0,0:0:0:0:
432,332,84027,2,0,P|456:333|474:322,1,44.9999952316285,0|0,0:0|0:0,0:0:0:0:
359,293,84248,6,0,P|335:292|317:303,1,44.9999952316285,4|2,0:2|0:0,0:0:0:0:
259,338,84470,2,0,L|166:321,1,89.999990463257,4|4,0:2|0:2,0:0:0:0:
107,312,84802,1,2,0:0:0:0:
107,312,84913,1,4,0:2:0:0:
59,150,85134,6,0,L|151:174,2,89.999990463257,2|2|4,0:3|0:3|0:3,0:0:0:0:
306,41,86020,6,0,P|324:54|333:77,1,44.9999952316285,2|0,0:0|0:0,0:0:0:0:
395,50,86241,2,0,P|404:95|389:139,1,89.999990463257,8|2,0:3|0:0,0:0:0:0:
457,149,86573,2,0,P|457:174|444:197,1,44.9999952316285,0|8,0:0|0:3,0:0:0:0:
497,238,86794,1,2,0:0:0:0:
497,238,86905,6,0,P|486:270|454:288,1,59.9999936421713,0|0,0:0|0:0,0:0:0:0:
436,320,87127,2,0,P|399:323|374:313,1,59.9999936421713,8|0,0:3|0:0,0:0:0:0:
333,310,87348,2,0,P|314:285|315:255,1,59.9999936421713,2|0,0:0|0:0,0:0:0:0:
328,214,87569,2,0,L|281:209,1,44.9999952316285,8|0,0:3|0:0,0:0:0:0:
181,198,87791,6,0,L|133:194,1,44.9999952316285,2|0,0:0|0:0,0:0:0:0:
177,293,88012,2,0,B|220:273|220:273|255:302,1,89.999990463257,8|2,0:3|0:0,0:0:0:0:
211,364,88344,1,2,0:0:0:0:
211,364,88455,1,8,0:3:0:0:
59,192,88676,6,0,B|99:169|99:169|139:196,1,89.999990463257,2|8,0:0|0:3,0:0:0:0:
96,248,89008,1,0,0:0:0:0:
96,248,89119,6,0,L|91:314,2,59.9999936421713,2|0|0,0:3|0:0|0:0,0:0:0:0:
109,125,89562,6,0,L|112:74,1,44.9999952316285,8|2,0:0|0:0,0:0:0:0:
190,85,89783,2,0,L|193:34,1,44.9999952316285,0|0,0:0|0:0,0:0:0:0:
269,61,90005,1,8,0:0:0:0:
269,61,90115,2,0,L|317:60,1,44.9999952316285,0|0,0:0|0:0,0:0:0:0:
393,62,90337,1,0,0:0:0:0:
393,62,90448,6,0,P|429:56|450:41,1,59.9999936421713,10|0,0:0|0:0,0:0:0:0:
495,82,90669,2,0,P|469:97|440:100,1,59.9999936421713,2|0,0:0|0:0,0:0:0:0:
421,158,90890,2,0,P|457:152|478:137,1,59.9999936421713,8|0,0:0|0:0,0:0:0:0:
503,175,91112,2,0,L|491:230,1,44.9999952316285,8|2,0:0|0:0,0:0:0:0:
399,299,91333,6,0,L|408:255,1,44.9999952316285,10|0,0:0|0:0,0:0:0:0:
500,308,91555,2,0,L|490:351,1,44.9999952316285,2|0,0:0|0:0,0:0:0:0:
334,370,91776,1,8,0:0:0:0:
334,370,91887,2,0,L|278:362,1,44.9999952316285,0|0,0:0|0:0,0:0:0:0:
140,302,92108,6,0,P|182:282|230:301,1,89.999990463257,0|8,0:0|0:0,0:0:0:0:
288,232,92440,2,0,L|275:183,1,44.9999952316285,0|2,0:0|0:0,0:0:0:0:
177,95,92662,6,0,L|128:89,1,44.9999952316285,8|0,0:0|0:0,0:0:0:0:
29,68,92883,2,0,L|8:96,3,22.4999976158142,8|0|0|0,0:0|0:0|0:0|0:0,0:0:0:0:
86,26,93104,6,0,P|107:16|131:13,1,44.9999952316285,10|0,0:0|0:0,0:0:0:0:
225,27,93326,2,0,P|271:33|324:27,1,89.999990463257,2|8,0:0|0:0,0:0:0:0:
407,83,93658,1,0,0:0:0:0:
407,83,93769,1,0,0:0:0:0:
407,83,93879,6,0,B|449:101|449:101|401:187,1,134.999985694885,2|0,0:0|0:0,0:0:0:0:
317,211,94322,1,0,0:0:0:0:
317,211,94433,2,0,L|264:203,1,44.9999952316285,2|2,0:2|0:2,0:0:0:0:
139,219,94654,2,0,P|173:218|196:195,1,67.4999928474427,2|2,0:2|0:2,0:0:0:0:
195,195,94876,6,0,L|176:127,1,67.4999954223632,6|0,0:0|0:0,0:0:0:0:
109,31,95097,2,0,L|90:99,1,67.4999954223632,2|0,0:0|0:0,0:0:0:0:
262,111,95318,1,2,0:0:0:0:
262,111,95429,2,0,L|281:43,1,67.4999954223632,2|0,0:0|0:0,0:0:0:0:
441,68,95651,6,0,B|361:83|361:83|393:134,1,134.999990844726,2|2,0:0|0:0,0:0:0:0:
467,155,95983,2,0,L|457:224,1,67.4999954223632,2|0,0:0|0:0,0:0:0:0:
445,302,96204,1,2,0:0:0:0:
315,368,96425,5,4,0:2:0:0:
315,368,96536,1,0,0:0:0:0:
315,368,96647,2,0,L|245:354,1,67.4999954223632,2|0,0:2|0:0,0:0:0:0:
175,336,96868,1,2,0:3:0:0:
175,261,96979,5,0,0:0:0:0:
144,259,97090,1,2,0:2:0:0:
114,266,97200,1,0,0:0:0:0:
92,286,97311,1,2,0:3:0:0:
78,313,97422,1,0,0:0:0:0:
74,343,97532,6,0,P|51:316|50:280,1,67.4999954223632,8|4,0:3|0:2,0:0:0:0:
88,198,97754,1,0,0:0:0:0:
38,116,97865,2,0,P|41:82|63:58,1,67.4999954223632,8|4,0:3|0:2,0:0:0:0:
156,39,98086,1,0,0:0:0:0:
213,114,98197,2,0,P|209:147|187:171,1,67.4999954223632,2|2,0:2|0:2,0:0:0:0:
88,198,98418,6,0,L|121:133,1,67.4999954223632,2|0,0:0|0:0,0:0:0:0:
127,307,98639,2,0,L|160:242,1,67.4999954223632,2|0,0:0|0:0,0:0:0:0:
250,224,98861,1,2,0:0:0:0:
333,178,98972,2,0,L|366:113,1,67.4999954223632,2|0,0:0|0:0,0:0:0:0:
345,263,99193,6,0,B|313:336|313:336|373:337,1,134.999990844726,2|2,0:0|0:0,0:0:0:0:
429,283,99525,2,0,B|466:269|466:269|465:305,1,67.4999954223632,0|2,0:0|0:0,0:0:0:0:
442,368,99746,1,2,0:0:0:0:
399,26,99968,6,0,B|366:22|366:22|341:55,1,67.4999954223632,2|0,0:2|0:0,0:0:0:0:
279,118,100189,1,2,0:3:0:0:
279,118,100300,1,0,0:0:0:0:
279,118,100411,2,0,L|212:101,1,67.4999954223632,0|0,0:0|0:0,0:0:0:0:
47,64,100632,2,0,B|84:35|84:35|124:71|109:121,1,134.999990844726,2|2,0:3|0:2,0:0:0:0:
88,212,100964,1,0,0:0:0:0:
88,212,101075,6,0,P|130:221|161:187,1,89.9999938964843,4|0,0:2|0:0,0:0:0:0:
291,80,101370,2,0,B|254:53|254:53|225:87,1,89.9999938964843
233,221,101665,2,0,B|270:248|270:248|299:214,1,89.9999938964843
316,211,101961,6,0,P|352:216|390:211,1,67.4999954223632,6|0,0:0|0:0,0:0:0:0:
493,115,102182,2,0,P|457:110|419:115,1,67.4999954223632,2|0,0:0|0:0,0:0:0:0:
293,36,102403,1,2,0:0:0:0:
293,36,102514,2,0,L|222:44,1,67.4999954223632,2|0,0:0|0:0,0:0:0:0:
114,127,102735,6,0,L|185:119,1,67.4999954223632,2|0,0:0|0:0,0:0:0:0:
136,49,102957,1,2,0:0:0:0:
62,57,103068,5,2,0:0:0:0:
42,80,103178,1,2,0:0:0:0:
33,108,103289,2,0,P|26:138|41:172,1,67.4999954223632,2|0,0:0|0:0,0:0:0:0:
57,269,103510,6,0,P|92:268|121:251,1,67.4999954223632,2|2,0:2|0:2,0:0:0:0:
192,180,103732,1,2,0:3:0:0:
218,194,103842,1,0,0:0:0:0:
238,216,103953,1,0,0:0:0:0:
249,244,104064,1,2,0:3:0:0:
259,276,104175,6,0,B|304:343|335:257|385:325,1,134.999990844726,8|8,0:3|0:3,0:0:0:0:
446,124,104617,5,2,0:2:0:0:
419,107,104728,1,0,0:0:0:0:
388,108,104839,1,2,0:2:0:0:
364,89,104949,1,0,0:0:0:0:
343,66,105060,1,2,0:2:0:0:
312,69,105171,1,0,0:0:0:0:
284,56,105282,1,0,0:0:0:0:
255,45,105392,1,4,0:2:0:0:
223,32,105503,6,0,P|222:65|237:99,1,67.4999954223632,2|0,0:0|0:0,0:0:0:0:
131,61,105724,2,0,P|130:94|145:128,1,67.4999954223632,2|0,0:0|0:0,0:0:0:0:
198,192,105946,6,0,L|265:177,2,64.285707473755,2|2|2,0:0|0:0|0:0,0:0:0:0:
128,260,106389,6,0,P|156:314|102:355,1,134.999990844726,2|2,0:0|0:0,0:0:0:0:
38,279,106721,2,0,P|10:225|64:184,1,134.999990844726,0|0,0:0|0:0,0:0:0:0:
142,125,107053,1,2,0:0:0:0:
142,125,107163,1,2,0:0:0:0:
142,125,107274,6,0,L|80:100,1,67.4999954223632,2|0,0:0|0:0,0:0:0:0:
218,64,107496,2,0,L|156:39,1,67.4999954223632,2|0,0:0|0:0,0:0:0:0:
226,156,107717,2,0,P|291:173|346:137,1,134.999990844726,2|0,0:0|0:0,0:0:0:0:
391,48,108049,1,2,0:0:0:0:
391,48,108160,6,0,B|397:11|397:11|465:83,1,134.999990844726,2|2,0:0|0:0,0:0:0:0:
496,177,108492,1,0,0:0:0:0:
496,177,108603,2,0,L|427:172,1,67.4999954223632,2|0,0:0|0:0,0:0:0:0:
368,253,108824,2,0,L|299:248,1,67.4999954223632,2|0,0:0|0:0,0:0:0:0:
213,300,109045,6,0,P|198:333|204:364,1,67.4999954223632,0|2,0:0|0:0,0:0:0:0:
301,333,109267,1,0,0:0:0:0:
301,333,109377,1,0,0:0:0:0:
301,333,109488,2,0,L|362:364,1,67.4999954223632,2|0,0:0|0:0,0:0:0:0:
497,273,109710,2,0,L|436:304,1,67.4999954223632,2|0,0:0|0:0,0:0:0:0:
312,205,109931,6,0,B|381:206|381:206|430:155,1,134.999990844726,2|2,0:0|0:0,0:0:0:0:
337,109,110263,1,0,0:0:0:0:
337,109,110374,2,0,L|197:109,1,134.999990844726,2|2,0:0|0:0,0:0:0:0:
100,106,110706,1,0,0:0:0:0:
100,106,110817,6,0,P|110:73|103:42,1,67.4999954223632,2|0,0:0|0:0,0:0:0:0:
21,150,111038,2,0,P|9:219|63:264,1,134.999990844726,2|2,0:0|0:0,0:0:0:0:
151,331,111370,1,0,0:0:0:0:
151,331,111481,2,0,L|150:262,1,67.4999954223632,0|2,0:0|0:0,0:0:0:0:
240,211,111702,6,0,L|220:145,1,67.4999954223632,2|0,0:0|0:0,0:0:0:0:
243,57,111924,1,0,0:0:0:0:
243,57,112034,2,0,B|176:55,1,67.4999954223632,0|2,0:0|0:0,0:0:0:0:
243,57,112256,2,0,B|298:34|321:97|374:80,1,134.999990844726,2|0,0:0|0:0,0:0:0:0:
455,39,112588,6,0,B|488:68|488:68|478:114,2,89.9999938964843,2|0|2,0:0|0:0|0:0,0:0:0:0:
433,225,113031,6,0,B|400:196|400:196|409:150,2,89.9999938964843,2|0|0,0:0|0:0|0:0,0:0:0:0:
410,360,113473,6,0,L|270:338,1,134.999990844726,2|2,0:0|0:0,0:0:0:0:
200,270,113806,1,0,0:0:0:0:
200,270,113916,2,0,L|60:248,1,134.999990844726,2|2,0:0|0:0,0:0:0:0:
102,343,114248,1,0,0:0:0:0:
102,343,114359,6,0,P|126:315|126:283,1,67.4999954223632,2|2,0:0|0:0,0:0:0:0:
211,187,114580,2,0,P|206:110|155:77,1,134.999990844726,0|2,0:0|0:0,0:0:0:0:
50,201,115023,5,0,0:0:0:0:
50,201,115134,1,2,0:0:0:0:
50,201,115245,2,0,P|27:231|46:264,1,67.4999954223632
67,338,115466,2,0,B|104:354|104:354|121:260,1,134.999990844726,2|0,0:0|0:0,0:0:0:0:
247,229,115798,2,0,B|210:213|210:213|193:307,1,134.999990844726,2|0,0:0|0:0,0:0:0:0:
361,306,116130,6,0,L|294:305,2,67.4999954223632,0|2|0,0:0|0:0|0:0,0:0:0:0:
408,228,116462,2,0,P|442:228|470:246,1,67.4999954223632,2|0,0:0|0:0,0:0:0:0:
409,143,116684,2,0,P|375:143|347:161,1,67.4999954223632,0|2,0:0|0:0,0:0:0:0:
407,60,116905,1,2,0:0:0:0:
407,60,117016,6,0,P|441:60|469:78,1,67.4999954223632,4|0,0:2|0:0,0:0:0:0:
309,92,117237,2,0,P|275:92|247:74,1,67.4999954223632,4|0,0:0|0:0,0:0:0:0:
111,66,117459,6,0,L|184:140,2,96.4285648890903,2|2|2,0:0|0:0|0:0,0:0:0:0:
49,174,117901,5,2,0:0:0:0:
42,204,118012,1,2,0:0:0:0:
35,233,118123,1,0,0:0:0:0:
30,262,118234,1,0,0:0:0:0:
22,291,118344,2,0,L|98:272,1,67.4999954223632,2|0,0:0|0:0,0:0:0:0:
168,265,118566,5,4,0:2:0:0:
311,262,118787,2,0,B|278:327|278:327|214:324,1,134.999990844726,0|0,0:0|0:0,0:0:0:0:
142,200,119119,1,0,0:0:0:0:
142,200,119230,2,0,B|175:135|175:135|239:138,1,134.999990844726,0|4,0:0|0:2,0:0:0:0:
321,167,119562,1,0,0:0:0:0:
404,224,119673,6,0,P|453:198|411:148,4,134.999990844726,2|2|2|2|2,0:0|0:0|0:0|0:0|0:0,0:0:0:0:
165,63,121001,6,0,P|188:112|259:98,1,134.999985694885,0|0,0:0|0:0,0:0:0:0:
325,39,121444,2,0,L|339:67,5,22.4999976158142,2|2|2|0|2|2,0:0|0:0|0:0|0:0|0:0|0:0,0:0:0:0:
328,135,121776,2,0,L|324:165,8,22.4999976158142,2|2|2|0|2|2|0|0|0,0:0|0:0|0:0|0:0|0:0|0:0|0:0|0:0|0:0,0:0:0:0:
305,238,122330,6,0,P|260:248|212:235,1,89.999990463257,4|0,0:0|0:0,0:0:0:0:
95,181,122772,1,8,0:0:0:0:
95,181,122883,1,0,0:0:0:0:
112,47,123104,6,0,P|173:63|214:124,1,134.999985694885,2|0,0:2|0:0,0:0:0:0:
123,321,123658,1,8,0:0:0:0:
253,355,123879,1,0,0:0:0:0:
253,355,123990,1,0,0:0:0:0:
253,355,124101,1,0,0:0:0:0:
371,290,124322,1,0,0:0:0:0:
502,322,124544,1,8,0:0:0:0:
502,322,124654,1,0,0:0:0:0:
362,162,124876,6,0,P|427:167|465:221,1,134.999985694885,2|2,0:0|0:0,0:0:0:0:
497,89,125429,1,8,0:0:0:0:
295,109,125761,6,0,P|228:103|210:42,1,134.999985694885,2|2,0:0|0:0,0:0:0:0:
100,126,126315,1,8,0:0:0:0:
91,345,126647,6,0,P|160:343|191:292,1,134.999985694885,0|2,0:0|0:0,0:0:0:0:
75,221,127200,1,4,0:0:0:0:
