osu file format v14

[General]
AudioFilename: audio.mp3
AudioLeadIn: 0
PreviewTime: 53134
Countdown: 0
SampleSet: Soft
StackLeniency: 0.7
Mode: 2
LetterboxInBreaks: 0
WidescreenStoryboard: 1

[Editor]
Bookmarks: 6183,7954,9726,10611,11497,12382,13268,13711,14154,14596,15039,15482,15925,16368,16810,31866
DistanceSpacing: 0.9
BeatDivisor: 4
GridSize: 4
TimelineZoom: 1.9

[Metadata]
Title:Punai Punai Sensou
TitleUnicode:プナイプナイせんそう
Artist:Rish feat. Choko
ArtistUnicode:立秋 feat. ちょこ
Creator:Kukkai
Version:Rew's Platter
Source:
Tags:lacrima myle rew0825 dapuluous dapu rissyuu Risshuu mg mappers guild Featured Artist FA Muse Dash BMS 石王マサト MASATO Ishioh G2R2018 Climax GO BACK 2 YOUR ROOTS 2018 hard 石王マサト Patchouli video game japanese electronic novelty
BeatmapID:3160477
BeatmapSetID:1109546

[Difficulty]
HPDrainRate:5
CircleSize:3.5
OverallDifficulty:8.2
ApproachRate:8.2
SliderMultiplier:1.08
SliderTickRate:1

[Events]
//Background and Video events
0,0,"punaiii.png",0,0
Video,854,"video.mp4"
//Break Periods
//Storyboard Layer 0 (Background)
//Storyboard Layer 1 (Fail)
//Storyboard Layer 2 (Pass)
//Storyboard Layer 3 (Foreground)
//Storyboard Layer 4 (Overlay)
//Storyboard Sound Samples

[TimingPoints]
870,221.40221402214,4,1,1,60,1,0
2641,-100,4,2,1,40,0,0
5962,-100,4,2,1,10,0,0
6183,-100,4,2,1,40,0,0
9726,-100,4,2,1,50,0,0
16810,-100,4,2,1,70,0,1
27438,-100,4,2,1,70,0,1
30869,-100,4,2,1,70,0,0
31866,-100,4,2,1,50,0,0
35187,-100,4,2,1,5,0,0
35408,-100,4,2,1,50,0,0
46036,-100,4,2,1,60,0,0
53120,-100,4,2,1,70,0,1
67290,-100,4,2,1,50,0,0
67734,-100,4,2,1,5,0,0
68176,-100,4,2,1,60,0,0
69061,-100,4,2,1,60,0,0
83231,-100,4,2,1,50,0,0
85003,-100,4,2,1,60,0,0
95630,-100,4,2,1,70,0,1
106257,-100,4,2,1,70,0,0
107143,-100,4,2,1,75,0,1
121312,-100,4,2,1,100,0,0
121534,-100,4,2,1,40,0,0
122199,-100,4,2,1,60,0,0
123084,-100,4,2,1,60,0,0

[Colours]
Combo1 : 227,207,96
Combo2 : 231,187,159
Combo3 : 193,45,41
Combo4 : 98,145,102

[HitObjects]
256,192,870,12,0,2087,0:2:0:0:
204,304,2641,6,0,L|200:248,1,54,6|0,0:2|0:0,0:0:0:0:
308,248,2973,2,0,L|312:192,1,54,0|2,0:0|0:2,0:0:0:0:
96,192,3526,2,0,L|92:136,1,54,0|0,0:0|0:0,0:0:0:0:
200,136,3858,2,0,L|204:76,1,54,0|2,0:0|0:2,0:0:0:0:
96,84,4191,1,2,0:2:0:0:
204,84,4412,6,0,L|208:192,1,108,2|2,0:2|0:2,0:0:0:0:
152,196,4744,1,0,0:0:0:0:
96,196,4855,2,0,L|92:308,1,108,2|0,0:2|0:0,0:0:0:0:
200,308,5298,6,0,L|204:252,1,54,0|0,0:0|0:0,0:0:0:0:
96,256,5630,2,0,L|92:200,1,54,0|2,0:0|0:2,0:0:0:0:
436,204,6183,6,0,L|440:144,1,54,2|0,1:2|0:0,0:0:0:0:
332,152,6515,2,0,L|328:96,1,54,0|2,0:0|0:2,0:0:0:0:
436,100,6847,1,0,0:2:0:0:
328,100,7069,6,0,L|324:160,1,54,0|0,0:2|0:2,0:0:0:0:
432,160,7401,2,0,L|436:216,1,54,0|2,0:0|0:2,0:0:0:0:
380,212,7622,1,0,0:2:0:0:
272,212,7844,1,2,0:2:0:0:
384,212,7954,6,0,L|388:268,1,54,2|0,1:2|0:0,0:0:0:0:
280,272,8286,1,0,0:0:0:0:
228,264,8397,1,2,0:2:0:0:
236,208,8508,1,2,0:2:0:0:
288,200,8619,1,0,0:2:0:0:
396,200,8840,6,0,L|400:140,1,54,0|0,0:2|0:2,0:0:0:0:
292,144,9172,1,0,0:0:0:0:
288,92,9283,2,0,L|416:92,1,108,2|0,0:2|0:2,0:0:0:0:
112,92,9726,5,6,1:2:0:0:
108,144,9836,1,0,0:0:0:0:
216,140,10058,1,0,0:0:0:0:
220,192,10168,1,2,0:2:0:0:
112,192,10390,1,0,0:2:0:0:
308,188,10611,5,0,0:2:0:0:
312,244,10722,1,0,0:2:0:0:
204,248,10943,1,0,0:2:0:0:
200,304,11054,1,2,0:2:0:0:
256,304,11165,1,0,1:2:0:0:
364,304,11386,1,0,0:2:0:0:
252,304,11497,5,2,1:2:0:0:
196,304,11608,1,0,0:0:0:0:
304,304,11829,1,0,0:0:0:0:
360,304,11940,1,2,0:2:0:0:
352,252,12050,1,2,0:2:0:0:
296,252,12161,1,0,0:2:0:0:
100,256,12382,6,0,L|96:200,1,54,0|0,0:2|0:2,0:0:0:0:
204,204,12715,2,0,L|208:144,1,54,0|2,0:2|0:2,0:0:0:0:
100,152,13047,1,2,0:2:0:0:
384,152,13268,6,0,L|388:208,1,54,6|0,1:2|0:0,0:0:0:0:
280,208,13600,1,0,0:0:0:0:
392,204,13711,2,0,L|504:204,1,108,2|0,0:2|0:2,0:0:0:0:
216,208,14154,6,0,L|212:264,1,54,0|0,0:2|0:2,0:0:0:0:
320,260,14486,1,0,0:2:0:0:
208,260,14597,2,0,L|96:260,1,108,2|2,0:0|1:2,0:0:0:0:
296,260,15039,6,0,L|300:152,1,108,6|2,1:2|1:2,0:0:0:0:
104,148,15482,2,0,L|100:40,1,108,2|0,1:2|1:2,0:0:0:0:
156,40,15814,1,2,0:2:0:0:
264,40,15925,5,0,1:2:0:0:
372,40,16036,2,0,L|376:152,1,108,0|0,1:2|1:2,0:0:0:0:
264,148,16368,2,0,L|128:148,1,108,2|0,0:2|0:2,0:0:0:0:
440,148,16810,6,0,L|444:272,1,108,10|10,1:2|1:2,0:0:0:0:
248,260,17253,2,0,L|244:152,1,108,10|8,1:2|1:2,0:0:0:0:
300,152,17585,1,2,0:2:0:0:
412,152,17696,6,0,L|272:152,1,108,8|10,1:2|1:2,0:0:0:0:
108,152,18139,1,10,1:2:0:0:
52,156,18250,1,0,1:2:0:0:
56,208,18360,1,10,1:2:0:0:
112,208,18471,1,2,1:2:0:0:
224,208,18582,6,0,L|344:208,1,108,10|10,1:2|1:2,0:0:0:0:
136,208,19024,2,0,L|132:320,1,108,10|8,1:2|1:2,0:0:0:0:
188,316,19357,1,2,0:2:0:0:
296,316,19467,5,8,1:2:0:0:
404,316,19578,2,0,L|408:208,1,108,0|0,0:2|0:2,0:0:0:0:
296,208,19910,2,0,L|168:208,1,108,10|0,1:2|0:2,0:0:0:0:
244,208,20242,1,0,0:2:0:0:
356,208,20353,6,0,L|360:100,1,108,10|10,1:2|1:2,0:0:0:0:
164,100,20796,2,0,L|160:208,1,108,10|8,1:2|1:2,0:0:0:0:
216,208,21128,1,2,1:2:0:0:
328,208,21239,6,0,L|460:208,1,108,8|10,1:2|1:2,0:0:0:0:
240,208,21681,1,10,1:2:0:0:
184,208,21792,1,8,1:2:0:0:
188,152,21903,1,10,1:2:0:0:
240,152,22013,1,2,1:2:0:0:
352,152,22124,6,0,L|356:268,1,108,10|10,1:2|1:2,0:0:0:0:
300,260,22456,1,0,1:2:0:0:
188,260,22567,2,0,L|184:152,1,108,10|8,1:2|1:2,0:0:0:0:
380,156,23010,5,0,0:0:0:0:
436,156,23120,1,0,1:2:0:0:
436,96,23231,1,10,1:2:0:0:
240,92,23453,1,10,1:2:0:0:
320,132,23619,1,10,1:2:0:0:
400,132,23785,1,10,1:2:0:0:
404,184,23895,5,14,1:2:0:0:
120,184,24117,2,0,L|116:296,1,108,10|10,1:2|1:2,0:0:0:0:
224,292,24560,2,0,L|228:236,1,54,8|2,1:2|1:2,0:0:0:0:
116,236,24781,6,0,L|8:236,1,108,8|10,1:2|1:2,0:0:0:0:
204,236,25224,1,10,1:2:0:0:
256,232,25334,1,0,1:2:0:0:
252,176,25445,1,10,1:2:0:0:
196,176,25556,1,2,1:2:0:0:
84,176,25667,5,10,1:2:0:0:
32,172,25777,1,0,1:2:0:0:
84,176,25888,1,10,1:2:0:0:
280,176,26109,2,0,L|396:176,1,108,10|8,1:2|1:2,0:0:0:0:
332,176,26441,1,2,1:2:0:0:
224,176,26552,5,0,0:0:0:0:
116,176,26663,2,0,L|112:288,1,108,0|0,1:2|1:2,0:0:0:0:
220,284,26995,2,0,L|344:284,1,108,2|10,3:2|3:2,0:0:0:0:
272,284,27327,1,2,3:2:0:0:
160,284,27438,6,0,L|156:176,1,108,10|10,1:2|1:2,0:0:0:0:
212,176,27770,1,8,1:2:0:0:
324,176,27881,1,10,1:2:0:0:
376,176,27991,1,10,1:2:0:0:
324,176,28102,1,8,1:2:0:0:
40,176,28323,6,0,L|36:292,1,108,8|10,1:2|1:2,0:0:0:0:
92,284,28655,1,8,1:2:0:0:
204,284,28766,1,10,1:2:0:0:
148,284,28877,1,8,1:2:0:0:
92,284,28988,1,10,1:2:0:0:
376,284,29209,5,10,1:2:0:0:
428,276,29320,1,8,1:2:0:0:
424,224,29430,1,10,1:2:0:0:
372,220,29541,1,8,1:2:0:0:
260,220,29652,1,10,1:2:0:0:
208,212,29763,1,10,1:2:0:0:
212,160,29873,1,8,1:2:0:0:
264,156,29984,1,10,1:2:0:0:
372,156,30095,5,8,1:2:0:0:
480,156,30205,2,0,L|484:264,1,108,10|8,1:2|1:2,0:0:0:0:
372,264,30537,2,0,L|252:264,1,108,10|8,1:2|0:2,0:0:0:0:
376,264,30869,6,0,L|380:152,1,108,8|0,0:2|0:0,0:0:0:0:
324,156,31202,1,0,0:0:0:0:
128,156,31423,2,0,L|124:264,1,108,2|0,0:2|0:0,0:0:0:0:
408,268,31866,6,0,L|412:204,1,54,4|0,1:2|0:0,0:0:0:0:
304,216,32198,2,0,L|300:152,1,54,0|2,0:0|0:2,0:0:0:0:
408,164,32530,1,0,0:2:0:0:
300,164,32751,6,0,L|296:104,1,54,0|0,0:0|0:0,0:0:0:0:
404,112,33084,2,0,L|408:176,1,54,0|2,0:0|0:2,0:0:0:0:
192,172,33637,6,0,L|188:288,1,108,2|2,0:2|0:2,0:0:0:0:
244,280,33969,1,0,0:2:0:0:
300,280,34080,2,0,L|304:168,1,108,2|0,0:2|0:0,0:0:0:0:
196,172,34523,6,0,L|192:116,1,54,0|0,0:0|0:0,0:0:0:0:
300,120,34855,1,0,0:0:0:0:
352,120,34965,2,0,L|356:232,1,108,2|0,0:2|0:2,0:0:0:0:
160,228,35408,6,0,L|156:292,1,54,2|0,1:2|0:0,0:0:0:0:
264,280,35740,2,0,L|268:224,1,54,0|2,0:0|0:2,0:0:0:0:
160,228,36072,1,0,0:2:0:0:
268,228,36294,6,0,L|272:160,1,54,0|0,0:0|0:0,0:0:0:0:
164,176,36626,2,0,L|160:116,1,54,0|2,0:0|0:2,0:0:0:0:
268,124,36958,1,2,0:2:0:0:
324,124,37069,1,2,0:2:0:0:
268,124,37179,6,0,L|148:124,1,108,2|2,0:2|0:2,0:0:0:0:
268,124,37622,2,0,L|272:180,1,54,2|2,0:2|0:2,0:0:0:0:
164,180,37954,1,2,0:2:0:0:
108,180,38065,6,0,L|104:292,1,108,0|2,0:0|0:2,0:0:0:0:
212,284,38508,1,2,0:2:0:0:
156,284,38619,1,0,0:0:0:0:
104,284,38729,1,2,0:2:0:0:
388,284,38951,6,0,L|392:228,1,54,2|0,1:2|0:0,0:0:0:0:
284,232,39283,2,0,L|280:176,1,54,0|2,0:0|0:2,0:0:0:0:
388,180,39615,1,0,0:2:0:0:
280,180,39836,6,0,L|276:124,1,54,0|0,0:2|0:2,0:0:0:0:
384,128,40168,2,0,L|388:72,1,54,0|2,0:0|0:2,0:0:0:0:
280,76,40500,1,2,0:2:0:0:
476,72,40722,6,0,L|480:184,1,108,2|2,0:2|1:2,0:0:0:0:
424,180,41054,1,0,0:0:0:0:
368,180,41165,2,0,L|364:288,1,108,2|0,0:2|0:2,0:0:0:0:
472,288,41608,6,0,L|476:232,1,54,0|0,0:2|0:2,0:0:0:0:
368,236,41940,2,0,L|364:176,1,54,0|2,0:2|0:2,0:0:0:0:
472,180,42272,2,0,L|416:180,1,54,2|2,0:2|0:2,0:0:0:0:
304,180,42493,6,0,L|300:124,1,54,2|0,1:2|0:0,0:0:0:0:
408,128,42825,2,0,L|412:68,1,54,0|2,0:0|1:2,0:0:0:0:
304,72,43157,1,0,0:2:0:0:
411,74,43379,6,0,L|415:130,1,54,0|0,0:2|0:2,0:0:0:0:
307,126,43711,2,0,L|303:186,1,54,0|2,0:0|0:2,0:0:0:0:
411,182,44043,1,2,1:2:0:0:
216,184,44264,6,0,L|212:292,1,108,2|2,1:2|0:2,0:0:0:0:
268,292,44596,1,0,0:0:0:0:
324,292,44707,2,0,L|328:184,1,108,2|0,0:2|0:2,0:0:0:0:
220,184,45150,5,0,0:2:0:0:
328,184,45371,1,2,1:2:0:0:
132,184,45593,2,0,L|128:72,1,108,2|2,0:2|0:2,0:0:0:0:
412,80,46036,6,0,L|416:192,1,108,4|0,1:2|0:2,0:0:0:0:
308,188,46478,2,0,P|324:244|416:268,1,162,0|0,0:2|0:2,0:0:0:0:
304,264,46921,6,0,L|184:264,1,108,8|0,1:2|0:2,0:0:0:0:
304,264,47364,2,0,P|352:224|304:156,1,162,0|0,0:2|0:2,0:0:0:0:
188,156,47807,6,0,L|76:156,1,108,0|0,1:2|0:2,0:0:0:0:
188,156,48250,2,0,P|172:100|80:76,1,162,0|0,0:2|0:2,0:0:0:0:
192,76,48692,6,0,L|316:76,1,108,8|0,1:2|0:2,0:0:0:0:
328,124,49024,1,0,0:2:0:0:
300,172,49135,1,0,0:2:0:0:
192,172,49357,1,0,1:2:0:0:
388,172,49578,6,0,L|392:280,1,108,0|0,1:2|0:2,0:0:0:0:
284,280,50021,2,0,P|236:240|284:172,1,162,0|0,1:2|0:2,0:0:0:0:
400,172,50464,6,0,L|404:64,1,108,8|0,1:2|0:2,0:0:0:0:
296,64,50906,1,0,1:2:0:0:
404,64,51128,2,0,L|408:120,1,54,0|0,1:2|0:0,0:0:0:0:
296,116,51349,6,0,L|176:116,1,108,0|0,1:2|1:2,0:0:0:0:
296,116,51792,2,0,L|184:116,1,108,0|0,1:2|1:2,0:0:0:0:
384,116,52235,6,0,L|388:224,1,108,8|0,1:2|0:2,0:0:0:0:
192,224,52678,1,2,1:2:0:0:
136,224,52788,1,2,0:2:0:0:
140,280,52899,1,2,0:2:0:0:
196,280,53010,1,2,0:2:0:0:
308,280,53120,6,0,L|312:168,1,108,14|10,1:2|1:2,0:0:0:0:
116,168,53563,2,0,L|112:108,1,54,10|2,1:2|0:2,0:0:0:0:
396,116,53895,6,0,L|508:116,2,108,2|2|2,0:2|0:2|0:2,0:0:0:0:
280,116,54449,1,10,1:2:0:0:
224,116,54560,1,0,1:2:0:0:
280,116,54670,1,10,1:2:0:0:
392,116,54781,6,0,L|396:224,1,108,2|2,0:2|0:2,0:0:0:0:
340,224,55113,1,10,1:2:0:0:
144,224,55334,1,10,1:2:0:0:
88,224,55445,1,0,0:2:0:0:
144,224,55556,1,10,1:2:0:0:
428,224,55777,5,10,1:2:0:0:
480,216,55888,1,0,0:2:0:0:
476,160,55999,1,10,1:2:0:0:
424,156,56109,1,0,0:2:0:0:
312,156,56220,2,0,L|436:156,1,108,10|10,1:2|1:2,0:0:0:0:
364,156,56552,1,0,0:2:0:0:
252,156,56663,6,0,L|248:264,1,108,10|10,1:2|1:2,0:0:0:0:
444,264,57106,2,0,L|448:204,1,54,10|2,1:2|1:2,0:0:0:0:
164,212,57438,6,0,L|56:212,2,108,2|2|2,0:2|0:2|0:2,0:0:0:0:
276,212,57991,1,10,1:2:0:0:
168,212,58213,1,10,1:2:0:0:
164,264,58323,1,0,0:2:0:0:
276,264,58434,5,10,1:2:0:0:
332,264,58545,1,0,0:2:0:0:
276,264,58655,1,10,1:2:0:0:
80,264,58877,1,10,1:2:0:0:
24,264,58988,2,0,L|168:264,1,108,2|0,0:2|0:2,0:0:0:0:
244,264,59320,5,10,1:2:0:0:
324,264,59467,1,10,1:2:0:0:
244,264,59615,1,10,1:2:0:0:
114,264,59762,1,10,1:2:0:0:
34,264,59910,1,10,1:2:0:0:
114,264,60058,1,10,1:2:0:0:
323,164,60205,6,0,P|353:197|346:257,1,108,14|10,1:2|1:2,0:0:0:0:
296,264,60537,1,0,1:2:0:0:
184,264,60648,2,0,L|180:208,1,54,10|2,1:2|1:2,0:0:0:0:
464,212,60980,6,0,L|332:212,1,108,2|2,1:2|1:2,0:0:0:0:
300,212,61312,1,10,1:2:0:0:
356,212,61423,1,2,1:2:0:0:
468,212,61534,2,0,L|472:104,1,108,10|10,1:2|1:2,0:0:0:0:
188,100,61977,6,0,L|64:100,1,108,10|10,1:2|1:2,0:0:0:0:
276,100,62419,1,10,1:2:0:0:
332,100,62530,2,0,L|220:100,1,108,2|2,1:2|1:2,0:0:0:0:
112,100,62862,5,10,1:2:0:0:
56,100,62973,1,0,1:2:0:0:
112,100,63084,1,10,1:2:0:0:
308,100,63305,1,8,1:2:0:0:
364,100,63416,2,0,L|248:100,1,108,2|2,1:2|1:2,0:0:0:0:
144,100,63748,6,0,L|140:208,1,108,10|10,1:2|3:2,0:0:0:0:
336,208,64191,1,10,1:2:0:0:
416,208,64357,1,10,1:2:0:0:
336,208,64523,1,10,1:2:0:0:
224,208,64633,6,0,L|100:208,1,108,10|10,1:2|1:2,0:0:0:0:
312,208,65076,2,0,L|444:208,1,108,10|10,1:2|1:2,0:0:0:0:
136,208,65519,6,0,L|132:100,1,108,10|10,1:2|1:2,0:0:0:0:
188,100,65851,1,8,1:2:0:0:
300,100,65962,1,10,1:2:0:0:
352,100,66072,2,0,L|356:208,1,108,10|8,1:2|1:2,0:0:0:0:
240,208,66405,5,10,1:2:0:0:
188,204,66515,1,8,1:2:0:0:
192,152,66626,1,10,1:2:0:0:
244,148,66737,1,8,1:2:0:0:
356,148,66847,1,10,1:2:0:0:
412,148,66958,1,8,0:2:0:0:
356,148,67069,1,10,0:2:0:0:
160,148,67290,5,2,0:2:0:0:
376,148,67733,2,0,L|380:264,1,108,0|0,0:2|0:2,0:0:0:0:
324,256,68065,1,0,0:2:0:0:
212,260,68176,5,8,1:2:0:0:
160,252,68286,1,0,1:2:0:0:
164,200,68397,1,0,1:2:0:0:
216,192,68508,1,8,1:2:0:0:
328,192,68619,1,0,1:2:0:0:
380,188,68729,1,0,1:2:0:0:
328,192,68840,1,8,1:2:0:0:
44,192,69061,6,0,P|44:260|124:284,1,162,4|0,1:2|0:2,0:0:0:0:
176,284,69504,2,0,L|56:284,1,108,2|0,0:2|0:2,0:0:0:0:
264,284,69947,6,0,L|268:176,1,108,10|0,1:2|0:2,0:0:0:0:
160,176,70390,2,0,L|156:68,1,108,2|0,0:2|0:2,0:0:0:0:
352,68,70833,6,0,P|400:108|352:176,1,162,2|0,1:2|0:2,0:0:0:0:
296,176,71275,2,0,L|184:176,1,108,0|0,0:2|0:2,0:0:0:0:
384,176,71718,5,8,1:2:0:0:
276,176,71940,1,0,0:2:0:0:
248,224,72050,1,0,0:2:0:0:
276,176,72161,1,0,0:2:0:0:
384,176,72382,1,0,1:2:0:0:
188,176,72604,6,0,P|140:136|188:68,1,162,0|0,1:2|0:2,0:0:0:0:
244,68,73047,2,0,L|368:68,1,108,2|0,0:2|0:2,0:0:0:0:
156,68,73489,6,0,L|152:180,1,108,10|0,1:2|0:2,0:0:0:0:
260,176,73932,2,0,L|264:284,1,108,2|0,0:2|0:2,0:0:0:0:
68,284,74375,6,0,P|32:220|96:168,1,162,2|0,1:2|0:2,0:0:0:0:
144,168,74818,2,0,L|32:168,1,108,0|0,0:2|0:2,0:0:0:0:
232,168,75261,5,8,1:2:0:0:
340,168,75482,2,0,P|412:132|340:60,1,216,0|0,1:2|1:2,0:0:0:0:
144,64,76146,6,0,L|140:172,1,108,4|0,1:2|0:2,0:0:0:0:
196,172,76478,1,0,0:2:0:0:
252,172,76589,2,0,L|256:288,1,108,2|0,0:2|0:2,0:0:0:0:
60,280,77032,6,0,L|56:168,1,108,2|0,0:2|0:2,0:0:0:0:
164,172,77475,1,10,1:2:0:0:
56,172,77696,1,0,0:2:0:0:
340,172,77917,6,0,P|388:128|336:64,1,162,6|0,1:2|0:2,0:0:0:0:
284,64,78360,2,0,L|152:64,1,108,0|0,0:2|0:2,0:0:0:0:
372,64,78803,6,0,L|376:180,1,108,8|0,1:2|0:2,0:0:0:0:
320,172,79135,1,0,0:2:0:0:
264,172,79246,2,0,L|260:280,1,108,0|0,0:2|1:2,0:0:0:0:
456,280,79689,6,0,L|460:172,1,108,0|0,1:2|0:2,0:0:0:0:
352,172,80131,1,2,0:2:0:0:
460,172,80353,1,0,0:2:0:0:
264,172,80574,6,0,L|148:172,1,108,10|0,1:2|0:2,0:0:0:0:
264,172,81017,2,0,L|376:172,1,108,2|0,0:2|0:2,0:0:0:0:
316,172,81349,1,0,0:2:0:0:
204,172,81460,6,0,L|200:288,1,108,2|0,1:2|0:2,0:0:0:0:
312,280,81903,2,0,L|316:172,1,108,0|0,0:2|0:2,0:0:0:0:
120,176,82346,5,10,1:2:0:0:
228,176,82567,2,0,P|200:232|64:284,1,216,0|0,1:2|1:2,0:0:0:0:
260,284,83231,6,0,L|264:224,1,54,2|0,0:2|0:0,0:0:0:0:
156,232,83563,2,0,L|152:172,1,54,0|2,0:0|0:2,0:0:0:0:
260,180,83895,1,0,0:0:0:0:
152,178,84117,6,0,L|148:118,1,54,0|0,0:0|0:0,0:0:0:0:
256,126,84449,2,0,L|260:66,1,54,2|2,0:2|0:2,0:0:0:0:
152,74,84781,1,2,0:2:0:0:
436,72,85002,6,0,L|440:180,1,108,2|2,1:2|1:2,0:0:0:0:
328,180,85445,1,2,1:2:0:0:
384,180,85556,1,2,0:2:0:0:
440,180,85667,1,0,1:2:0:0:
244,180,85888,6,0,L|240:236,1,54,0|0,1:2|0:2,0:0:0:0:
348,236,86220,2,0,L|352:180,1,54,0|2,0:0|1:2,0:0:0:0:
244,180,86552,1,0,0:0:0:0:
440,180,86774,6,0,L|444:120,1,54,2|0,1:2|0:0,0:0:0:0:
336,124,87106,2,0,L|332:68,1,54,0|2,0:0|1:2,0:0:0:0:
440,68,87438,1,0,1:2:0:0:
244,68,87659,6,0,L|240:128,1,54,0|0,1:2|0:2,0:0:0:0:
348,120,87991,2,0,L|352:176,1,54,0|2,0:0|1:2,0:0:0:0:
244,172,88323,1,2,1:2:0:0:
48,172,88545,6,0,L|44:284,1,108,2|2,1:2|1:2,0:0:0:0:
156,280,88988,1,2,1:2:0:0:
100,280,89098,1,2,0:2:0:0:
48,280,89209,1,0,1:2:0:0:
244,280,89430,6,0,L|248:224,1,54,0|0,1:2|0:2,0:0:0:0:
140,228,89762,2,0,L|136:172,1,54,0|2,0:2|1:2,0:0:0:0:
220,172,90039,1,2,1:2:0:0:
136,172,90205,1,2,1:2:0:0:
248,172,90316,6,0,L|252:116,1,54,2|0,1:2|0:2,0:0:0:0:
144,120,90648,2,0,L|140:176,1,54,0|2,0:2|1:2,0:0:0:0:
248,172,90980,1,0,1:2:0:0:
444,172,91202,6,0,L|448:232,1,54,0|0,1:2|0:2,0:0:0:0:
340,228,91534,2,0,L|336:288,1,54,0|2,0:0|1:2,0:0:0:0:
444,280,91866,1,2,1:2:0:0:
248,280,92087,5,2,1:2:0:0:
192,280,92198,2,0,L|316:280,1,108,0|0,0:2|0:2,0:0:0:0:
356,280,92530,1,2,1:2:0:0:
352,224,92641,1,2,0:2:0:0:
300,224,92751,1,0,1:2:0:0:
104,224,92973,6,0,L|100:168,1,54,0|0,1:2|0:2,0:0:0:0:
208,172,93305,2,0,L|212:116,1,54,0|2,0:0|1:2,0:0:0:0:
104,120,93637,1,2,1:2:0:0:
300,120,93858,6,0,L|304:184,1,54,2|0,1:2|0:2,0:0:0:0:
196,172,94191,1,0,0:2:0:0:
308,172,94301,2,0,L|436:172,1,108,2|0,1:2|1:2,0:0:0:0:
220,172,94744,5,0,1:2:0:0:
164,172,94855,1,0,1:2:0:0:
168,108,94965,1,2,1:2:0:0:
280,108,95076,2,0,L|168:108,1,108,2|2,1:2|0:2,0:0:0:0:
119,108,95408,1,0,0:0:0:0:
402,173,95630,6,0,L|404:280,1,108,14|10,1:2|1:2,0:0:0:0:
196,280,96072,2,0,L|136:280,1,54,10|2,1:2|0:2,0:0:0:0:
428,280,96405,6,0,L|300:280,2,108,2|2|2,0:2|0:2|0:2,0:0:0:0:
316,280,96958,1,10,1:2:0:0:
264,272,97069,1,0,1:2:0:0:
268,220,97179,1,10,1:2:0:0:
324,216,97290,1,0,1:2:0:0:
436,216,97401,5,10,1:2:0:0:
488,216,97512,1,0,0:2:0:0:
436,216,97622,1,10,1:2:0:0:
240,216,97844,1,10,1:2:0:0:
292,216,97954,1,0,0:2:0:0:
348,216,98065,1,10,1:2:0:0:
64,216,98286,5,10,1:2:0:0:
60,160,98397,2,0,L|188:160,1,108,2|2,0:2|0:2,0:0:0:0:
280,160,98729,2,0,L|160:160,1,108,10|10,1:2|1:2,0:0:0:0:
228,160,99061,1,2,0:2:0:0:
340,160,99172,6,0,L|344:272,1,108,10|10,1:2|1:2,0:0:0:0:
148,268,99615,2,0,L|80:268,1,54,10|2,1:2|1:2,0:0:0:0:
380,268,99947,6,0,L|504:268,2,108,2|2|2,0:2|0:2|0:2,0:0:0:0:
268,268,100500,2,0,L|392:268,1,108,10|10,1:2|1:2,0:0:0:0:
92,268,100943,6,0,L|88:160,1,108,10|10,1:2|1:2,0:0:0:0:
144,160,101275,1,2,1:2:0:0:
256,160,101386,2,0,L|144:160,1,108,10|10,1:2|1:2,0:0:0:0:
204,160,101718,1,0,1:2:0:0:
316,160,101829,5,10,1:2:0:0:
396,160,101977,1,10,1:2:0:0:
316,160,102124,1,10,1:2:0:0:
186,160,102272,1,10,1:2:0:0:
106,160,102419,1,10,1:2:0:0:
109,75,102567,1,10,1:2:0:0:
319,160,102715,6,0,L|323:276,1,108,14|10,1:2|1:2,0:0:0:0:
124,268,103157,2,0,L|68:268,1,54,10|2,1:2|1:2,0:0:0:0:
356,264,103489,6,0,L|468:264,1,108,2|2,1:2|1:2,0:0:0:0:
468,208,103822,1,10,1:2:0:0:
416,208,103932,1,2,1:2:0:0:
304,208,104043,2,0,L|424:208,1,108,10|10,1:2|1:2,0:0:0:0:
128,208,104486,5,10,1:2:0:0:
76,208,104596,1,0,1:2:0:0:
128,208,104707,1,10,1:2:0:0:
324,208,104929,1,10,1:2:0:0:
380,204,105039,1,0,1:2:0:0:
376,148,105150,1,10,1:2:0:0:
320,148,105261,1,0,1:2:0:0:
208,148,105371,5,10,1:2:0:0:
152,148,105482,1,0,1:2:0:0:
208,148,105593,1,10,1:2:0:0:
320,148,105703,2,0,L|448:148,2,108,2|2|2,1:2|1:2|1:2,0:0:0:0:
204,148,106257,6,0,L|96:148,1,108,10|10,1:2|1:2,0:0:0:0:
292,148,106700,1,10,1:2:0:0:
372,148,106866,1,10,1:2:0:0:
292,148,107032,1,10,1:2:0:0:
180,148,107143,6,0,L|72:148,1,108,14|10,1:2|1:2,0:0:0:0:
184,148,107475,2,0,L|300:148,1,108,2|0,1:2|1:2,0:0:0:0:
296,204,107807,1,10,1:2:0:0:
244,204,107917,1,2,1:2:0:0:
132,204,108028,5,10,1:2:0:0:
76,204,108139,1,2,1:2:0:0:
132,204,108250,1,10,1:2:0:0:
320,204,108471,1,10,1:2:0:0:
132,204,108692,2,0,L|128:144,1,54,10|2,1:2|1:2,0:0:0:0:
244,152,108914,6,0,L|364:152,1,108,10|10,1:2|1:2,0:0:0:0:
156,152,109357,1,10,1:2:0:0:
104,152,109467,1,2,1:2:0:0:
156,152,109578,1,10,1:2:0:0:
440,152,109799,5,10,1:2:0:0:
492,156,109910,1,2,1:2:0:0:
488,212,110021,1,10,1:2:0:0:
436,216,110131,1,2,1:2:0:0:
324,216,110242,1,10,1:2:0:0:
380,216,110353,1,2,1:2:0:0:
436,216,110464,1,10,1:2:0:0:
152,216,110685,6,0,L|36:216,1,108,10|10,1:2|1:2,0:0:0:0:
100,216,111017,1,0,1:2:0:0:
212,216,111128,2,0,L|328:216,1,108,10|10,1:2|1:2,0:0:0:0:
36,216,111571,6,0,L|32:108,1,108,10|10,1:2|1:2,0:0:0:0:
88,108,111903,1,2,1:2:0:0:
200,108,112013,1,10,1:2:0:0:
256,108,112124,2,0,L|132:108,1,108,2|2,1:2|1:2,0:0:0:0:
260,108,112456,6,0,L|264:164,1,54,10|2,1:2|1:2,0:0:0:0:
156,164,112788,2,0,L|152:224,1,54,2|10,1:2|1:2,0:0:0:0:
268,220,113010,2,0,L|384:220,1,108,2|2,1:2|1:2,0:0:0:0:
264,220,113342,5,10,1:2:0:0:
184,220,113489,1,10,1:2:0:0:
264,220,113637,1,10,1:2:0:0:
393,220,113785,1,10,1:2:0:0:
473,220,113932,1,10,1:2:0:0:
393,220,114080,1,10,1:2:0:0:
184,218,114227,5,14,1:2:0:0:
128,218,114338,1,0,1:2:0:0:
184,218,114449,1,10,1:2:0:0:
379,162,114670,2,0,P|405:126|412:56,1,108,10|10,1:2|1:2,0:0:0:0:
356,60,115002,1,2,1:2:0:0:
244,60,115113,5,10,1:2:0:0:
188,60,115224,1,0,1:2:0:0:
192,112,115334,1,10,1:2:0:0:
248,112,115445,1,2,1:2:0:0:
360,112,115556,2,0,L|472:112,1,108,10|10,1:2|1:2,0:0:0:0:
184,112,115999,5,8,1:2:0:0:
132,112,116109,2,0,L|128:224,1,108,2|0,1:2|1:2,0:0:0:0:
236,216,116441,1,10,1:2:0:0:
344,216,116552,2,0,L|348:328,1,108,2|2,1:2|1:2,0:0:0:0:
236,320,116884,5,10,1:2:0:0:
180,320,116995,1,2,1:2:0:0:
184,268,117106,1,10,1:2:0:0:
236,264,117216,1,2,1:2:0:0:
348,264,117327,1,8,1:2:0:0:
404,260,117438,1,2,1:2:0:0:
348,264,117548,1,10,1:2:0:0:
64,268,117770,6,0,L|60:156,1,108,10|10,1:2|1:2,0:0:0:0:
256,164,118213,1,10,1:2:0:0:
336,164,118379,1,10,1:2:0:0:
256,164,118545,1,10,1:2:0:0:
144,164,118655,5,10,1:2:0:0:
88,164,118766,1,2,1:2:0:0:
144,164,118877,1,10,1:2:0:0:
340,164,119098,2,0,L|456:164,1,108,10|10,1:2|1:2,0:0:0:0:
164,164,119541,6,0,L|56:164,1,108,10|10,1:2|1:2,0:0:0:0:
112,164,119873,1,2,1:2:0:0:
220,164,119984,1,10,1:2:0:0:
276,164,120095,2,0,L|156:164,1,108,2|0,1:2|1:2,0:0:0:0:
280,164,120427,6,0,L|284:276,1,108,10|10,1:2|1:2,0:0:0:0:
102,269,120869,1,10,1:2:0:0:
284,268,121091,1,10,1:2:0:0:
467,272,121312,5,10,1:2:0:0:
256,268,121755,2,0,L|140:268,1,108,0|0,1:0|1:0,0:0:0:0:
344,268,122198,6,0,L|348:160,1,108,8|0,1:2|1:2,0:0:0:0:
236,160,122530,2,0,L|232:48,1,108,8|0,1:2|1:2,0:0:0:0:
344,52,122862,2,0,L|408:52,1,54,8|0,1:2|1:2,0:0:0:0:
284,52,123084,6,0,L|160:52,1,108,6|2,1:2|0:2,0:0:0:0:
284,52,123526,2,0,L|288:112,1,54,2|2,0:2|0:2,0:0:0:0:
92,100,123858,6,0,P|40:144|92:200,1,162,2|2,0:2|1:2,0:0:0:0:
200,204,124412,2,0,L|316:204,1,108,2|2,0:2|1:2,0:0:0:0:
252,204,124744,1,2,0:2:0:0:
140,204,124855,6,0,L|132:320,1,108,2|2,1:2|0:2,0:0:0:0:
240,312,125298,2,0,L|244:252,1,54,2|2,0:2|0:2,0:0:0:0:
48,260,125630,6,0,L|44:140,1,108,2|0,1:2|1:2,0:0:0:0:
100,152,125962,1,2,1:2:0:0:
296,152,126183,1,2,1:2:0:0:
376,152,126349,1,0,1:2:0:0:
216,152,126515,6,0,L|100:152,1,108,6|0,1:2|1:2,0:0:0:0:
164,152,126847,1,2,1:2:0:0:
360,152,127069,2,0,L|364:272,1,108,2|0,1:2|1:2,0:0:0:0:
248,260,127401,5,6,1:2:0:0:
192,256,127512,1,0,1:2:0:0:
248,260,127622,1,0,1:2:0:0:
360,260,127733,1,2,1:2:0:0:
364,204,127844,1,0,1:2:0:0:
252,204,127954,5,6,1:2:0:0:
