osu file format v14

[General]
AudioFilename: audio.mp3
AudioLeadIn: 0
PreviewTime: 53134
Countdown: 0
SampleSet: Soft
StackLeniency: 0.7
Mode: 2
LetterboxInBreaks: 0
WidescreenStoryboard: 1

[Editor]
Bookmarks: 46051
DistanceSpacing: 0.9
BeatDivisor: 4
GridSize: 4
TimelineZoom: 3.199999

[Metadata]
Title:Punai Punai Sensou
TitleUnicode:プナイプナイせんそう
Artist:Rish feat. Choko
ArtistUnicode:立秋 feat. ちょこ
Creator:Kukkai
Version:Rain
Source:
Tags:lacrima myle rew0825 dapuluous dapu rissyuu Risshuu mg mappers guild Featured Artist FA Muse Dash BMS 石王マサト MASATO Ishioh G2R2018 Climax GO BACK 2 YOUR ROOTS 2018 hard 石王マサト Patchouli video game japanese electronic novelty
BeatmapID:3125322
BeatmapSetID:1109546

[Difficulty]
HPDrainRate:5
CircleSize:4
OverallDifficulty:9.2
ApproachRate:9.2
SliderMultiplier:1.4
SliderTickRate:1

[Events]
//Background and Video events
0,0,"punaiii.png",0,0
Video,854,"video.mp4"
//Break Periods
//Storyboard Layer 0 (Background)
//Storyboard Layer 1 (Fail)
//Storyboard Layer 2 (Pass)
//Storyboard Layer 3 (Foreground)
//Storyboard Layer 4 (Overlay)
//Storyboard Sound Samples

[TimingPoints]
870,221.40221402214,4,1,1,60,1,0
2641,-100,4,2,1,40,0,0
5962,-100,4,2,1,10,0,0
6183,-100,4,2,1,40,0,0
9504,-100,4,2,1,10,0,0
9726,-100,4,2,1,50,0,0
16810,-100,4,2,1,70,0,1
27438,-100,4,2,1,70,0,1
30869,-90.9090909090909,4,2,1,70,0,0
31866,-111.111111111111,4,2,1,50,0,0
35187,-111.111111111111,4,2,1,5,0,0
35408,-111.111111111111,4,2,1,50,0,0
46036,-111.111111111111,4,2,1,60,0,0
53120,-100,4,2,1,70,0,1
67290,-90.9090909090909,4,2,1,50,0,0
67734,-90.9090909090909,4,2,1,5,0,0
68176,-90.9090909090909,4,2,1,60,0,0
69061,-111.111111111111,4,2,1,60,0,0
83231,-100,4,2,1,50,0,0
85003,-100,4,2,1,60,0,0
95630,-100,4,2,1,70,0,1
106257,-100,4,2,1,70,0,0
107143,-100,4,2,1,75,0,1
121312,-100,4,2,1,100,0,0
121368,-100,4,2,1,5,0,0
121645,-100,4,2,1,5,0,0
122199,-100,4,2,1,60,0,0
123084,-111.111111111111,4,2,1,60,0,0

[Colours]
Combo1 : 227,207,96
Combo2 : 231,187,159
Combo3 : 193,45,41
Combo4 : 98,145,102

[HitObjects]
256,192,870,12,0,2087,0:2:0:0:
340,284,2641,6,0,L|180:284,1,140,6|2,0:2|0:2,0:0:0:0:
328,284,3084,2,0,L|328:184,1,70,2|2,0:2|0:2,0:0:0:0:
132,312,3416,2,0,P|72:252|152:180,1,210,2|2,0:2|0:2,0:0:0:0:
284,172,3969,2,0,L|448:172,1,140,2|2,0:2|0:2,0:0:0:0:
352,172,4301,1,2,0:2:0:0:
208,320,4412,6,0,P|160:272|220:236,1,140,2|2,0:2|0:2,0:0:0:0:
328,232,4855,2,0,L|328:140,1,70,2|2,0:2|0:2,0:0:0:0:
128,144,5187,2,0,L|328:264,1,210,2|2,0:2|0:2,0:0:0:0:
188,180,5740,2,0,L|56:96,1,140,2|0,0:2|0:2,0:0:0:0:
400,288,6183,5,2,1:2:0:0:
400,288,6405,1,2,1:2:0:0:
276,292,6626,2,0,L|184:292,1,70,2|2,0:2|0:2,0:0:0:0:
408,200,6958,2,0,P|464:164|392:68,1,210,2|2,0:2|0:2,0:0:0:0:
276,72,7512,2,0,L|276:152,1,70,2|0,0:2|0:2,0:0:0:0:
348,140,7733,2,0,L|348:232,1,70,2|2,0:2|0:2,0:0:0:0:
148,328,7954,5,2,1:2:0:0:
148,328,8176,1,2,1:2:0:0:
272,328,8397,2,0,L|368:328,1,70,2|2,0:2|0:2,0:0:0:0:
140,252,8729,2,0,P|88:236|156:136,1,210,2|2,0:2|0:2,0:0:0:0:
280,128,9283,2,0,L|112:128,1,140,2|0,0:2|0:2,0:0:0:0:
436,244,9726,5,6,1:2:0:0:
312,248,9947,1,2,1:2:0:0:
436,244,10168,2,0,L|436:156,1,70,2|2,0:2|0:2,0:0:0:0:
240,180,10500,2,0,P|176:136|264:56,1,210,2|2,0:2|0:2,0:0:0:0:
368,48,11054,2,0,P|396:92|368:184,1,140,2|2,0:2|0:2,0:0:0:0:
304,180,11386,1,0,0:2:0:0:
136,332,11497,5,2,1:2:0:0:
260,332,11718,1,2,1:2:0:0:
132,328,11940,2,0,L|132:232,1,70,2|2,0:2|0:2,0:0:0:0:
336,252,12272,2,0,P|380:224|312:108,1,210,2|2,0:2|0:2,0:0:0:0:
184,108,12825,2,0,L|184:264,1,140,2|2,0:2|0:2,0:0:0:0:
468,244,13268,5,6,1:2:0:0:
344,244,13489,1,2,1:2:0:0:
468,244,13711,2,0,L|468:160,1,70,2|2,0:2|0:2,0:0:0:0:
184,248,14043,6,0,P|140:228|200:104,1,210,6|2,1:2|1:2,0:0:0:0:
304,108,14596,1,2,0:0:0:0:
176,108,14818,1,2,1:2:0:0:
176,44,14929,1,0,0:0:0:0:
356,368,15039,6,0,P|380:336|336:244,1,140,6|2,1:2|1:2,0:0:0:0:
164,252,15482,1,2,1:2:0:0:
101,232,15592,1,2,0:2:0:0:
98,167,15703,1,0,1:2:0:0:
159,142,15814,1,2,0:2:0:0:
328,144,15925,6,0,L|408:116,1,70,0|0,1:2|1:2,0:0:0:0:
224,165,16146,2,0,L|136:133,1,70,2|0,1:2|1:2,0:0:0:0:
344,364,16368,1,2,0:2:0:0:
377,357,16423,1,0,0:2:0:0:
403,334,16478,1,0,0:2:0:0:
411,300,16534,1,0,0:2:0:0:
400,267,16589,1,0,0:2:0:0:
374,246,16644,1,0,0:2:0:0:
339,242,16700,1,0,0:2:0:0:
152,244,16810,6,0,L|152:80,1,140,10|10,1:2|1:2,0:0:0:0:
296,100,17253,2,0,L|388:100,2,70,10|2|8,1:2|0:2|1:2,0:0:0:0:
176,100,17585,1,2,0:2:0:0:
104,104,17696,6,0,L|104:276,1,140,8|10,1:2|1:2,0:0:0:0:
296,184,18139,2,0,L|200:184,1,70,10|0,1:2|1:2,0:0:0:0:
156,184,18360,2,0,L|156:92,1,70,10|2,1:2|1:2,0:0:0:0:
344,112,18582,6,0,L|492:112,1,140,10|10,1:2|1:2,0:0:0:0:
344,112,19024,2,0,L|272:112,1,70,10|2,1:2|0:2,0:0:0:0:
274,112,19246,1,8,1:2:0:0:
464,240,19357,1,2,0:2:0:0:
464,240,19467,5,8,1:2:0:0:
284,240,19689,1,10,1:2:0:0:
464,240,19910,2,0,L|464:72,1,140,10|0,1:2|0:2,0:0:0:0:
392,104,20242,1,0,0:2:0:0:
192,352,20353,6,0,L|356:352,1,140,10|10,1:2|1:2,0:0:0:0:
192,352,20796,2,0,L|112:352,2,70,10|2|8,1:2|1:2|1:2,0:0:0:0:
312,264,21128,1,2,1:2:0:0:
384,264,21239,6,0,L|384:116,1,140,8|10,1:2|1:2,0:0:0:0:
184,156,21681,2,0,L|184:76,1,70,10|8,1:2|1:2,0:0:0:0:
256,84,21903,2,0,L|332:84,1,70,10|2,1:2|1:2,0:0:0:0:
152,308,22124,6,0,L|152:152,1,140,10|10,1:2|1:2,0:0:0:0:
292,168,22567,2,0,L|368:168,2,70,10|2|8,1:2|0:2|1:2,0:0:0:0:
108,168,22899,1,2,1:2:0:0:
36,172,23010,6,0,L|36:20,1,140,0|10,0:0|1:2,0:0:0:0:
324,68,23453,2,0,L|452:68,2,105,10|10|10,1:2|1:2|1:2,0:0:0:0:
148,336,23895,2,0,L|56:336,2,70,14|0|10,1:2|0:2|1:2,0:0:0:0:
288,336,24338,6,0,L|288:256,1,70,10|2,1:2|1:2,0:0:0:0:
224,268,24560,1,8,1:2:0:0:
160,268,24670,1,2,1:2:0:0:
28,180,24781,2,0,L|192:180,1,140,8|10,1:2|1:2,0:0:0:0:
308,176,25224,2,0,L|308:84,1,70,10|0,1:2|1:2,0:0:0:0:
236,108,25445,2,0,L|236:16,1,70,10|2,1:2|1:2,0:0:0:0:
420,40,25667,6,0,L|496:40,2,70,10|0|10,1:2|1:2|1:2,0:0:0:0:
280,180,26109,1,10,1:2:0:0:
350,180,26219,1,2,1:2:0:0:
420,180,26330,1,8,1:2:0:0:
350,180,26441,1,2,1:2:0:0:
176,124,26552,6,0,B|104:124|104:124|104:208,1,140,0|10,0:0|1:2,0:0:0:0:
400,360,26995,1,2,3:2:0:0:
434,356,27050,1,0,3:2:0:0:
460,334,27105,1,2,3:2:0:0:
470,301,27161,1,0,3:2:0:0:
459,268,27216,1,10,3:2:0:0:
431,248,27271,1,0,3:2:0:0:
397,246,27327,1,2,3:2:0:0:
196,244,27438,6,0,L|196:156,1,70,10|8,1:2|1:2,0:0:0:0:
268,176,27659,2,0,L|268:88,1,70,10|8,1:2|1:2,0:0:0:0:
196,108,27881,1,10,1:2:0:0:
84,112,27991,2,0,L|84:24,1,70,10|8,1:2|1:2,0:0:0:0:
260,40,28213,6,0,L|356:40,2,70,10|8|8,1:2|1:2|1:2,0:0:0:0:
188,36,28545,2,0,L|188:136,1,70,10|8,1:2|1:2,0:0:0:0:
260,104,28766,2,0,L|352:104,1,70,10|8,1:2|1:2,0:0:0:0:
260,104,28988,2,0,L|160:104,1,70,10|10,1:2|1:2,0:0:0:0:
384,364,29209,6,0,L|384:268,1,70,10|8,1:2|1:2,0:0:0:0:
316,300,29430,2,0,L|232:300,2,70,10|8|10,1:2|1:2|1:2,0:0:0:0:
428,296,29762,2,0,L|428:208,1,70,10|8,1:2|1:2,0:0:0:0:
236,160,29984,6,0,L|140:160,2,70,10|8|10,1:2|1:2|1:2,0:0:0:0:
344,156,30316,2,0,L|344:76,1,70,10|8,1:2|1:2,0:0:0:0:
168,332,30537,2,0,L|96:332,2,70,10|8|8,1:2|0:2|0:2,0:0:0:0:
360,328,30869,1,8,0:2:0:0:
436,328,30980,6,0,L|436:204,1,102.666669799805,2|2,0:2|0:2,0:0:0:0:
332,232,31275,1,2,0:2:0:0:
176,232,31423,2,0,L|84:176,2,102.666669799805,2|2|2,0:2|0:2|0:2,0:0:0:0:
408,236,31866,6,0,P|436:192|388:132,1,125.999996154785,4|0,1:2|0:2,0:0:0:0:
276,132,32309,2,0,L|196:132,1,62.9999980773926,2|2,0:2|0:2,0:0:0:0:
404,356,32641,6,0,P|460:304|392:236,1,188.999994232178,2|2,0:2|0:2,0:0:0:0:
272,236,33194,2,0,L|136:236,1,125.999996154785,2|2,0:2|0:2,0:0:0:0:
208,236,33526,1,2,0:2:0:0:
320,240,33637,6,0,L|320:96,1,125.999996154785,2|2,0:2|0:2,0:0:0:0:
192,112,34080,2,0,L|272:112,1,62.9999980773926,2|2,0:2|0:2,0:0:0:0:
60,312,34412,2,0,L|260:312,1,188.999994232178,2|2,0:2|0:2,0:0:0:0:
60,312,34965,2,0,L|60:160,1,125.999996154785,2|0,0:2|0:2,0:0:0:0:
376,184,35408,6,0,L|236:184,1,125.999996154785,2|2,1:2|0:2,0:0:0:0:
376,184,35851,2,0,L|444:184,1,62.9999980773926,2|2,0:2|0:2,0:0:0:0:
248,360,36183,6,0,P|196:312|260:220,1,188.999994232178,2|2,0:2|0:2,0:0:0:0:
372,212,36737,2,0,L|372:72,1,125.999996154785,2|2,0:2|0:2,0:0:0:0:
308,88,37069,1,2,0:2:0:0:
200,252,37179,6,0,L|340:252,1,125.999996154785,2|2,0:2|0:2,0:0:0:0:
200,252,37622,2,0,L|200:176,1,62.9999980773926,2|2,0:2|0:2,0:0:0:0:
400,180,37954,2,0,P|460:112|384:64,1,188.999994232178,2|2,0:2|0:2,0:0:0:0:
272,64,38508,2,0,L|416:64,1,125.999996154785,2|2,0:2|0:2,0:0:0:0:
104,356,38951,5,2,1:2:0:0:
104,216,39172,1,2,0:2:0:0:
228,216,39393,2,0,L|304:216,1,62.9999980773926,2|2,0:2|0:2,0:0:0:0:
104,120,39726,2,0,L|316:120,1,188.999994232178,2|2,0:2|1:2,0:0:0:0:
168,120,40279,2,0,L|24:120,1,125.999996154785,2|2,0:2|0:2,0:0:0:0:
104,120,40611,1,2,1:2:0:0:
304,360,40722,5,2,0:2:0:0:
304,220,40943,1,2,1:2:0:0:
176,220,41165,2,0,L|96:220,1,62.9999980773926,2|2,0:2|0:2,0:0:0:0:
300,152,41497,6,0,P|356:92|276:28,1,188.999994232178,2|2,0:2|1:2,0:0:0:0:
168,24,42050,2,0,L|312:24,1,125.999996154785,2|2,0:2|0:2,0:0:0:0:
356,24,42382,1,2,0:2:0:0:
180,224,42493,5,2,1:2:0:0:
52,224,42715,1,2,0:2:0:0:
180,224,42936,2,0,L|252:224,1,62.9999980773926,2|2,1:2|0:2,0:0:0:0:
432,352,43268,6,0,B|432:224|432:224|352:224,1,188.999994232178,2|0,0:2|1:2,0:0:0:0:
243,224,43822,2,0,L|96:224,1,125.999996154785,2|2,0:2|1:2,0:0:0:0:
180,224,44154,1,2,0:2:0:0:
372,112,44264,5,2,1:2:0:0:
244,112,44486,1,2,0:2:0:0:
372,112,44707,2,0,L|372:188,1,62.9999980773926,2|2,0:2|0:2,0:0:0:0:
176,352,45039,6,0,P|124:296|188:212,1,188.999994232178,2|2,0:2|1:2,0:0:0:0:
304,216,45593,1,2,0:2:0:0:
177,213,45814,1,2,0:2:0:0:
468,156,46036,6,0,L|312:156,2,125.999996154785,4|0|0,1:2|0:2|0:2,0:0:0:0:
468,156,46700,2,0,L|468:228,1,62.9999980773926,0|0,0:2|0:2,0:0:0:0:
276,300,46921,6,0,L|124:300,2,125.999996154785,8|0|0,1:2|0:2|0:2,0:0:0:0:
404,300,47585,2,0,L|404:224,1,62.9999980773926,0|0,1:2|0:2,0:0:0:0:
292,224,47807,6,0,L|448:224,1,125.999996154785,0|0,1:2|0:2,0:0:0:0:
292,220,48250,2,0,L|144:220,1,125.999996154785,0|0,0:2|0:2,0:0:0:0:
166,220,48582,1,0,0:2:0:0:
336,136,48692,6,0,L|480:136,2,125.999996154785,8|0|0,1:2|0:2|0:2,0:0:0:0:
136,140,49357,1,0,1:2:0:0:
336,136,49578,6,0,L|336:280,1,125.999996154785,0|0,1:2|0:2,0:0:0:0:
200,260,50021,2,0,L|200:116,1,125.999996154785,0|0,1:2|0:2,0:0:0:0:
480,52,50464,6,0,L|332:52,1,125.999996154785,8|0,1:2|0:2,0:0:0:0:
228,52,50906,2,0,L|376:52,1,125.999996154785,0|0,1:2|1:2,0:0:0:0:
56,360,51349,6,0,L|56:208,1,125.999996154785,0|0,1:2|1:2,0:0:0:0:
268,256,51792,2,0,L|416:256,1,125.999996154785,0|0,1:2|1:2,0:0:0:0:
100,236,52235,6,0,P|72:192|120:120,1,125.999996154785,8|0,1:2|0:2,0:0:0:0:
164,132,52567,1,0,0:2:0:0:
348,288,52678,1,2,1:2:0:0:
381,281,52733,1,2,0:2:0:0:
407,258,52788,1,2,0:2:0:0:
416,224,52844,1,2,0:2:0:0:
406,191,52899,1,2,0:2:0:0:
381,168,52954,1,2,0:2:0:0:
347,162,53010,1,2,0:2:0:0:
128,300,53120,6,0,L|288:300,1,140,14|10,1:2|1:2,0:0:0:0:
116,236,53563,2,0,L|40:200,2,70,10|2|8,1:2|0:2|1:2,0:0:0:0:
292,240,53895,2,0,L|292:140,1,70,2|8,0:2|1:2,0:0:0:0:
220,172,54117,2,0,L|220:72,1,70,2|8,0:2|1:2,0:0:0:0:
288,108,54338,1,2,0:2:0:0:
116,208,54449,2,0,P|84:160|136:92,1,140,10|10,1:2|1:2,0:0:0:0:
304,352,54781,6,0,P|344:316|296:264,1,140,2|2,0:2|0:2,0:0:0:0:
176,264,55113,2,0,P|140:240|192:168,1,140,10|10,1:2|1:2,0:0:0:0:
244,168,55445,1,0,0:2:0:0:
316,172,55556,2,0,L|316:80,1,70,10|0,1:2|0:2,0:0:0:0:
196,136,55777,6,0,L|124:136,1,70,10|0,1:2|0:2,0:0:0:0:
124,76,55999,2,0,L|218:76,1,70,10|0,1:2|0:2,0:0:0:0:
264,76,56220,2,0,L|264:-4,1,70,10|0,1:2|0:2,0:0:0:0:
192,8,56441,2,0,L|192:92,1,70,10|0,1:2|0:2,0:0:0:0:
376,316,56663,6,0,L|208:316,1,140,10|10,1:2|1:2,0:0:0:0:
400,248,57106,2,0,L|400:156,1,70,10|2,1:2|1:2,0:0:0:0:
332,184,57327,1,8,1:2:0:0:
160,180,57438,6,0,L|160:80,1,70,2|8,0:2|1:2,0:0:0:0:
232,112,57659,2,0,L|232:24,1,70,2|8,0:2|1:2,0:0:0:0:
160,44,57881,1,2,0:2:0:0:
340,344,57991,2,0,P|368:296|320:216,1,140,10|10,1:2|1:2,0:0:0:0:
264,224,58323,1,0,0:2:0:0:
336,224,58434,1,10,1:2:0:0:
408,224,58545,1,0,0:2:0:0:
216,300,58655,6,0,P|184:248|240:184,1,140,10|10,1:2|1:2,0:0:0:0:
296,188,58988,2,0,L|296:92,1,70,2|8,0:2|1:2,0:0:0:0:
152,116,59320,6,0,L|56:116,2,93.3333333333333,10|10|10,1:2|1:2|1:2,0:0:0:0:
248,116,59762,2,0,L|348:116,2,93.3333333333333,10|10|10,1:2|1:2|1:2,0:0:0:0:
32,356,60205,6,0,L|32:200,1,140,14|10,1:2|1:2,0:0:0:0:
172,216,60648,1,10,1:2:0:0:
102,216,60758,1,2,1:2:0:0:
32,216,60869,1,8,1:2:0:0:
216,156,60980,2,0,L|304:156,1,70,2|8,1:2|1:2,0:0:0:0:
216,156,61202,2,0,L|132:156,2,70,2|10|2,1:2|1:2|1:2,0:0:0:0:
404,304,61534,2,0,P|436:268|392:200,1,140,10|10,1:2|1:2,0:0:0:0:
324,204,61866,1,0,1:2:0:0:
140,216,61977,6,0,L|140:52,1,140,10|10,1:2|1:2,0:0:0:0:
280,76,62419,2,0,L|364:76,2,70,10|2|8,1:2|1:2|1:2,0:0:0:0:
212,80,62751,1,2,1:2:0:0:
88,292,62862,6,0,L|88:208,1,70,10|0,1:2|1:2,0:0:0:0:
160,224,63084,2,0,L|236:224,1,70,10|2,1:2|1:2,0:0:0:0:
160,224,63305,2,0,L|80:224,1,70,8|2,1:2|1:2,0:0:0:0:
90,224,63526,2,0,L|160:224,1,70,8|2,1:2|1:2,0:0:0:0:
352,228,63748,6,0,L|352:76,1,140,10|10,1:2|3:2,0:0:0:0:
200,92,64191,2,0,L|72:92,2,105,10|10|10,1:2|1:2|1:2,0:0:0:0:
376,88,64633,6,0,L|448:88,2,70,10|2|10,1:2|0:2|1:2,0:0:0:0:
304,88,64965,1,0,0:2:0:0:
116,316,65076,2,0,P|80:276|132:212,1,140,10|10,1:2|1:2,0:0:0:0:
192,216,65408,1,0,0:2:0:0:
388,216,65519,6,0,L|388:120,1,70,10|8,1:2|1:2,0:0:0:0:
316,148,65740,2,0,L|316:64,1,70,10|8,1:2|1:2,0:0:0:0:
388,76,65962,2,0,L|476:76,1,70,10|10,1:2|1:2,0:0:0:0:
458,76,66183,2,0,L|384:76,1,70,8|8,1:2|1:2,0:0:0:0:
192,348,66405,6,0,L|192:256,1,70,10|8,1:2|1:2,0:0:0:0:
264,272,66626,2,0,L|264:192,1,70,10|8,1:2|1:2,0:0:0:0:
192,200,66847,2,0,L|112:200,1,70,10|8,1:2|0:2,0:0:0:0:
192,200,67069,2,0,L|280:200,1,70,10|8,0:2|0:2,0:0:0:0:
56,144,67290,5,2,0:2:0:0:
276,356,67733,6,0,P|336:328|260:216,1,231.000007049561,0|0,0:2|0:2,0:0:0:0:
76,216,68176,5,8,1:2:0:0:
43,196,68231,1,0,1:2:0:0:
31,160,68286,1,0,1:2:0:0:
45,125,68342,1,0,1:2:0:0:
78,107,68397,1,0,1:2:0:0:
264,236,68508,5,8,1:2:0:0:
298,222,68563,1,0,1:2:0:0:
312,187,68618,1,0,1:2:0:0:
297,153,68674,1,0,1:2:0:0:
261,141,68729,1,0,1:2:0:0:
80,48,68840,6,0,L|16:48,2,38.5000011749268,8|0|0,1:2|1:2|1:2,0:0:0:0:
300,360,69061,6,0,P|334:327|283:258,1,125.999996154785,4|0,1:2|0:2,0:0:0:0:
180,248,69504,2,0,L|100:248,2,62.9999980773926,2|0|0,0:2|0:2|0:2,0:0:0:0:
384,248,69947,6,0,L|384:108,1,125.999996154785,10|0,1:2|0:2,0:0:0:0:
272,124,70390,1,2,0:2:0:0:
384,124,70611,1,0,0:2:0:0:
192,56,70833,6,0,L|108:56,2,62.9999980773926,2|0|0,1:2|0:2|0:2,0:0:0:0:
248,56,71165,1,0,0:2:0:0:
304,56,71275,2,0,L|396:56,2,62.9999980773926,0|0|0,0:2|0:2|0:2,0:0:0:0:
100,336,71718,6,0,L|100:184,1,125.999996154785,8|0,1:2|0:2,0:0:0:0:
156,212,72050,1,0,0:2:0:0:
212,212,72161,1,0,0:2:0:0:
100,216,72382,1,0,1:2:0:0:
440,104,72604,6,0,L|288:104,1,125.999996154785,0|0,1:2|0:2,0:0:0:0:
200,104,73047,1,2,0:2:0:0:
263,104,73157,1,0,0:2:0:0:
326,104,73268,1,0,0:2:0:0:
124,336,73489,6,0,L|124:188,1,125.999996154785,10|0,1:2|0:2,0:0:0:0:
236,212,73932,2,0,L|380:212,1,125.999996154785,2|0,0:2|0:2,0:0:0:0:
160,160,74375,6,0,L|160:72,1,62.9999980773926,2|0,1:2|0:2,0:0:0:0:
216,96,74596,1,0,0:2:0:0:
272,96,74707,1,0,0:2:0:0:
328,96,74818,1,0,0:2:0:0:
384,96,74929,2,0,L|384:16,1,62.9999980773926,0|0,0:2|0:2,0:0:0:0:
184,328,75261,5,8,1:2:0:0:
296,328,75482,2,0,L|296:180,1,125.999996154785,0|0,1:2|0:2,0:0:0:0:
408,192,75925,1,0,1:2:0:0:
84,200,76146,6,0,P|68:144|108:64,1,125.999996154785,4|0,1:2|0:2,0:0:0:0:
204,84,76589,1,2,0:2:0:0:
141,84,76699,1,0,0:2:0:0:
78,84,76810,1,0,0:2:0:0:
204,84,77032,6,0,L|344:84,1,125.999996154785,2|0,0:2|0:2,0:0:0:0:
140,348,77475,2,0,L|140:196,1,125.999996154785,10|0,1:2|0:2,0:0:0:0:
456,240,77917,6,0,P|480:200|436:132,1,125.999996154785,6|0,1:2|0:2,0:0:0:0:
380,136,78250,1,0,0:2:0:0:
320,136,78360,1,0,0:2:0:0:
383,136,78470,1,0,0:0:0:0:
446,136,78581,1,0,0:2:0:0:
244,296,78803,6,0,L|96:296,1,125.999996154785,8|0,1:2|0:2,0:0:0:0:
180,296,79135,1,0,0:2:0:0:
244,296,79246,1,0,0:2:0:0:
120,296,79467,1,0,1:2:0:0:
444,204,79689,6,0,L|444:68,1,125.999996154785,0|0,1:2|0:2,0:0:0:0:
320,76,80131,1,2,0:2:0:0:
257,76,80241,1,0,0:2:0:0:
194,76,80352,1,0,0:2:0:0:
392,336,80574,6,0,L|392:184,1,125.999996154785,10|0,1:2|0:2,0:0:0:0:
264,208,81017,2,0,L|400:208,1,125.999996154785,2|0,0:2|0:2,0:0:0:0:
188,140,81460,6,0,L|104:140,2,62.9999980773926,2|0|0,1:2|0:2|0:2,0:0:0:0:
252,140,81792,1,0,0:2:0:0:
316,140,81903,2,0,L|316:48,1,62.9999980773926,0|0,0:2|0:2,0:0:0:0:
252,76,82124,1,0,0:2:0:0:
52,352,82346,5,10,1:2:0:0:
176,348,82567,2,0,L|176:196,1,125.999996154785,0|0,1:2|0:0,0:0:0:0:
48,224,83010,1,0,1:2:0:0:
348,224,83231,6,0,P|380:176|324:112,1,140,2|2,0:2|0:2,0:0:0:0:
212,116,83674,2,0,L|136:116,1,70,2|2,0:2|0:2,0:0:0:0:
356,352,84006,6,0,P|392:328|336:204,1,210,2|2,0:2|0:2,0:0:0:0:
276,204,84449,1,2,0:2:0:0:
212,204,84560,1,2,0:2:0:0:
155,169,84670,1,2,0:2:0:0:
159,102,84781,1,2,0:2:0:0:
220,75,84892,1,2,0:2:0:0:
400,348,85002,6,0,L|400:196,1,140,2|2,1:2|1:2,0:0:0:0:
272,204,85445,2,0,L|184:204,2,70,2|2|0,1:2|0:2|1:2,0:0:0:0:
392,208,85777,1,2,0:2:0:0:
464,208,85888,6,0,L|464:52,1,140,0|2,1:2|1:2,0:0:0:0:
160,68,86331,1,2,1:2:0:0:
384,132,86774,6,0,L|216:132,1,140,2|2,1:2|1:2,0:0:0:0:
384,132,87216,2,0,L|464:132,2,70,2|2|0,1:2|0:2|1:2,0:0:0:0:
264,332,87548,1,2,0:2:0:0:
192,332,87659,6,0,L|192:168,1,140,0|2,1:2|1:2,0:0:0:0:
400,192,88102,2,0,L|400:44,1,140,2|2,1:2|1:2,0:0:0:0:
328,56,88434,1,2,0:2:0:0:
148,360,88545,6,0,L|148:200,1,140,2|2,1:2|1:2,0:0:0:0:
288,224,88988,2,0,L|364:224,2,70,2|2|0,1:2|0:2|1:2,0:0:0:0:
168,196,89320,1,2,0:2:0:0:
100,196,89430,6,0,L|100:52,1,140,0|2,1:2|1:2,0:0:0:0:
320,56,89873,2,0,L|444:56,2,105,2|2|2,1:2|1:2|1:2,0:0:0:0:
136,356,90316,6,0,L|136:200,1,140,2|2,1:2|1:2,0:0:0:0:
276,228,90759,1,2,1:2:0:0:
344,228,90869,2,0,L|344:128,1,70,2|0,0:2|1:2,0:0:0:0:
224,160,91091,1,2,0:2:0:0:
152,160,91202,6,0,L|324:160,1,140,0|2,1:2|1:2,0:0:0:0:
96,256,91644,2,0,L|96:100,1,140,2|2,1:2|1:2,0:0:0:0:
168,120,91977,1,2,0:2:0:0:
344,264,92087,6,0,L|344:104,1,140,2|2,1:2|1:2,0:0:0:0:
204,128,92530,2,0,L|120:128,2,70,2|2|0,1:2|0:2|1:2,0:0:0:0:
324,128,92862,1,2,0:2:0:0:
396,128,92973,6,0,L|256:128,1,140,0|2,1:2|1:2,0:0:0:0:
456,336,93416,2,0,L|456:184,1,140,2|2,1:2|1:2,0:0:0:0:
384,196,93748,1,2,1:2:0:0:
200,128,93858,6,0,L|368:128,1,140,2|2,1:2|1:2,0:0:0:0:
200,128,94301,2,0,L|104:128,2,70,2|2|0,1:2|0:2|1:2,0:0:0:0:
320,128,94633,1,2,0:2:0:0:
392,128,94744,6,0,L|392:288,1,140,0|2,1:2|1:2,0:0:0:0:
180,288,95187,1,2,1:2:0:0:
108,288,95298,1,2,0:2:0:0:
80,267,95353,1,0,0:0:0:0:
71,234,95408,1,2,0:2:0:0:
83,202,95464,1,2,0:2:0:0:
113,185,95519,1,2,0:2:0:0:
288,184,95630,6,0,L|428:184,1,140,14|10,1:2|1:2,0:0:0:0:
268,96,96072,2,0,L|184:96,2,70,10|2|8,1:2|0:2|1:2,0:0:0:0:
448,296,96405,6,0,L|448:204,1,70,2|8,0:2|1:2,0:0:0:0:
376,228,96626,1,2,0:2:0:0:
448,220,96737,2,0,L|448:124,1,70,8|2,1:2|0:2,0:0:0:0:
268,160,96958,6,0,L|124:160,1,140,10|10,1:2|1:2,0:0:0:0:
200,160,97290,1,0,1:2:0:0:
268,160,97401,2,0,L|268:72,1,70,10|0,1:2|0:2,0:0:0:0:
84,344,97622,6,0,P|44:296|104:240,1,140,10|10,1:2|1:2,0:0:0:0:
152,244,97954,1,0,0:2:0:0:
224,240,98065,2,0,L|225:155,1,70,10|0,1:2|0:2,0:0:0:0:
104,168,98286,6,0,L|104:96,1,70,10|2,1:2|0:2,0:0:0:0:
168,100,98508,1,0,0:0:0:0:
280,96,98619,2,0,L|280:12,1,70,2|10,0:2|1:2,0:0:0:0:
216,28,98840,1,0,0:0:0:0:
104,28,98951,1,10,1:2:0:0:
432,360,99172,6,0,L|280:360,1,140,10|10,1:2|1:2,0:0:0:0:
432,360,99615,2,0,L|432:272,1,70,10|2,1:2|1:2,0:0:0:0:
360,292,99836,1,8,1:2:0:0:
184,296,99947,6,0,L|184:208,1,70,2|8,0:2|1:2,0:0:0:0:
256,232,100168,1,2,0:2:0:0:
328,232,100279,2,0,L|328:136,1,70,8|2,1:2|0:2,0:0:0:0:
156,164,100500,2,0,L|60:164,1,70,10|0,1:2|1:2,0:0:0:0:
268,160,100722,6,0,P|300:128|260:52,1,140,10|10,1:2|1:2,0:0:0:0:
192,56,101054,1,0,0:2:0:0:
120,56,101165,1,10,1:2:0:0:
188,56,101275,1,2,1:2:0:0:
308,340,101386,2,0,L|480:340,1,140,10|10,1:2|1:2,0:0:0:0:
272,256,101829,6,0,L|152:256,2,93.3333333333333,10|10|10,1:2|1:2|1:2,0:0:0:0:
364,260,102272,2,0,L|464:260,2,93.3333333333333,10|10|10,1:2|1:2|1:2,0:0:0:0:
140,256,102715,6,0,L|140:96,1,140,14|10,1:2|1:2,0:0:0:0:
280,112,103157,2,0,L|356:112,2,70,10|2|8,1:2|1:2|1:2,0:0:0:0:
104,340,103489,6,0,L|104:252,1,70,2|8,1:2|1:2,0:0:0:0:
176,268,103711,2,0,L|176:176,1,70,2|10,1:2|1:2,0:0:0:0:
104,204,103932,1,2,1:2:0:0:
276,144,104043,2,0,L|416:144,1,140,10|10,1:2|1:2,0:0:0:0:
416,144,104375,1,2,1:2:0:0:
236,76,104486,6,0,L|144:76,2,70,10|0|10,1:2|1:2|1:2,0:0:0:0:
380,344,104929,2,0,L|380:264,1,70,10|0,1:2|1:2,0:0:0:0:
308,276,105150,2,0,L|208:276,1,70,10|0,1:2|1:2,0:0:0:0:
360,192,105371,5,10,1:2:0:0:
428,188,105481,1,0,1:2:0:0:
428,116,105592,1,10,1:2:0:0:
304,120,105703,2,0,L|161:121,2,140,2|2|2,1:2|1:2|1:2,0:0:0:0:
128,352,106257,6,0,L|128:208,1,140,10|10,1:2|1:2,0:0:0:0:
272,208,106700,2,0,L|404:208,2,105,10|0|0,1:2|0:0|0:0,0:0:0:0:
64,208,107143,6,0,P|48:160|80:68,1,140,14|10,1:2|1:2,0:0:0:0:
144,76,107475,1,2,1:2:0:0:
320,356,107585,2,0,L|320:272,1,70,10|0,1:2|1:2,0:0:0:0:
248,288,107807,2,0,L|172:288,1,70,10|2,1:2|1:2,0:0:0:0:
352,222,108028,6,0,L|352:148,1,70,10|2,1:2|1:2,0:0:0:0:
180,176,108250,2,0,P|140:132|192:72,1,140,10|10,1:2|1:2,0:0:0:0:
320,76,108692,2,0,L|320:160,1,70,10|2,1:2|1:2,0:0:0:0:
120,292,108914,6,0,L|276:292,1,140,10|10,1:2|1:2,0:0:0:0:
332,292,109246,1,2,1:2:0:0:
208,200,109357,1,10,1:2:0:0:
148,171,109467,1,2,1:2:0:0:
148,105,109578,1,10,1:2:0:0:
209,78,109689,1,2,1:2:0:0:
328,76,109799,6,0,L|404:76,1,70,10|2,1:2|1:2,0:0:0:0:
468,76,110021,2,0,L|376:76,1,70,10|2,1:2|1:2,0:0:0:0:
276,48,110242,2,0,L|200:48,1,70,10|2,1:2|1:2,0:0:0:0:
136,48,110464,2,0,L|228:48,1,70,10|2,1:2|1:2,0:0:0:0:
384,336,110685,6,0,L|384:256,1,70,10|0,1:2|1:2,0:0:0:0:
208,268,110906,2,0,L|208:168,1,70,10|0,1:2|1:2,0:0:0:0:
280,196,111128,2,0,L|428:196,1,140,10|10,1:2|1:2,0:0:0:0:
352,188,111460,1,0,1:2:0:0:
176,208,111571,6,0,P|136:164|200:108,1,140,10|10,1:2|1:2,0:0:0:0:
248,108,111903,1,2,1:2:0:0:
424,292,112013,1,10,1:2:0:0:
482,261,112123,1,2,1:2:0:0:
479,196,112234,1,8,1:2:0:0:
417,173,112345,1,2,1:2:0:0:
348,172,112456,1,10,1:2:0:0:
168,328,112567,6,0,L|168:244,1,70,2|10,1:2|1:2,0:0:0:0:
240,260,112788,1,2,1:2:0:0:
364,268,112899,2,0,L|488:268,2,105,10|0|2,1:2|0:0|1:2,0:0:0:0:
184,232,113342,6,0,L|52:232,2,93.3333333333333,10|10|10,1:2|1:2|1:2,0:0:0:0:
312,232,113785,2,0,L|420:232,2,93.3333333333333,10|10|0,1:2|1:2|0:0,0:0:0:0:
100,180,114227,6,0,L|100:104,1,70,14|0,1:2|1:2,0:0:0:0:
276,112,114449,2,0,L|276:36,1,70,10|0,1:2|1:2,0:0:0:0:
204,40,114670,2,0,L|64:40,1,140,10|10,1:2|1:2,0:0:0:0:
136,40,115002,1,2,1:2:0:0:
304,336,115113,6,0,L|304:252,1,70,10|0,1:2|1:2,0:0:0:0:
236,272,115334,2,0,L|236:188,1,70,10|2,1:2|1:2,0:0:0:0:
412,128,115556,1,10,1:2:0:0:
471,98,115666,1,0,1:2:0:0:
469,32,115777,1,10,1:2:0:0:
408,6,115888,1,2,1:2:0:0:
220,164,115999,6,0,L|144:164,2,70,8|2|10,1:2|1:2|1:2,0:0:0:0:
360,164,116441,2,0,L|360:76,1,70,10|2,1:2|1:2,0:0:0:0:
288,100,116663,1,8,1:2:0:0:
168,256,116774,1,2,1:2:0:0:
107,230,116884,5,10,1:2:0:0:
107,164,116995,1,2,1:2:0:0:
169,140,117106,1,10,1:2:0:0:
288,264,117216,1,2,1:2:0:0:
428,260,117438,2,0,L|428:172,1,70,2|10,1:2|1:2,0:0:0:0:
356,192,117659,1,2,1:2:0:0:
180,344,117770,6,0,L|104:344,1,70,10|0,1:2|0:2,0:0:0:0:
280,256,117991,2,0,L|280:168,1,70,10|0,1:2|0:2,0:0:0:0:
204,184,118213,2,0,L|76:184,2,105,10|0|0,1:2|0:0|0:0,0:0:0:0:
376,96,118655,6,0,L|456:96,1,70,10|2,1:2|1:2,0:0:0:0:
446,96,118877,1,10,1:2:0:0:
120,208,119098,1,10,1:2:0:0:
62,173,119208,1,0,1:2:0:0:
62,106,119319,1,10,1:2:0:0:
120,72,119430,1,0,1:2:0:0:
296,280,119541,5,10,1:2:0:0:
366,280,119651,1,0,1:2:0:0:
436,280,119762,1,10,1:2:0:0:
436,280,119873,1,2,1:2:0:0:
364,280,119984,1,10,1:2:0:0:
188,192,120095,2,0,L|108:192,2,70,2|8|0,1:2|1:2|1:2,0:0:0:0:
368,184,120427,6,0,L|456:184,1,70,10|8,1:2|1:2,0:0:0:0:
256,156,120648,2,0,L|256:72,1,70,10|8,1:2|1:2,0:0:0:0:
328,88,120869,2,0,L|328:180,1,70,10|8,1:2|1:2,0:0:0:0:
152,156,121091,2,0,L|56:156,1,70,10|8,1:2|1:2,0:0:0:0:
252,352,121312,6,0,P|300:328|232:232,1,210,10|0,1:2|1:0,0:0:0:0:
116,240,122198,5,8,1:2:0:0:
92,214,122253,1,0,1:2:0:0:
86,180,122308,1,0,1:2:0:0:
99,149,122364,1,0,1:2:0:0:
128,129,122419,1,0,1:2:0:0:
304,128,122530,5,8,1:2:0:0:
338,123,122585,1,0,1:2:0:0:
369,107,122640,1,0,1:2:0:0:
394,82,122696,1,0,1:2:0:0:
409,51,122751,1,0,1:2:0:0:
240,52,122862,6,0,L|200:52,2,35,8|0|0,1:2|1:2|1:2,0:0:0:0:
424,356,123084,6,0,P|448:296|400:232,1,125.999996154785,6|2,1:2|0:2,0:0:0:0:
296,252,123526,2,0,L|224:252,1,62.9999980773926,2|2,0:2|0:2,0:0:0:0:
432,128,123858,6,0,L|240:128,1,188.999994232178,2|2,0:2|1:2,0:0:0:0:
368,128,124412,2,0,L|368:256,1,125.999996154785,2|2,0:2|1:2,0:0:0:0:
304,256,124744,1,2,0:2:0:0:
128,176,124855,6,0,L|280:176,1,125.999996154785,2|2,1:2|0:2,0:0:0:0:
128,176,125298,2,0,L|128:96,1,62.9999980773926,2|2,0:2|0:2,0:0:0:0:
320,112,125630,6,0,L|400:112,2,62.9999980773926,2|0|0,1:2|1:2|1:2,0:0:0:0:
208,112,125962,2,0,L|208:36,1,62.9999980773926,2|0,1:2|0:0,0:0:0:0:
272,48,126183,2,0,L|376:48,1,94.499997116089,2|0,1:2|1:2,0:0:0:0:
140,240,126515,6,0,L|56:240,2,62.9999980773926,6|0|0,1:2|1:2|1:2,0:0:0:0:
248,236,126847,2,0,L|248:164,1,62.9999980773926,2|0,1:2|1:2,0:0:0:0:
136,168,127069,2,0,L|64:168,2,62.9999980773926,2|0|0,1:2|1:2|1:2,0:0:0:0:
328,336,127401,5,6,1:2:0:0:
352,317,127456,1,0,1:2:0:0:
360,287,127511,1,0,1:2:0:0:
350,258,127567,1,0,1:2:0:0:
324,241,127622,1,0,1:2:0:0:
136,240,127733,2,0,L|80:240,2,31.4999990386963,2|0|0,1:2|1:2|1:2,0:0:0:0:
332,168,127954,1,6,1:2:0:0:
