osu file format v14

[General]
AudioFilename: audio.mp3
AudioLeadIn: 0
PreviewTime: 53134
Countdown: 0
SampleSet: Soft
StackLeniency: 0.7
Mode: 2
LetterboxInBreaks: 0
WidescreenStoryboard: 1

[Editor]
Bookmarks: 46051
DistanceSpacing: 1
BeatDivisor: 4
GridSize: 4
TimelineZoom: 3.199999

[Metadata]
Title:Punai Punai Sensou
TitleUnicode:プナイプナイせんそう
Artist:Rish feat. Choko
ArtistUnicode:立秋 feat. ちょこ
Creator:Kukkai
Version:Overdose
Source:
Tags:lacrima myle rew0825 dapuluous dapu rissyuu Risshuu mg mappers guild Featured Artist FA Muse Dash BMS 石王マサト MASATO Ishioh G2R2018 Climax GO BACK 2 YOUR ROOTS 2018 hard 石王マサト Patchouli video game japanese electronic novelty
BeatmapID:3110649
BeatmapSetID:1109546

[Difficulty]
HPDrainRate:6
CircleSize:4
OverallDifficulty:9.4
ApproachRate:9.4
SliderMultiplier:1.5
SliderTickRate:2

[Events]
//Background and Video events
0,0,"punaiii.png",0,0
Video,854,"video.mp4"
//Break Periods
//Storyboard Layer 0 (Background)
//Storyboard Layer 1 (Fail)
//Storyboard Layer 2 (Pass)
//Storyboard Layer 3 (Foreground)
//Storyboard Layer 4 (Overlay)
//Storyboard Sound Samples

[TimingPoints]
870,221.40221402214,4,1,1,60,1,0
2641,-100,4,2,1,40,0,0
5962,-100,4,2,1,10,0,0
6183,-100,4,2,1,40,0,0
9504,-100,4,2,1,10,0,0
9726,-100,4,2,1,50,0,0
16810,-100,4,2,1,70,0,1
27438,-90.9090909090909,4,2,1,70,0,1
30869,-90.9090909090909,4,2,1,70,0,0
31866,-100,4,2,1,50,0,0
35187,-100,4,2,1,5,0,0
35408,-100,4,2,1,50,0,0
46036,-100,4,2,1,60,0,0
53120,-100,4,2,1,70,0,1
67290,-90.9090909090909,4,2,1,50,0,0
67734,-90.9090909090909,4,2,1,5,0,0
68176,-90.9090909090909,4,2,1,60,0,0
69061,-100,4,2,1,60,0,0
83231,-100,4,2,1,50,0,0
85003,-100,4,2,1,60,0,0
95630,-100,4,2,1,70,0,1
106257,-100,4,2,1,70,0,0
107143,-90.9090909090909,4,2,1,75,0,1
121312,-83.3333333333333,4,2,1,100,0,0
121368,-90.9090909090909,4,2,1,5,0,0
121645,-90.9090909090909,4,2,1,5,0,0
122199,-90.9090909090909,4,2,1,60,0,0
123084,-100,4,2,1,60,0,0

[Colours]
Combo1 : 227,207,96
Combo2 : 231,187,159
Combo3 : 193,45,41
Combo4 : 98,145,102

[HitObjects]
176,368,870,5,0,0:2:0:0:
212,362,925,1,0,0:2:0:0:
236,334,980,1,0,0:2:0:0:
235,298,1036,1,0,0:2:0:0:
211,271,1091,1,0,0:2:0:0:
174,267,1146,1,0,0:2:0:0:
136,264,1202,1,0,0:2:0:0:
99,264,1257,1,0,0:2:0:0:
68,244,1312,1,0,0:2:0:0:
56,209,1368,1,0,0:2:0:0:
67,174,1423,1,0,0:2:0:0:
97,152,1478,1,0,0:2:0:0:
134,151,1534,1,0,0:2:0:0:
268,152,1589,6,0,L|320:152,1,37.5,2|0,0:2|0:2,0:0:0:0:
440,152,1700,1,2,0:2:0:0:
475,144,1755,1,0,0:2:0:0:
491,112,1810,1,0,0:0:0:0:
476,79,1866,1,0,0:2:0:0:
441,70,1921,1,0,0:2:0:0:
308,72,1977,2,0,L|244:72,1,37.5,2|0,0:2|0:2,0:0:0:0:
140,368,2087,5,2,0:2:0:0:
102,369,2142,1,0,0:2:0:0:
67,356,2197,1,0,0:2:0:0:
40,331,2253,1,0,0:2:0:0:
26,296,2308,1,0,0:2:0:0:
26,259,2363,1,0,0:2:0:0:
41,225,2419,1,0,0:2:0:0:
68,200,2474,1,0,0:2:0:0:
104,187,2529,1,0,0:2:0:0:
141,189,2585,1,0,0:2:0:0:
340,368,2641,6,0,L|340:212,1,150,6|2,0:2|0:2,0:0:0:0:
188,220,3084,2,0,L|100:220,1,75,2|2,0:2|0:2,0:0:0:0:
264,220,3416,6,0,P|332:184|256:100,1,225,2|2,0:2|0:2,0:0:0:0:
104,275,3969,2,0,P|72:192|112:144,1,150,2|2,0:2|0:2,0:0:0:0:
176,134,4300,1,2,0:2:0:0:
368,356,4412,6,0,L|212:356,1,150,2|2,0:2|0:2,0:0:0:0:
368,360,4855,2,0,L|368:256,1,75,2|2,0:2|0:2,0:0:0:0:
216,288,5187,2,0,P|152:256|228:156,1,225,2|2,0:2|0:2,0:0:0:0:
440,148,5740,2,0,L|440:308,1,150,2|0,0:2|0:2,0:0:0:0:
104,364,6183,5,2,1:2:0:0:
280,348,6405,1,2,1:2:0:0:
100,360,6626,2,0,L|100:268,1,75,2|2,0:2|0:2,0:0:0:0:
176,288,6847,1,0,0:2:0:0:
276,288,6958,5,2,0:2:0:0:
352,288,7069,2,0,L|352:188,1,75,0|0,0:2|0:2,0:0:0:0:
248,220,7290,2,0,P|200:172|264:128,1,150,2|2,0:2|0:2,0:0:0:0:
352,88,7622,2,0,L|440:88,2,75,0|2|2,0:2|0:2|0:2,0:0:0:0:
164,280,7954,5,2,1:2:0:0:
352,280,8176,1,2,1:2:0:0:
164,280,8397,2,0,L|76:280,2,75,2|2|0,0:2|0:2|0:2,0:0:0:0:
264,280,8729,6,0,L|360:280,2,75,2|0|0,0:2|0:2|0:2,0:0:0:0:
76,176,9061,1,2,0:2:0:0:
226,176,9283,2,0,L|66:176,1,150,2|0,0:2|0:2,0:0:0:0:
380,120,9726,5,6,1:2:0:0:
200,120,9947,1,2,1:2:0:0:
380,120,10168,2,0,L|464:120,2,75,2|2|0,0:2|0:2|0:2,0:0:0:0:
264,216,10500,2,0,L|176:216,2,75,2|0|0,0:2|0:2|0:2,0:0:0:0:
384,220,10833,6,0,P|420:184|360:108,1,150,2|2,0:2|0:2,0:0:0:0:
260,104,11165,1,0,1:2:0:0:
335,104,11275,1,2,0:2:0:0:
410,104,11386,1,0,0:2:0:0:
192,304,11497,5,2,1:2:0:0:
368,304,11718,1,2,1:2:0:0:
192,304,11940,2,0,L|192:204,1,75,2|2,0:2|0:2,0:0:0:0:
268,232,12161,1,0,0:2:0:0:
384,232,12272,6,0,L|384:136,1,75,2|0,0:2|0:2,0:0:0:0:
308,160,12493,1,0,0:2:0:0:
108,268,12604,2,0,L|108:176,1,75,2|0,0:2|0:2,0:0:0:0:
280,192,12825,2,0,L|280:88,1,75,2|0,0:2|1:2,0:0:0:0:
104,116,13047,2,0,L|-4:116,1,75,2|0,0:2|0:2,0:0:0:0:
268,296,13268,5,6,1:2:0:0:
88,292,13489,1,2,1:2:0:0:
272,292,13711,2,0,L|368:292,2,75,2|2|0,0:2|0:2|0:2,0:0:0:0:
88,208,14043,6,0,L|4:208,2,75,6|0|0,1:2|0:2|0:2,0:0:0:0:
200,204,14375,2,0,P|240:152|180:96,1,150,2|2,1:2|0:0,0:0:0:0:
88,100,14707,2,0,L|8:100,2,75,0|2|0,0:0|1:2|0:0,0:0:0:0:
328,356,15039,6,0,P|364:312|312:240,1,150,6|2,1:2|1:2,0:0:0:0:
172,240,15482,1,2,1:2:0:0:
96,224,15592,1,2,0:2:0:0:
96,152,15703,1,0,1:2:0:0:
165,125,15814,1,2,0:2:0:0:
356,116,15925,5,0,1:2:0:0:
165,125,16036,2,0,L|165:37,1,75,0|2,1:2|1:2,0:0:0:0:
356,44,16257,1,0,1:2:0:0:
164,356,16368,1,2,0:2:0:0:
127,352,16423,1,0,0:2:0:0:
98,328,16478,1,0,0:2:0:0:
88,293,16534,1,0,0:2:0:0:
99,258,16589,1,0,0:2:0:0:
128,235,16644,1,0,0:2:0:0:
165,232,16700,1,0,0:2:0:0:
376,228,16810,6,0,L|376:140,1,75,10|0,1:2|0:2,0:0:0:0:
152,132,17032,2,0,L|64:132,1,75,10|0,1:2|0:2,0:0:0:0:
248,132,17253,1,10,1:2:0:0:
420,132,17364,2,0,L|420:40,1,75,2|8,0:2|1:2,0:0:0:0:
248,64,17585,6,0,P|204:92|256:164,1,150,2|0,0:2|0:2,0:0:0:0:
456,240,17917,2,0,L|352:240,1,75,10|0,1:2|0:2,0:0:0:0:
208,236,18139,2,0,L|296:236,1,75,10|0,1:2|1:2,0:0:0:0:
112,232,18360,2,0,L|32:232,1,75,10|2,1:2|1:2,0:0:0:0:
280,296,18582,6,0,L|280:208,1,75,10|0,1:2|0:2,0:0:0:0:
108,232,18803,2,0,L|108:132,1,75,10|0,1:2|0:2,0:0:0:0:
280,156,19024,1,10,1:2:0:0:
452,156,19135,2,0,L|452:48,1,75,2|8,0:2|1:2,0:0:0:0:
224,80,19357,6,0,L|384:80,1,150,2|0,0:2|0:2,0:0:0:0:
200,80,19689,2,0,L|108:80,1,75,10|0,1:2|0:2,0:0:0:0:
328,364,19910,2,0,P|364:344|304:272,1,150,10|0,1:2|0:2,0:0:0:0:
248,268,20242,1,0,0:2:0:0:
40,268,20353,6,0,L|40:168,1,75,10|0,1:2|1:2,0:0:0:0:
212,184,20574,2,0,L|312:184,1,75,10|0,1:2|1:2,0:0:0:0:
112,184,20796,1,10,1:2:0:0:
288,164,20906,2,0,L|288:72,1,75,2|8,1:2|1:2,0:0:0:0:
104,116,21128,6,0,P|56:72|116:24,1,150,2|0,1:2|0:2,0:0:0:0:
284,116,21460,2,0,L|388:116,1,75,10|0,1:2|0:2,0:0:0:0:
188,116,21681,2,0,L|188:20,1,75,10|8,1:2|1:2,0:0:0:0:
364,40,21903,2,0,L|276:40,1,75,10|2,1:2|1:2,0:0:0:0:
460,36,22124,6,0,L|460:140,1,75,10|0,1:2|0:2,0:0:0:0:
284,120,22346,2,0,L|192:120,1,75,10|0,1:2|1:2,0:0:0:0:
380,120,22567,1,10,1:2:0:0:
209,120,22678,2,0,L|208:20,1,75,2|8,0:2|1:2,0:0:0:0:
408,348,22899,6,0,P|456:320|400:268,1,150,2|0,1:2|1:2,0:0:0:0:
232,276,23231,2,0,L|144:276,1,75,10|0,1:2|0:2,0:0:0:0:
356,148,23453,1,10,1:2:0:0:
244,148,23619,1,10,1:2:0:0:
356,148,23785,1,10,1:2:0:0:
152,360,23895,6,0,L|152:268,1,75,14|0,1:2|0:2,0:0:0:0:
328,284,24117,2,0,L|424:284,1,75,10|0,1:2|1:2,0:0:0:0:
232,284,24338,1,10,1:2:0:0:
60,280,24449,2,0,L|60:180,1,75,2|8,1:2|1:2,0:0:0:0:
288,120,24670,6,0,L|128:120,1,150,2|0,1:2|0:2,0:0:0:0:
320,40,25002,2,0,L|320:132,1,75,10|0,1:2|0:2,0:0:0:0:
136,32,25224,2,0,L|96:32,2,37.5,10|0|0,1:2|1:2|1:2,0:0:0:0:
320,40,25445,2,0,L|228:40,1,75,10|2,1:2|1:2,0:0:0:0:
420,40,25667,6,0,L|420:136,1,75,10|0,1:2|1:2,0:0:0:0:
248,112,25888,2,0,L|140:112,1,75,10|0,1:2|1:2,0:0:0:0:
344,112,26109,1,10,1:2:0:0:
173,112,26220,2,0,L|172:212,1,75,2|8,1:2|1:2,0:0:0:0:
384,320,26441,6,0,P|432:296|368:248,1,150,2|0,1:2|1:2,0:0:0:0:
208,244,26774,2,0,L|208:148,1,75,10|0,1:2|1:2,0:0:0:0:
380,168,26995,1,2,3:2:0:0:
420,168,27050,1,0,3:2:0:0:
420,168,27106,1,2,3:2:0:0:
380,168,27161,1,0,3:2:0:0:
248,92,27216,2,0,L|184:92,1,37.5,10|0,3:2|3:2,0:0:0:0:
344,44,27327,2,0,L|400:44,1,37.5,2|0,3:2|3:2,0:0:0:0:
212,292,27438,6,0,L|112:292,1,82.5000025177003,10|8,1:2|1:2,0:0:0:0:
320,292,27659,2,0,L|416:292,1,82.5000025177003,10|8,1:2|1:2,0:0:0:0:
212,292,27881,1,10,1:2:0:0:
24,292,27991,2,0,L|24:188,1,82.5000025177003,10|8,1:2|1:2,0:0:0:0:
216,200,28213,6,0,L|304:200,2,82.5000025177003,10|8|8,1:2|1:2|1:2,0:0:0:0:
24,204,28545,2,0,L|116:204,1,82.5000025177003,10|8,1:2|1:2,0:0:0:0:
296,204,28766,2,0,L|296:112,1,82.5000025177003,10|8,1:2|1:2,0:0:0:0:
104,120,28988,2,0,L|104:24,1,82.5000025177003,10|10,1:2|1:2,0:0:0:0:
356,304,29209,6,0,L|404:304,1,41.2500012588501,10|0,1:2|1:2,0:0:0:0:
397,304,29320,2,0,L|348:304,1,41.2500012588501,8|0,1:2|1:2,0:0:0:0:
208,240,29430,2,0,L|156:240,1,41.2500012588501,10|0,1:2|1:2,0:0:0:0:
166,240,29541,2,0,L|220:244,1,41.2500012588501,8|0,1:2|1:2,0:0:0:0:
396,208,29652,5,10,1:2:0:0:
435,199,29707,1,0,1:2:0:0:
458,166,29762,1,10,1:2:0:0:
454,126,29818,1,0,1:2:0:0:
425,99,29873,1,8,1:2:0:0:
384,98,29928,1,0,1:2:0:0:
224,184,29984,1,10,1:2:0:0:
183,185,30039,1,0,1:2:0:0:
153,158,30094,5,8,1:2:0:0:
150,117,30150,1,0,1:2:0:0:
176,86,30205,1,10,1:2:0:0:
216,82,30260,1,0,1:2:0:0:
384,32,30316,2,0,L|440:32,1,41.2500012588501,10|0,1:2|1:2,0:0:0:0:
384,32,30427,2,0,L|320:32,1,41.2500012588501,8|0,1:2|1:2,0:0:0:0:
204,32,30537,2,0,L|204:128,1,82.5000025177003,10|8,1:2|0:2,0:0:0:0:
376,120,30759,2,0,L|476:120,1,82.5000025177003,8|8,0:2|0:2,0:0:0:0:
208,248,30980,6,0,L|96:156,2,110.000003356934,2|2|2,0:2|0:2|0:2,0:0:0:0:
324,248,31423,2,0,L|432:164,2,110.000003356934,2|2|2,0:2|0:2|0:2,0:0:0:0:
72,360,31866,6,0,P|52:312|84:204,1,150,4|0,1:2|0:2,0:0:0:0:
268,220,32309,2,0,L|164:220,1,75,2|2,0:2|0:2,0:0:0:0:
388,224,32641,6,0,P|456:160|360:84,1,225,2|2,0:2|0:2,0:0:0:0:
248,80,33194,1,2,0:2:0:0:
112,80,33416,2,0,L|192:80,1,75,2|2,0:2|0:2,0:0:0:0:
396,352,33637,6,0,P|440:316|372:260,1,150,2|2,0:2|0:2,0:0:0:0:
196,256,34080,2,0,L|292:256,1,75,2|2,0:2|0:2,0:0:0:0:
76,256,34412,6,0,B|76:104|76:104|172:104,1,225,2|2,0:2|0:2,0:0:0:0:
344,104,34965,2,0,L|168:104,1,150,2|0,0:2|0:2,0:0:0:0:
480,352,35408,6,0,L|480:192,1,150,2|2,1:2|0:2,0:0:0:0:
284,188,35851,2,0,L|192:188,1,75,2|2,0:2|0:2,0:0:0:0:
404,188,36183,6,0,P|448:172|380:52,1,225,2|2,0:2|0:2,0:0:0:0:
248,56,36737,2,0,L|420:56,1,150,2|2,0:2|0:2,0:0:0:0:
472,56,37069,1,2,0:2:0:0:
240,364,37179,6,0,L|240:192,1,150,2|2,0:2|0:2,0:0:0:0:
436,216,37622,2,0,L|336:216,1,75,2|2,0:2|0:2,0:0:0:0:
167,208,37954,6,0,P|119:188|175:64,1,225,2|2,0:2|0:2,0:0:0:0:
320,64,38508,2,0,L|144:64,1,150,2|2,0:2|0:2,0:0:0:0:
96,64,38840,1,0,0:0:0:0:
352,308,38951,5,2,1:2:0:0:
204,308,39172,1,2,0:2:0:0:
352,308,39393,2,0,L|352:208,1,75,2|2,0:2|0:2,0:0:0:0:
276,232,39615,1,0,0:2:0:0:
180,232,39726,6,0,P|136:200|192:128,1,150,2|0,0:2|0:2,0:0:0:0:
272,128,40058,2,0,L|432:128,2,150,2|2|2,1:2|0:2|0:2,0:0:0:0:
196,132,40611,1,2,1:2:0:0:
396,300,40722,5,2,0:2:0:0:
248,304,40943,1,2,1:2:0:0:
396,300,41165,2,0,L|492:300,2,75,2|2|0,0:2|0:2|0:2,0:0:0:0:
300,304,41497,6,0,P|256:272|320:208,1,150,2|0,0:2|0:2,0:0:0:0:
396,204,41829,2,0,L|396:116,1,75,2|0,1:2|0:2,0:0:0:0:
300,132,42050,2,0,L|300:48,1,75,2|0,0:2|0:2,0:0:0:0:
400,60,42272,1,2,0:2:0:0:
437,60,42327,1,2,0:2:0:0:
475,60,42382,1,2,0:2:0:0:
244,344,42493,5,2,1:2:0:0:
396,348,42715,1,2,0:2:0:0:
244,344,42936,2,0,L|164:344,2,75,2|2|0,1:2|0:2|0:2,0:0:0:0:
340,344,43268,6,0,P|376:316|336:236,1,150,2|0,0:2|0:2,0:0:0:0:
240,236,43600,2,0,L|80:236,2,150,0|2|2,1:2|0:2|1:2,0:0:0:0:
320,236,44154,1,2,0:2:0:0:
108,152,44264,5,2,1:2:0:0:
260,152,44486,1,2,0:2:0:0:
108,152,44707,2,0,L|108:64,1,75,2|2,0:2|0:2,0:0:0:0:
188,80,44929,1,0,0:2:0:0:
284,76,45039,6,0,P|324:112|272:196,1,150,2|0,0:2|0:2,0:0:0:0:
196,200,45371,2,0,L|196:288,1,75,2|0,1:2|0:2,0:0:0:0:
296,276,45593,2,0,L|296:192,1,75,2|0,0:2|0:2,0:0:0:0:
200,200,45814,2,0,L|92:200,1,75,2|0,0:2|0:2,0:0:0:0:
336,112,46036,6,0,L|504:112,2,150,4|0|0,1:2|0:2|0:2,0:0:0:0:
180,104,46700,2,0,L|180:20,1,75,0|0,0:2|0:2,0:0:0:0:
368,368,46921,6,0,P|412:344|344:288,1,150,8|0,1:2|0:2,0:0:0:0:
216,288,47364,1,0,0:2:0:0:
368,280,47585,2,0,L|268:280,1,75,0|0,1:2|0:2,0:0:0:0:
104,220,47807,6,0,P|64:200|120:128,1,150,0|0,1:2|0:2,0:0:0:0:
252,124,48250,2,0,L|100:124,1,150,0|0,0:2|0:2,0:0:0:0:
102,124,48582,1,0,0:2:0:0:
328,360,48692,6,0,P|372:332|316:272,1,150,8|0,1:2|0:2,0:0:0:0:
288,272,48969,1,0,0:2:0:0:
252,272,49024,1,0,0:2:0:0:
216,272,49080,1,0,0:2:0:0:
180,272,49135,1,0,0:2:0:0:
324,270,49357,1,0,1:2:0:0:
44,356,49578,6,0,P|36:280|56:180,1,150,0|0,1:2|0:2,0:0:0:0:
244,152,50021,1,0,1:2:0:0:
169,152,50131,1,0,0:2:0:0:
94,152,50242,1,0,0:2:0:0:
388,364,50464,6,0,P|416:312|360:228,1,150,8|0,1:2|0:2,0:0:0:0:
228,236,50906,1,0,1:2:0:0:
380,236,51128,1,0,1:2:0:0:
88,352,51349,6,0,L|88:184,1,150,0|0,1:2|1:2,0:0:0:0:
288,216,51792,2,0,L|132:216,1,150,0|0,1:2|1:2,0:0:0:0:
448,212,52235,6,0,P|488:188|424:120,1,150,8|0,1:2|0:2,0:0:0:0:
372,116,52567,1,0,0:2:0:0:
128,356,52678,1,2,1:2:0:0:
92,350,52733,1,2,0:2:0:0:
65,325,52788,1,2,0:2:0:0:
56,289,52844,1,2,0:2:0:0:
68,254,52899,1,2,0:2:0:0:
98,232,52954,1,2,0:2:0:0:
135,231,53010,1,2,0:2:0:0:
308,236,53120,6,0,L|408:236,1,75,14|0,1:2|0:2,0:0:0:0:
208,240,53342,2,0,L|124:240,1,75,10|0,1:2|0:2,0:0:0:0:
304,240,53563,1,10,1:2:0:0:
132,236,53674,2,0,L|48:236,1,75,2|8,0:2|1:2,0:0:0:0:
232,164,53895,6,0,L|340:164,1,75,2|8,0:2|1:2,0:0:0:0:
484,88,54117,2,0,L|388:88,1,75,2|8,0:2|1:2,0:0:0:0:
232,248,54338,1,2,0:2:0:0:
57,243,54449,2,0,L|57:167,1,75,10|0,1:2|1:2,0:0:0:0:
232,164,54670,1,10,1:2:0:0:
57,168,54781,6,0,L|56:80,1,75,2|8,0:2|1:2,0:0:0:0:
136,92,55002,1,2,0:2:0:0:
336,324,55113,2,0,P|376:296|320:228,1,150,10|10,1:2|1:2,0:0:0:0:
240,228,55445,1,0,0:2:0:0:
148,232,55556,2,0,L|148:136,1,75,10|0,1:2|0:2,0:0:0:0:
240,156,55777,6,0,L|332:156,1,75,10|0,1:2|0:2,0:0:0:0:
224,156,55999,2,0,L|224:64,1,75,10|0,1:2|0:2,0:0:0:0:
404,152,56220,2,0,L|300:152,1,75,10|0,1:2|0:2,0:0:0:0:
240,148,56441,2,0,L|140:148,1,75,10|0,1:2|0:2,0:0:0:0:
380,352,56663,6,0,L|292:352,1,75,10|0,1:2|1:2,0:0:0:0:
132,352,56884,2,0,L|132:252,1,75,10|0,1:2|0:2,0:0:0:0:
308,276,57106,1,10,1:2:0:0:
480,280,57216,2,0,L|376:280,1,75,2|8,1:2|1:2,0:0:0:0:
172,192,57438,6,0,L|272:192,1,75,2|8,0:2|1:2,0:0:0:0:
420,192,57659,2,0,L|420:104,1,75,2|8,0:2|1:2,0:0:0:0:
244,116,57881,1,2,0:2:0:0:
72,112,57991,2,0,L|168:112,1,75,10|0,1:2|1:2,0:0:0:0:
364,360,58213,2,0,L|364:272,1,75,10|0,1:2|0:2,0:0:0:0:
272,288,58434,6,0,L|272:184,1,75,10|0,1:2|0:2,0:0:0:0:
392,208,58655,2,0,L|472:208,1,75,10|0,1:2|1:2,0:0:0:0:
376,208,58877,1,10,1:2:0:0:
467,208,58988,2,0,L|467:112,1,75,2|8,0:2|1:2,0:0:0:0:
392,208,59209,1,0,0:2:0:0:
204,148,59320,5,10,1:2:0:0:
304,148,59467,1,10,1:2:0:0:
204,148,59615,1,10,1:2:0:0:
432,60,59762,1,10,1:2:0:0:
332,60,59910,1,10,1:2:0:0:
432,60,60058,1,10,1:2:0:0:
188,352,60205,6,0,L|80:352,1,75,14|0,1:2|1:2,0:0:0:0:
300,352,60427,2,0,L|300:268,1,75,10|0,1:2|1:2,0:0:0:0:
128,268,60648,1,10,1:2:0:0:
300,268,60759,2,0,L|200:268,1,75,2|8,1:2|1:2,0:0:0:0:
52,164,60980,6,0,L|132:164,1,75,2|8,1:2|1:2,0:0:0:0:
312,180,61202,2,0,L|408:180,2,75,2|10|2,1:2|1:2|1:2,0:0:0:0:
136,180,61534,1,10,1:2:0:0:
173,180,61589,1,0,1:2:0:0:
211,180,61644,1,0,1:2:0:0:
408,360,61755,2,0,L|408:256,1,75,10|0,1:2|1:2,0:0:0:0:
232,284,61977,6,0,L|316:284,1,75,10|0,1:2|1:2,0:0:0:0:
224,284,62198,2,0,L|224:180,1,75,10|0,1:2|1:2,0:0:0:0:
316,204,62419,1,10,1:2:0:0:
408,200,62530,2,0,L|500:200,2,75,2|8|2,1:2|1:2|1:2,0:0:0:0:
208,192,62862,6,0,L|116:192,1,75,10|0,1:2|1:2,0:0:0:0:
208,192,63084,2,0,L|296:192,1,75,10|2,1:2|1:2,0:0:0:0:
76,148,63305,2,0,L|76:64,1,75,8|2,1:2|1:2,0:0:0:0:
248,72,63526,2,0,L|160:72,1,75,8|2,1:2|1:2,0:0:0:0:
348,68,63748,6,0,L|348:152,1,75,10|0,1:2|0:2,0:0:0:0:
176,152,63969,2,0,L|128:152,2,37.5,10|0|0,3:2|3:2|3:2,0:0:0:0:
404,224,64191,1,10,1:2:0:0:
291,224,64357,1,10,1:2:0:0:
404,224,64523,1,10,1:2:0:0:
208,336,64633,6,0,L|112:336,1,75,10|2,1:2|0:2,0:0:0:0:
308,336,64855,2,0,L|396:336,1,75,10|0,1:2|0:2,0:0:0:0:
212,336,65076,2,0,L|212:236,1,75,10|0,1:2|0:2,0:0:0:0:
388,272,65298,2,0,L|388:168,1,75,10|0,1:2|0:2,0:0:0:0:
208,184,65519,5,10,1:2:0:0:
172,184,65574,1,0,1:2:0:0:
172,148,65630,1,8,1:2:0:0:
208,148,65685,1,0,1:2:0:0:
344,144,65740,1,10,1:2:0:0:
380,144,65796,1,0,1:2:0:0:
416,144,65851,1,8,1:2:0:0:
380,144,65906,1,0,1:2:0:0:
248,104,65962,5,10,1:2:0:0:
212,104,66017,1,0,1:2:0:0:
84,136,66072,1,10,1:2:0:0:
47,129,66127,1,0,1:2:0:0:
24,100,66182,1,8,1:2:0:0:
26,63,66238,1,0,1:2:0:0:
50,36,66293,1,8,1:2:0:0:
86,31,66348,1,0,0:0:0:0:
232,284,66405,6,0,L|320:284,1,75,10|8,1:2|1:2,0:0:0:0:
128,216,66626,2,0,L|28:216,1,75,10|8,1:2|1:2,0:0:0:0:
232,216,66847,2,0,L|232:128,1,75,10|8,1:2|0:2,0:0:0:0:
56,104,67069,2,0,L|152:104,1,75,10|8,0:2|0:2,0:0:0:0:
368,360,67290,6,0,P|472:256|344:184,1,330.000010070801,2|0,0:2|0:2,0:0:0:0:
312,184,67788,1,0,0:2:0:0:
268,184,67844,1,0,0:2:0:0:
228,184,67899,1,0,0:2:0:0:
188,184,67954,1,0,0:2:0:0:
148,184,68010,1,0,0:2:0:0:
148,144,68065,1,0,0:2:0:0:
188,144,68120,1,0,0:2:0:0:
352,360,68176,5,8,1:2:0:0:
390,349,68231,1,0,1:2:0:0:
414,316,68286,1,0,1:2:0:0:
413,275,68342,1,0,1:2:0:0:
386,245,68397,1,0,1:2:0:0:
347,237,68452,1,0,1:2:0:0:
200,360,68508,5,8,1:2:0:0:
161,349,68563,1,0,1:2:0:0:
137,316,68618,1,0,1:2:0:0:
138,275,68674,1,0,1:2:0:0:
165,245,68729,1,0,1:2:0:0:
204,237,68784,1,0,1:2:0:0:
356,152,68840,5,8,1:2:0:0:
396,152,68895,1,0,1:2:0:0:
436,152,68951,1,0,1:2:0:0:
396,152,69006,1,0,1:2:0:0:
240,156,69061,6,0,P|201:122|256:48,1,150,4|0,1:2|0:2,0:0:0:0:
320,48,69393,1,0,0:2:0:0:
396,48,69504,1,2,0:2:0:0:
396,124,69615,1,0,0:2:0:0:
320,124,69726,1,0,0:2:0:0:
32,276,69947,6,0,L|212:276,1,150,10|0,1:2|0:2,0:0:0:0:
32,276,70390,2,0,L|32:96,1,150,2|0,0:2|0:2,0:0:0:0:
252,344,70833,5,2,1:2:0:0:
322,327,70943,1,0,0:2:0:0:
351,261,71054,1,0,0:2:0:0:
317,197,71165,1,0,0:2:0:0:
246,185,71275,1,0,0:2:0:0:
172,188,71386,1,0,0:2:0:0:
172,120,71497,1,0,0:2:0:0:
472,40,71718,6,0,L|304:40,1,150,8|0,1:2|0:2,0:0:0:0:
284,40,71995,1,0,0:2:0:0:
248,40,72050,1,0,0:2:0:0:
212,40,72106,1,0,0:2:0:0:
176,40,72161,1,0,0:2:0:0:
324,40,72382,1,0,1:2:0:0:
32,356,72604,6,0,L|32:188,1,150,0|0,1:2|0:2,0:0:0:0:
108,208,72936,1,0,0:2:0:0:
184,208,73047,1,2,0:2:0:0:
108,208,73157,1,0,0:2:0:0:
32,204,73268,1,0,0:2:0:0:
328,344,73489,6,0,P|368:272|304:228,1,150,10|0,1:2|0:2,0:0:0:0:
180,232,73932,2,0,P|136:200|196:132,1,150,2|0,0:2|0:2,0:0:0:0:
400,236,74375,6,0,L|400:144,1,75,2|0,1:2|0:2,0:0:0:0:
324,160,74596,2,0,L|228:160,1,75,0|0,0:2|0:2,0:0:0:0:
324,160,74818,2,0,L|416:160,1,75,0|0,0:2|0:2,0:0:0:0:
399,160,75039,1,0,0:0:0:0:
60,364,75261,5,8,1:2:0:0:
240,368,75482,2,0,L|240:196,1,150,0|0,1:2|0:2,0:0:0:0:
60,364,75925,1,0,1:2:0:0:
396,188,76146,6,0,L|216:188,1,150,4|0,1:2|0:2,0:0:0:0:
172,188,76478,1,0,0:2:0:0:
96,188,76589,1,2,0:2:0:0:
92,112,76700,1,0,0:2:0:0:
168,108,76810,1,0,0:2:0:0:
380,360,77032,6,0,L|380:196,1,150,2|0,0:2|0:2,0:0:0:0:
184,212,77475,1,10,1:2:0:0:
376,212,77696,1,0,0:2:0:0:
60,128,77917,6,0,L|240:128,1,150,6|0,1:2|0:2,0:0:0:0:
284,128,78250,1,0,0:2:0:0:
210,128,78360,1,0,0:2:0:0:
60,128,78582,1,0,0:2:0:0:
380,368,78803,6,0,L|380:196,1,150,8|0,1:2|0:2,0:0:0:0:
344,220,79080,1,0,0:2:0:0:
308,220,79135,1,0,0:2:0:0:
272,220,79191,1,0,0:2:0:0:
236,220,79246,1,0,0:2:0:0:
384,220,79467,1,0,1:2:0:0:
72,336,79689,6,0,P|40:288|84:208,1,150,0|0,1:2|0:2,0:0:0:0:
152,212,80021,1,0,0:2:0:0:
228,212,80131,1,2,0:2:0:0:
304,212,80242,1,0,0:2:0:0:
304,136,80353,1,0,0:2:0:0:
16,120,80574,6,0,L|192:120,1,150,10|0,1:2|0:2,0:0:0:0:
316,116,81017,2,0,L|316:292,1,150,2|0,0:2|0:2,0:0:0:0:
32,276,81460,6,0,L|32:184,1,75,2|0,1:2|0:2,0:0:0:0:
108,200,81681,1,0,0:2:0:0:
184,200,81792,2,0,L|184:108,1,75,0|0,0:2|0:2,0:0:0:0:
108,132,82013,2,0,L|28:132,1,75,0|0,0:2|0:2,0:0:0:0:
384,348,82346,5,10,1:2:0:0:
200,352,82567,2,0,L|200:200,1,150,0|0,1:2|0:0,0:0:0:0:
384,348,83010,1,0,1:2:0:0:
96,352,83231,6,0,P|64:312|120:224,1,150,2|2,0:2|0:2,0:0:0:0:
280,232,83674,2,0,L|384:232,1,75,2|2,0:2|0:2,0:0:0:0:
180,232,84006,6,0,P|124:200|196:88,1,225,2|2,0:2|0:2,0:0:0:0:
268,88,84449,1,2,0:2:0:0:
348,88,84559,1,2,0:2:0:0:
432,88,84670,1,2,0:2:0:0:
436,172,84781,1,2,0:2:0:0:
356,172,84891,1,2,0:2:0:0:
128,208,85002,5,2,1:2:0:0:
292,208,85224,1,2,1:2:0:0:
132,212,85445,1,2,1:2:0:0:
316,208,85556,2,0,L|316:108,1,75,2|0,0:2|1:2,0:0:0:0:
132,140,85777,2,0,L|32:140,2,75,2|0|0,0:2|1:2|0:2,0:0:0:0:
316,84,86109,1,2,1:2:0:0:
132,84,86331,1,2,1:2:0:0:
404,264,86774,5,2,1:2:0:0:
240,264,86995,1,2,1:2:0:0:
404,264,87216,1,2,1:2:0:0:
224,208,87327,2,0,L|224:108,1,75,2|0,0:2|1:2,0:0:0:0:
400,136,87548,2,0,L|496:136,2,75,2|0|0,0:2|1:2|0:2,0:0:0:0:
216,68,87881,2,0,L|396:68,2,150,2|2|2,1:2|1:2|1:2,0:0:0:0:
292,68,88434,1,2,0:2:0:0:
484,68,88545,5,2,1:2:0:0:
336,68,88766,1,2,1:2:0:0:
484,68,88988,1,2,1:2:0:0:
312,184,89098,2,0,L|228:184,1,75,2|0,0:2|1:2,0:0:0:0:
408,120,89320,2,0,L|496:120,2,75,2|0|0,0:2|1:2|0:2,0:0:0:0:
224,316,89652,2,0,L|224:220,1,75,2|0,1:2|0:2,0:0:0:0:
436,196,89873,1,2,1:2:0:0:
308,197,90039,1,2,1:2:0:0:
436,196,90205,1,2,1:2:0:0:
140,72,90316,6,0,L|312:72,2,150,2|2|2,1:2|1:2|1:2,0:0:0:0:
320,276,90870,2,0,L|320:176,1,75,2|0,0:2|1:2,0:0:0:0:
144,204,91091,2,0,L|44:204,2,75,2|0|0,0:2|1:2|0:2,0:0:0:0:
328,92,91423,2,0,L|164:92,2,150,2|2|2,1:2|1:2|1:2,0:0:0:0:
252,96,91977,1,2,0:2:0:0:
444,240,92087,6,0,L|272:240,2,150,2|2|2,1:2|1:2|1:2,0:0:0:0:
244,240,92641,2,0,L|244:140,1,75,2|0,0:2|1:2,0:0:0:0:
416,168,92862,2,0,L|492:168,2,75,2|0|0,0:2|1:2|0:2,0:0:0:0:
232,144,93195,2,0,L|404:144,2,150,2|2|2,1:2|1:2|1:2,0:0:0:0:
268,144,93692,1,0,1:2:0:0:
308,144,93748,1,2,1:2:0:0:
272,144,93803,1,0,1:2:0:0:
76,300,93858,6,0,L|256:300,2,150,2|2|2,1:2|1:2|1:2,0:0:0:0:
260,240,94412,2,0,L|260:136,1,75,2|0,0:2|1:2,0:0:0:0:
84,164,94633,1,2,0:2:0:0:
308,352,94744,5,0,1:2:0:0:
348,352,94799,1,0,1:2:0:0:
348,312,94854,1,0,1:2:0:0:
308,312,94910,1,0,1:2:0:0:
268,312,94965,1,2,1:2:0:0:
228,312,95021,1,0,1:2:0:0:
188,312,95076,1,2,1:2:0:0:
228,312,95131,1,0,1:2:0:0:
356,208,95187,6,0,L|356:104,1,75,2|2,1:2|0:2,0:0:0:0:
180,204,95408,1,2,0:2:0:0:
144,204,95464,1,2,0:2:0:0:
144,204,95519,1,2,0:2:0:0:
180,204,95574,1,2,0:2:0:0:
388,56,95630,6,0,L|388:156,1,75,14|0,1:2|0:2,0:0:0:0:
208,128,95851,2,0,L|124:128,1,75,10|0,1:2|0:2,0:0:0:0:
312,124,96072,1,10,1:2:0:0:
492,124,96183,2,0,L|400:124,1,75,2|8,0:2|1:2,0:0:0:0:
236,128,96405,6,0,L|148:128,1,75,2|8,0:2|1:2,0:0:0:0:
342,124,96626,2,0,L|344:224,1,75,2|8,0:2|1:2,0:0:0:0:
164,196,96847,1,2,0:2:0:0:
392,156,96958,2,0,L|300:156,1,75,10|0,1:2|1:2,0:0:0:0:
144,84,97179,2,0,L|248:84,1,75,10|0,1:2|1:2,0:0:0:0:
144,84,97401,6,0,L|44:83,1,75,10|0,1:2|0:2,0:0:0:0:
260,312,97622,2,0,L|260:216,1,75,10|0,1:2|0:2,0:0:0:0:
168,236,97844,2,0,L|168:144,1,75,10|0,1:2|0:2,0:0:0:0:
260,160,98065,2,0,L|360:160,1,75,10|0,1:2|0:2,0:0:0:0:
156,160,98286,5,10,1:2:0:0:
335,160,98397,2,0,L|335:72,1,75,2|8,0:2|1:2,0:0:0:0:
152,84,98619,1,2,0:2:0:0:
335,85,98730,2,0,L|231:85,1,75,10|0,1:2|0:2,0:0:0:0:
440,76,98951,2,0,L|440:168,1,75,10|2,1:2|0:2,0:0:0:0:
240,336,99172,6,0,L|240:240,1,75,10|0,1:2|1:2,0:0:0:0:
420,256,99393,2,0,L|420:172,1,75,10|0,1:2|0:2,0:0:0:0:
236,180,99615,1,10,1:2:0:0:
56,176,99726,2,0,L|148:176,1,75,2|8,1:2|1:2,0:0:0:0:
336,180,99947,6,0,L|336:92,1,75,2|8,0:2|1:2,0:0:0:0:
156,96,100168,2,0,L|156:4,1,75,2|8,0:2|1:2,0:0:0:0:
336,16,100390,1,2,0:2:0:0:
156,96,100500,2,0,L|252:96,1,75,10|0,1:2|1:2,0:0:0:0:
424,168,100722,2,0,L|316:168,1,75,10|0,1:2|0:2,0:0:0:0:
180,120,100943,6,0,L|88:120,2,75,10|0|10,1:2|0:2|1:2,0:0:0:0:
364,120,101275,1,2,1:2:0:0:
180,120,101386,2,0,L|0:120,1,150,10|10,1:2|1:2,0:0:0:0:
120,120,101718,1,0,1:2:0:0:
320,248,101829,5,10,1:2:0:0:
208,248,101977,1,10,1:2:0:0:
320,248,102124,1,10,1:2:0:0:
28,164,102272,1,10,1:2:0:0:
140,164,102420,1,10,1:2:0:0:
28,164,102567,1,10,1:2:0:0:
276,88,102715,6,0,L|368:88,1,75,14|0,1:2|1:2,0:0:0:0:
172,92,102936,2,0,L|88:92,1,75,10|0,1:2|1:2,0:0:0:0:
276,88,103157,1,10,1:2:0:0:
97,92,103268,2,0,L|96:184,1,75,2|8,1:2|1:2,0:0:0:0:
312,176,103489,6,0,L|412:176,1,75,2|8,1:2|1:2,0:0:0:0:
204,176,103711,1,2,1:2:0:0:
24,176,103822,2,0,L|112:176,1,75,10|2,1:2|1:2,0:0:0:0:
316,88,104043,2,0,L|356:88,2,37.5,10|0|0,1:2|1:2|1:2,0:0:0:0:
136,88,104264,2,0,L|136:180,1,75,10|2,1:2|1:2,0:0:0:0:
364,296,104486,6,0,L|444:296,1,75,10|0,1:2|1:2,0:0:0:0:
364,296,104707,2,0,L|280:296,1,75,10|0,1:2|1:2,0:0:0:0:
460,224,104929,2,0,L|460:120,1,75,10|0,1:2|1:2,0:0:0:0:
372,148,105150,2,0,L|452:148,1,75,10|0,1:2|1:2,0:0:0:0:
256,148,105371,6,0,L|164:148,1,75,10|0,1:2|1:2,0:0:0:0:
364,148,105593,2,0,L|364:48,1,75,10|2,1:2|1:2,0:0:0:0:
184,72,105814,2,0,L|272:72,1,75,8|2,1:2|1:2,0:0:0:0:
76,72,106036,2,0,L|-28:72,1,75,8|2,1:2|1:2,0:0:0:0:
240,360,106257,6,0,L|240:268,1,75,10|0,1:2|0:2,0:0:0:0:
144,280,106478,2,0,L|144:188,1,75,10|0,1:2|1:2,0:0:0:0:
372,104,106700,1,10,1:2:0:0:
244,104,106866,1,10,1:2:0:0:
372,104,107032,1,10,1:2:0:0:
124,204,107143,5,14,1:2:0:0:
84,192,107198,1,0,0:0:0:0:
84,148,107253,1,0,1:2:0:0:
124,140,107309,1,0,0:0:0:0:
280,192,107364,2,0,L|184:192,1,82.5000025177003,10|2,1:2|1:2,0:0:0:0:
388,192,107585,2,0,L|388:88,1,82.5000025177003,10|0,1:2|1:2,0:0:0:0:
196,112,107807,2,0,L|196:24,1,82.5000025177003,10|2,1:2|1:2,0:0:0:0:
416,336,108028,5,10,1:2:0:0:
460,320,108083,1,0,1:2:0:0:
459,281,108138,1,2,1:2:0:0:
414,268,108194,1,0,1:2:0:0:
264,276,108250,2,0,L|160:276,1,82.5000025177003,10|0,1:2|0:0,0:0:0:0:
380,180,108471,2,0,L|380:84,1,82.5000025177003,10|0,1:2|1:2,0:0:0:0:
188,100,108692,2,0,L|304:100,1,82.5000025177003,10|2,1:2|1:2,0:0:0:0:
80,96,108914,6,0,L|80:184,1,82.5000025177003,10|0,1:2|1:2,0:0:0:0:
124,184,109080,1,0,0:0:0:0:
168,184,109135,1,10,1:2:0:0:
80,178,109246,1,2,1:2:0:0:
272,188,109357,2,0,L|272:96,1,82.5000025177003,10|2,1:2|1:2,0:0:0:0:
184,100,109578,2,0,L|80:100,1,82.5000025177003,10|2,1:2|1:2,0:0:0:0:
320,280,109799,6,0,L|420:280,1,82.5000025177003,10|2,1:2|1:2,0:0:0:0:
212,224,110021,2,0,L|212:168,1,41.2500012588501,10|0,1:2|1:2,0:0:0:0:
264,184,110131,2,0,L|264:124,1,41.2500012588501,2|0,1:2|1:2,0:0:0:0:
120,140,110242,2,0,L|32:140,1,82.5000025177003,10|2,1:2|1:2,0:0:0:0:
228,140,110464,2,0,L|148:96,1,82.5000025177003,10|2,1:2|1:2,0:0:0:0:
368,328,110685,6,0,L|416:328,1,41.2500012588501,10|0,1:2|1:2,0:0:0:0:
456,328,110796,2,0,L|392:328,1,41.2500012588501,0|0,1:2|1:2,0:0:0:0:
264,264,110906,2,0,L|204:264,1,41.2500012588501,10|0,1:2|1:2,0:0:0:0:
181,264,111017,2,0,L|180:200,1,41.2500012588501,0|0,1:2|1:2,0:0:0:0:
380,260,111128,2,0,L|380:156,1,82.5000025177003,10|0,1:2|1:2,0:0:0:0:
188,184,111349,2,0,L|188:76,1,82.5000025177003,10|0,1:2|1:2,0:0:0:0:
396,92,111571,6,0,L|396:188,1,82.5000025177003,10|0,1:2|1:2,0:0:0:0:
212,92,111792,2,0,L|120:92,1,82.5000025177003,10|2,1:2|1:2,0:0:0:0:
320,92,112013,1,10,1:2:0:0:
129,92,112124,2,0,L|24:92,2,82.5000025177003,2|8|2,1:2|1:2|1:2,0:0:0:0:
344,360,112456,6,0,L|400:360,1,41.2500012588501,10|0,1:2|1:2,0:0:0:0:
385,360,112567,2,0,L|332:360,1,41.2500012588501,2|0,1:2|1:2,0:0:0:0:
180,288,112678,2,0,L|180:172,1,82.5000025177003,10|2,1:2|1:2,0:0:0:0:
372,209,112899,2,0,L|372:112,1,82.5000025177003,10|2,1:2|1:2,0:0:0:0:
180,205,113120,2,0,L|72:204,1,82.5000025177003,10|2,1:2|1:2,0:0:0:0:
308,128,113342,5,10,1:2:0:0:
188,128,113489,1,10,1:2:0:0:
308,128,113637,1,10,1:2:0:0:
32,88,113785,1,10,1:2:0:0:
148,88,113932,1,10,1:2:0:0:
32,88,114080,1,10,1:2:0:0:
308,296,114227,5,14,1:2:0:0:
349,296,114282,1,0,0:0:0:0:
390,296,114337,1,0,1:2:0:0:
349,296,114393,1,0,1:2:0:0:
200,240,114449,2,0,L|200:144,1,82.5000025177003,10|0,1:2|1:2,0:0:0:0:
400,72,114670,2,0,L|484:72,2,82.5000025177003,10|0|10,1:2|1:2|1:2,0:0:0:0:
228,72,115002,1,2,1:2:0:0:
60,76,115113,6,0,L|12:76,1,41.2500012588501,10|0,1:2|1:2,0:0:0:0:
60,76,115224,1,0,1:2:0:0:
100,76,115279,1,0,1:2:0:0:
236,248,115334,2,0,L|236:184,1,41.2500012588501,10|0,1:2|1:2,0:0:0:0:
180,188,115445,2,0,L|180:132,1,41.2500012588501,2|0,1:2|1:2,0:0:0:0:
320,92,115556,6,0,L|376:92,1,41.2500012588501,10|0,1:2|1:2,0:0:0:0:
408,92,115667,2,0,L|332:92,1,41.2500012588501,0|0,1:2|1:2,0:0:0:0:
204,88,115777,2,0,L|104:88,1,82.5000025177003,10|2,1:2|1:2,0:0:0:0:
352,352,115999,6,0,L|352:240,1,82.5000025177003,8|2,1:2|1:2,0:0:0:0:
160,268,116220,2,0,L|52:268,1,82.5000025177003,10|0,1:2|1:2,0:0:0:0:
260,264,116441,1,10,1:2:0:0:
48,192,116552,1,2,1:2:0:0:
89,192,116607,1,0,1:2:0:0:
130,192,116662,1,8,1:2:0:0:
320,156,116774,6,0,L|320:52,1,82.5000025177003,2|10,1:2|1:2,0:0:0:0:
228,72,116995,2,0,L|136:72,1,82.5000025177003,2|10,1:2|1:2,0:0:0:0:
344,296,117216,2,0,L|432:296,1,82.5000025177003,2|8,1:2|1:2,0:0:0:0:
252,252,117438,2,0,L|252:152,1,82.5000025177003,2|10,1:2|1:2,0:0:0:0:
444,168,117659,1,2,1:2:0:0:
224,108,117770,6,0,L|116:108,1,82.5000025177003,10|0,1:2|0:2,0:0:0:0:
348,52,117991,2,0,L|392:52,2,41.2500012588501,10|0|0,1:2|0:0|0:2,0:0:0:0:
136,244,118213,1,10,1:2:0:0:
268,248,118379,1,10,1:2:0:0:
136,244,118545,1,10,1:2:0:0:
344,140,118655,6,0,L|244:140,1,82.5000025177003,10|2,1:2|1:2,0:0:0:0:
452,140,118877,2,0,L|452:236,1,82.5000025177003,10|0,1:2|1:2,0:0:0:0:
260,224,119098,2,0,L|260:328,1,82.5000025177003,10|0,1:2|1:2,0:0:0:0:
452,308,119320,2,0,L|336:308,1,82.5000025177003,10|0,1:2|1:2,0:0:0:0:
148,312,119541,6,0,L|148:212,1,82.5000025177003,10|0,1:2|1:2,0:0:0:0:
340,228,119762,2,0,L|228:228,2,82.5000025177003,10|2|10,1:2|1:2|1:2,0:0:0:0:
120,232,120095,1,2,1:2:0:0:
79,227,120150,1,0,1:2:0:0:
52,197,120205,1,8,1:2:0:0:
52,157,120261,1,0,1:2:0:0:
78,127,120316,1,0,1:2:0:0:
118,122,120371,1,0,1:2:0:0:
292,176,120427,5,10,1:2:0:0:
332,176,120482,1,0,1:2:0:0:
332,136,120537,1,8,1:2:0:0:
292,132,120593,1,0,1:2:0:0:
140,88,120648,1,10,1:2:0:0:
98,88,120703,1,0,1:2:0:0:
57,88,120758,1,8,1:2:0:0:
100,88,120814,1,0,1:2:0:0:
264,272,120869,2,0,L|372:272,1,82.5000025177003,10|8,1:2|1:2,0:0:0:0:
156,272,121091,2,0,L|156:160,1,82.5000025177003,10|8,1:2|1:2,0:0:0:0:
364,364,121312,6,0,P|424:352|344:160,1,359.999989013672,10|0,1:2|1:0,0:0:0:0:
264,160,121866,1,0,1:0:0:0:
264,160,121977,1,0,1:0:0:0:
352,156,122087,1,0,1:0:0:0:
124,356,122198,5,8,1:2:0:0:
83,356,122253,1,0,1:2:0:0:
54,328,122308,1,0,1:2:0:0:
52,288,122364,1,0,1:2:0:0:
79,258,122419,1,0,1:2:0:0:
119,256,122474,1,0,1:2:0:0:
284,256,122530,5,8,1:2:0:0:
324,255,122585,1,0,1:2:0:0:
351,226,122640,1,0,1:2:0:0:
348,186,122696,1,0,1:2:0:0:
317,160,122751,1,0,1:2:0:0:
277,166,122806,1,0,1:2:0:0:
128,108,122862,6,0,L|64:108,1,41.2500012588501,8|0,1:2|1:2,0:0:0:0:
128,108,122973,2,0,L|192:108,1,41.2500012588501,0|0,1:2|1:2,0:0:0:0:
328,368,123084,6,0,P|360:336|312:248,1,150,6|2,1:2|0:2,0:0:0:0:
144,248,123526,2,0,L|144:160,1,75,2|2,0:2|0:2,0:0:0:0:
324,168,123858,2,0,L|80:168,1,225,2|2,0:2|1:2,0:0:0:0:
304,164,124412,2,0,P|352:116|292:88,1,150,2|2,0:2|1:2,0:0:0:0:
224,88,124744,1,2,0:2:0:0:
48,252,124855,6,0,L|212:252,2,150,2|2|2,1:2|0:2|0:2,0:0:0:0:
48,252,125408,1,2,0:2:0:0:
344,256,125630,6,0,P|384:236|332:168,1,150,2|0,1:2|1:2,0:0:0:0:
264,168,125962,1,2,1:2:0:0:
116,172,126183,2,0,L|116:60,1,112.5,2|0,1:2|1:2,0:0:0:0:
376,280,126515,6,0,L|472:280,2,75,6|0|0,1:2|1:2|1:2,0:0:0:0:
200,276,126847,2,0,L|112:276,1,75,2|0,1:2|1:2,0:0:0:0:
332,192,127069,1,2,1:2:0:0:
257,192,127179,1,0,1:2:0:0:
182,192,127290,1,0,1:2:0:0:
396,356,127401,5,6,1:2:0:0:
429,341,127456,1,0,1:2:0:0:
449,310,127511,1,0,1:2:0:0:
445,273,127567,1,0,1:2:0:0:
420,246,127622,1,0,1:2:0:0:
384,239,127677,1,0,1:2:0:0:
236,280,127733,1,2,1:2:0:0:
200,280,127788,1,0,1:2:0:0:
164,280,127844,1,0,1:2:0:0:
200,280,127899,1,0,1:2:0:0:
420,172,127954,1,6,1:2:0:0:
