osu file format v14

[General]
AudioFilename: audio.mp3
AudioLeadIn: 0
PreviewTime: 53134
Countdown: 0
SampleSet: Soft
StackLeniency: 0.7
Mode: 2
LetterboxInBreaks: 0
WidescreenStoryboard: 1

[Editor]
Bookmarks: 46051
DistanceSpacing: 1.1
BeatDivisor: 4
GridSize: 4
TimelineZoom: 3.199999

[Metadata]
Title:Punai Punai Sensou
TitleUnicode:プナイプナイせんそう
Artist:Rish feat. Choko
ArtistUnicode:立秋 feat. ちょこ
Creator:Kukkai
Version:Deluge
Source:
Tags:lacrima myle rew0825 dapuluous dapu rissyuu Risshuu mg mappers guild Featured Artist FA Muse Dash BMS 石王マサト MASATO Ishioh G2R2018 Climax GO BACK 2 YOUR ROOTS 2018 hard 石王マサト Patchouli video game japanese electronic novelty
BeatmapID:2915753
BeatmapSetID:1109546

[Difficulty]
HPDrainRate:6
CircleSize:4.2
OverallDifficulty:9.6
ApproachRate:9.6
SliderMultiplier:1.5
SliderTickRate:2

[Events]
//Background and Video events
0,0,"punaiii.png",0,0
Video,854,"video.mp4"
//Break Periods
//Storyboard Layer 0 (Background)
//Storyboard Layer 1 (Fail)
//Storyboard Layer 2 (Pass)
//Storyboard Layer 3 (Foreground)
//Storyboard Layer 4 (Overlay)
//Storyboard Sound Samples

[TimingPoints]
870,221.40221402214,4,1,1,60,1,0
2641,-100,4,2,1,40,0,0
5962,-100,4,2,1,10,0,0
6183,-100,4,2,1,40,0,0
9504,-100,4,2,1,10,0,0
9726,-100,4,2,1,50,0,0
16810,-100,4,2,1,70,0,1
27438,-90.9090909090909,4,2,1,70,0,1
30869,-90.9090909090909,4,2,1,70,0,0
31866,-100,4,2,1,50,0,0
35187,-100,4,2,1,5,0,0
35408,-100,4,2,1,50,0,0
46036,-100,4,2,1,60,0,0
53120,-100,4,2,1,70,0,1
67290,-90.9090909090909,4,2,1,50,0,0
67734,-90.9090909090909,4,2,1,5,0,0
68176,-90.9090909090909,4,2,1,60,0,0
69061,-100,4,2,1,60,0,0
83231,-100,4,2,1,50,0,0
85003,-100,4,2,1,60,0,0
95630,-100,4,2,1,70,0,1
106257,-100,4,2,1,70,0,0
107143,-90.9090909090909,4,2,1,75,0,1
121312,-83.3333333333333,4,2,1,100,0,0
121368,-90.9090909090909,4,2,1,5,0,0
121645,-90.9090909090909,4,2,1,5,0,0
122199,-90.9090909090909,4,2,1,60,0,0
123084,-100,4,2,1,60,0,0

[Colours]
Combo1 : 227,207,96
Combo2 : 231,187,159
Combo3 : 193,45,41
Combo4 : 98,145,102

[HitObjects]
312,356,869,5,0,0:2:0:0:
351,349,924,1,0,0:2:0:0:
388,334,979,1,0,0:2:0:0:
420,310,1035,1,0,0:2:0:0:
445,280,1090,1,0,0:2:0:0:
463,244,1145,1,0,0:2:0:0:
472,205,1201,1,0,0:2:0:0:
471,165,1256,1,0,0:2:0:0:
461,126,1311,1,0,0:2:0:0:
442,91,1367,1,0,0:2:0:0:
415,62,1422,1,0,0:2:0:0:
382,39,1477,1,0,0:2:0:0:
344,26,1533,1,0,0:2:0:0:
180,32,1589,6,0,L|124:32,1,37.5,2|0,0:2|0:2,0:0:0:0:
274,356,1699,1,2,0:2:0:0:
308,344,1754,1,0,0:0:0:0:
323,311,1809,1,0,0:0:0:0:
309,277,1865,1,0,0:2:0:0:
274,265,1920,1,0,0:0:0:0:
92,356,1977,6,0,L|160:356,1,37.5,2|0,0:2|0:2,0:0:0:0:
264,304,2087,5,2,0:2:0:0:
304,300,2142,1,0,0:2:0:0:
340,283,2197,1,0,0:2:0:0:
367,254,2253,1,0,0:2:0:0:
382,217,2308,1,0,0:2:0:0:
382,177,2363,1,0,0:2:0:0:
369,140,2419,1,0,0:2:0:0:
342,111,2474,1,0,0:2:0:0:
307,92,2529,1,0,0:2:0:0:
267,88,2585,1,0,0:2:0:0:
88,308,2641,6,0,P|64:228|94:171,1,150,6|2,0:2|0:2,0:0:0:0:
243,176,3084,2,0,L|340:176,1,75,2|2,0:2|0:2,0:0:0:0:
168,184,3416,6,0,P|100:116|176:28,1,225,2|2,0:2|0:2,0:0:0:0:
318,85,3969,2,0,L|475:84,1,150,2|2,0:2|0:2,0:0:0:0:
392,82,4301,1,2,0:2:0:0:
202,363,4412,6,0,L|202:197,1,150,2|2,0:2|0:2,0:0:0:0:
352,215,4855,2,0,L|260:212,1,75,2|2,0:2|0:2,0:0:0:0:
128,216,5187,2,0,P|72:180|136:68,1,225,2|2,0:2|0:2,0:0:0:0:
284,72,5740,2,0,L|444:72,1,150,2|0,0:2|0:2,0:0:0:0:
112,360,6183,5,2,1:2:0:0:
264,360,6405,1,2,1:2:0:0:
112,360,6626,2,0,L|32:360,2,75,2|2|0,0:2|0:2|0:2,0:0:0:0:
224,360,6958,2,0,L|312:360,2,75,2|0|0,0:2|0:2|0:2,0:0:0:0:
112,360,7290,2,0,P|68:316|124:248,1,150,2|2,0:2|0:2,0:0:0:0:
220,240,7622,2,0,L|220:148,1,75,0|2,0:2|0:2,0:0:0:0:
144,164,7844,1,2,0:2:0:0:
360,104,7954,5,2,1:2:0:0:
208,104,8176,1,2,1:2:0:0:
360,104,8397,2,0,L|360:204,1,75,2|2,0:2|0:2,0:0:0:0:
284,184,8619,1,0,0:2:0:0:
172,184,8729,1,2,0:2:0:0:
92,188,8839,1,0,0:2:0:0:
176,188,8950,1,0,0:2:0:0:
348,188,9061,1,2,0:2:0:0:
152,320,9283,2,0,L|152:168,1,150,2|0,0:2|0:2,0:0:0:0:
476,344,9726,5,6,1:2:0:0:
320,344,9947,1,2,1:2:0:0:
476,344,10168,2,0,L|476:240,1,75,2|2,0:2|0:2,0:0:0:0:
400,268,10390,1,0,0:2:0:0:
288,264,10500,1,2,0:2:0:0:
208,264,10611,2,0,L|208:164,1,75,0|0,0:2|0:2,0:0:0:0:
320,188,10833,1,2,0:2:0:0:
245,188,10943,1,0,0:2:0:0:
170,188,11054,1,2,0:2:0:0:
56,188,11165,2,0,L|56:96,1,75,0|2,1:2|0:2,0:0:0:0:
132,112,11386,1,0,0:2:0:0:
324,64,11497,5,2,1:2:0:0:
172,64,11718,1,2,1:2:0:0:
324,64,11940,2,0,L|412:64,2,75,2|2|0,0:2|0:2|0:2,0:0:0:0:
212,68,12272,2,0,L|104:68,2,75,2|0|0,0:2|0:2|0:2,0:0:0:0:
400,344,12604,2,0,L|400:252,1,75,2|0,0:2|0:2,0:0:0:0:
208,240,12825,2,0,L|124:240,1,75,2|0,0:2|1:2,0:0:0:0:
316,164,13047,2,0,L|396:164,1,75,2|0,0:2|0:2,0:0:0:0:
188,108,13268,5,6,1:2:0:0:
340,108,13489,1,2,1:2:0:0:
188,108,13711,2,0,L|188:216,1,75,2|2,0:2|0:2,0:0:0:0:
264,184,13932,1,0,0:2:0:0:
468,184,14043,2,0,L|468:92,1,75,6|0,1:2|0:2,0:0:0:0:
392,108,14264,1,0,0:2:0:0:
280,108,14375,2,0,L|104:108,1,150,2|2,1:2|0:0,0:0:0:0:
244,108,14707,2,0,L|348:108,2,75,0|2|0,0:0|1:2|0:0,0:0:0:0:
36,360,15039,6,0,L|36:192,1,150,6|2,1:2|1:2,0:0:0:0:
188,152,15482,2,0,L|294:150,1,75,2|2,1:2|0:2,0:0:0:0:
188,152,15703,2,0,L|92:152,1,75,0|2,1:2|0:2,0:0:0:0:
300,84,15925,5,0,1:2:0:0:
120,360,16036,2,0,L|120:264,1,75,0|2,1:2|1:2,0:0:0:0:
308,276,16257,1,0,1:2:0:0:
124,284,16368,1,2,0:2:0:0:
87,288,16423,1,0,0:2:0:0:
53,273,16478,1,0,0:2:0:0:
32,242,16534,1,0,0:2:0:0:
30,205,16589,1,0,0:2:0:0:
48,173,16644,1,0,0:2:0:0:
80,154,16700,1,0,0:2:0:0:
117,155,16755,1,0,0:2:0:0:
284,156,16810,6,0,L|392:156,1,75,10|0,1:2|0:2,0:0:0:0:
176,272,17032,2,0,L|176:176,1,75,10|0,1:2|0:2,0:0:0:0:
364,196,17253,1,10,1:2:0:0:
128,88,17364,2,0,L|36:88,1,75,2|8,0:2|1:2,0:0:0:0:
276,88,17585,6,0,L|360:88,2,75,2|8|0,0:2|1:2|0:2,0:0:0:0:
64,348,17917,2,0,L|64:252,1,75,10|0,1:2|0:2,0:0:0:0:
256,268,18139,2,0,L|348:268,1,75,10|0,1:2|1:2,0:0:0:0:
292,268,18305,1,0,1:2:0:0:
132,272,18360,2,0,L|40:272,1,75,10|2,1:2|1:2,0:0:0:0:
240,196,18582,6,0,L|240:108,1,75,10|0,1:2|0:2,0:0:0:0:
56,124,18803,2,0,L|56:40,1,75,10|0,1:2|0:2,0:0:0:0:
244,44,19024,1,10,1:2:0:0:
432,40,19135,2,0,L|432:136,1,75,2|8,0:2|1:2,0:0:0:0:
232,288,19357,6,0,L|140:288,2,75,2|8|0,0:2|1:2|0:2,0:0:0:0:
456,288,19689,2,0,L|364:288,1,75,10|0,1:2|0:2,0:0:0:0:
208,144,19910,2,0,L|380:144,1,150,10|0,1:2|0:2,0:0:0:0:
432,148,20242,1,0,0:2:0:0:
192,340,20353,6,0,L|96:340,1,75,10|0,1:2|1:2,0:0:0:0:
156,340,20519,1,0,1:2:0:0:
328,340,20574,2,0,L|436:340,1,75,10|0,1:2|1:2,0:0:0:0:
208,248,20796,1,10,1:2:0:0:
416,248,20906,2,0,L|468:248,2,37.5,2|0|8,1:2|1:2|1:2,0:0:0:0:
208,128,21128,1,2,1:2:0:0:
283,128,21238,5,8,1:2:0:0:
358,128,21349,1,0,0:2:0:0:
132,256,21460,2,0,L|24:256,1,75,10|0,1:2|0:2,0:0:0:0:
248,176,21681,2,0,L|144:176,1,75,10|8,1:2|1:2,0:0:0:0:
368,172,21903,1,10,1:2:0:0:
173,176,22013,1,2,1:2:0:0:
396,216,22124,6,0,L|496:216,1,75,10|0,1:2|0:2,0:0:0:0:
276,80,22346,2,0,L|188:80,1,75,10|0,1:2|1:2,0:0:0:0:
240,56,22512,1,0,1:2:0:0:
384,56,22567,1,10,1:2:0:0:
152,336,22678,2,0,L|72:336,1,75,2|8,0:2|1:2,0:0:0:0:
316,268,22899,6,0,P|356:240|304:172,1,150,2|0,1:2|1:2,0:0:0:0:
88,168,23231,2,0,L|88:88,1,75,10|0,1:2|0:2,0:0:0:0:
312,76,23453,1,10,1:2:0:0:
200,76,23619,1,10,1:2:0:0:
312,76,23785,1,10,1:2:0:0:
100,332,23895,6,0,L|184:332,1,75,14|0,1:2|0:2,0:0:0:0:
392,196,24117,2,0,L|288:196,1,75,10|0,1:2|1:2,0:0:0:0:
128,192,24338,1,10,1:2:0:0:
336,136,24449,2,0,L|336:52,1,75,2|8,1:2|1:2,0:0:0:0:
116,72,24670,6,0,L|32:72,2,75,2|8|0,1:2|1:2|0:2,0:0:0:0:
340,352,25002,2,0,L|432:352,1,75,10|0,1:2|0:2,0:0:0:0:
216,252,25224,1,10,1:2:0:0:
180,252,25279,1,0,1:2:0:0:
180,252,25334,1,0,1:2:0:0:
216,252,25390,1,0,1:2:0:0:
368,248,25445,2,0,L|472:248,1,75,10|2,1:2|1:2,0:0:0:0:
248,164,25667,6,0,L|348:164,1,75,10|0,1:2|1:2,0:0:0:0:
132,92,25888,2,0,L|224:92,1,75,10|0,1:2|1:2,0:0:0:0:
396,88,26109,1,10,1:2:0:0:
188,288,26220,2,0,L|136:288,2,37.5,2|0|8,1:2|1:2|1:2,0:0:0:0:
392,184,26441,6,0,L|232:184,1,150,2|0,1:2|1:2,0:0:0:0:
456,184,26774,2,0,L|456:88,1,75,10|0,1:2|1:2,0:0:0:0:
244,104,26995,2,0,L|136:104,1,75,2|2,3:2|3:2,0:0:0:0:
208,104,27161,1,0,3:2:0:0:
360,104,27216,2,0,L|452:104,1,75,10|2,3:2|3:2,0:0:0:0:
216,340,27438,6,0,L|120:340,1,82.5000025177003,10|8,1:2|1:2,0:0:0:0:
320,268,27659,2,0,L|220:268,1,82.5000025177003,10|8,1:2|1:2,0:0:0:0:
440,200,27881,1,10,1:2:0:0:
168,196,27991,2,0,L|272:196,1,82.5000025177003,10|8,1:2|1:2,0:0:0:0:
432,48,28213,6,0,L|336:48,2,82.5000025177003,10|8|8,1:2|1:2|1:2,0:0:0:0:
208,356,28545,2,0,L|108:356,1,82.5000025177003,10|8,1:2|1:2,0:0:0:0:
336,292,28766,2,0,L|428:292,1,82.5000025177003,10|8,1:2|1:2,0:0:0:0:
232,224,28988,1,10,1:2:0:0:
418,292,29098,1,10,1:2:0:0:
168,168,29209,5,10,1:2:0:0:
128,168,29264,1,0,1:2:0:0:
128,128,29320,1,8,1:2:0:0:
168,124,29375,1,0,1:2:0:0:
312,120,29430,1,10,1:2:0:0:
352,120,29486,1,0,1:2:0:0:
352,80,29541,1,8,1:2:0:0:
312,80,29596,1,0,1:2:0:0:
168,76,29652,5,10,1:2:0:0:
168,36,29707,1,0,1:2:0:0:
312,32,29762,1,10,1:2:0:0:
352,32,29818,1,0,1:2:0:0:
392,32,29873,1,8,1:2:0:0:
352,32,29929,1,0,1:2:0:0:
208,356,29984,1,10,1:2:0:0:
167,351,30039,1,0,1:2:0:0:
140,321,30094,5,8,1:2:0:0:
140,280,30150,1,0,1:2:0:0:
167,250,30205,1,10,1:2:0:0:
207,245,30260,1,0,1:2:0:0:
356,184,30316,1,10,1:2:0:0:
396,184,30371,1,0,1:2:0:0:
356,184,30427,1,8,1:2:0:0:
316,184,30482,1,0,1:2:0:0:
176,184,30537,6,0,L|84:184,1,82.5000025177003,10|8,1:2|0:2,0:0:0:0:
304,100,30759,2,0,L|404:100,1,82.5000025177003,8|8,0:2|0:2,0:0:0:0:
164,96,30980,6,0,L|60:48,2,110.000003356934,2|2|2,0:2|0:2|0:2,0:0:0:0:
376,36,31423,2,0,L|492:92,2,110.000003356934,2|2|2,0:2|0:2|0:2,0:0:0:0:
140,352,31866,6,0,L|140:184,1,150,4|0,1:2|0:2,0:0:0:0:
292,200,32309,2,0,L|292:116,1,75,2|2,0:2|0:2,0:0:0:0:
216,124,32530,1,0,0:2:0:0:
140,202,32641,6,0,P|72:146|148:62,1,225,2|2,0:2|0:2,0:0:0:0:
296,60,33194,1,2,0:2:0:0:
448,60,33416,2,0,L|448:148,1,75,2|2,0:2|0:2,0:0:0:0:
240,336,33637,5,2,0:2:0:0:
364,336,33858,1,2,0:2:0:0:
212,332,34080,2,0,L|128:332,2,75,2|2|0,0:2|0:2|0:0,0:0:0:0:
288,332,34412,6,0,P|352:284|268:192,1,225,2|2,0:2|0:2,0:0:0:0:
128,188,34965,2,0,L|128:28,1,150,2|0,0:2|0:2,0:0:0:0:
416,344,35408,5,2,1:2:0:0:
280,344,35630,1,2,0:2:0:0:
428,344,35851,2,0,L|504:344,2,75,2|2|0,0:2|0:2|0:2,0:0:0:0:
352,344,36183,6,0,L|116:344,1,225,2|2,0:2|0:2,0:0:0:0:
276,340,36737,2,0,L|440:340,1,150,2|2,0:2|0:2,0:0:0:0:
464,340,37013,1,2,0:2:0:0:
464,304,37069,1,2,0:2:0:0:
428,304,37124,1,2,0:2:0:0:
256,288,37179,6,0,P|216:248|260:176,1,150,2|2,0:2|0:2,0:0:0:0:
408,176,37622,2,0,L|408:76,1,75,2|2,0:2|0:2,0:0:0:0:
256,100,37954,6,0,L|488:100,1,225,2|2,0:2|0:2,0:0:0:0:
332,100,38508,2,0,L|332:276,1,150,2|2,0:2|0:2,0:0:0:0:
408,252,38840,1,0,0:0:0:0:
188,248,38951,5,2,1:2:0:0:
38,248,39172,1,2,0:2:0:0:
188,248,39393,2,0,L|280:248,1,75,2|2,0:2|0:2,0:0:0:0:
264,172,39615,1,0,0:2:0:0:
152,172,39726,6,0,L|64:172,2,75,2|0|0,0:2|0:2|0:2,0:0:0:0:
264,172,40058,2,0,L|428:172,1,150,2|2,1:2|0:2,0:0:0:0:
300,172,40390,2,0,L|196:172,2,75,0|2|2,0:2|0:2|1:2,0:0:0:0:
476,340,40722,5,2,0:2:0:0:
476,190,40943,1,2,1:2:0:0:
312,188,41165,2,0,L|228:188,2,75,2|2|0,0:2|0:2|0:2,0:0:0:0:
424,188,41497,6,0,L|424:88,1,75,2|0,0:2|0:2,0:0:0:0:
348,108,41718,1,0,0:2:0:0:
236,112,41829,2,0,L|236:20,1,75,2|0,1:2|0:2,0:0:0:0:
348,32,42050,2,0,L|348:116,1,75,2|0,0:2|0:2,0:0:0:0:
236,112,42272,2,0,L|188:112,1,37.5,2|2,0:2|0:2,0:0:0:0:
160,112,42382,1,2,0:2:0:0:
196,112,42438,1,2,0:2:0:0:
384,336,42493,5,2,1:2:0:0:
234,336,42714,1,2,0:2:0:0:
384,248,42936,1,2,1:2:0:0:
309,248,43046,1,2,0:2:0:0:
234,248,43157,1,0,0:2:0:0:
348,252,43268,6,0,L|444:252,2,75,2|0|0,0:2|0:2|0:2,0:0:0:0:
236,248,43600,2,0,P|188:188|256:152,1,150,0|2,1:2|0:2,0:0:0:0:
344,144,43932,2,0,L|436:144,2,75,0|2|2,0:2|1:2|0:2,0:0:0:0:
144,344,44264,5,2,1:2:0:0:
272,348,44486,1,2,0:2:0:0:
108,312,44707,2,0,L|108:216,1,75,2|2,0:2|0:2,0:0:0:0:
184,232,44929,1,0,0:2:0:0:
296,232,45039,1,2,0:2:0:0:
372,232,45150,6,0,L|372:124,1,75,0|0,0:2|0:2,0:0:0:0:
180,152,45371,2,0,L|180:68,1,75,2|0,1:2|0:2,0:0:0:0:
360,76,45593,2,0,L|464:76,1,75,2|0,0:2|0:2,0:0:0:0:
220,32,45814,2,0,L|120:32,1,75,2|0,0:2|0:2,0:0:0:0:
384,340,46036,5,4,1:2:0:0:
236,340,46257,1,0,0:2:0:0:
384,340,46478,2,0,L|384:176,1,150,0|0,0:2|0:2,0:0:0:0:
308,188,46810,1,0,0:2:0:0:
128,184,46921,6,0,P|92:152|144:72,1,150,8|0,1:2|0:2,0:0:0:0:
282,73,47364,2,0,L|449:73,1,150,0|0,0:2|1:2,0:0:0:0:
356,72,47696,1,0,0:2:0:0:
136,344,47807,5,0,1:2:0:0:
284,344,48028,1,0,0:2:0:0:
136,344,48250,2,0,P|104:296|160:212,1,150,0|0,0:2|0:2,0:0:0:0:
216,220,48582,1,0,0:2:0:0:
412,224,48692,6,0,L|412:60,1,150,8|0,1:2|0:2,0:0:0:0:
376,76,48969,1,0,0:2:0:0:
340,76,49024,1,0,0:2:0:0:
304,76,49080,1,0,0:2:0:0:
268,76,49135,1,0,0:2:0:0:
440,60,49357,1,0,1:2:0:0:
144,364,49578,6,0,L|144:200,1,150,0|0,1:2|0:2,0:0:0:0:
264,216,49910,1,0,0:2:0:0:
384,212,50021,2,0,L|488:212,2,75,0|0|0,1:2|0:2|0:2,0:0:0:0:
80,120,50464,6,0,L|256:120,1,150,8|0,1:2|0:2,0:0:0:0:
80,120,50906,2,0,L|80:280,1,150,0|0,1:2|1:2,0:0:0:0:
116,272,51183,1,0,0:0:0:0:
152,272,51239,1,0,0:0:0:0:
188,272,51294,1,0,0:0:0:0:
352,164,51349,5,0,1:2:0:0:
172,164,51571,1,0,1:2:0:0:
352,164,51792,1,0,1:2:0:0:
172,164,52013,1,0,1:2:0:0:
472,76,52235,6,0,L|300:76,1,150,8|0,1:2|0:2,0:0:0:0:
248,76,52567,1,0,0:2:0:0:
448,288,52678,1,2,1:2:0:0:
484,288,52733,1,2,0:2:0:0:
448,288,52788,1,2,0:2:0:0:
412,288,52844,1,2,0:2:0:0:
256,288,52899,1,2,0:2:0:0:
220,288,52954,1,2,0:2:0:0:
184,288,53010,1,2,0:2:0:0:
220,288,53065,1,2,0:2:0:0:
376,212,53120,6,0,L|468:212,1,75,14|0,1:2|0:2,0:0:0:0:
240,176,53342,2,0,L|156:176,1,75,10|0,1:2|0:2,0:0:0:0:
332,104,53563,1,10,1:2:0:0:
116,172,53674,2,0,L|116:76,1,75,2|8,0:2|1:2,0:0:0:0:
308,44,53895,6,0,L|404:44,1,75,2|8,0:2|1:2,0:0:0:0:
188,40,54117,2,0,L|272:40,1,75,2|8,0:2|1:2,0:0:0:0:
440,40,54338,1,2,0:2:0:0:
208,312,54449,2,0,L|208:204,1,75,10|0,1:2|1:2,0:0:0:0:
416,236,54670,1,10,1:2:0:0:
208,152,54781,6,0,L|316:152,1,75,2|8,0:2|1:2,0:0:0:0:
96,152,55002,1,2,0:2:0:0:
336,336,55113,2,0,L|336:232,1,75,10|0,1:2|0:2,0:0:0:0:
132,216,55334,2,0,L|44:216,1,75,10|0,1:2|0:2,0:0:0:0:
284,208,55556,2,0,L|284:104,1,75,10|0,1:2|0:2,0:0:0:0:
104,80,55777,5,10,1:2:0:0:
188,80,55888,1,0,0:2:0:0:
104,80,55999,1,10,1:2:0:0:
24,80,56109,1,0,0:2:0:0:
232,76,56220,2,0,L|316:76,1,75,10|0,1:2|0:2,0:0:0:0:
112,184,56441,2,0,L|208:184,1,75,10|0,1:2|0:2,0:0:0:0:
432,352,56663,6,0,L|328:352,1,75,10|0,1:2|1:2,0:0:0:0:
320,352,56829,1,0,1:2:0:0:
148,344,56884,2,0,L|148:260,1,75,10|0,1:2|0:2,0:0:0:0:
344,264,57106,1,10,1:2:0:0:
128,192,57216,1,2,1:2:0:0:
90,192,57271,1,0,1:2:0:0:
53,192,57326,1,8,1:2:0:0:
256,192,57438,6,0,L|256:96,1,75,2|8,0:2|1:2,0:0:0:0:
64,120,57659,2,0,L|64:24,1,75,2|8,0:2|1:2,0:0:0:0:
246,41,57881,1,2,0:2:0:0:
424,40,57991,2,0,L|500:40,1,75,10|0,1:2|1:2,0:0:0:0:
256,268,58213,6,0,L|344:268,2,75,10|0|10,1:2|0:2|1:2,0:0:0:0:
460,272,58545,1,0,0:2:0:0:
232,208,58655,2,0,L|232:112,1,75,10|0,1:2|1:2,0:0:0:0:
408,136,58877,1,10,1:2:0:0:
208,64,58988,1,2,0:2:0:0:
288,64,59098,1,8,1:2:0:0:
372,64,59209,1,0,0:2:0:0:
144,312,59320,5,10,1:2:0:0:
264,316,59467,1,10,1:2:0:0:
144,312,59615,1,10,1:2:0:0:
380,188,59762,1,10,1:2:0:0:
228,188,59910,1,10,1:2:0:0:
380,188,60058,1,10,1:2:0:0:
136,136,60205,6,0,L|28:136,1,75,14|0,1:2|1:2,0:0:0:0:
260,72,60427,2,0,L|344:72,1,75,10|0,1:2|1:2,0:0:0:0:
96,76,60648,1,10,1:2:0:0:
324,352,60759,2,0,L|432:352,1,75,2|8,1:2|1:2,0:0:0:0:
192,288,60980,6,0,L|284:288,1,75,2|8,1:2|1:2,0:0:0:0:
68,216,61202,1,2,1:2:0:0:
104,216,61257,1,0,1:2:0:0:
304,160,61312,2,0,L|196:160,1,75,10|2,1:2|1:2,0:0:0:0:
416,92,61534,1,10,1:2:0:0:
456,92,61589,1,0,1:2:0:0:
456,92,61644,1,0,1:2:0:0:
416,92,61700,1,0,1:2:0:0:
252,96,61755,2,0,L|152:96,1,75,10|0,1:2|1:2,0:0:0:0:
384,336,61977,6,0,L|484:336,1,75,10|0,1:2|1:2,0:0:0:0:
440,336,62115,1,0,1:2:0:0:
420,336,62143,1,0,1:2:0:0:
208,272,62198,2,0,L|108:272,1,75,10|0,1:2|1:2,0:0:0:0:
324,208,62419,1,10,1:2:0:0:
120,144,62530,2,0,L|64:144,2,37.5,2|0|8,1:2|1:2|1:2,0:0:0:0:
196,68,62751,1,2,1:2:0:0:
408,332,62862,5,10,1:2:0:0:
324,336,62973,1,0,1:2:0:0:
408,336,63084,1,10,1:2:0:0:
488,336,63194,1,2,1:2:0:0:
248,248,63305,1,8,1:2:0:0:
432,248,63416,2,0,L|432:160,1,75,2|8,1:2|1:2,0:0:0:0:
240,160,63637,1,2,1:2:0:0:
40,160,63748,6,0,L|148:160,1,75,10|0,1:2|0:2,0:0:0:0:
380,88,63969,1,10,3:2:0:0:
342,88,64024,1,0,3:2:0:0:
305,88,64079,1,0,3:2:0:0:
40,48,64191,1,10,1:2:0:0:
176,44,64357,1,10,1:2:0:0:
44,48,64523,1,10,1:2:0:0:
300,324,64633,6,0,L|200:324,1,75,10|2,1:2|0:2,0:0:0:0:
400,264,64855,2,0,L|496:264,1,75,10|0,1:2|0:2,0:0:0:0:
224,196,65076,2,0,L|324:196,1,75,10|0,1:2|0:2,0:0:0:0:
76,196,65298,2,0,L|76:108,1,75,10|0,1:2|0:2,0:0:0:0:
284,76,65519,5,10,1:2:0:0:
324,76,65574,1,0,1:2:0:0:
364,76,65630,1,8,1:2:0:0:
324,76,65685,1,0,1:2:0:0:
160,312,65740,1,10,1:2:0:0:
120,312,65796,1,0,1:2:0:0:
120,312,65851,1,8,1:2:0:0:
160,276,65906,1,0,1:2:0:0:
308,276,65962,5,10,1:2:0:0:
348,276,66017,1,0,1:2:0:0:
180,196,66072,1,10,1:2:0:0:
144,186,66127,1,0,1:2:0:0:
122,156,66182,1,8,1:2:0:0:
124,119,66238,1,0,1:2:0:0:
148,91,66293,1,8,1:2:0:0:
184,85,66348,1,0,0:0:0:0:
336,136,66405,5,10,1:2:0:0:
376,136,66460,1,0,1:2:0:0:
376,136,66515,1,8,1:2:0:0:
336,136,66571,1,0,1:2:0:0:
184,32,66626,1,10,1:2:0:0:
144,32,66681,1,0,1:2:0:0:
104,32,66737,1,8,1:2:0:0:
144,32,66792,1,0,1:2:0:0:
296,272,66847,5,10,1:2:0:0:
368,272,66958,1,8,0:2:0:0:
168,272,67069,1,10,0:2:0:0:
88,272,67179,1,8,0:2:0:0:
360,360,67290,6,0,P|412:344|344:144,1,330.000010070801,2|0,0:2|0:2,0:0:0:0:
320,144,67788,5,0,0:2:0:0:
280,144,67844,1,0,0:2:0:0:
240,144,67899,1,0,0:2:0:0:
200,144,67954,1,0,0:2:0:0:
160,144,68010,1,0,0:2:0:0:
160,104,68065,1,0,0:2:0:0:
200,104,68120,1,0,0:2:0:0:
376,312,68176,5,8,1:2:0:0:
416,312,68231,1,0,1:2:0:0:
456,312,68286,1,0,1:2:0:0:
416,312,68342,1,0,1:2:0:0:
284,312,68397,1,0,1:2:0:0:
244,312,68453,1,0,1:2:0:0:
112,312,68508,1,8,1:2:0:0:
72,312,68563,1,0,1:2:0:0:
72,272,68619,5,0,1:2:0:0:
112,272,68674,1,0,1:2:0:0:
248,228,68729,1,0,1:2:0:0:
288,228,68785,1,0,1:2:0:0:
424,228,68840,1,8,1:2:0:0:
464,228,68895,1,0,1:2:0:0:
464,188,68951,1,0,1:2:0:0:
424,192,69006,1,0,1:2:0:0:
208,232,69061,6,0,P|166:206|224:140,1,150,4|0,1:2|0:2,0:0:0:0:
284,136,69392,1,0,0:2:0:0:
360,140,69504,2,0,L|444:140,2,75,2|0|0,0:2|0:2|0:2,0:0:0:0:
48,360,69946,6,0,L|48:192,1,150,10|0,1:2|0:2,0:0:0:0:
200,212,70389,2,0,L|36:212,1,150,2|0,0:2|0:2,0:0:0:0:
276,216,70833,6,0,L|276:112,1,75,2|0,1:2|0:2,0:0:0:0:
200,144,71054,1,0,0:2:0:0:
124,144,71165,2,0,L|32:144,1,75,0|0,0:2|0:2,0:0:0:0:
49,144,71386,1,0,0:2:0:0:
125,144,71497,1,0,0:2:0:0:
472,356,71718,6,0,L|472:192,1,150,8|0,1:2|0:2,0:0:0:0:
436,208,71995,1,0,0:2:0:0:
400,208,72050,1,0,0:2:0:0:
364,208,72106,1,0,0:2:0:0:
328,208,72161,1,0,0:2:0:0:
476,208,72382,1,0,1:2:0:0:
172,352,72604,6,0,L|352:352,1,150,0|0,1:2|0:2,0:0:0:0:
396,352,72936,1,0,0:2:0:0:
472,352,73047,2,0,L|472:244,1,75,2|0,0:2|0:2,0:0:0:0:
396,276,73268,1,0,0:2:0:0:
96,256,73489,6,0,L|96:104,1,150,10|0,1:2|0:2,0:0:0:0:
248,100,73932,2,0,L|424:100,1,150,2|0,0:2|0:2,0:0:0:0:
436,104,74209,1,0,0:2:0:0:
436,68,74264,1,0,0:2:0:0:
400,68,74320,1,0,0:2:0:0:
224,356,74375,5,2,1:2:0:0:
148,360,74486,2,0,L|148:264,1,75,0|0,0:2|0:2,0:0:0:0:
224,284,74707,1,0,0:2:0:0:
300,284,74818,1,0,0:2:0:0:
376,284,74929,2,0,L|376:184,1,75,0|0,0:2|0:2,0:0:0:0:
80,200,75261,5,8,1:2:0:0:
252,200,75482,2,0,L|252:40,1,150,0|0,1:2|0:2,0:0:0:0:
80,200,75925,1,0,1:2:0:0:
376,328,76146,6,0,L|208:328,1,150,4|0,1:2|0:2,0:0:0:0:
140,328,76478,1,0,0:2:0:0:
64,328,76589,2,0,L|64:232,1,75,2|0,0:2|0:2,0:0:0:0:
140,256,76810,1,0,0:2:0:0:
292,260,77032,6,0,L|120:260,1,150,2|0,0:2|0:2,0:0:0:0:
460,260,77475,2,0,L|460:92,1,150,10|0,1:2|0:2,0:0:0:0:
152,260,77917,6,0,P|112:192|168:140,1,150,6|0,1:2|0:2,0:0:0:0:
228,144,78250,1,0,0:2:0:0:
304,144,78360,1,0,0:2:0:0:
380,144,78471,2,0,L|380:44,1,75,0|0,0:0|0:2,0:0:0:0:
76,352,78803,6,0,P|56:304|96:196,1,150,8|0,1:2|0:2,0:0:0:0:
116,212,79080,1,0,0:2:0:0:
152,212,79135,1,0,0:2:0:0:
188,212,79191,1,0,0:2:0:0:
224,212,79246,1,0,0:2:0:0:
76,216,79467,1,0,1:2:0:0:
380,360,79689,6,0,P|412:316|360:240,1,150,0|0,1:2|0:2,0:0:0:0:
292,248,80021,1,0,0:2:0:0:
216,248,80131,1,2,0:2:0:0:
292,248,80242,1,0,0:2:0:0:
368,248,80353,1,0,0:2:0:0:
84,168,80574,6,0,L|264:168,1,150,10|0,1:2|0:2,0:0:0:0:
84,168,81017,2,0,P|64:212|92:312,1,150,2|0,0:2|0:2,0:0:0:0:
124,308,81294,1,0,0:2:0:0:
160,308,81349,1,0,0:2:0:0:
196,308,81405,1,0,0:2:0:0:
352,304,81460,6,0,L|456:304,2,75,2|0|0,1:2|0:2|0:2,0:0:0:0:
276,304,81792,2,0,L|184:304,2,75,0|0|0,0:2|0:2|0:2,0:0:0:0:
352,300,82124,1,0,0:2:0:0:
56,216,82346,5,10,1:2:0:0:
228,220,82567,2,0,L|228:64,1,150,0|0,1:2|0:0,0:0:0:0:
404,72,83010,1,0,1:2:0:0:
92,360,83231,6,0,P|60:316|108:232,1,150,2|2,0:2|0:2,0:0:0:0:
260,240,83674,2,0,L|160:240,1,75,2|2,0:2|0:2,0:0:0:0:
356,244,84006,6,0,P|404:224|332:104,1,225,2|2,0:2|0:2,0:0:0:0:
264,100,84449,1,2,0:2:0:0:
172,100,84560,1,2,0:2:0:0:
84,100,84670,1,2,0:2:0:0:
172,100,84781,1,2,0:2:0:0:
264,100,84892,1,2,0:2:0:0:
480,292,85002,6,0,L|296:292,2,150,2|2|2,1:2|1:2|1:2,0:0:0:0:
284,228,85556,2,0,L|180:228,1,75,2|0,0:2|1:2,0:0:0:0:
400,156,85777,2,0,L|484:156,2,75,2|0|0,0:2|1:2|0:2,0:0:0:0:
200,68,86109,2,0,L|356:68,1,150,2|2,1:2|1:2,0:0:0:0:
92,300,86774,6,0,L|260:300,2,150,2|2|2,1:2|1:2|1:2,0:0:0:0:
300,304,87327,2,0,L|300:208,1,75,2|0,0:2|1:2,0:0:0:0:
96,212,87548,2,0,L|12:212,2,75,2|0|0,0:2|1:2|0:2,0:0:0:0:
324,116,87881,6,0,L|160:116,2,150,2|2|2,1:2|1:2|1:2,0:0:0:0:
400,116,88434,1,2,0:2:0:0:
184,332,88545,6,0,L|352:332,2,150,2|2|2,1:2|1:2|1:2,0:0:0:0:
404,256,89098,2,0,L|304:256,1,75,2|0,0:2|1:2,0:0:0:0:
124,252,89320,6,0,L|124:160,1,75,2|0,0:2|1:2,0:0:0:0:
200,180,89541,1,0,0:2:0:0:
392,176,89652,2,0,L|392:80,1,75,2|0,1:2|0:2,0:0:0:0:
160,72,89873,1,2,1:2:0:0:
296,72,90039,1,2,1:2:0:0:
160,72,90205,1,2,1:2:0:0:
384,344,90316,6,0,L|384:248,1,75,2|0,1:2|0:2,0:0:0:0:
308,272,90537,2,0,L|308:176,1,75,2|0,1:2|0:2,0:0:0:0:
480,200,90759,1,2,1:2:0:0:
280,140,90869,2,0,L|184:140,1,75,2|0,0:2|1:2,0:0:0:0:
384,64,91091,6,0,L|472:64,2,75,2|0|0,0:2|1:2|0:2,0:0:0:0:
168,348,91423,2,0,L|8:348,1,150,2|2,1:2|1:2,0:0:0:0:
92,344,91755,1,2,0:2:0:0:
304,348,91866,2,0,L|304:248,1,75,2|2,1:2|0:2,0:0:0:0:
128,264,92087,6,0,L|128:176,1,75,2|0,1:2|0:2,0:0:0:0:
204,192,92309,2,0,L|296:192,1,75,2|0,1:2|0:2,0:0:0:0:
76,120,92530,1,2,1:2:0:0:
272,116,92641,2,0,L|368:116,1,75,2|0,0:2|1:2,0:0:0:0:
152,52,92862,6,0,L|68:52,2,75,2|0|0,0:2|1:2|0:2,0:0:0:0:
352,352,93194,2,0,L|172:352,1,150,2|2,1:2|1:2,0:0:0:0:
280,352,93526,1,2,0:2:0:0:
84,228,93637,1,2,1:2:0:0:
40,228,93692,1,0,1:2:0:0:
40,192,93748,1,2,1:2:0:0:
84,192,93803,1,0,1:2:0:0:
272,148,93858,5,2,1:2:0:0:
96,144,93969,2,0,L|96:52,1,75,0|2,0:2|1:2,0:0:0:0:
312,68,94191,1,0,0:2:0:0:
136,64,94301,2,0,L|228:64,1,75,2|2,1:2|0:2,0:0:0:0:
288,64,94523,2,0,L|288:160,1,75,0|2,1:2|0:2,0:0:0:0:
44,340,94745,6,0,L|108:340,1,37.5,0|0,1:2|1:2,0:0:0:0:
219,340,94856,2,0,L|287:340,1,37.5,0|0,0:0|0:0,0:0:0:0:
80,340,94966,1,2,1:2:0:0:
36,248,95021,1,0,1:2:0:0:
36,248,95076,1,2,1:2:0:0:
80,340,95131,1,0,1:2:0:0:
241,258,95187,2,0,L|143:259,1,75,2|2,1:2|0:2,0:0:0:0:
364,120,95408,1,2,0:2:0:0:
400,120,95464,1,2,0:2:0:0:
436,120,95519,1,2,0:2:0:0:
400,120,95574,1,2,0:2:0:0:
192,328,95630,6,0,L|88:328,1,75,14|0,1:2|0:2,0:0:0:0:
312,228,95851,2,0,L|420:228,1,75,10|0,1:2|0:2,0:0:0:0:
172,164,96072,1,10,1:2:0:0:
380,152,96183,2,0,L|284:152,1,75,2|8,0:2|1:2,0:0:0:0:
84,348,96405,6,0,L|84:264,1,75,2|8,0:2|1:2,0:0:0:0:
272,268,96626,2,0,L|272:176,1,75,2|8,0:2|1:2,0:0:0:0:
96,184,96847,1,2,0:2:0:0:
312,100,96958,1,10,1:2:0:0:
348,100,97013,1,0,1:2:0:0:
384,100,97069,1,0,1:2:0:0:
348,100,97124,1,0,1:2:0:0:
192,284,97179,6,0,L|88:284,2,75,10|0|10,1:2|1:2|1:2,0:0:0:0:
408,284,97512,1,0,0:2:0:0:
118,152,97622,1,10,1:2:0:0:
200,152,97733,1,0,0:2:0:0:
284,152,97844,1,10,1:2:0:0:
204,152,97954,1,0,0:2:0:0:
372,100,98065,2,0,L|464:100,1,75,10|0,1:2|0:2,0:0:0:0:
216,340,98286,5,10,1:2:0:0:
408,340,98397,2,0,L|408:236,1,75,2|8,0:2|1:2,0:0:0:0:
176,260,98619,1,2,0:2:0:0:
376,252,98729,2,0,L|292:252,1,75,10|0,1:2|0:2,0:0:0:0:
492,168,98951,2,0,L|400:168,1,75,10|2,1:2|0:2,0:0:0:0:
208,172,99172,6,0,L|208:88,1,75,10|0,1:2|1:2,0:0:0:0:
408,92,99393,2,0,L|316:92,1,75,10|0,1:2|0:2,0:0:0:0:
124,104,99615,1,10,1:2:0:0:
316,356,99726,2,0,L|408:360,1,75,2|8,1:2|1:2,0:0:0:0:
208,264,99947,6,0,L|116:264,1,75,2|8,0:2|1:2,0:0:0:0:
348,168,100168,2,0,L|244:168,1,75,2|8,0:2|1:2,0:0:0:0:
460,104,100390,1,2,0:2:0:0:
236,136,100500,2,0,L|236:48,1,75,10|0,1:2|1:2,0:0:0:0:
488,260,100722,2,0,L|400:260,1,75,10|0,1:2|0:2,0:0:0:0:
232,260,100943,6,0,L|324:260,1,75,10|0,1:2|0:2,0:0:0:0:
100,260,101165,2,0,L|100:160,1,75,10|2,1:2|1:2,0:0:0:0:
136,184,101331,1,0,1:2:0:0:
296,188,101386,2,0,L|392:188,1,75,10|0,1:2|0:2,0:0:0:0:
180,112,101608,2,0,L|88:112,1,75,10|0,1:2|1:2,0:0:0:0:
324,48,101829,5,10,1:2:0:0:
204,48,101977,1,10,1:2:0:0:
324,48,102124,1,10,1:2:0:0:
68,248,102272,1,10,1:2:0:0:
188,252,102419,1,10,1:2:0:0:
68,248,102567,1,10,1:2:0:0:
320,160,102715,6,0,L|424:160,1,75,14|0,1:2|1:2,0:0:0:0:
180,96,102936,2,0,L|284:96,1,75,10|0,1:2|1:2,0:0:0:0:
68,96,103157,1,10,1:2:0:0:
288,344,103268,2,0,L|192:344,1,75,2|8,1:2|1:2,0:0:0:0:
408,276,103489,6,0,L|408:192,1,75,2|8,1:2|1:2,0:0:0:0:
144,200,103711,2,0,L|232:200,2,75,2|10|2,1:2|1:2|1:2,0:0:0:0:
336,200,104043,2,0,L|288:200,1,37.5,10|0,1:2|1:2,0:0:0:0:
144,128,104154,2,0,L|188:128,1,37.5,0|0,1:2|1:2,0:0:0:0:
344,48,104264,2,0,L|448:48,1,75,10|2,1:2|1:2,0:0:0:0:
204,332,104486,6,0,L|304:332,1,75,10|0,1:2|1:2,0:0:0:0:
80,328,104707,2,0,L|80:236,1,75,10|0,1:2|1:2,0:0:0:0:
276,184,104929,1,10,1:2:0:0:
196,184,105039,1,0,1:2:0:0:
280,184,105150,1,10,1:2:0:0:
364,184,105261,1,0,1:2:0:0:
148,112,105371,6,0,L|244:112,1,75,10|0,1:2|1:2,0:0:0:0:
40,124,105593,2,0,L|40:44,1,75,10|2,1:2|1:2,0:0:0:0:
228,48,105814,2,0,L|124:48,1,75,8|2,1:2|1:2,0:0:0:0:
200,48,105980,1,0,1:2:0:0:
352,48,106036,2,0,L|448:48,1,75,8|2,1:2|1:2,0:0:0:0:
180,336,106257,6,0,L|180:244,1,75,10|0,1:2|0:2,0:0:0:0:
388,256,106478,2,0,L|388:176,1,75,10|0,1:2|1:2,0:0:0:0:
112,120,106700,1,10,1:2:0:0:
384,120,106866,1,10,1:2:0:0:
112,120,107032,1,10,1:2:0:0:
364,320,107143,6,0,L|472:320,1,82.5000025177003,14|0,1:2|1:2,0:0:0:0:
272,256,107364,2,0,L|216:256,1,41.2500012588501,10|0,1:2|1:0,0:0:0:0:
376,208,107475,2,0,L|376:144,1,41.2500012588501,2|0,1:2|1:0,0:0:0:0:
200,160,107585,2,0,L|112:160,1,82.5000025177003,10|0,1:2|1:2,0:0:0:0:
328,84,107807,2,0,L|428:84,1,82.5000025177003,10|2,1:2|1:2,0:0:0:0:
228,44,108028,5,10,1:2:0:0:
410,84,108139,1,2,1:2:0:0:
164,308,108250,1,10,1:2:0:0:
116,308,108305,1,0,1:2:0:0:
116,260,108360,1,0,1:2:0:0:
164,260,108416,1,0,1:2:0:0:
332,264,108471,2,0,L|432:264,1,82.5000025177003,10|0,1:2|1:2,0:0:0:0:
216,176,108692,2,0,L|328:176,1,82.5000025177003,10|2,1:2|1:2,0:0:0:0:
100,108,108914,6,0,L|12:108,1,82.5000025177003,10|0,1:2|1:2,0:0:0:0:
60,108,109080,1,0,0:0:0:0:
268,356,109135,2,0,L|288:268,1,82.5000025177003,10|2,1:2|1:2,0:0:0:0:
108,268,109357,2,0,L|60:184,1,82.5000025177003,10|2,1:2|1:2,0:0:0:0:
256,164,109578,2,0,L|152:136,1,82.5000025177003,10|2,1:2|1:2,0:0:0:0:
364,96,109799,6,0,L|264:96,1,82.5000025177003,10|2,1:2|1:2,0:0:0:0:
480,40,110021,2,0,L|376:40,1,82.5000025177003,10|2,1:2|1:2,0:0:0:0:
204,348,110242,2,0,L|324:348,1,82.5000025177003,10|2,1:2|1:2,0:0:0:0:
96,340,110464,2,0,L|8:340,1,82.5000025177003,10|2,1:2|1:2,0:0:0:0:
280,228,110685,6,0,L|392:228,1,82.5000025177003,10|0,1:2|1:2,0:0:0:0:
404,228,110851,1,0,1:2:0:0:
236,160,110906,2,0,L|144:160,1,82.5000025177003,10|0,1:2|1:2,0:0:0:0:
116,158,111072,1,0,1:2:0:0:
320,160,111128,2,0,L|320:56,1,82.5000025177003,10|0,1:2|1:2,0:0:0:0:
116,76,111349,2,0,L|116:176,1,82.5000025177003,10|0,1:2|1:2,0:0:0:0:
328,360,111571,2,0,L|416:360,1,82.5000025177003,10|0,1:2|1:2,0:0:0:0:
200,288,111792,6,0,L|300:288,1,82.5000025177003,10|2,1:2|1:2,0:0:0:0:
80,216,112013,1,10,1:2:0:0:
308,168,112124,2,0,L|200:168,1,82.5000025177003,2|8,1:2|1:2,0:0:0:0:
404,104,112346,1,2,1:2:0:0:
204,104,112456,5,10,1:2:0:0:
164,104,112512,1,0,1:2:0:0:
332,44,112567,1,2,1:2:0:0:
372,44,112622,1,0,1:2:0:0:
200,336,112678,2,0,L|88:336,1,82.5000025177003,10|2,1:2|1:2,0:0:0:0:
312,264,112899,1,10,1:2:0:0:
116,264,113010,2,0,L|116:156,1,82.5000025177003,2|10,1:2|1:2,0:0:0:0:
296,176,113231,1,2,1:2:0:0:
80,88,113342,5,10,1:2:0:0:
208,88,113489,1,10,1:2:0:0:
80,88,113637,1,10,1:2:0:0:
388,40,113785,1,10,1:2:0:0:
252,40,113932,1,10,1:2:0:0:
388,40,114080,1,10,1:2:0:0:
156,324,114227,6,0,L|64:324,1,82.5000025177003,14|0,1:2|1:2,0:0:0:0:
116,324,114393,1,0,1:2:0:0:
292,244,114449,2,0,L|380:244,1,82.5000025177003,10|0,1:2|1:2,0:0:0:0:
332,244,114615,1,0,1:2:0:0:
120,240,114670,2,0,L|24:240,1,82.5000025177003,10|0,1:2|1:2,0:0:0:0:
216,140,114892,1,10,1:2:0:0:
37,240,115002,1,2,1:2:0:0:
300,72,115113,5,10,1:2:0:0:
340,72,115168,1,0,1:2:0:0:
340,72,115224,1,0,1:2:0:0:
300,72,115279,1,0,1:2:0:0:
160,324,115334,2,0,L|160:264,1,41.2500012588501,10|0,1:2|1:2,0:0:0:0:
296,264,115445,2,0,L|296:208,1,41.2500012588501,2|0,1:2|1:2,0:0:0:0:
124,212,115556,1,10,1:2:0:0:
84,212,115611,1,0,1:2:0:0:
44,212,115667,1,0,1:2:0:0:
84,212,115722,1,0,1:2:0:0:
272,148,115777,1,10,1:2:0:0:
92,144,115888,6,0,L|92:60,1,82.5000025177003,2|8,1:2|1:2,0:0:0:0:
336,56,116109,1,2,1:2:0:0:
152,352,116220,2,0,L|44:352,1,82.5000025177003,10|0,1:2|1:2,0:0:0:0:
288,280,116441,1,10,1:2:0:0:
92,216,116552,2,0,L|204:216,1,82.5000025177003,2|8,1:2|1:2,0:0:0:0:
408,148,116774,6,0,L|292:148,2,82.5000025177003,2|10|2,1:2|1:2|1:2,0:0:0:0:
212,96,117106,2,0,L|308:96,1,82.5000025177003,10|2,1:2|1:2,0:0:0:0:
104,276,117327,2,0,L|104:224,1,41.2500012588501,8|0,1:2|1:2,0:0:0:0:
248,224,117438,2,0,L|320:224,1,41.2500012588501,2|0,1:2|1:2,0:0:0:0:
128,160,117548,2,0,L|40:160,1,82.5000025177003,10|2,1:2|1:2,0:0:0:0:
264,156,117770,6,0,L|264:64,1,82.5000025177003,10|0,1:2|0:2,0:0:0:0:
80,80,117991,2,0,L|80:172,1,82.5000025177003,10|0,1:2|0:2,0:0:0:0:
324,312,118213,1,10,1:2:0:0:
176,232,118379,1,10,1:2:0:0:
324,312,118545,1,10,1:2:0:0:
60,160,118655,5,10,1:2:0:0:
248,156,118766,1,2,1:2:0:0:
436,156,118877,2,0,L|440:56,1,82.5000025177003,10|0,1:2|1:2,0:0:0:0:
248,72,119098,2,0,L|152:72,1,82.5000025177003,10|0,1:2|1:2,0:0:0:0:
356,288,119320,2,0,L|448:288,1,82.5000025177003,10|0,1:2|1:2,0:0:0:0:
224,288,119541,6,0,L|224:196,1,82.5000025177003,10|0,1:2|1:2,0:0:0:0:
416,208,119762,1,10,1:2:0:0:
224,205,119873,1,2,1:2:0:0:
440,136,119984,2,0,L|388:136,1,41.2500012588501,10|0,1:2|1:2,0:0:0:0:
264,160,120095,5,2,1:2:0:0:
224,153,120150,1,0,1:2:0:0:
197,122,120205,1,8,1:2:0:0:
194,82,120261,1,0,1:2:0:0:
217,49,120316,1,0,1:2:0:0:
256,37,120371,1,0,1:2:0:0:
400,328,120427,5,10,1:2:0:0:
440,328,120482,1,0,1:2:0:0:
400,328,120537,1,8,1:2:0:0:
360,328,120593,1,0,1:2:0:0:
188,332,120648,1,10,1:2:0:0:
148,332,120703,1,0,1:2:0:0:
148,292,120759,1,8,1:2:0:0:
188,288,120814,1,0,1:2:0:0:
336,216,120869,5,10,1:2:0:0:
376,216,120925,1,0,1:2:0:0:
376,216,120980,1,8,1:2:0:0:
336,216,121036,1,0,1:2:0:0:
144,184,121091,1,10,1:2:0:0:
104,184,121146,1,0,1:2:0:0:
64,184,121202,1,8,1:2:0:0:
104,184,121257,1,0,1:2:0:0:
344,352,121312,6,0,P|392:292|316:232,1,179.999994506836,10|0,1:2|0:2,0:0:0:0:
240,368,121644,1,0,1:0:0:0:
200,355,121699,1,0,1:0:0:0:
167,331,121754,1,0,1:0:0:0:
143,298,121810,1,0,1:0:0:0:
130,259,121865,1,0,1:0:0:0:
130,218,121920,1,0,1:0:0:0:
143,179,121976,1,0,1:0:0:0:
167,145,122031,1,0,1:0:0:0:
200,121,122086,1,0,1:0:0:0:
239,109,122142,1,0,1:0:0:0:
420,116,122198,5,8,1:2:0:0:
460,116,122253,1,0,1:2:0:0:
460,116,122309,1,0,1:2:0:0:
420,116,122364,1,0,1:2:0:0:
296,52,122419,1,0,1:2:0:0:
256,52,122475,1,0,1:2:0:0:
128,52,122530,1,8,1:2:0:0:
88,52,122585,1,0,1:2:0:0:
88,52,122641,5,0,1:2:0:0:
128,52,122696,1,0,1:2:0:0:
256,232,122751,1,0,1:2:0:0:
296,232,122807,1,0,1:2:0:0:
420,232,122862,1,8,1:2:0:0:
460,232,122917,1,0,1:2:0:0:
460,232,122973,1,0,1:2:0:0:
420,232,123028,1,0,1:2:0:0:
236,352,123084,6,0,P|192:308|248:248,1,150,6|2,1:2|0:2,0:0:0:0:
388,244,123526,2,0,L|476:244,1,75,2|2,0:2|0:2,0:0:0:0:
280,236,123858,2,0,P|220:208|292:96,1,225,2|2,0:2|1:2,0:0:0:0:
424,96,124412,2,0,L|424:252,1,150,2|2,0:2|1:2,0:0:0:0:
348,248,124744,1,2,0:2:0:0:
152,240,124855,5,2,1:2:0:0:
300,236,125076,1,2,0:2:0:0:
152,240,125298,2,0,L|152:144,1,75,2|2,0:2|0:2,0:0:0:0:
328,104,125630,6,0,L|420:104,2,75,2|0|0,1:2|1:2|1:2,0:0:0:0:
136,344,125962,1,2,1:2:0:0:
284,336,126183,2,0,L|284:216,1,112.5,2|0,1:2|1:2,0:0:0:0:
32,220,126515,6,0,L|136:220,2,75,6|0|0,1:2|1:2|1:2,0:0:0:0:
264,220,126847,2,0,L|356:220,1,75,2|0,1:2|1:2,0:0:0:0:
144,128,127069,2,0,L|40:128,2,75,2|0|0,1:2|1:2|1:2,0:0:0:0:
384,344,127401,5,6,1:2:0:0:
419,335,127456,1,0,1:2:0:0:
441,305,127511,1,0,1:2:0:0:
439,268,127567,1,0,1:2:0:0:
413,242,127622,1,0,1:2:0:0:
377,238,127677,1,0,1:2:0:0:
220,240,127733,5,2,1:2:0:0:
184,240,127788,1,0,1:2:0:0:
220,240,127844,1,0,1:2:0:0:
256,240,127899,1,0,1:2:0:0:
448,144,127954,1,6,1:2:0:0:
