osu file format v14

[General]
AudioFilename: audio.mp3
AudioLeadIn: 0
PreviewTime: 53134
Countdown: 0
SampleSet: Soft
StackLeniency: 0.7
Mode: 2
LetterboxInBreaks: 0
WidescreenStoryboard: 1

[Editor]
Bookmarks: 46051
DistanceSpacing: 1.1
BeatDivisor: 4
GridSize: 4
TimelineZoom: 3.199999

[Metadata]
Title:Punai Punai Sensou
TitleUnicode:プナイプナイせんそう
Artist:Rish feat. Choko
ArtistUnicode:立秋 feat. ちょこ
Creator:Kukkai
Version:271 271
Source:
Tags:lacrima myle rew0825 dapuluous dapu rissyuu Risshuu mg mappers guild Featured Artist FA Muse Dash BMS 石王マサト MASATO Ishioh G2R2018 Climax GO BACK 2 YOUR ROOTS 2018 hard 石王マサト Patchouli video game japanese electronic novelty
BeatmapID:2909849
BeatmapSetID:1109546

[Difficulty]
HPDrainRate:7
CircleSize:4.5
OverallDifficulty:9.8
ApproachRate:9.8
SliderMultiplier:1.8
SliderTickRate:2

[Events]
//Background and Video events
0,0,"punaiii.png",0,0
Video,854,"video.mp4"
//Break Periods
//Storyboard Layer 0 (Background)
//Storyboard Layer 1 (Fail)
//Storyboard Layer 2 (Pass)
//Storyboard Layer 3 (Foreground)
//Storyboard Layer 4 (Overlay)
//Storyboard Sound Samples

[TimingPoints]
870,221.40221402214,4,1,1,60,1,0
2641,-100,4,2,1,40,0,0
5962,-100,4,2,1,10,0,0
6183,-100,4,2,1,40,0,0
9504,-100,4,2,1,10,0,0
9726,-100,4,2,1,50,0,0
16810,-100,4,2,1,70,0,1
27438,-90.9090909090909,4,2,1,70,0,1
30869,-90.9090909090909,4,2,1,70,0,0
31866,-100,4,2,1,50,0,0
35187,-100,4,2,1,5,0,0
35408,-100,4,2,1,50,0,0
46036,-100,4,2,1,60,0,0
53120,-100,4,2,1,70,0,1
67290,-90.9090909090909,4,2,1,50,0,0
67734,-90.9090909090909,4,2,1,5,0,0
68176,-90.9090909090909,4,2,1,60,0,0
69061,-100,4,2,1,60,0,0
83231,-100,4,2,1,50,0,0
85003,-100,4,2,1,60,0,0
95630,-100,4,2,1,70,0,1
106257,-100,4,2,1,70,0,0
107143,-90.9090909090909,4,2,1,75,0,1
121312,-40,4,2,1,100,0,0
121368,-90.9090909090909,4,2,1,5,0,0
121645,-90.9090909090909,4,2,1,5,0,0
122199,-90.9090909090909,4,2,1,60,0,0
123084,-100,4,2,1,60,0,0

[Colours]
Combo1 : 227,207,96
Combo2 : 231,187,159
Combo3 : 193,45,41
Combo4 : 98,145,102

[HitObjects]
196,384,870,5,0,0:2:0:0:
152,374,925,1,0,0:2:0:0:
111,354,980,1,0,0:2:0:0:
77,325,1036,1,0,0:2:0:0:
50,289,1091,1,0,0:2:0:0:
33,247,1146,1,0,0:2:0:0:
26,203,1202,1,0,0:2:0:0:
30,158,1257,1,0,0:2:0:0:
44,116,1312,1,0,0:2:0:0:
67,78,1368,1,0,0:2:0:0:
99,46,1423,1,0,0:2:0:0:
138,23,1478,1,0,0:2:0:0:
181,10,1534,1,0,0:2:0:0:
340,12,1589,6,0,L|408:12,1,45,2|0,0:2|0:2,0:2:0:0:
268,288,1700,1,2,0:2:0:0:
224,288,1756,2,0,L|152:288,1,45,0|0,0:2|0:2,0:2:0:0:
136,288,1866,2,0,L|200:288,1,45,0|0,0:2|0:2,0:2:0:0:
348,288,1977,2,0,L|416:288,1,45,2|0,0:2|0:2,0:2:0:0:
212,280,2088,5,2,0:2:0:0:
167,274,2143,1,0,0:2:0:0:
128,252,2198,1,0,0:2:0:0:
100,217,2254,1,0,0:2:0:0:
87,174,2309,1,0,0:2:0:0:
91,129,2364,1,0,0:2:0:0:
111,90,2420,1,0,0:2:0:0:
144,60,2475,1,0,0:2:0:0:
187,45,2530,1,0,0:2:0:0:
231,47,2586,1,0,0:2:0:0:
432,360,2641,6,0,L|432:172,1,180,6|2,0:2|0:2,0:2:0:0:
288,176,3084,2,2,L|400:176,1,90,2|2,0:2|0:2,0:2:0:0:
232,368,3416,2,0,P|180:276|244:128,1,270,2|2,0:2|0:2,0:2:0:0:
380,328,3969,2,0,P|432:264|368:204,1,180,2|2,0:2|0:2,0:2:0:0:
304,208,4301,1,2,0:2:0:0:
60,352,4412,6,2,L|60:140,1,180,2|2,0:2|0:2,0:2:0:0:
204,164,4855,2,2,L|108:164,1,90,2|2,0:2|0:2,0:2:0:0:
260,364,5187,2,2,P|316:272|248:132,1,270,2|2,0:2|0:2,0:2:0:0:
104,364,5740,2,2,L|104:168,1,180,2|0,0:2|0:2,0:2:0:0:
400,360,6183,5,2,1:2:0:0:
236,360,6405,1,2,1:2:0:0:
360,264,6626,2,2,L|360:136,1,90,2|2,0:2|0:2,0:2:0:0:
272,180,6847,1,0,0:2:0:0:
136,176,6958,2,0,L|136:60,1,90,2|0,0:2|0:2,0:2:0:0:
208,76,7179,1,0,0:2:0:0:
344,356,7290,6,0,L|192:240,1,180,2|2,0:2|0:2,0:2:0:0:
392,228,7622,2,0,L|492:168,2,90,0|2|2,0:2|0:2|0:2,0:2:0:0:
176,228,7954,5,2,1:2:0:0:
340,228,8176,1,2,1:2:0:0:
160,212,8397,2,0,L|80:144,2,90,2|2|0,0:2|0:2|0:2,0:2:0:0:
296,212,8729,2,0,L|372:156,2,90,2|0|0,0:2|0:2|0:2,0:2:0:0:
108,368,9061,1,2,0:2:0:0:
296,364,9283,2,0,P|368:268|332:200,1,180,2|0,0:2|0:2,0:2:0:0:
40,208,9726,5,6,1:2:0:0:
352,208,9947,1,2,1:2:0:0:
208,344,10168,2,2,L|208:232,1,90,2|2,0:2|0:2,0:2:0:0:
280,252,10390,1,0,0:2:0:0:
416,252,10500,2,0,L|504:192,2,90,2|0|0,0:2|0:2|0:2,0:2:0:0:
280,252,10833,1,2,0:2:0:0:
353,200,10943,1,0,0:2:0:0:
427,149,11054,1,2,0:2:0:0:
244,156,11165,2,0,L|148:112,1,90,0|2,1:2|0:2,0:2:0:0:
162,118,11386,1,0,0:2:0:0:
432,116,11497,5,2,1:2:0:0:
142,118,11718,1,2,1:2:0:0:
288,356,11940,2,2,L|288:240,1,90,2|2,0:2|0:2,0:2:0:0:
216,272,12161,1,0,0:2:0:0:
348,204,12272,2,0,L|444:156,2,90,2|0|0,0:2|0:2|0:2,0:2:0:0:
208,208,12604,1,2,0:2:0:0:
124,160,12714,1,0,0:2:0:0:
312,144,12825,1,2,0:2:0:0:
400,88,12936,1,0,1:2:0:0:
176,88,13047,1,2,0:2:0:0:
176,88,13157,1,0,0:2:0:0:
488,184,13268,5,6,1:2:0:0:
192,184,13489,1,2,1:2:0:0:
344,352,13711,2,2,L|344:236,1,90,2|2,0:2|0:2,0:2:0:0:
272,260,13932,1,0,0:2:0:0:
92,264,14043,5,6,1:2:0:0:
12,264,14153,1,0,0:2:0:0:
92,264,14264,1,0,0:2:0:0:
280,260,14375,2,0,L|372:204,1,90,2|0,1:2|0:2,0:2:0:0:
160,196,14596,2,0,L|160:96,1,90,2|0,0:0|0:0,0:0:0:0:
368,104,14818,1,2,1:2:0:0:
452,108,14929,1,0,0:0:0:0:
76,356,15039,5,6,1:2:0:0:
376,360,15261,1,2,1:2:0:0:
224,356,15482,2,2,L|224:228,1,90,2|2,1:2|0:2,0:2:0:0:
316,256,15703,2,0,L|316:124,1,90,0|2,1:2|0:2,0:2:0:0:
112,160,15925,5,0,1:2:0:0:
308,368,16036,2,0,L|432:332,1,90,0|2,1:2|1:2,1:2:0:0:
164,296,16257,1,0,1:2:0:0:
388,296,16368,1,2,0:2:0:0:
430,283,16423,1,0,0:2:0:0:
464,254,16478,1,0,0:2:0:0:
481,212,16534,1,0,0:2:0:0:
478,168,16589,1,0,0:2:0:0:
456,129,16644,1,0,0:2:0:0:
419,104,16700,1,0,0:2:0:0:
375,97,16755,1,0,0:2:0:0:
184,180,16810,6,0,L|184:68,1,90,10|0,1:2|0:2,0:2:0:0:
352,336,17032,2,0,L|352:212,1,90,10|0,1:2|0:2,0:2:0:0:
120,256,17253,1,10,1:2:0:0:
352,246,17364,2,0,L|440:170,1,90,2|8,0:2|1:2,0:2:0:0:
176,144,17585,5,2,0:2:0:0:
256,144,17696,1,8,1:2:0:0:
336,144,17806,1,0,0:2:0:0:
128,360,17917,2,0,L|32:312,1,90,10|0,1:2|0:2,0:2:0:0:
252,264,18139,2,0,L|352:212,1,90,10|0,1:2|1:2,1:2:0:0:
284,220,18305,1,0,1:2:0:0:
152,220,18360,1,10,1:2:0:0:
336,168,18471,1,2,1:2:0:0:
104,176,18582,6,0,L|104:80,1,90,10|0,1:2|0:2,0:2:0:0:
308,84,18803,2,0,L|404:24,1,90,10|0,1:2|0:2,0:2:0:0:
192,84,19024,1,10,1:2:0:0:
376,356,19135,2,0,L|376:248,1,90,2|8,0:2|1:2,0:2:0:0:
176,264,19357,6,0,L|60:236,2,90,2|8|0,0:2|1:2|0:2,0:2:0:0:
376,266,19689,2,0,L|464:206,1,90,10|0,1:2|0:2,0:2:0:0:
228,196,19910,2,0,P|184:164|240:72,1,180,10|0,1:2|0:2,0:2:0:0:
336,72,20242,1,0,0:2:0:0:
96,360,20353,6,0,L|96:240,1,90,10|0,1:2|1:2,1:2:0:0:
140,272,20519,1,0,1:2:0:0:
304,356,20574,2,0,L|396:292,1,90,10|0,1:2|1:2,1:2:0:0:
176,268,20796,1,10,1:2:0:0:
368,268,20906,2,0,L|444:268,2,45,2|0|8,1:2|1:2|1:2,1:2:0:0:
140,76,21128,6,0,L|236:44,2,90,2|8|0,1:2|1:2|0:2,0:2:0:0:
336,336,21460,2,0,L|428:296,1,90,10|0,1:2|0:2,0:2:0:0:
200,338,21681,2,0,L|200:246,1,90,10|8,1:2|1:2,1:2:0:0:
244,248,21847,1,0,1:2:0:0:
420,248,21903,1,10,1:2:0:0:
200,248,22013,1,2,1:2:0:0:
392,168,22124,6,0,L|476:120,1,90,10|0,1:2|0:2,0:2:0:0:
236,168,22346,2,0,L|124:104,1,90,10|0,1:2|1:2,1:2:0:0:
204,120,22512,1,0,1:2:0:0:
356,96,22567,1,10,1:2:0:0:
156,344,22678,2,0,L|124:248,1,90,2|8,0:2|1:2,0:2:0:0:
344,264,22899,2,0,P|396:232|332:152,1,180,2|0,1:2|1:2,0:2:0:0:
144,140,23231,2,0,L|40:76,1,90,10|0,1:2|0:2,0:2:0:0:
380,60,23453,5,10,1:2:0:0:
248,56,23619,1,10,1:2:0:0:
380,60,23785,1,10,1:2:0:0:
160,368,23895,6,0,L|160:244,1,90,14|0,1:2|0:2,0:2:0:0:
360,252,24117,2,0,L|264:204,1,90,10|0,1:2|1:2,1:2:0:0:
484,200,24338,1,10,1:2:0:0:
272,188,24449,2,0,L|272:80,1,90,2|8,1:2|1:2,1:2:0:0:
484,200,24670,6,0,L|392:244,2,90,2|8|0,1:2|1:2|0:2,0:2:0:0:
276,352,25002,2,0,L|376:292,1,90,10|0,1:2|0:2,0:2:0:0:
144,280,25224,2,0,L|72:280,1,45,10|0,1:2|1:2,1:2:0:0:
144,280,25334,1,0,1:2:0:0:
188,280,25390,1,0,1:2:0:0:
336,280,25445,1,10,1:2:0:0:
144,280,25556,1,2,1:2:0:0:
364,312,25667,6,0,L|464:244,1,90,10|0,1:2|1:2,1:2:0:0:
460,248,25805,1,0,1:2:0:0:
440,260,25833,1,0,1:2:0:0:
232,256,25888,2,0,L|308:184,1,90,10|0,1:2|1:2,1:2:0:0:
108,204,26109,1,10,1:2:0:0:
316,204,26220,2,0,L|388:204,2,45,2|0|8,1:2|1:2|1:2,1:2:0:0:
96,368,26441,6,0,P|44:336|116:260,1,180,2|0,1:2|1:2,0:2:0:0:
296,256,26774,2,0,L|392:200,1,90,10|0,1:2|1:2,1:2:0:0:
168,188,26995,2,0,L|116:188,1,45,2|0,3:2|3:2,3:2:0:0:
264,124,27106,2,0,L|320:124,1,45,2|0,3:2|3:2,3:2:0:0:
460,120,27216,2,0,L|460:64,1,45,10|0,3:2|3:2,3:2:0:0:
300,56,27327,2,0,L|232:56,1,45,2|0,3:2|3:2,3:2:0:0:
104,344,27438,6,8,L|0:284,1,99.0000030212403,10|8,1:2|1:2,1:2:0:0:
220,340,27659,2,8,L|116:280,1,99.0000030212403,10|8,1:2|1:2,1:2:0:0:
336,280,27881,1,10,1:2:0:0:
136,284,27991,2,8,L|240:224,1,99.0000030212403,10|8,1:2|1:2,1:2:0:0:
20,204,28213,6,8,L|124:144,2,99.0000030212403,10|8|8,1:2|1:2|1:2,1:2:0:0:
220,208,28545,2,8,L|116:148,1,99.0000030212403,10|8,1:2|1:2,1:2:0:0:
336,204,28766,2,8,L|232:144,1,99.0000030212403,10|8,1:2|1:2,1:2:0:0:
436,160,28988,1,10,1:2:0:0:
250,154,29098,1,10,1:2:0:0:
448,356,29209,5,10,1:2:0:0:
500,356,29264,1,0,1:2:0:0:
500,356,29320,1,8,1:2:0:0:
448,356,29375,1,0,1:2:0:0:
296,288,29430,2,0,L|296:220,1,49.5000015106202,10|0,1:2|1:2,1:2:0:0:
340,240,29541,1,8,1:2:0:0:
384,240,29596,1,0,1:2:0:0:
228,236,29652,1,10,1:2:0:0:
184,236,29707,1,0,1:2:0:0:
340,164,29762,1,10,1:2:0:0:
384,164,29818,1,0,1:2:0:0:
384,120,29873,1,8,1:2:0:0:
340,120,29929,1,0,1:2:0:0:
188,116,29984,1,10,1:2:0:0:
144,116,30039,1,0,1:2:0:0:
144,72,30095,5,8,1:2:0:0:
188,68,30150,1,0,1:2:0:0:
340,340,30205,1,10,1:2:0:0:
384,340,30261,1,0,1:2:0:0:
340,340,30316,1,10,1:2:0:0:
296,340,30371,1,0,1:2:0:0:
448,272,30427,1,8,1:2:0:0:
448,220,30482,1,0,1:2:0:0:
256,232,30537,2,8,L|256:112,1,99.0000030212403,10|8,1:2|0:2,0:2:0:0:
444,132,30759,2,8,L|444:16,1,99.0000030212403,8|8,0:2|0:2,0:2:0:0:
144,304,30980,6,2,L|36:228,2,132.00000402832,2|2|2,0:2|0:2|0:2,0:2:0:0:
368,304,31423,2,2,L|476:228,2,132.00000402832,2|2|2,0:2|0:2|0:2,0:2:0:0:
148,248,31866,6,2,P|132:136|164:48,1,180,4|0,1:2|0:2,0:2:0:0:
296,360,32309,2,2,L|296:232,1,90,2|2,0:2|0:2,0:2:0:0:
224,276,32530,1,0,0:2:0:0:
152,360,32641,6,2,P|108:304|160:124,1,270,2|2,0:2|0:2,0:2:0:0:
308,376,33194,2,2,L|308:196,1,180,2|2,0:2|0:2,0:2:0:0:
236,200,33526,1,2,0:2:0:0:
52,360,33637,5,2,0:2:0:0:
204,300,33858,1,2,0:2:0:0:
132,296,33969,1,0,0:2:0:0:
60,296,34080,2,2,L|60:176,1,90,2|2,0:2|0:2,0:2:0:0:
204,300,34412,6,2,P|284:196|196:104,1,270,2|2,0:2|0:2,0:2:0:0:
64,288,34965,2,2,L|64:80,1,180,2|0,0:2|0:2,0:2:0:0:
392,348,35408,6,2,L|224:228,1,180,2|2,1:2|0:2,0:2:0:0:
392,348,35851,2,2,L|392:236,1,90,2|2,0:2|0:2,0:2:0:0:
320,256,36072,1,0,0:2:0:0:
248,360,36183,6,2,P|188:272|264:136,1,270,2|2,0:2|0:2,0:2:0:0:
404,372,36737,2,2,P|464:336|496:224,1,180,2|2,0:2|0:2,0:2:0:0:
500,172,37013,1,2,0:2:0:0:
472,148,37069,1,2,0:2:0:0:
436,148,37124,1,2,0:2:0:0:
248,368,37179,6,2,P|212:308|268:196,1,180,2|2,0:2|0:2,0:2:0:0:
392,204,37622,2,2,L|292:148,1,90,2|2,0:2|0:2,0:2:0:0:
460,244,37954,2,2,P|496:128|392:24,1,270,2|2,0:2|0:2,0:2:0:0:
260,344,38508,2,2,L|420:220,1,180,2|2,0:2|0:2,0:2:0:0:
72,352,38951,5,2,1:2:0:0:
216,352,39172,1,2,0:2:0:0:
72,264,39393,2,2,L|72:152,1,90,2|2,0:2|0:2,0:2:0:0:
164,172,39615,1,0,0:2:0:0:
280,168,39726,2,0,L|384:120,2,90,2|0|0,0:2|0:2|0:2,0:2:0:0:
111,346,40058,2,0,P|75:302|135:198,1,180,2|2,1:2|0:2,0:2:0:0:
227,194,40390,2,0,L|227:74,1,90,0|2,0:2|0:2,0:2:0:0:
136,103,40611,1,2,1:2:0:0:
338,357,40722,5,2,0:2:0:0:
196,360,40943,1,2,1:2:0:0:
333,350,41165,2,0,L|429:306,2,90,2|2|0,0:2|0:2|0:2,0:2:0:0:
212,280,41497,2,0,L|116:244,1,90,2|0,0:2|0:2,0:2:0:0:
128,168,41718,1,0,0:2:0:0:
339,97,41829,2,0,L|391:97,2,45,2|0|0,1:2|0:2|0:2,0:2:0:0:
231,292,42050,2,0,L|231:196,1,90,2|0,0:2|0:2,0:2:0:0:
343,213,42272,2,2,L|403:213,1,45,2|2,0:2|0:2,0:2:0:0:
433,213,42382,2,2,L|377:213,1,45,2|2,0:2|0:2,0:2:0:0:
215,137,42493,5,2,1:2:0:0:
360,136,42715,1,2,0:2:0:0:
216,340,42936,5,2,1:2:0:0:
304,273,43047,2,0,L|304:165,1,90,2|0,0:2|0:2,0:2:0:0:
176,176,43268,2,0,L|88:128,2,90,2|0|0,0:2|0:2|0:2,0:2:0:0:
380,357,43600,2,0,P|424:313|360:225,1,180,0|2,1:2|0:2,0:2:0:0:
276,213,43932,2,0,L|276:105,1,90,0|2,0:2|1:2,0:2:0:0:
384,125,44154,1,2,0:2:0:0:
208,124,44264,5,2,1:2:0:0:
392,120,44486,1,2,0:2:0:0:
208,340,44707,2,0,L|128:288,2,90,2|2|0,0:2|0:2|0:2,0:2:0:0:
340,340,45039,6,0,L|424:296,2,90,2|0|0,0:2|0:2|0:2,0:2:0:0:
204,344,45371,2,0,L|112:304,1,90,2|0,1:2|0:2,0:2:0:0:
312,276,45593,2,0,L|408:240,1,90,2|0,0:2|0:2,0:2:0:0:
180,208,45814,2,0,L|84:168,1,90,2|0,0:2|0:2,0:2:0:0:
348,144,46036,5,4,1:2:0:0:
204,144,46257,1,0,0:2:0:0:
348,144,46478,2,0,L|412:64,2,90,0|0|0,0:2|0:2|0:2,0:2:0:0:
256,144,46810,1,0,0:2:0:0:
440,352,46921,6,0,L|440:160,1,180,8|0,1:2|0:2,0:2:0:0:
296,164,47364,1,0,0:2:0:0:
440,172,47585,2,0,L|344:172,1,90,0|0,1:2|0:2,0:2:0:0:
160,344,47807,5,0,1:2:0:0:
304,344,48028,1,0,0:2:0:0:
160,344,48250,2,0,L|324:240,1,180,0|0,0:2|0:2,0:2:0:0:
220,248,48582,1,0,0:2:0:0:
404,252,48692,6,0,P|440:208|368:108,1,180,8|0,1:2|0:2,0:2:0:0:
352,112,48969,1,0,0:2:0:0:
316,112,49024,1,0,0:2:0:0:
280,112,49080,1,0,0:2:0:0:
244,112,49135,1,0,0:2:0:0:
388,111,49357,1,0,1:2:0:0:
72,360,49578,6,0,L|260:240,1,180,0|0,1:2|0:2,0:2:0:0:
136,264,49910,1,0,0:2:0:0:
223,263,50021,2,0,L|224:168,1,90,0|0,1:2|0:2,0:2:0:0:
136,176,50242,2,0,L|136:64,1,90,0|0,0:2|0:2,0:2:0:0:
376,360,50464,6,0,P|452:316|472:200,1,180,8|0,1:2|0:2,0:2:0:0:
336,232,50906,1,0,1:2:0:0:
478,231,51128,1,0,1:2:0:0:
156,144,51349,5,0,1:2:0:0:
344,144,51571,1,0,1:2:0:0:
200,144,51792,1,0,1:2:0:0:
388,144,52013,1,0,1:2:0:0:
68,360,52235,6,0,P|32:296|80:204,1,180,8|0,1:2|0:2,0:2:0:0:
148,204,52567,1,0,0:2:0:0:
364,124,52678,2,2,L|420:124,1,45,2|2,1:2|0:2,0:2:0:0:
364,124,52788,2,2,L|292:124,1,45,2|2,0:2|0:2,0:2:0:0:
164,232,52899,2,2,L|92:232,1,45,2|2,0:2|0:2,0:2:0:0:
119,232,53010,2,2,L|191:232,1,45,2|2,0:2|0:2,0:2:0:0:
368,356,53120,6,0,L|476:332,1,90,14|0,1:2|0:2,0:2:0:0:
264,304,53342,2,0,L|156:268,1,90,10|0,1:2|0:2,0:2:0:0:
376,232,53563,1,10,1:2:0:0:
172,216,53674,2,0,L|172:112,1,90,2|8,0:2|1:2,0:2:0:0:
368,132,53895,6,0,L|276:88,1,90,2|8,0:2|1:2,0:2:0:0:
88,136,54117,2,0,L|192:96,1,90,2|8,0:2|1:2,0:2:0:0:
415,101,54338,1,2,0:2:0:0:
186,352,54449,2,0,L|94:305,1,90,10|0,1:2|1:2,1:2:0:0:
151,313,54615,1,0,1:2:0:0:
324,276,54670,1,10,1:2:0:0:
144,204,54781,6,0,L|236:148,1,90,2|8,0:2|1:2,0:2:0:0:
40,156,55002,1,2,0:2:0:0:
284,164,55113,2,0,L|284:48,1,90,10|0,1:2|0:2,0:2:0:0:
96,76,55334,2,0,L|212:28,1,90,10|0,1:2|0:2,0:2:0:0:
96,76,55556,2,0,L|-16:124,1,90,10|0,1:2|0:2,0:2:0:0:
224,200,55777,6,0,L|136:244,1,90,10|0,1:2|0:2,0:2:0:0:
352,140,55999,2,0,L|248:192,1,90,10|0,1:2|0:2,0:2:0:0:
72,308,56220,2,0,L|180:264,2,90,10|0|10,1:2|0:2|1:2,0:2:0:0:
296,308,56552,1,0,0:2:0:0:
72,308,56663,6,0,L|192:270,1,90,10|0,1:2|1:2,1:2:0:0:
202,271,56829,1,0,1:2:0:0:
388,248,56884,2,0,L|276:198,1,90,10|0,1:2|0:2,0:2:0:0:
128,192,57106,1,10,1:2:0:0:
344,192,57216,1,2,1:2:0:0:
384,192,57271,1,0,1:2:0:0:
424,192,57326,1,8,1:2:0:0:
184,340,57438,6,0,L|304:340,1,90,2|8,0:2|1:2,0:2:0:0:
24,248,57659,2,0,L|24:136,1,90,2|8,0:2|1:2,0:2:0:0:
216,152,57881,1,2,0:2:0:0:
24,158,57991,2,0,L|132:113,1,90,10|0,1:2|1:2,1:2:0:0:
151,112,58157,1,0,1:2:0:0:
304,264,58213,6,0,L|206:221,2,90,10|0|10,1:2|0:2|1:2,0:2:0:0:
128,268,58545,1,0,0:2:0:0:
368,360,58655,2,0,L|368:256,1,90,10|0,1:2|1:2,1:2:0:0:
320,268,58822,1,0,1:2:0:0:
168,272,58877,1,10,1:2:0:0:
384,200,58988,2,0,L|494:159,2,90,2|8|0,0:2|1:2|0:2,0:2:0:0:
120,136,59320,5,10,1:2:0:0:
240,136,59467,1,10,1:2:0:0:
120,136,59615,1,10,1:2:0:0:
392,344,59762,1,10,1:2:0:0:
168,348,59910,1,10,1:2:0:0:
392,344,60058,1,10,1:2:0:0:
160,280,60205,6,0,L|64:216,1,90,14|0,1:2|1:2,1:2:0:0:
280,204,60427,2,0,L|384:144,1,90,10|0,1:2|1:2,1:2:0:0:
172,120,60648,1,10,1:2:0:0:
376,144,60759,2,0,L|272:84,1,90,2|8,1:2|1:2,1:2:0:0:
80,352,60980,6,0,L|80:248,1,90,2|8,1:2|1:2,1:2:0:0:
324,260,61202,2,0,L|248:260,1,45,2|0,1:2|1:2,1:2:0:0:
136,256,61312,1,10,1:2:0:0:
324,208,61423,1,2,1:2:0:0:
106,127,61534,2,0,L|62:99,1,45,10|0,1:2|1:2,1:2:0:0:
68,104,61644,2,0,L|132:144,1,45,0|0,1:2|1:2,1:2:0:0:
272,104,61755,2,0,L|180:160,1,90,10|0,1:2|1:2,1:2:0:0:
392,360,61977,6,0,L|480:296,1,90,10|0,1:2|1:2,1:2:0:0:
484,292,62115,1,0,1:2:0:0:
464,304,62143,1,0,1:2:0:0:
280,288,62198,2,0,L|184:216,1,90,10|0,1:2|1:2,1:2:0:0:
424,240,62419,1,10,1:2:0:0:
232,168,62530,2,0,L|172:168,2,45,2|0|8,1:2|1:2|1:2,1:2:0:0:
328,168,62751,1,2,1:2:0:0:
136,332,62862,6,0,L|224:280,1,90,10|0,1:2|1:2,1:2:0:0:
32,288,63084,1,10,1:2:0:0:
216,284,63194,2,0,L|128:232,1,90,2|8,1:2|1:2,1:2:0:0:
324,212,63416,2,0,L|400:212,2,45,2|0|8,1:2|1:2|1:2,1:2:0:0:
140,216,63637,1,2,1:2:0:0:
420,360,63748,6,0,L|444:252,1,90,10|0,1:2|0:2,0:2:0:0:
240,268,63969,1,10,3:2:0:0:
196,268,64024,1,0,3:2:0:0:
196,224,64080,1,0,3:2:0:0:
460,120,64191,1,10,1:2:0:0:
344,120,64357,1,10,1:2:0:0:
460,120,64523,1,10,1:2:0:0:
232,352,64633,6,2,L|316:300,1,90,10|2,1:2|0:2,0:2:0:0:
88,352,64855,2,0,L|88:236,1,90,10|0,1:2|0:2,0:2:0:0:
276,252,65076,2,0,L|368:196,1,90,10|0,1:2|0:2,0:2:0:0:
144,208,65298,2,0,L|36:208,1,90,10|0,1:2|0:2,0:2:0:0:
296,128,65519,6,0,L|356:128,1,45,10|0,1:2|1:2,1:2:0:0:
341,128,65630,2,0,L|292:128,1,45,8|0,1:2|1:2,1:2:0:0:
128,348,65740,2,0,L|44:348,1,45,10|0,1:2|1:2,1:2:0:0:
128,348,65851,2,0,L|200:348,1,45,8|0,1:2|1:2,1:2:0:0:
340,344,65962,2,0,L|340:280,1,45,10|0,1:2|1:2,1:2:0:0:
188,260,66072,6,0,L|188:188,1,45,10|0,1:2|1:2,1:2:0:0:
240,184,66183,2,0,L|240:116,1,45,8|0,1:2|1:2,1:2:0:0:
172,136,66294,2,0,L|217:136,1,45,8|0,1:2|1:2,1:2:0:0:
368,104,66405,2,0,L|424:104,1,45,10|0,1:2|1:2,1:2:0:0:
413,104,66515,2,0,L|360:104,1,45,8|0,1:2|1:2,1:2:0:0:
192,360,66626,2,0,L|192:296,1,45,10|0,1:2|1:2,1:2:0:0:
256,296,66737,2,0,L|256:232,1,45,8|0,1:2|1:2,1:2:0:0:
116,232,66847,6,8,L|32:180,1,90,10|8,1:2|0:2,0:2:0:0:
256,232,67069,2,8,L|356:176,1,90,10|8,0:2|0:2,0:2:0:0:
136,364,67290,6,0,P|60:288|152:96,1,346.500010574341,2|0,0:2|0:2,0:2:0:0:
280,369,67733,1,0,0:2:0:0:
326,349,67788,1,0,0:2:0:0:
359,313,67843,1,0,0:2:0:0:
376,267,67899,1,0,0:2:0:0:
373,218,67954,1,0,0:2:0:0:
350,174,68009,1,0,0:2:0:0:
312,143,68065,1,0,0:2:0:0:
265,129,68120,1,0,0:2:0:0:
80,132,68176,6,0,L|36:104,1,49.5000015106202,8|0,1:2|1:2,1:2:0:0:
184,68,68286,2,0,L|244:24,1,49.5000015106202,0|0,1:2|1:2,1:2:0:0:
184,68,68397,2,0,L|128:108,1,49.5000015106202,0|0,1:2|1:2,1:2:0:0:
288,104,68508,2,0,L|356:56,1,49.5000015106202,8|0,1:2|1:2,1:2:0:0:
196,284,68619,2,0,L|136:244,1,49.5000015106202,0|0,1:2|1:2,1:2:0:0:
196,284,68729,2,0,L|268:328,1,49.5000015106202,0|0,1:2|1:2,1:2:0:0:
100,212,68840,2,0,L|40:176,1,49.5000015106202,8|0,1:2|1:2,1:2:0:0:
16,158,68951,2,0,L|68:194,1,49.5000015106202,0|0,1:2|1:2,1:2:0:0:
288,364,69061,6,0,P|339:279|260:243,1,180,4|0,1:2|0:2,0:2:0:0:
200,220,69393,1,0,0:2:0:0:
120,220,69504,2,0,L|44:292,2,90,2|0|0,0:2|0:2|0:2,0:2:0:0:
452,360,69947,6,0,L|448:148,1,180,10|0,1:2|0:2,0:2:0:0:
304,180,70390,1,2,0:2:0:0:
384,180,70500,1,0,0:2:0:0:
464,184,70611,1,0,0:2:0:0:
264,360,70833,6,0,L|176:300,2,90,2|0|0,1:2|0:2|0:2,0:2:0:0:
352,360,71165,2,0,L|432:296,2,90,0|0|0,0:2|0:2|0:2,0:2:0:0:
268,356,71497,2,0,L|180:304,1,90,0|0,0:2|0:2,0:2:0:0:
440,264,71718,6,0,P|488:212|412:140,1,180,8|0,1:2|0:2,0:2:0:0:
388,140,71995,1,0,0:2:0:0:
348,140,72050,1,0,0:2:0:0:
308,140,72106,1,0,0:2:0:0:
268,140,72161,1,0,0:2:0:0:
429,138,72382,1,0,1:2:0:0:
112,368,72604,6,0,P|60:320|124:248,1,180,0|0,1:2|0:2,0:2:0:0:
200,248,72936,1,0,0:2:0:0:
280,248,73047,1,2,0:2:0:0:
360,248,73157,1,0,0:2:0:0:
364,168,73268,1,0,0:2:0:0:
76,360,73489,6,0,L|76:148,1,180,10|0,1:2|0:2,0:2:0:0:
220,200,73932,2,0,L|64:312,1,180,2|0,0:2|0:2,0:2:0:0:
32,304,74209,1,0,0:2:0:0:
32,304,74264,1,0,0:2:0:0:
73,304,74320,1,0,0:2:0:0:
200,380,74375,6,0,L|284:316,2,90,2|0|0,1:2|0:2|0:2,0:2:0:0:
108,380,74707,2,0,L|28:324,2,90,0|0|0,0:2|0:2|0:2,0:2:0:0:
200,380,75039,2,0,L|280:316,1,90,0|0,0:2|0:2,0:2:0:0:
68,320,75261,5,8,1:2:0:0:
212,312,75482,2,0,P|236:216|204:128,1,180,0|0,1:2|0:2,0:2:0:0:
68,148,75925,1,0,1:2:0:0:
400,360,76146,6,0,L|212:256,1,180,4|0,1:2|0:2,0:2:0:0:
172,272,76478,1,0,0:2:0:0:
252,272,76589,1,2,0:2:0:0:
332,272,76700,1,0,0:2:0:0:
252,272,76810,1,0,0:2:0:0:
100,268,77032,6,0,P|48:196|120:128,1,180,2|0,0:2|0:2,0:2:0:0:
176,128,77364,1,0,0:2:0:0:
352,64,77475,1,10,1:2:0:0:
168,64,77696,1,0,0:2:0:0:
452,384,77917,6,0,P|504:312|440:248,1,180,6|0,1:2|0:2,0:2:0:0:
372,248,78250,1,0,0:2:0:0:
292,248,78360,1,0,0:2:0:0:
454,250,78582,1,0,0:2:0:0:
88,360,78803,6,0,P|40:316|108:232,1,180,8|0,1:2|0:2,0:2:0:0:
132,236,79080,1,0,0:2:0:0:
172,236,79135,1,0,0:2:0:0:
212,236,79191,1,0,0:2:0:0:
252,236,79246,1,0,0:2:0:0:
92,232,79467,1,0,1:2:0:0:
404,384,79689,6,0,P|436:316|356:256,1,180,0|0,1:2|0:2,0:2:0:0:
276,256,80021,1,0,0:2:0:0:
184,256,80131,2,0,L|88:204,2,90,2|0|0,0:2|0:2|0:2,0:2:0:0:
488,372,80574,6,0,L|488:160,1,180,10|0,1:2|0:2,0:2:0:0:
344,300,81017,2,0,L|506:177,1,180,2|0,0:2|0:2,0:2:0:0:
448,196,81294,1,0,0:2:0:0:
408,196,81349,1,0,0:2:0:0:
368,196,81405,1,0,0:2:0:0:
212,212,81460,6,0,L|124:172,2,90,2|0|0,1:2|0:2|0:2,0:2:0:0:
308,364,81792,2,0,L|308:264,1,90,0|0,0:2|0:2,0:2:0:0:
216,280,82013,1,0,0:2:0:0:
124,276,82124,2,0,L|124:168,1,90,0|0,0:2|0:2,0:2:0:0:
436,160,82346,5,10,1:2:0:0:
272,164,82567,2,0,L|272:-21,1,180,0|0,1:2|0:0,0:0:0:0:
463,60,83010,1,0,1:2:0:0:
240,312,83231,6,2,P|192:264|248:168,1,180,2|2,0:2|0:2,0:2:0:0:
396,164,83674,2,2,L|396:56,1,90,2|2,0:2|0:2,0:2:0:0:
232,352,84006,6,2,L|480:208,1,270,2|2,0:2|0:2,0:2:0:0:
465,216,84449,1,2,0:2:0:0:
384,220,84560,1,2,0:2:0:0:
304,220,84670,1,2,0:2:0:0:
223,224,84781,1,2,0:2:0:0:
304,220,84892,1,2,0:2:0:0:
56,128,85002,6,2,L|236:228,2,180,2|2|2,1:2|1:2|1:2,0:2:0:0:
236,364,85556,2,0,L|236:248,1,90,2|0,0:2|1:2,0:2:0:0:
56,276,85777,2,0,L|56:172,1,90,2|0,0:2|1:2,0:2:0:0:
140,188,85999,1,0,0:2:0:0:
324,188,86109,2,2,L|116:188,1,180,2|2,1:2|1:2,0:2:0:0:
436,88,86774,6,2,L|260:196,2,180,2|2|2,1:2|1:2|1:2,0:2:0:0:
264,356,87327,2,0,L|176:300,1,90,2|0,0:2|1:2,0:2:0:0:
364,288,87548,2,0,L|464:228,2,90,2|0|0,0:2|1:2|0:2,0:2:0:0:
184,288,87881,2,2,L|372:288,1,180,2|2,1:2|1:2,0:2:0:0:
208,292,88323,2,2,L|208:196,1,90,2|2,1:2|0:2,0:2:0:0:
432,208,88545,6,2,L|248:136,2,180,2|2|2,1:2|1:2|1:2,0:2:0:0:
248,220,89098,2,0,L|348:168,1,90,2|0,0:2|1:2,0:2:0:0:
144,176,89320,2,0,L|60:124,2,90,2|0|0,0:2|1:2|0:2,0:2:0:0:
236,176,89652,2,0,L|328:120,1,90,2|0,1:2|0:2,0:2:0:0:
96,84,89873,1,2,1:2:0:0:
220,80,90039,1,2,1:2:0:0:
96,84,90205,1,2,1:2:0:0:
320,368,90316,6,0,L|320:272,1,90,2|0,1:2|0:2,0:2:0:0:
228,284,90537,2,0,L|228:176,1,90,2|0,1:2|0:2,0:2:0:0:
400,196,90759,1,2,1:2:0:0:
228,194,90869,2,0,L|140:152,1,90,2|0,0:2|1:2,0:2:0:0:
336,136,91091,6,0,L|440:88,2,90,2|0|0,0:2|1:2|0:2,0:2:0:0:
156,136,91423,2,2,L|356:136,1,180,2|2,1:2|1:2,0:2:0:0:
336,136,91755,1,2,0:2:0:0:
160,348,91866,2,2,L|264:304,1,90,2|2,1:2|0:2,0:2:0:0:
56,280,92087,6,0,L|56:184,1,90,2|0,1:2|0:2,0:2:0:0:
148,188,92309,2,0,L|252:128,1,90,2|0,1:2|0:2,0:2:0:0:
40,136,92530,1,2,1:2:0:0:
228,136,92641,2,0,L|228:36,1,90,2|0,0:2|1:2,0:2:0:0:
40,136,92862,6,0,L|40:248,1,90,2|0,0:2|1:2,0:2:0:0:
124,228,93084,1,0,0:2:0:0:
304,228,93194,2,2,L|116:228,1,180,2|2,1:2|1:2,0:2:0:0:
124,228,93526,1,2,0:2:0:0:
312,176,93637,2,2,L|376:176,1,45,2|0,1:2|1:2,1:2:0:0:
357,176,93747,2,2,L|285:176,1,45,2|0,1:2|1:2,1:2:0:0:
172,176,93858,5,2,1:2:0:0:
400,368,93969,2,0,L|488:280,1,90,0|2,0:2|1:2,0:2:0:0:
240,304,94190,1,0,0:2:0:0:
463,304,94301,2,2,L|463:196,1,90,2|2,1:2|0:2,0:2:0:0:
373,214,94522,2,0,L|489:214,1,90,0|2,1:2|0:2,0:2:0:0:
216,216,94744,6,0,L|144:192,1,45,0|0,1:2|1:2,1:2:0:0:
364,168,94854,2,0,L|376:108,1,45,0|0,1:2|1:2,1:2:0:0:
206,115,94965,2,0,L|190:63,1,45,2|0,1:2|1:2,1:2:0:0:
400,60,95076,2,0,L|460:44,1,45,2|0,1:2|1:2,1:2:0:0:
296,339,95187,6,2,L|202:298,1,90,2|2,1:2|0:2,0:2:0:0:
304,244,95408,1,2,0:2:0:0:
344,244,95464,1,2,0:2:0:0:
304,244,95519,1,2,0:2:0:0:
264,244,95574,1,2,0:2:0:0:
80,336,95629,6,0,L|80:228,1,90,14|0,1:2|0:2,0:2:0:0:
308,188,95851,2,0,L|308:64,1,90,10|0,1:2|0:2,0:2:0:0:
120,180,96072,1,10,1:2:0:0:
352,184,96183,2,0,L|252:103,1,90,2|8,0:2|1:2,0:2:0:0:
56,128,96404,6,0,L|160:44,1,90,2|8,0:2|1:2,0:2:0:0:
348,328,96626,2,0,L|448:276,1,90,2|8,0:2|1:2,0:2:0:0:
236,264,96847,1,2,0:2:0:0:
428,208,96958,1,10,1:2:0:0:
468,208,97013,1,0,1:2:0:0:
428,208,97069,1,0,1:2:0:0:
388,208,97124,1,0,1:2:0:0:
232,204,97179,2,0,L|128:204,1,90,10|0,1:2|1:2,1:2:0:0:
328,144,97400,5,10,1:2:0:0:
232,144,97511,1,0,0:2:0:0:
432,144,97622,2,0,L|452:24,1,90,10|0,1:2|0:2,0:2:0:0:
248,340,97843,2,0,L|360:308,1,90,10|0,1:2|0:2,0:2:0:0:
132,272,98065,2,0,L|48:224,1,90,10|0,1:2|0:2,0:2:0:0:
228,236,98286,5,10,1:2:0:0:
56,220,98397,2,0,L|156:164,1,90,2|8,0:2|1:2,0:2:0:0:
308,176,98618,1,2,0:2:0:0:
133,174,98729,2,0,L|29:114,1,90,10|0,1:2|0:2,0:2:0:0:
232,128,98950,1,10,1:2:0:0:
55,129,99061,1,2,0:2:0:0:
328,356,99172,6,0,L|424:352,1,90,10|0,1:2|1:2,1:2:0:0:
372,272,99338,1,0,1:2:0:0:
216,272,99393,2,0,L|216:160,1,90,10|0,1:2|0:2,0:2:0:0:
420,172,99614,1,10,1:2:0:0:
208,352,99725,1,2,1:2:0:0:
168,352,99780,1,0,1:2:0:0:
128,352,99836,1,8,1:2:0:0:
376,244,99947,6,0,L|284:176,1,90,2|8,0:2|1:2,0:2:0:0:
64,184,100168,2,0,L|152:124,1,90,2|8,0:2|1:2,0:2:0:0:
344,128,100389,1,2,0:2:0:0:
138,133,100500,2,0,L|138:21,1,90,10|0,1:2|1:2,0:2:0:0:
184,44,100667,1,0,1:2:0:0:
344,128,100722,2,0,L|440:52,1,90,10|0,1:2|0:2,0:2:0:0:
204,128,100943,6,0,L|308:96,1,90,10|0,1:2|0:2,0:2:0:0:
72,64,101164,1,10,1:2:0:0:
272,69,101275,2,0,L|203:70,1,45,2|0,1:2|1:2,1:2:0:0:
56,336,101386,2,0,L|56:220,1,90,10|0,1:2|0:2,0:2:0:0:
256,248,101607,1,10,1:2:0:0:
56,246,101718,1,0,1:2:0:0:
308,172,101829,5,10,1:2:0:0:
202,176,101976,1,10,1:2:0:0:
308,172,102124,1,10,1:2:0:0:
24,104,102271,1,10,1:2:0:0:
324,40,102419,1,10,1:2:0:0:
24,40,102567,1,10,1:2:0:0:
296,364,102714,6,0,L|380:296,1,90,14|0,1:2|1:2,1:2:0:0:
120,292,102936,2,0,L|208:220,1,90,10|0,1:2|1:2,1:2:0:0:
392,228,103157,1,10,1:2:0:0:
189,235,103268,2,0,L|88:176,1,90,2|8,1:2|1:2,1:2:0:0:
308,184,103489,6,0,L|396:116,1,90,2|8,1:2|1:2,1:2:0:0:
104,56,103710,1,2,1:2:0:0:
148,56,103766,1,0,1:2:0:0:
268,56,103821,1,10,1:2:0:0:
432,52,103932,1,2,1:2:0:0:
200,356,104043,1,10,1:2:0:0:
160,356,104098,1,0,1:2:0:0:
120,352,104153,1,0,1:2:0:0:
160,356,104209,1,0,1:2:0:0:
352,299,104264,2,2,L|252:276,1,90,10|2,1:2|1:2,1:2:0:0:
476,232,104485,5,10,1:2:0:0:
269,234,104596,1,0,1:2:0:0:
249,234,104624,1,0,1:2:0:0:
269,234,104652,1,0,1:2:0:0:
417,234,104707,2,0,L|508:164,1,90,10|0,1:2|1:2,1:2:0:0:
244,144,104928,2,0,L|368:144,1,90,10|0,1:2|1:2,1:2:0:0:
292,144,105095,1,0,1:2:0:0:
96,204,105150,2,0,L|12:152,1,90,10|0,1:2|1:2,1:2:0:0:
248,152,105371,6,0,L|152:104,1,90,10|0,1:2|1:2,1:2:0:0:
364,104,105593,1,10,1:2:0:0:
167,111,105703,2,0,L|168:224,1,90,2|8,1:2|1:2,1:2:0:0:
368,208,105925,1,2,1:2:0:0:
407,186,105980,1,0,1:2:0:0:
446,164,106035,1,8,1:2:0:0:
200,168,106146,1,2,1:2:0:0:
384,352,106257,6,0,L|384:236,1,90,10|0,1:2|0:2,0:2:0:0:
152,252,106478,2,0,L|152:140,1,90,10|0,1:2|1:2,0:2:0:0:
196,160,106644,1,0,1:2:0:0:
384,156,106699,1,10,1:2:0:0:
144,84,106865,1,10,1:2:0:0:
384,100,107031,1,10,1:2:0:0:
211,344,107143,5,14,1:2:0:0:
299,298,107253,1,0,1:2:0:0:
99,273,107364,1,10,1:2:0:0:
148,273,107419,1,0,1:0:0:0:
303,248,107474,1,2,1:2:0:0:
303,248,107530,1,0,1:0:0:0:
158,222,107585,2,0,L|46:224,1,99.0000030212403,10|0,1:2|1:2,1:2:0:0:
255,212,107806,2,0,L|266:139,1,49.5000015106202,10|0,1:2|1:2,1:2:0:0:
200,144,107917,2,0,L|211:75,1,49.5000015106202,2|0,1:2|1:2,1:2:0:0:
360,91,108028,6,0,L|413:91,1,49.5000015106202,10|0,1:2|1:2,1:2:0:0:
267,28,108138,2,0,L|206:27,1,49.5000015106202,2|0,1:2|1:2,1:2:0:0:
424,358,108249,1,10,1:2:0:0:
472,336,108304,1,0,1:2:0:0:
476,292,108359,1,0,1:2:0:0:
421,269,108415,1,0,1:2:0:0:
257,336,108471,2,0,L|160:280,1,99.0000030212403,10|0,1:2|1:2,1:2:0:0:
391,184,108692,1,10,1:2:0:0:
171,286,108803,1,2,1:2:0:0:
216,288,108858,1,0,1:2:0:0:
391,184,108913,6,0,L|480:124,1,99.0000030212403,10|0,1:2|1:2,1:2:0:0:
242,182,109135,2,2,L|342:118,1,99.0000030212403,10|2,1:2|1:2,1:2:0:0:
120,108,109356,2,2,L|247:97,1,99.0000030212403,10|2,1:2|1:2,1:2:0:0:
10,53,109578,2,2,L|126:54,1,99.0000030212403,10|2,1:2|1:2,1:2:0:0:
320,68,109799,5,10,1:2:0:0:
109,53,109910,1,2,1:2:0:0:
324,364,110020,2,0,L|373:331,1,49.5000015106202,10|0,1:2|1:2,1:2:0:0:
324,364,110131,2,0,L|275:331,1,49.5000015106202,2|0,1:2|1:2,1:2:0:0:
412,323,110242,2,0,L|455:280,1,49.5000015106202,10|0,1:2|1:2,1:2:0:0:
272,318,110353,2,0,L|225:289,1,49.5000015106202,2|0,1:2|1:2,1:2:0:0:
437,320,110463,2,0,L|494:321,1,49.5000015106202,10|0,1:2|1:2,1:2:0:0:
239,314,110574,2,0,L|181:314,1,49.5000015106202,2|0,1:2|1:2,1:2:0:0:
351,169,110685,5,10,1:2:0:0:
395,169,110740,1,0,1:2:0:0:
351,169,110795,1,0,1:2:0:0:
305,170,110851,1,0,1:2:0:0:
155,173,110906,1,10,1:2:0:0:
110,173,110961,1,0,1:2:0:0:
65,171,111016,1,0,1:2:0:0:
110,173,111072,1,0,1:2:0:0:
258,355,111128,2,0,L|363:313,1,99.0000030212403,10|0,1:2|1:2,1:2:0:0:
103,291,111349,2,0,L|36:211,1,99.0000030212403,10|0,1:2|1:2,1:2:0:0:
276,190,111570,6,0,L|376:136,1,99.0000030212403,10|0,1:2|1:2,1:2:0:0:
163,135,111792,1,10,1:2:0:0:
364,143,111902,1,2,1:2:0:0:
163,135,112013,1,10,1:2:0:0:
344,350,112124,2,0,L|430:274,1,99.0000030212403,2|8,1:2|1:2,1:2:0:0:
200,288,112345,1,2,1:2:0:0:
418,284,112456,6,0,L|343:286,1,49.5000015106202,10|0,1:2|1:2,1:2:0:0:
200,288,112567,2,0,L|260:288,1,49.5000015106202,2|0,1:2|1:2,1:2:0:0:
416,185,112678,2,0,L|418:320,1,99.0000030212403,10|2,1:2|1:2,1:2:0:0:
184,196,112899,1,10,1:2:0:0:
360,132,113009,2,0,L|255:82,1,99.0000030212403,2|10,1:2|1:2,1:2:0:0:
451,68,113231,1,2,1:2:0:0:
177,350,113341,5,10,1:2:0:0:
289,350,113489,1,10,1:2:0:0:
64,193,113637,1,10,1:2:0:0:
376,192,113784,1,10,1:2:0:0:
28,192,113932,1,10,1:2:0:0:
404,192,114079,1,10,1:2:0:0:
120,364,114227,6,0,L|44:296,1,99.0000030212403,14|0,1:2|1:2,1:2:0:0:
84,328,114393,1,0,1:2:0:0:
284,260,114449,2,0,L|176:184,1,99.0000030212403,10|0,1:2|1:2,1:2:0:0:
160,180,114615,1,0,1:2:0:0:
354,306,114670,2,0,L|442:226,1,99.0000030212403,10|0,1:2|1:2,1:2:0:0:
200,284,114891,1,10,1:2:0:0:
428,240,115002,1,2,1:2:0:0:
148,284,115113,5,10,1:2:0:0:
104,267,115168,1,0,1:2:0:0:
102,220,115223,1,0,1:2:0:0:
144,200,115279,1,0,1:2:0:0:
312,192,115334,2,0,L|248:192,1,49.5000015106202,10|0,1:2|1:2,1:2:0:0:
94,200,115445,2,0,L|162:200,1,49.5000015106202,2|0,1:2|1:2,1:2:0:0:
312,120,115555,2,0,L|376:96,1,49.5000015106202,10|0,1:2|1:2,1:2:0:0:
312,120,115666,2,0,L|252:144,1,49.5000015106202,0|0,1:2|1:2,1:2:0:0:
88,152,115777,1,10,1:2:0:0:
272,152,115888,6,0,L|184:84,1,99.0000030212403,2|8,1:2|1:2,1:2:0:0:
400,100,116109,1,2,1:2:0:0:
176,360,116220,2,0,L|176:248,1,99.0000030212403,10|0,1:2|1:2,1:2:0:0:
380,260,116441,1,10,1:2:0:0:
180,244,116552,1,2,1:2:0:0:
220,244,116607,1,0,1:2:0:0:
260,244,116662,1,8,1:2:0:0:
44,152,116773,1,2,1:2:0:0:
132,152,116884,5,10,1:2:0:0:
44,152,116995,1,2,1:2:0:0:
324,76,117105,1,10,1:2:0:0:
108,80,117216,2,0,L|108:200,1,99.0000030212403,2|8,1:2|1:2,1:2:0:0:
160,176,117382,1,0,1:2:0:0:
312,180,117438,1,2,1:2:0:0:
268,157,117493,1,0,1:2:0:0:
224,134,117548,1,10,1:2:0:0:
424,128,117659,1,2,1:2:0:0:
180,312,117770,6,0,L|152:208,1,99.0000030212403,10|0,1:2|0:2,0:2:0:0:
356,180,117991,2,0,L|372:64,1,99.0000030212403,10|0,1:2|0:2,0:2:0:0:
132,96,118212,1,10,1:2:0:0:
280,95,118378,1,10,1:2:0:0:
132,96,118544,1,10,1:2:0:0:
424,316,118655,5,10,1:2:0:0:
240,316,118766,1,2,1:2:0:0:
72,316,118876,1,10,1:2:0:0:
72,316,118987,1,0,1:2:0:0:
336,128,119098,2,0,L|336:256,1,99.0000030212403,10|0,1:2|1:2,1:2:0:0:
104,224,119319,2,0,L|8:148,1,99.0000030212403,10|0,1:2|1:2,1:2:0:0:
264,224,119541,6,0,L|352:144,1,99.0000030212403,10|0,1:2|1:2,1:2:0:0:
152,140,119762,1,10,1:2:0:0:
340,152,119873,1,2,1:2:0:0:
152,72,119983,2,0,L|232:72,1,49.5000015106202,10|0,1:2|1:2,1:2:0:0:
352,69,120094,2,0,L|353:132,1,49.5000015106202,2|0,1:2|1:2,1:2:0:0:
224,369,120205,2,0,L|224:311,1,49.5000015106202,8|0,1:2|1:2,1:2:0:0:
287,323,120316,2,0,L|288:258,1,49.5000015106202,0|0,1:2|1:2,1:2:0:0:
153,298,120427,5,10,1:2:0:0:
105,286,120482,1,0,1:2:0:0:
105,238,120537,1,8,1:2:0:0:
153,226,120593,1,0,1:2:0:0:
312,228,120648,1,10,1:2:0:0:
312,180,120703,1,0,1:2:0:0:
268,156,120759,1,8,1:2:0:0:
224,136,120814,1,0,1:2:0:0:
384,116,120869,1,10,1:2:0:0:
428,92,120925,1,0,1:2:0:0:
472,68,120980,1,8,1:2:0:0:
428,92,121036,1,0,1:2:0:0:
272,364,121091,1,10,1:2:0:0:
228,340,121146,1,0,1:2:0:0:
184,316,121202,1,8,1:2:0:0:
228,340,121257,1,0,1:2:0:0:
480,120,121312,6,0,L|8:120,1,450,10|0,1:2|0:2,0:2:0:0:
30,120,121644,5,0,1:0:0:0:
30,120,121700,1,0,1:0:0:0:
30,120,121755,1,0,1:0:0:0:
30,120,121810,1,0,1:0:0:0:
30,120,121866,1,0,1:0:0:0:
30,120,121921,1,0,1:0:0:0:
30,120,121977,1,0,1:0:0:0:
30,120,122032,1,0,1:0:0:0:
30,120,122087,1,0,1:0:0:0:
85,120,122143,1,0,1:0:0:0:
278,229,122198,6,0,L|340:264,1,49.5000015106202,8|0,1:2|1:2,1:2:0:0:
278,229,122308,2,0,L|212:188,1,49.5000015106202,0|0,1:2|1:2,1:2:0:0:
406,189,122419,2,0,L|446:137,1,49.5000015106202,0|0,1:2|1:2,1:2:0:0:
282,121,122530,2,0,L|220:152,1,49.5000015106202,8|0,1:2|1:2,1:2:0:0:
282,121,122640,6,0,L|356:88,1,49.5000015106202,0|0,1:2|1:2,1:2:0:0:
158,121,122751,2,0,L|159:49,1,49.5000015106202,0|0,1:2|1:2,1:2:0:0:
282,121,122862,2,0,L|351:92,1,49.5000015106202,8|0,1:2|1:2,1:2:0:0:
158,121,122972,2,0,L|84:80,1,49.5000015106202,0|0,1:2|1:2,1:2:0:0:
396,352,123083,5,6,1:2:0:0:
252,352,123305,2,2,P|220:308|264:192,1,180,2|2,0:2|0:2,0:2:0:0:
336,196,123637,1,2,0:2:0:0:
188,356,123858,2,2,P|136:296|204:128,1,270,2|2,0:2|1:2,0:2:0:0:
351,47,124412,2,2,L|159:151,1,180,2|2,0:2|1:2,0:2:0:0:
272,128,124744,1,2,0:2:0:0:
96,120,124854,5,2,1:2:0:0:
240,116,125076,1,2,0:2:0:0:
96,120,125297,2,2,L|204:120,1,90,2|2,0:2|0:2,0:2:0:0:
340,360,125629,6,0,L|340:244,1,90,2|0,1:2|1:2,1:2:0:0:
248,268,125851,1,0,1:2:0:0:
68,264,125961,1,2,1:2:0:0:
203,264,126183,2,0,L|43:264,1,135,2|0,1:2|1:2,1:2:0:0:
360,344,126515,6,0,L|440:292,2,90,6|0|0,1:2|1:2|1:2,1:2:0:0:
180,344,126847,2,0,L|100:284,1,90,2|0,1:2|1:2,1:2:0:0:
360,344,127068,2,0,L|448:292,2,90,2|0|0,1:2|1:2|1:2,1:2:0:0:
184,204,127401,5,6,1:2:0:0:
140,194,127456,1,0,1:2:0:0:
114,159,127511,1,0,1:2:0:0:
117,115,127567,1,0,1:2:0:0:
148,83,127622,1,0,1:2:0:0:
191,79,127677,1,0,1:2:0:0:
328,92,127733,1,2,1:2:0:0:
372,92,127788,1,0,1:2:0:0:
416,96,127843,1,0,1:2:0:0:
372,92,127899,1,0,1:2:0:0:
160,176,127954,1,6,1:2:0:0:
