osu file format v14

[General]
AudioFilename: audio.mp3
AudioLeadIn: 0
PreviewTime: 59313
Countdown: 0
SampleSet: Normal
StackLeniency: 0.7
Mode: 1
LetterboxInBreaks: 0
WidescreenStoryboard: 1

[Editor]
DistanceSpacing: 1
BeatDivisor: 4
GridSize: 4
TimelineZoom: 2.599999

[Metadata]
Title:Punai Punai Gensou ~Punai Punai in Wonderland~
TitleUnicode:プナイプナイげんそう ~プナイプナイinワンダーランド~
Artist:Rish feat. Choko
ArtistUnicode:立秋 feat. ちょこ
Creator:I love hr
Version:Oni
Source:BOFXV - THE BMS OF FIGHTERS eXtreme Violence -
Tags:japanese BOFXV fantasy hard 石王マサト teruyama electronic speedcore featured artist fa rissyuu risshuu Muse Dash Faputa Arityle ft. featuring
BeatmapID:3940618
BeatmapSetID:1906400

[Difficulty]
HPDrainRate:5
CircleSize:5
OverallDifficulty:5.5
ApproachRate:5
SliderMultiplier:1.4
SliderTickRate:1

[Events]
//Background and Video events
0,0,"Punai Punai.png",0,-50
//Break Periods
//Storyboard Layer 0 (Background)
//Storyboard Layer 1 (Fail)
//Storyboard Layer 2 (Pass)
//Storyboard Layer 3 (Foreground)
//Storyboard Layer 4 (Overlay)
//Storyboard Sound Samples

[TimingPoints]
2635,442.80442804428,4,1,0,70,1,0
15919,-76.923076923076,4,1,0,70,0,0
16066,-71.428571428572,4,1,0,70,0,0
16214,-66.666666666667,4,1,0,70,0,0
16361,-62.5,4,1,0,70,0,0
16509,-58.823529411765,4,1,0,70,0,0
16657,-55.555555555555,4,1,0,70,0,0
16804,221.40221402214,4,1,0,80,1,1
16804,-111.111111111111,4,1,0,80,0,1
30973,-111.111111111111,4,1,0,80,0,0
31195,-112.28370412626,4,1,0,79,0,0
31416,-113.475858755705,4,1,0,79,0,0
31748,-115.315139383879,4,1,0,78,0,0
31970,-116.578648635309,4,1,0,77,0,0
32191,-117.864271457086,4,1,0,77,0,0
32302,-118.520748657735,4,1,0,76,0,0
32523,-119.8498071849,4,1,0,76,0,0
32744,-121.209011135629,4,1,0,75,0,0
32966,-122.605761744096,4,1,0,74,0,0
33187,-124.028565427431,4,1,0,74,0,0
33298,-124.755717530238,4,1,0,73,0,0
33519,-126.229157759726,4,1,0,73,0,0
33741,-127.744726879394,4,1,0,72,0,0
33962,-129.290054190158,4,1,0,72,0,0
34073,-130.080405330984,4,1,0,71,0,0
34294,-131.683113118136,4,1,0,71,0,0
34516,-133.333333333333,4,1,0,70,0,0
38058,-125,4,1,0,70,0,0
41601,-125,4,1,0,70,0,0
41711,-124.631307985199,4,1,0,70,0,0
41822,-124.261462371341,4,1,0,70,0,0
41933,-123.893805309735,4,1,0,70,0,0
42043,-123.531600489024,4,1,0,70,0,0
42154,-123.168243368577,4,1,0,70,0,0
42375,-122.451130196533,4,1,0,70,0,0
42486,-122.094092306076,4,1,0,70,0,0
42597,-121.739130434783,4,1,0,70,0,0
42708,-121.386226528427,4,1,0,70,0,0
42818,-121.038514622015,4,1,0,70,0,0
42929,-120.689655172414,4,1,0,70,0,0
43150,-120.001032711125,4,1,0,70,0,0
43261,-119.65811965812,4,1,0,70,0,0
43372,-119.317160826595,4,1,0,70,0,0
43593,-118.64406779661,4,1,0,70,0,0
43704,-118.308855346552,4,1,0,70,0,0
43815,-117.975531752881,4,1,0,70,0,0
43925,-117.647058823529,4,1,0,70,0,0
44257,-117.647058823529,4,1,0,70,0,0
44368,-119.407008086253,4,1,0,70,0,0
44479,-121.220413189219,4,1,0,70,0,0
44589,-123.072648979025,4,1,0,70,0,0
44700,-125,4,1,0,70,0,0
44866,-127.997688529327,4,1,0,70,0,0
45032,-131.142687981054,4,1,0,70,0,0
45143,-133.333333333333,4,1,0,70,0,0
52228,295.239266822487,3,1,0,60,1,0
52523,-107.129678440074,3,1,0,60,0,0
57542,221.40221402214,4,1,0,60,1,0
57542,-142.857142857143,4,1,0,60,0,0
57689,-142.857142857143,4,1,0,70,0,0
57837,-139.23182441701,4,1,0,71,0,0
57984,-135.80866365613,4,1,0,72,0,0
58132,-132.52815407214,4,1,0,73,0,0
58280,-129.402390438247,4,1,0,74,0,0
58427,-126.440361258175,4,1,0,75,0,0
58575,-123.592085235921,4,1,0,75,0,0
58722,-120.887300878368,4,1,0,76,0,0
58870,-118.281136198106,4,1,0,77,0,0
59018,-115.784970768573,4,1,0,78,0,0
59165,-113.40782122905,4,1,0,79,0,0
59313,221.40221402214,4,1,0,80,1,1
59313,-111.111111111111,4,1,0,80,0,1
73039,-111.111111111111,4,1,0,80,0,0
73482,-117.64705882353,4,1,0,70,0,0
76139,-117.647058823529,4,1,0,70,0,0
76287,-116.502301117686,4,1,0,72,0,0
76434,-115.387119880185,4,1,0,73,0,0
76582,-114.285714285714,4,1,0,75,0,0
76729,-113.205136395579,4,1,0,77,0,0
76877,-112.151898734177,4,1,0,78,0,0
77025,-111.111111111111,4,1,0,80,0,1
80124,-111.111111111111,4,1,0,80,0,1
80290,-113.478818998716,4,1,0,76,0,1
80456,-115.94963273872,4,1,0,72,0,1
80567,-117.647058823529,4,1,0,70,0,1
82486,-117.647058823529,4,1,0,70,0,1
82634,-116.399082568807,4,1,0,71,0,1
82781,-115.185474147103,4,1,0,72,0,1
82929,-113.988909945954,4,1,0,73,0,1
83076,-112.816950329976,4,1,0,74,0,1
83224,-111.676523174254,4,1,0,75,0,0
83372,-110.551395507148,4,1,0,75,0,0
83519,-109.456089505965,4,1,0,76,0,0
83667,-108.375041708375,4,1,0,77,0,0
83814,-107.31513909998,4,1,0,78,0,0
83962,-106.282722513089,4,1,0,79,0,0
84110,-105.263157894737,4,1,0,80,0,1
97836,-105.263157894737,4,1,0,80,0,0
98279,-117.64705882353,4,1,0,70,0,0
99608,-117.647058823529,4,1,0,70,0,0
99718,-114.27834386689,4,1,0,73,0,0
99829,-111.125047033739,4,1,0,75,0,0
99940,-108.114704087858,4,1,0,77,0,0
100051,-105.263157894737,4,1,0,80,0,1
111563,-105.263157894737,4,1,0,70,0,1
111674,-103.903727619607,4,1,0,71,0,1
111785,-102.567074230747,4,1,0,72,0,1
111896,-101.264374392128,4,1,0,74,0,1
112006,-100.005650036725,4,1,0,75,0,1
112117,-98.766809887841,4,1,0,76,0,1
112228,-97.558286942623,4,1,0,78,0,1
112338,-96.37898175878,4,1,0,79,0,1
112449,-95.238095238095,4,1,0,80,0,0
112892,-125,4,1,0,80,0,0
119534,-125,4,1,0,70,0,0
119829,-126.982420299984,4,1,0,70,0,0
120124,-129.035782573067,4,1,0,70,0,0
120420,-131.149361465852,4,1,0,70,0,0
120715,-133.333333333333,4,1,0,70,0,0
121010,-135.591274397245,4,1,0,70,0,0
121305,-137.92700729927,4,1,0,70,0,0
121600,-140.352962148672,4,1,0,70,0,0
121896,-142.857142857143,4,1,0,70,0,0
122191,-145.452306176489,4,1,0,70,0,0
122486,-148.143502257903,4,1,0,70,0,0
122781,-150.936162055083,4,1,0,70,0,0
123076,-153.846153846154,4,1,0,70,0,0
127504,-153.846153846154,4,1,0,70,0,0
127652,-149.271844660194,4,1,0,70,0,0
127800,-144.933228593873,4,1,0,70,0,0
127947,-140.866577591143,4,1,0,70,0,0
128095,-136.996472990533,4,1,0,70,0,0
128242,-133.333333333333,4,1,0,70,0,0
128833,-86.9565217391304,4,1,0,70,0,0

[HitObjects]
256,192,863,12,0,2340,0:0:0:0:
308,120,2635,5,12,0:0:0:0:
325,234,3078,5,0,0:0:0:0:
380,99,3225,1,0,0:0:0:0:
358,112,3373,1,0,0:0:0:0:
340,116,3520,1,8,0:0:0:0:
444,171,3816,1,0,0:0:0:0:
470,138,4111,1,0,0:0:0:0:
463,135,4406,1,8,0:0:0:0:
432,154,4849,1,8,0:0:0:0:
438,191,4996,1,0,0:0:0:0:
434,138,5144,1,8,0:0:0:0:
441,183,5292,1,0,0:0:0:0:
384,167,5734,1,8,0:0:0:0:
445,185,5882,1,0,0:0:0:0:
357,180,6030,1,0,0:0:0:0:
410,148,6177,1,8,0:0:0:0:
212,85,6620,1,0,0:0:0:0:
468,153,6768,1,8,0:0:0:0:
445,145,6915,1,8,0:0:0:0:
500,189,7063,1,0,0:0:0:0:
161,23,7358,1,0,0:0:0:0:
361,137,7653,1,8,0:0:0:0:
401,170,7948,1,0,0:0:0:0:
336,155,8391,1,8,0:0:0:0:
344,144,8539,1,8,0:0:0:0:
478,183,8686,1,0,0:0:0:0:
407,160,8834,1,0,0:0:0:0:
395,289,9277,1,0,0:0:0:0:
464,162,9720,1,8,0:0:0:0:
467,168,10162,1,8,0:0:0:0:
236,106,10310,1,0,0:0:0:0:
311,125,10458,1,0,0:0:0:0:
453,145,10605,1,8,0:0:0:0:
173,27,11048,1,8,0:0:0:0:
414,225,11491,1,0,0:0:0:0:
404,211,11934,1,0,0:0:0:0:
339,130,12081,1,8,0:0:0:0:
373,177,12229,1,0,0:0:0:0:
427,163,12376,1,8,0:0:0:0:
463,146,12819,1,8,0:0:0:0:
398,227,13262,1,0,0:0:0:0:
368,222,13705,1,0,0:0:0:0:
389,205,13852,1,0,0:0:0:0:
360,185,14000,1,0,0:0:0:0:
464,155,14148,1,8,0:0:0:0:
449,164,14590,1,8,0:0:0:0:
256,192,15033,12,0,15771,0:0:0:0:
368,180,15919,5,0,0:0:0:0:
301,76,16066,1,8,0:0:0:0:
332,177,16214,1,0,0:0:0:0:
350,166,16361,1,8,0:0:0:0:
366,152,16509,1,8,0:0:0:0:
206,110,16657,1,0,0:0:0:0:
354,125,16804,1,12,0:0:0:0:
322,240,17025,1,0,0:0:0:0:
350,145,17246,5,8,0:0:0:0:
375,139,17357,1,8,0:0:0:0:
347,212,17468,1,0,0:0:0:0:
182,102,17578,1,0,0:0:0:0:
403,126,17689,1,8,0:0:0:0:
175,131,17800,1,0,0:0:0:0:
271,235,17911,1,0,0:0:0:0:
397,142,18021,1,8,0:0:0:0:
375,194,18132,1,0,0:0:0:0:
346,150,18353,1,8,0:0:0:0:
354,101,18575,1,8,0:0:0:0:
370,275,18796,1,0,0:0:0:0:
377,229,19018,1,0,0:0:0:0:
377,229,19128,1,0,0:0:0:0:
388,124,19239,1,8,0:0:0:0:
488,167,19350,1,0,0:0:0:0:
370,140,19460,1,8,0:0:0:0:
181,101,19571,1,8,0:0:0:0:
352,190,19682,1,0,0:0:0:0:
456,133,19792,1,8,0:0:0:0:
395,182,19903,1,0,0:0:0:0:
350,114,20346,1,8,0:0:0:0:
349,171,20567,1,0,0:0:0:0:
388,134,20789,1,8,0:0:0:0:
359,166,20899,1,0,0:0:0:0:
157,41,21010,1,0,0:0:0:0:
367,138,21121,1,8,0:0:0:0:
371,110,21232,5,8,0:0:0:0:
164,156,21342,1,0,0:0:0:0:
256,131,21453,1,0,0:0:0:0:
367,187,21564,1,0,0:0:0:0:
419,121,21674,1,8,0:0:0:0:
362,142,21896,1,8,0:0:0:0:
429,162,22117,1,0,0:0:0:0:
456,161,22339,1,0,0:0:0:0:
466,149,22560,1,8,0:0:0:0:
409,167,22671,1,8,0:0:0:0:
268,161,22781,1,0,0:0:0:0:
255,95,22892,1,8,0:0:0:0:
338,170,23003,1,0,0:0:0:0:
311,159,23113,5,0,0:0:0:0:
360,104,23224,1,8,0:0:0:0:
387,153,23335,1,8,0:0:0:0:
408,182,23446,1,0,0:0:0:0:
357,126,23888,1,8,0:0:0:0:
372,164,24110,1,8,0:0:0:0:
379,159,24331,1,0,0:0:0:0:
361,160,24442,1,0,0:0:0:0:
411,260,24553,1,0,0:0:0:0:
425,141,24663,1,8,0:0:0:0:
396,138,24774,1,8,0:0:0:0:
441,218,24885,1,0,0:0:0:0:
362,207,24995,1,0,0:0:0:0:
413,172,25106,1,8,0:0:0:0:
245,85,25217,1,0,0:0:0:0:
321,212,25438,1,8,0:0:0:0:
154,155,25660,1,0,0:0:0:0:
154,155,25881,1,0,0:0:0:0:
511,160,26102,1,8,0:0:0:0:
412,135,26213,1,8,0:0:0:0:
242,173,26324,1,0,0:0:0:0:
329,124,26434,5,8,0:0:0:0:
279,216,26545,1,0,0:0:0:0:
371,180,26656,1,0,0:0:0:0:
465,158,26767,1,8,0:0:0:0:
167,92,26877,1,0,0:0:0:0:
461,123,26988,1,8,0:0:0:0:
220,71,27431,1,0,0:0:0:0:
339,135,27542,1,0,0:0:0:0:
134,24,27652,5,8,0:0:0:0:
451,220,27763,1,0,0:0:0:0:
365,157,27874,1,8,0:0:0:0:
277,112,27984,1,8,0:0:0:0:
264,200,28095,1,0,0:0:0:0:
380,144,28206,1,0,0:0:0:0:
280,124,28316,1,8,0:0:0:0:
356,134,28427,1,0,0:0:0:0:
411,185,28538,1,8,0:0:0:0:
376,185,28649,1,0,0:0:0:0:
148,50,28759,1,0,0:0:0:0:
214,97,28870,1,8,0:0:0:0:
352,152,28981,1,8,0:0:0:0:
348,177,29091,1,0,0:0:0:0:
380,162,29202,1,0,0:0:0:0:
190,171,29423,1,0,0:0:0:0:
337,138,29645,1,8,0:0:0:0:
217,83,29756,1,0,0:0:0:0:
455,138,29866,5,8,0:0:0:0:
206,139,29977,1,0,0:0:0:0:
320,233,30088,1,0,0:0:0:0:
484,164,30198,1,8,0:0:0:0:
400,139,30309,1,8,0:0:0:0:
469,177,30420,1,0,0:0:0:0:
416,122,30530,1,8,0:0:0:0:
424,167,30641,1,8,0:0:0:0:
368,213,30752,1,0,0:0:0:0:
307,121,30863,1,8,0:0:0:0:
432,176,30973,5,0,0:0:0:0:
187,88,31195,1,0,0:0:0:0:
444,166,31416,1,8,0:0:0:0:
377,173,31748,1,0,0:0:0:0:
317,107,31970,1,8,0:0:0:0:
403,168,32191,1,0,0:0:0:0:
276,94,32302,1,8,0:0:0:0:
471,135,32523,1,8,0:0:0:0:
255,110,32744,1,0,0:0:0:0:
395,128,32966,1,8,0:0:0:0:
368,152,33187,1,0,0:0:0:0:
201,130,33298,1,0,0:0:0:0:
332,162,33519,1,0,0:0:0:0:
419,148,33741,1,8,0:0:0:0:
405,158,33962,1,0,0:0:0:0:
405,158,34073,1,0,0:0:0:0:
473,129,34294,5,8,0:0:0:0:
419,148,34516,1,4,0:0:0:0:
437,138,34737,1,8,0:0:0:0:
202,108,34958,1,0,0:0:0:0:
333,196,35291,1,0,0:0:0:0:
235,139,35512,1,0,0:0:0:0:
420,142,35733,1,8,0:0:0:0:
366,154,35844,1,0,0:0:0:0:
503,168,36065,1,0,0:0:0:0:
428,140,36287,1,8,0:0:0:0:
460,155,36508,1,8,0:0:0:0:
379,171,36730,1,0,0:0:0:0:
348,167,36951,1,0,0:0:0:0:
340,167,37062,1,0,0:0:0:0:
226,123,37283,1,0,0:0:0:0:
442,152,37505,1,8,0:0:0:0:
332,190,37615,1,0,0:0:0:0:
362,150,37837,1,8,0:0:0:0:
278,133,38058,1,4,0:0:0:0:
368,242,38280,1,0,0:0:0:0:
421,158,38501,1,8,0:0:0:0:
199,78,38833,1,0,0:0:0:0:
236,62,39054,1,8,0:0:0:0:
143,82,39276,1,0,0:0:0:0:
363,170,39387,1,0,0:0:0:0:
150,34,39608,1,0,0:0:0:0:
369,121,39829,1,8,0:0:0:0:
280,126,39940,1,0,0:0:0:0:
291,101,40051,1,8,0:0:0:0:
242,159,40272,1,0,0:0:0:0:
416,193,40604,1,0,0:0:0:0:
411,177,40826,1,0,0:0:0:0:
454,155,41047,1,8,0:0:0:0:
455,142,41158,1,8,0:0:0:0:
372,150,41379,1,8,0:0:0:0:
349,237,41601,1,0,0:0:0:0:
349,237,41711,1,0,0:0:0:0:
454,155,41822,1,8,0:0:0:0:
309,158,41933,1,0,0:0:0:0:
455,168,42043,1,8,0:0:0:0:
324,151,42154,1,8,0:0:0:0:
287,130,42375,1,0,0:0:0:0:
235,124,42486,1,0,0:0:0:0:
319,114,42597,5,8,0:0:0:0:
173,27,42708,1,0,0:0:0:0:
424,160,42818,1,0,0:0:0:0:
448,149,42929,1,8,0:0:0:0:
316,90,43150,1,8,0:0:0:0:
287,120,43261,1,8,0:0:0:0:
311,265,43372,1,0,0:0:0:0:
429,206,43593,1,0,0:0:0:0:
300,170,43704,1,0,0:0:0:0:
419,141,43815,1,8,0:0:0:0:
233,147,43925,1,8,0:0:0:0:
347,162,44036,1,0,0:0:0:0:
225,73,44147,1,8,0:0:0:0:
322,162,44257,1,0,0:0:0:0:
262,156,44368,1,0,0:0:0:0:
337,166,44479,1,0,0:0:0:0:
308,146,44589,1,8,0:0:0:0:
316,84,44700,5,8,0:0:0:0:
394,137,44866,1,8,0:0:0:0:
407,142,45032,1,8,0:0:0:0:
382,73,45143,5,4,0:0:0:0:
256,192,45586,1,0,0:0:0:0:
264,154,45807,1,0,0:0:0:0:
303,118,45918,1,8,0:0:0:0:
223,114,46139,1,8,0:0:0:0:
249,43,46250,1,8,0:0:0:0:
256,192,46471,1,0,0:0:0:0:
256,192,46582,1,0,0:0:0:0:
256,192,46693,1,8,0:0:0:0:
181,100,46803,1,0,0:0:0:0:
256,192,46914,1,0,0:0:0:0:
256,192,47136,1,8,0:0:0:0:
256,192,47357,1,0,0:0:0:0:
256,192,47578,1,8,0:0:0:0:
256,192,47689,1,0,0:0:0:0:
256,192,47911,1,0,0:0:0:0:
256,192,48021,1,8,0:0:0:0:
256,192,48243,1,0,0:0:0:0:
414,165,48353,1,8,0:0:0:0:
270,170,48685,1,0,0:0:0:0:
256,192,48907,1,8,0:0:0:0:
256,192,49128,1,0,0:0:0:0:
256,192,49350,1,8,0:0:0:0:
256,192,49460,1,0,0:0:0:0:
256,192,49682,1,0,0:0:0:0:
256,192,49792,1,8,0:0:0:0:
380,145,50014,1,8,0:0:0:0:
256,192,50125,1,0,0:0:0:0:
256,192,50235,1,8,0:0:0:0:
256,192,50346,1,0,0:0:0:0:
256,192,50678,1,8,0:0:0:0:
384,147,50899,1,8,0:0:0:0:
168,80,51121,1,0,0:0:0:0:
420,136,51232,5,8,0:0:0:0:
420,136,51453,1,0,0:0:0:0:
429,147,51564,1,8,0:0:0:0:
256,192,51785,1,0,0:0:0:0:
256,192,52006,1,8,0:0:0:0:
283,154,52228,1,4,0:0:0:0:
245,112,52523,5,8,0:0:0:0:
355,123,52818,1,8,0:0:0:0:
221,87,53113,1,0,0:0:0:0:
380,158,53409,1,8,0:0:0:0:
376,192,53704,1,0,0:0:0:0:
280,125,53999,1,0,0:0:0:0:
439,142,54294,1,8,0:0:0:0:
224,76,54589,1,8,0:0:0:0:
318,178,54885,5,0,0:0:0:0:
318,178,55032,1,0,0:0:0:0:
390,142,55180,1,8,0:0:0:0:
274,177,55327,1,0,0:0:0:0:
372,197,55475,1,8,0:0:0:0:
393,149,55770,1,8,0:0:0:0:
361,193,55918,1,0,0:0:0:0:
480,165,56065,1,8,0:0:0:0:
378,142,56213,1,8,0:0:0:0:
404,159,56361,1,8,0:0:0:0:
447,192,56508,1,0,0:0:0:0:
442,194,56656,1,0,0:0:0:0:
435,136,56803,1,8,0:0:0:0:
447,192,56951,1,0,0:0:0:0:
431,181,57099,1,0,0:0:0:0:
221,66,57246,1,8,0:0:0:0:
382,134,57542,1,8,0:0:0:0:
418,128,57689,1,8,0:0:0:0:
173,30,57837,1,0,0:0:0:0:
368,166,57984,1,0,0:0:0:0:
498,167,58132,1,8,0:0:0:0:
390,168,58280,1,0,0:0:0:0:
385,172,58427,1,0,0:0:0:0:
401,129,58575,1,8,0:0:0:0:
254,110,58722,1,8,0:0:0:0:
342,190,58870,1,0,0:0:0:0:
463,150,59018,1,8,0:0:0:0:
221,65,59165,5,8,0:0:0:0:
217,106,59313,1,4,0:0:0:0:
385,175,59534,1,0,0:0:0:0:
309,217,59645,1,0,0:0:0:0:
374,127,59756,1,8,0:0:0:0:
456,175,59866,1,0,0:0:0:0:
367,181,59977,1,8,0:0:0:0:
337,169,60088,1,8,0:0:0:0:
297,180,60198,1,0,0:0:0:0:
455,159,60309,1,8,0:0:0:0:
266,103,60420,1,8,0:0:0:0:
269,121,60530,1,8,0:0:0:0:
372,184,60641,1,0,0:0:0:0:
372,184,60752,1,0,0:0:0:0:
377,144,60863,1,8,0:0:0:0:
481,175,60973,1,0,0:0:0:0:
382,174,61084,1,8,0:0:0:0:
354,202,61305,1,0,0:0:0:0:
408,117,61527,1,8,0:0:0:0:
177,67,61748,1,0,0:0:0:0:
411,159,61859,1,0,0:0:0:0:
443,168,61970,1,8,0:0:0:0:
338,173,62191,1,0,0:0:0:0:
408,158,62302,1,8,0:0:0:0:
331,164,62412,1,0,0:0:0:0:
294,140,62523,1,8,0:0:0:0:
459,152,62634,1,8,0:0:0:0:
157,25,62744,5,0,0:0:0:0:
416,194,62855,1,0,0:0:0:0:
416,146,62966,1,8,0:0:0:0:
371,176,63077,1,0,0:0:0:0:
346,110,63187,1,8,0:0:0:0:
347,139,63298,1,8,0:0:0:0:
173,174,63409,1,0,0:0:0:0:
344,180,63519,1,0,0:0:0:0:
294,128,63630,1,8,0:0:0:0:
341,122,63741,1,8,0:0:0:0:
234,154,63962,1,0,0:0:0:0:
416,149,64184,1,8,0:0:0:0:
356,233,64405,1,8,0:0:0:0:
388,181,64626,1,0,0:0:0:0:
384,176,64848,1,0,0:0:0:0:
380,176,64958,1,0,0:0:0:0:
397,159,65069,1,8,0:0:0:0:
341,146,65180,1,8,0:0:0:0:
407,206,65291,1,0,0:0:0:0:
285,183,65401,1,0,0:0:0:0:
426,149,65512,1,8,0:0:0:0:
419,204,65623,1,0,0:0:0:0:
398,221,65733,1,0,0:0:0:0:
196,99,65844,1,0,0:0:0:0:
361,92,65955,5,8,0:0:0:0:
331,88,66065,1,8,0:0:0:0:
308,119,66176,1,8,0:0:0:0:
370,155,66287,1,0,0:0:0:0:
369,168,66398,1,0,0:0:0:0:
460,205,66619,1,0,0:0:0:0:
291,131,66730,1,0,0:0:0:0:
371,147,66840,1,8,0:0:0:0:
201,77,66951,1,0,0:0:0:0:
417,152,67062,1,8,0:0:0:0:
303,178,67173,1,0,0:0:0:0:
450,182,67283,1,8,0:0:0:0:
214,103,67394,1,8,0:0:0:0:
367,172,67505,1,0,0:0:0:0:
180,104,67615,1,0,0:0:0:0:
490,159,67726,1,8,0:0:0:0:
296,109,67837,1,8,0:0:0:0:
444,167,67947,1,0,0:0:0:0:
310,169,68058,1,0,0:0:0:0:
370,142,68169,1,8,0:0:0:0:
410,130,68390,1,8,0:0:0:0:
344,165,68612,1,0,0:0:0:0:
392,138,68833,1,8,0:0:0:0:
165,187,68944,1,0,0:0:0:0:
359,133,69054,5,8,0:0:0:0:
237,170,69276,1,0,0:0:0:0:
287,192,69387,1,0,0:0:0:0:
441,157,69497,1,8,0:0:0:0:
244,181,69608,1,0,0:0:0:0:
387,127,69719,1,8,0:0:0:0:
315,108,69829,1,8,0:0:0:0:
408,181,69940,1,0,0:0:0:0:
378,187,70051,1,0,0:0:0:0:
457,142,70161,1,8,0:0:0:0:
491,184,70272,1,0,0:0:0:0:
433,137,70383,1,8,0:0:0:0:
408,153,70494,1,8,0:0:0:0:
398,171,70604,1,0,0:0:0:0:
408,181,70715,1,0,0:0:0:0:
357,125,70826,1,8,0:0:0:0:
387,146,70936,1,8,0:0:0:0:
381,139,71158,1,8,0:0:0:0:
192,88,71268,1,0,0:0:0:0:
446,178,71379,1,0,0:0:0:0:
433,208,71490,1,0,0:0:0:0:
177,61,71601,1,0,0:0:0:0:
393,123,71711,1,8,0:0:0:0:
349,119,71822,1,8,0:0:0:0:
484,162,71933,1,8,0:0:0:0:
368,232,72043,1,0,0:0:0:0:
180,66,72154,1,0,0:0:0:0:
399,142,72265,1,8,0:0:0:0:
381,180,72375,1,0,0:0:0:0:
367,143,72486,1,8,0:0:0:0:
367,143,72597,1,8,0:0:0:0:
404,183,72818,1,0,0:0:0:0:
404,183,72929,1,0,0:0:0:0:
419,147,73039,1,8,0:0:0:0:
328,157,73482,1,4,0:0:0:0:
364,134,73593,1,8,0:0:0:0:
372,181,73704,1,0,0:0:0:0:
318,163,73815,1,0,0:0:0:0:
302,107,73925,1,8,0:0:0:0:
186,16,74036,1,8,0:0:0:0:
254,185,74147,1,0,0:0:0:0:
494,155,74257,1,8,0:0:0:0:
453,144,74479,1,8,0:0:0:0:
347,108,74700,1,8,0:0:0:0:
419,183,74811,1,0,0:0:0:0:
390,139,74922,1,8,0:0:0:0:
208,58,75032,1,0,0:0:0:0:
210,62,75143,1,0,0:0:0:0:
290,72,75254,1,8,0:0:0:0:
380,177,75475,1,0,0:0:0:0:
379,128,75696,1,8,0:0:0:0:
369,128,75807,1,8,0:0:0:0:
353,110,75918,1,8,0:0:0:0:
416,162,76029,1,8,0:0:0:0:
373,145,76139,1,0,0:0:0:0:
349,180,76287,1,0,0:0:0:0:
264,135,76434,1,0,0:0:0:0:
272,102,76582,1,8,0:0:0:0:
317,132,76729,1,0,0:0:0:0:
370,137,76877,1,8,0:0:0:0:
380,210,77025,1,4,0:0:0:0:
399,150,77246,1,8,0:0:0:0:
274,178,77357,1,0,0:0:0:0:
444,146,77468,1,8,0:0:0:0:
313,84,77578,1,8,0:0:0:0:
374,186,77689,1,0,0:0:0:0:
295,184,77800,1,0,0:0:0:0:
418,128,77911,1,8,0:0:0:0:
363,137,78021,1,8,0:0:0:0:
446,157,78132,1,8,0:0:0:0:
184,89,78243,1,0,0:0:0:0:
432,184,78353,1,0,0:0:0:0:
480,157,78575,1,8,0:0:0:0:
483,142,78685,1,8,0:0:0:0:
395,189,78796,1,0,0:0:0:0:
462,154,79018,1,8,0:0:0:0:
424,168,79239,1,8,0:0:0:0:
371,143,79350,1,8,0:0:0:0:
426,179,79460,1,0,0:0:0:0:
410,159,79571,1,8,0:0:0:0:
424,227,79682,1,0,0:0:0:0:
241,71,79792,1,8,0:0:0:0:
378,204,79903,1,0,0:0:0:0:
378,204,80014,1,0,0:0:0:0:
404,116,80124,1,8,0:0:0:0:
210,89,80290,1,8,0:0:0:0:
226,114,80456,1,0,0:0:0:0:
490,228,80567,1,12,0:0:0:0:
197,242,80789,1,0,0:0:0:0:
218,92,80899,1,0,0:0:0:0:
379,135,81010,1,8,0:0:0:0:
379,135,81121,1,8,0:0:0:0:
353,187,81232,1,0,0:0:0:0:
293,104,81342,5,8,0:0:0:0:
391,132,81453,1,8,0:0:0:0:
356,172,81564,1,0,0:0:0:0:
438,148,81674,1,8,0:0:0:0:
216,86,81785,1,0,0:0:0:0:
403,179,81896,1,0,0:0:0:0:
324,90,82006,1,8,0:0:0:0:
472,134,82117,1,8,0:0:0:0:
170,123,82228,1,0,0:0:0:0:
336,99,82339,1,8,0:0:0:0:
353,145,82486,1,8,0:0:0:0:
351,178,82634,1,0,0:0:0:0:
174,63,82781,1,0,0:0:0:0:
400,118,82929,5,8,0:0:0:0:
304,110,83076,1,8,0:0:0:0:
308,185,83224,1,0,0:0:0:0:
275,119,83372,1,8,0:0:0:0:
374,162,83519,1,0,0:0:0:0:
190,105,83667,1,8,0:0:0:0:
368,143,83814,1,8,0:0:0:0:
385,148,83962,1,8,0:0:0:0:
247,85,84110,1,4,0:0:0:0:
175,43,84331,1,0,0:0:0:0:
176,77,84442,1,0,0:0:0:0:
310,119,84553,1,8,0:0:0:0:
327,198,84663,1,0,0:0:0:0:
361,157,84774,1,8,0:0:0:0:
285,164,84885,1,8,0:0:0:0:
206,139,84995,1,0,0:0:0:0:
176,77,85106,1,0,0:0:0:0:
368,141,85217,1,8,0:0:0:0:
239,149,85327,1,0,0:0:0:0:
434,132,85438,1,8,0:0:0:0:
476,175,85549,1,0,0:0:0:0:
181,91,85660,1,0,0:0:0:0:
163,47,85770,1,0,0:0:0:0:
410,133,85881,1,8,0:0:0:0:
241,141,86102,1,8,0:0:0:0:
190,102,86324,1,0,0:0:0:0:
383,171,86434,1,0,0:0:0:0:
441,155,86545,1,8,0:0:0:0:
462,140,86656,1,0,0:0:0:0:
218,68,86767,1,8,0:0:0:0:
421,173,86988,1,0,0:0:0:0:
379,178,87209,1,8,0:0:0:0:
313,113,87320,1,8,0:0:0:0:
356,260,87431,1,0,0:0:0:0:
356,260,87542,1,0,0:0:0:0:
385,125,87652,1,8,0:0:0:0:
373,183,87763,1,0,0:0:0:0:
424,154,87874,1,0,0:0:0:0:
376,134,87984,5,8,0:0:0:0:
409,123,88095,1,8,0:0:0:0:
433,188,88206,1,0,0:0:0:0:
178,47,88316,5,0,0:0:0:0:
446,124,88427,1,8,0:0:0:0:
206,66,88538,1,8,0:0:0:0:
300,138,88649,1,8,0:0:0:0:
408,132,88759,1,8,0:0:0:0:
189,81,88870,1,0,0:0:0:0:
397,182,88981,1,0,0:0:0:0:
342,151,89202,1,0,0:0:0:0:
422,149,89423,1,8,0:0:0:0:
485,159,89645,5,8,0:0:0:0:
466,158,89756,1,8,0:0:0:0:
401,150,89866,1,0,0:0:0:0:
291,247,89977,1,0,0:0:0:0:
334,143,90088,1,8,0:0:0:0:
334,143,90198,1,8,0:0:0:0:
297,146,90309,1,0,0:0:0:0:
431,146,90420,1,8,0:0:0:0:
389,179,90530,1,0,0:0:0:0:
389,179,90641,1,0,0:0:0:0:
469,166,90752,1,8,0:0:0:0:
147,64,90863,1,0,0:0:0:0:
433,163,90973,1,8,0:0:0:0:
246,123,91084,1,8,0:0:0:0:
370,192,91195,1,0,0:0:0:0:
213,93,91416,1,0,0:0:0:0:
407,149,91637,1,8,0:0:0:0:
401,154,91748,1,8,0:0:0:0:
396,178,91859,1,0,0:0:0:0:
371,170,91970,1,0,0:0:0:0:
412,150,92080,1,8,0:0:0:0:
391,143,92191,1,8,0:0:0:0:
381,139,92302,1,8,0:0:0:0:
380,137,92412,1,8,0:0:0:0:
455,206,92523,1,0,0:0:0:0:
275,149,92634,1,0,0:0:0:0:
259,149,92744,1,0,0:0:0:0:
441,135,92855,5,8,0:0:0:0:
432,135,92966,1,8,0:0:0:0:
385,121,93187,1,8,0:0:0:0:
348,150,93409,1,8,0:0:0:0:
176,59,93519,1,8,0:0:0:0:
228,166,93630,1,0,0:0:0:0:
343,146,93741,1,8,0:0:0:0:
376,192,93851,1,0,0:0:0:0:
263,178,94073,1,0,0:0:0:0:
408,200,94294,1,0,0:0:0:0:
409,165,94405,1,8,0:0:0:0:
409,165,94516,1,8,0:0:0:0:
349,194,94626,1,0,0:0:0:0:
449,154,94737,1,8,0:0:0:0:
445,181,94848,1,0,0:0:0:0:
157,76,94958,1,0,0:0:0:0:
381,148,95069,1,8,0:0:0:0:
452,185,95180,1,0,0:0:0:0:
395,133,95291,1,8,0:0:0:0:
497,150,95401,1,8,0:0:0:0:
381,186,95512,1,0,0:0:0:0:
381,186,95623,1,0,0:0:0:0:
470,150,95733,1,8,0:0:0:0:
460,151,95844,1,8,0:0:0:0:
386,195,95955,1,0,0:0:0:0:
255,140,96065,1,0,0:0:0:0:
498,170,96287,1,0,0:0:0:0:
429,131,96508,1,8,0:0:0:0:
420,160,96619,1,8,0:0:0:0:
376,186,96730,1,0,0:0:0:0:
376,186,96840,1,0,0:0:0:0:
408,151,96951,1,8,0:0:0:0:
402,180,97062,1,0,0:0:0:0:
402,180,97173,1,0,0:0:0:0:
399,153,97283,1,8,0:0:0:0:
402,146,97394,1,8,0:0:0:0:
402,145,97505,1,8,0:0:0:0:
421,180,97615,1,0,0:0:0:0:
337,138,97726,1,8,0:0:0:0:
379,243,97836,1,0,0:0:0:0:
179,73,98279,1,0,0:0:0:0:
184,78,98501,1,0,0:0:0:0:
453,168,98722,1,8,0:0:0:0:
347,183,98944,1,0,0:0:0:0:
397,159,99165,1,8,0:0:0:0:
397,159,99387,1,8,0:0:0:0:
175,142,99608,1,0,0:0:0:0:
207,148,99718,1,0,0:0:0:0:
207,148,99829,1,0,0:0:0:0:
138,93,99940,1,0,0:0:0:0:
384,199,100051,1,8,0:0:0:0:
395,220,100161,1,0,0:0:0:0:
416,176,100272,1,8,0:0:0:0:
345,203,100383,1,0,0:0:0:0:
345,203,100494,1,0,0:0:0:0:
432,158,100604,1,8,0:0:0:0:
449,186,100715,1,0,0:0:0:0:
475,161,100826,1,8,0:0:0:0:
459,159,100936,1,8,0:0:0:0:
429,142,101158,1,8,0:0:0:0:
425,181,101379,1,0,0:0:0:0:
454,171,101490,1,0,0:0:0:0:
406,143,101601,1,8,0:0:0:0:
397,152,101711,1,8,0:0:0:0:
178,90,101822,5,0,0:0:0:0:
431,175,101933,1,0,0:0:0:0:
314,148,102043,1,8,0:0:0:0:
274,179,102154,1,0,0:0:0:0:
454,137,102265,1,8,0:0:0:0:
295,112,102375,1,8,0:0:0:0:
443,156,102486,1,8,0:0:0:0:
212,85,102597,1,8,0:0:0:0:
337,197,102708,1,0,0:0:0:0:
330,142,102818,5,0,0:0:0:0:
345,125,102929,1,8,0:0:0:0:
344,102,103040,1,8,0:0:0:0:
310,162,103150,1,0,0:0:0:0:
190,102,103372,5,0,0:0:0:0:
377,114,103593,1,8,0:0:0:0:
251,88,103815,1,8,0:0:0:0:
357,149,103925,1,0,0:0:0:0:
331,140,104036,1,8,0:0:0:0:
365,141,104147,1,8,0:0:0:0:
367,165,104257,1,0,0:0:0:0:
366,192,104368,1,0,0:0:0:0:
462,180,104479,1,8,0:0:0:0:
361,172,104589,1,0,0:0:0:0:
360,128,104700,1,8,0:0:0:0:
245,105,104811,1,8,0:0:0:0:
425,186,104922,1,0,0:0:0:0:
403,154,105143,1,8,0:0:0:0:
291,137,105364,1,8,0:0:0:0:
478,166,105475,1,8,0:0:0:0:
282,168,105586,1,0,0:0:0:0:
435,184,105696,1,0,0:0:0:0:
445,160,105807,1,8,0:0:0:0:
379,172,105918,1,0,0:0:0:0:
357,186,106029,1,8,0:0:0:0:
295,151,106139,1,8,0:0:0:0:
137,69,106250,1,0,0:0:0:0:
440,159,106361,1,8,0:0:0:0:
403,188,106471,1,0,0:0:0:0:
207,91,106582,5,0,0:0:0:0:
381,155,106693,1,8,0:0:0:0:
493,152,106859,1,8,0:0:0:0:
311,151,107025,1,8,0:0:0:0:
243,164,107136,1,0,0:0:0:0:
203,116,107246,1,0,0:0:0:0:
359,117,107357,1,8,0:0:0:0:
435,179,107468,1,0,0:0:0:0:
498,175,107578,1,8,0:0:0:0:
367,114,107689,1,8,0:0:0:0:
338,118,107800,1,8,0:0:0:0:
285,104,107911,1,8,0:0:0:0:
367,153,108021,1,0,0:0:0:0:
136,52,108132,1,0,0:0:0:0:
349,97,108243,1,8,0:0:0:0:
411,129,108464,1,8,0:0:0:0:
508,156,108575,1,8,0:0:0:0:
445,173,108685,1,0,0:0:0:0:
222,96,108796,1,0,0:0:0:0:
222,96,108907,1,0,0:0:0:0:
391,251,109018,1,0,0:0:0:0:
402,140,109128,1,8,0:0:0:0:
396,140,109239,1,8,0:0:0:0:
220,194,109350,1,0,0:0:0:0:
421,163,109460,1,8,0:0:0:0:
422,186,109571,1,0,0:0:0:0:
414,184,109682,1,0,0:0:0:0:
478,166,109792,1,8,0:0:0:0:
371,176,109903,1,0,0:0:0:0:
377,128,110014,1,8,0:0:0:0:
374,128,110125,1,8,0:0:0:0:
389,192,110235,1,0,0:0:0:0:
177,81,110457,5,0,0:0:0:0:
353,256,110678,1,0,0:0:0:0:
353,133,110789,1,8,0:0:0:0:
365,134,110899,1,8,0:0:0:0:
234,127,111010,5,0,0:0:0:0:
403,167,111121,1,8,0:0:0:0:
430,207,111232,1,0,0:0:0:0:
430,207,111342,1,0,0:0:0:0:
388,158,111453,1,8,0:0:0:0:
496,171,111563,1,8,0:0:0:0:
484,170,111674,1,8,0:0:0:0:
379,185,111785,1,0,0:0:0:0:
445,134,111896,1,8,0:0:0:0:
358,184,112006,1,0,0:0:0:0:
366,185,112117,1,0,0:0:0:0:
389,150,112228,1,8,0:0:0:0:
300,168,112338,1,0,0:0:0:0:
237,86,112449,1,12,0:0:0:0:
131,67,112892,1,0,0:0:0:0:
414,198,113040,1,0,0:0:0:0:
59,183,113187,1,0,0:0:0:0:
330,102,113335,1,8,0:0:0:0:
363,173,113630,1,0,0:0:0:0:
336,156,113925,1,0,0:0:0:0:
284,70,114220,1,8,0:0:0:0:
375,131,114663,1,8,0:0:0:0:
220,136,114811,5,0,0:0:0:0:
169,87,114958,1,0,0:0:0:0:
425,139,115106,1,8,0:0:0:0:
340,175,115549,5,0,0:0:0:0:
427,126,115696,1,8,0:0:0:0:
272,151,115844,1,0,0:0:0:0:
320,111,115992,1,8,0:0:0:0:
218,72,116434,1,0,0:0:0:0:
368,179,116582,1,0,0:0:0:0:
429,136,116730,1,8,0:0:0:0:
407,236,116877,1,0,0:0:0:0:
356,281,117173,1,0,0:0:0:0:
396,143,117468,1,8,0:0:0:0:
415,182,117763,1,0,0:0:0:0:
213,18,118206,1,8,0:0:0:0:
356,151,118353,1,8,0:0:0:0:
184,68,118501,1,0,0:0:0:0:
110,68,118649,1,0,0:0:0:0:
395,138,119091,1,8,0:0:0:0:
398,202,119534,1,0,0:0:0:0:
377,195,119829,1,0,0:0:0:0:
387,154,120124,1,8,0:0:0:0:
381,181,120420,1,0,0:0:0:0:
439,156,120715,1,8,0:0:0:0:
402,159,121010,1,8,0:0:0:0:
373,173,121305,1,0,0:0:0:0:
462,144,121600,1,8,0:0:0:0:
452,168,121896,1,0,0:0:0:0:
417,172,122191,1,0,0:0:0:0:
445,138,122486,1,8,0:0:0:0:
417,172,122781,1,0,0:0:0:0:
430,153,123076,1,8,0:0:0:0:
495,159,123519,1,8,0:0:0:0:
475,145,123667,1,8,0:0:0:0:
451,140,123815,1,8,0:0:0:0:
465,174,123962,1,0,0:0:0:0:
230,87,124257,1,0,0:0:0:0:
472,140,124553,1,8,0:0:0:0:
484,152,124848,1,8,0:0:0:0:
472,147,125291,1,8,0:0:0:0:
479,177,125438,1,0,0:0:0:0:
405,164,125586,1,0,0:0:0:0:
437,150,125733,1,8,0:0:0:0:
230,89,126029,1,8,0:0:0:0:
333,104,126176,1,0,0:0:0:0:
347,103,126324,1,8,0:0:0:0:
216,85,126619,1,8,0:0:0:0:
300,134,127062,1,8,0:0:0:0:
232,109,127504,1,0,0:0:0:0:
385,130,127652,1,8,0:0:0:0:
232,49,127800,1,0,0:0:0:0:
240,61,127947,1,0,0:0:0:0:
413,145,128095,1,8,0:0:0:0:
416,145,128242,1,8,0:0:0:0:
437,179,128833,1,0,0:0:0:0:
