osu file format v14

[General]
AudioFilename: audio.mp3
AudioLeadIn: 0
PreviewTime: 59313
Countdown: 0
SampleSet: Normal
StackLeniency: 0.7
Mode: 1
LetterboxInBreaks: 0
WidescreenStoryboard: 1

[Editor]
DistanceSpacing: 1
BeatDivisor: 3
GridSize: 32
TimelineZoom: 1.999999

[Metadata]
Title:Punai Punai Gensou ~Punai Punai in Wonderland~
TitleUnicode:プナイプナイげんそう ~プナイプナイinワンダーランド~
Artist:Rish feat. Choko
ArtistUnicode:立秋 feat. ちょこ
Creator:I love hr
Version:Fapu's Punai
Source:BOFXV - THE BMS OF FIGHTERS eXtreme Violence -
Tags:japanese BOFXV fantasy hard 石王マサト teruyama electronic speedcore featured artist fa rissyuu risshuu Muse Dash Faputa Arityle ft. featuring
BeatmapID:3933416
BeatmapSetID:1906400

[Difficulty]
HPDrainRate:5.5
CircleSize:2
OverallDifficulty:6.5
ApproachRate:10
SliderMultiplier:1.4
SliderTickRate:1

[Events]
//Background and Video events
0,0,"Punai Punai.png",0,-50
//Break Periods
//Storyboard Layer 0 (Background)
//Storyboard Layer 1 (Fail)
//Storyboard Layer 2 (Pass)
//Storyboard Layer 3 (Foreground)
//Storyboard Layer 4 (Overlay)
//Storyboard Sound Samples

[TimingPoints]
2635,442.80442804428,4,1,0,70,1,0
16063,-85.7558139534884,4,1,0,70,0,0
16211,-75,4,1,0,70,0,0
16359,-66.6415662650602,4,1,0,70,0,0
16506,-60,4,1,0,70,0,0
16654,-54.5286506469501,4,1,0,70,0,0
16804,221.40221402214,4,1,0,80,1,1
30973,-100,4,1,0,80,0,0
31192,-101.699586587046,4,1,0,80,0,0
31413,-103.449887080445,4,1,0,80,0,0
31745,-106.195539211768,4,1,0,79,0,0
31859,-107.52688172043,4,1,0,79,0,0
31967,-108.114267111581,4,1,0,78,0,0
32188,-110.094480358031,4,1,0,78,0,0
32299,-111.116687578419,4,1,0,78,0,0
32520,-113.209476734276,4,1,0,78,0,0
32741,-115.382610961522,4,1,0,78,0,0
32963,-117.651226640687,4,1,0,78,0,0
33184,-120,4,1,0,78,0,0
33295,-121.215439364906,4,1,0,78,0,0
33516,-123.710188116968,4,1,0,78,0,0
33630,-125,4,1,0,78,0,0
33738,-126.321795359452,4,1,0,78,0,0
33959,-129.033511413307,4,1,0,78,0,0
34070,-130.439905734485,4,1,0,78,0,0
34291,-133.333333333333,4,1,0,78,0,0
34513,-125,4,1,0,78,0,0
34734,-125.505258344765,4,1,0,78,0,0
34955,-126.014617842583,4,1,0,78,0,0
35288,-126.789970621385,4,1,0,78,0,0
35398,-127.048193886431,4,1,0,78,0,0
35509,-127.309833024119,4,1,0,78,0,0
35730,-127.833976042773,4,1,0,78,0,0
35841,-128.098864994026,4,1,0,78,0,0
36062,-128.629538680713,4,1,0,78,0,0
36118,-128.76470698617,4,1,0,78,0,0
36173,-128.89773837253,4,1,0,78,0,0
36284,-129.167058823529,4,1,0,78,0,0
36395,-129.437507073603,4,1,0,78,0,0
36505,-129.706638439437,4,1,0,78,0,0
36727,-130.253217417714,4,1,0,78,0,0
36948,-130.801929052058,4,1,0,78,0,0
37059,-131.079274116523,4,1,0,78,0,0
37173,-131.079274116523,4,1,0,78,0,0
37280,-131.63498244739,4,1,0,78,0,0
37502,-132.197969445354,4,1,0,78,0,0
37612,-132.478714983493,4,1,0,78,0,0
37834,-133.048957828405,4,1,0,78,0,0
37889,-133.19099378882,4,1,0,78,0,0
37944,-133.333333333333,4,1,0,78,0,0
38058,-125,4,1,0,78,0,0
41708,-124.516627996906,4,1,0,78,0,0
41819,-124.032636481423,4,1,0,78,0,0
42040,-123.080130655362,4,1,0,78,0,0
42151,-122.607220741459,4,1,0,78,0,0
42262,-122.137931034483,4,1,0,78,0,0
42317,-121.906728618138,4,1,0,78,0,0
42372,-121.67639986259,4,1,0,78,0,0
42483,-121.214195270525,4,1,0,78,0,0
42594,-120.755488885858,4,1,0,78,0,0
42705,-120.300241143905,4,1,0,78,0,0
42815,-119.85246844652,4,1,0,78,0,0
42871,-119.625789455909,4,1,0,78,0,0
42926,-119.403991370011,4,1,0,78,0,0
43037,-118.958858102435,4,1,0,78,0,0
43147,-118.520997155764,4,1,0,78,0,0
43203,-118.299321999933,4,1,0,78,0,0
43258,-118.082410988132,4,1,0,78,0,0
43313,-117.866293966923,4,1,0,78,0,0
43369,-117.647058823529,4,1,0,78,0,0
43479,-117.21878412814,4,1,0,78,0,0
43590,-116.789765233448,4,1,0,78,0,0
43646,-116.574512901527,4,1,0,78,0,0
43701,-116.363875291567,4,1,0,78,0,0
43812,-115.941080196399,4,1,0,78,0,0
43922,-115.525114155251,4,1,0,78,0,0
44033,-115.108381268077,4,1,0,78,0,0
44144,-114.694644129266,4,1,0,78,0,0
44199,-114.490739244271,4,1,0,78,0,0
44254,-114.287558079504,4,1,0,78,0,0
44310,-114.081422313837,4,1,0,78,0,0
44365,-113.879690062052,4,1,0,78,0,0
44420,-113.678670004493,4,1,0,78,0,0
44476,-113.474722880759,4,1,0,78,0,0
44586,-113.076235474397,4,1,0,78,0,0
44697,-112.676952441546,4,1,0,78,0,0
44808,-112.28047930007,4,1,0,78,0,0
44919,-111.886786492719,4,1,0,78,0,0
45029,-111.499354676236,4,1,0,78,0,0
45140,-111.111111111111,4,1,0,78,0,0
45361,-112.673368112991,4,1,0,78,0,0
45583,-114.287558079504,4,1,0,78,0,0
45804,-115.941080196399,4,1,0,78,0,0
45915,-116.789765233448,4,1,0,78,0,0
46029,-117.647058823529,4,1,0,78,0,0
46136,-118.517031385933,4,1,0,78,0,0
46247,-119.403991370011,4,1,0,78,0,0
46468,-121.210047224694,4,1,0,78,0,0
46579,-122.137931034483,4,1,0,78,0,0
46690,-123.080130655362,4,1,0,78,0,0
46800,-124.02829329785,4,1,0,78,0,0
46911,-125,4,1,0,78,0,0
47133,-126.989817868923,4,1,0,78,0,0
47354,-129.034608378871,4,1,0,78,0,0
47575,-131.146327014218,4,1,0,78,0,0
47686,-132.233256178601,4,1,0,78,0,0
47800,-133.333333333333,4,1,0,78,0,0
47908,-134.462075772531,4,1,0,78,0,0
48018,-135.594518030779,4,1,0,78,0,0
48240,-137.939091829582,4,1,0,78,0,0
48390,-139.745916515427,4,1,0,78,0,0
48572,-141.600703605981,4,1,0,78,0,0
48682,-142.857142857143,4,1,0,78,0,0
52225,-111.111111111111,4,1,0,78,0,0
52228,295.239266822487,3,1,0,78,1,0
52228,-83.5421888053467,3,1,0,78,0,0
52520,-85.1175496911541,3,1,0,78,0,0
52815,-86.7534658523955,3,1,0,78,0,0
53110,-88.4534972345173,3,1,0,78,0,0
53406,-90.2276018002722,3,1,0,78,0,0
53701,-92.0679628962474,3,1,0,78,0,0
53996,-93.984962406015,3,1,0,78,0,0
54291,-95.9834893223113,3,1,0,78,0,0
54586,-98.068857517191,3,1,0,78,0,0
54808,-99.6989328667579,3,1,0,78,0,0
54882,-100.254400494535,3,1,0,78,0,0
55177,-102.53168147905,3,1,0,78,0,0
55472,-104.914824091429,3,1,0,78,0,0
55767,-107.411385606874,3,1,0,78,0,0
55915,-106.774389090212,3,1,0,78,0,0
56062,-106.149131742634,3,1,0,78,0,0
56210,-105.526975333069,3,1,0,78,0,0
56358,-104.912069535625,3,1,0,78,0,0
56653,-103.707544723879,3,1,0,78,0,0
56800,-103.117590423565,3,1,0,78,0,0
56948,-102.530364928829,3,1,0,78,0,0
57022,-102.239253122639,3,1,0,78,0,0
57096,-101.949789728559,3,1,0,78,0,0
57243,-101.379609425329,3,1,0,78,0,0
57539,-100.250626566416,3,1,0,78,0,0
57542,221.40221402214,4,1,0,78,1,0
57542,-133.333333333333,4,1,0,78,0,0
57686,-129.74358974359,4,1,0,78,0,0
57760,-128.008673653777,4,1,0,78,0,0
57834,-126.319543509272,4,1,0,78,0,0
57911,-100,4,1,0,71,0,0
57981,-123.092962641182,4,1,0,71,0,0
58058,-100,4,1,0,72,0,0
58129,-120.006776215484,4,1,0,72,0,0
58203,-118.520997155764,4,1,0,72,0,0
58277,-117.071558420096,4,1,0,72,0,0
58350,-115.676028739386,4,1,0,72,0,0
58424,-114.294933849629,4,1,0,72,0,0
58498,-112.946428571429,4,1,0,72,0,0
58572,-111.629372833281,4,1,0,72,0,0
58646,-110.342679127726,4,1,0,72,0,0
58719,-109.102109964577,4,1,0,72,0,0
58796,-100,4,1,0,77,0,0
58867,-106.670682126186,4,1,0,77,0,0
58944,-100,4,1,0,78,0,0
59015,-104.345264398291,4,1,0,78,0,0
59091,-100,4,1,0,79,0,0
59162,-102.133794694348,4,1,0,79,0,0
59239,-100,4,1,0,80,0,0
59313,221.40221402214,4,1,0,80,1,1
59313,-100,4,1,0,80,0,1
59420,-100.078926598264,4,1,0,80,0,1
59531,-100.158697103957,4,1,0,80,0,1
59586,-100.19827016465,4,1,0,80,0,1
59642,-100.238594877397,4,1,0,80,0,1
59753,-100.318620223394,4,1,0,80,0,1
59808,-100.358319782418,4,1,0,80,0,1
59863,-100.398050774867,4,1,0,80,0,1
59974,-100.478331028124,4,1,0,80,0,1
60029,-100.518157119075,4,1,0,80,0,1
60085,-100.558739771457,4,1,0,80,0,1
60195,-100.638551174285,4,1,0,80,0,1
60251,-100.679231119035,4,1,0,80,0,1
60306,-100.719216660408,4,1,0,80,0,1
60417,-100.800011562949,4,1,0,80,0,1
60527,-100.880206562855,4,1,0,80,0,1
60638,-100.961260061382,4,1,0,80,0,1
60693,-101.001469981245,4,1,0,80,0,1
60749,-101.042443911591,4,1,0,80,0,1
60860,-101.123758428188,4,1,0,80,0,1
60970,-101.204469598026,4,1,0,80,0,1
61081,-101.286045211279,4,1,0,80,0,1
61136,-101.32651430398,4,1,0,80,0,1
61192,-101.367752438262,4,1,0,80,0,1
61302,-101.448853718143,4,1,0,80,0,1
61413,-101.530823937049,4,1,0,80,0,1
61524,-101.61292672621,4,1,0,80,0,1
61579,-101.653657505594,4,1,0,80,0,1
61634,-101.694420951325,4,1,0,80,0,1
61745,-101.776788646065,4,1,0,80,0,1
61856,-101.859289876875,4,1,0,80,0,1
61967,-101.941924968755,4,1,0,80,0,1
62022,-101.982919981282,4,1,0,80,0,1
62077,-102.023947978612,4,1,0,80,0,1
62188,-102.106850558557,4,1,0,80,0,1
62299,-102.189887977962,4,1,0,80,0,1
62409,-102.272310659109,4,1,0,80,0,1
62465,-102.314322391344,4,1,0,80,0,1
62520,-102.355617524033,4,1,0,80,0,1
62631,-102.439060216365,4,1,0,80,0,1
62686,-102.480456121789,4,1,0,80,0,1
62741,-102.521885497137,4,1,0,80,0,1
62852,-102.605599611588,4,1,0,80,0,1
62908,-102.647885665504,4,1,0,80,0,1
62963,-102.689450551069,4,1,0,80,0,1
63074,-102.773438651301,4,1,0,80,0,1
63184,-102.856805746058,4,1,0,80,0,1
63295,-102.941067936086,4,1,0,80,0,1
63350,-102.982870643828,4,1,0,80,0,1
63406,-103.025468297583,4,1,0,80,0,1
63516,-103.1092449399,4,1,0,80,0,1
63627,-103.193921413405,4,1,0,80,0,1
63682,-103.235929774699,4,1,0,80,0,1
63738,-103.278737079051,4,1,0,80,0,1
63793,-103.320814536619,4,1,0,80,0,1
63848,-103.36292629426,4,1,0,80,0,1
63959,-103.448020114069,4,1,0,80,0,1
64070,-103.53325415677,4,1,0,80,0,1
64181,-103.61862876925,4,1,0,80,0,1
64236,-103.660983694279,4,1,0,80,0,1
64291,-103.703373259281,4,1,0,80,0,1
64402,-103.789028782332,4,1,0,80,0,1
64457,-103.831523155144,4,1,0,80,0,1
64513,-103.874825919554,4,1,0,80,0,1
64623,-103.959990161515,4,1,0,80,0,1
64679,-104.003400168517,4,1,0,80,0,1
64734,-104.04607029898,4,1,0,80,0,1
64845,-104.132293105379,4,1,0,80,0,1
64955,-104.217880225651,4,1,0,80,0,1
65066,-104.304388142742,4,1,0,80,0,1
65177,-104.391039794032,4,1,0,80,0,1
65288,-104.477835538044,4,1,0,80,0,1
65343,-104.520895936214,4,1,0,80,0,1
65398,-104.563991843589,4,1,0,80,0,1
65509,-104.651075547152,4,1,0,80,0,1
65564,-104.69427889451,4,1,0,80,0,1
65620,-104.738304422918,4,1,0,80,0,1
65730,-104.824891026605,4,1,0,80,0,1
65786,-104.869026495444,4,1,0,80,0,1
65841,-104.912410021888,4,1,0,80,0,1
65952,-105.000075279664,4,1,0,80,0,1
66007,-105.04356732413,4,1,0,80,0,1
66062,-105.087095413176,4,1,0,80,0,1
66173,-105.175052972093,4,1,0,80,0,1
66229,-105.219483860261,4,1,0,80,0,1
66284,-105.263157894737,4,1,0,80,0,1
66395,-100,4,1,0,80,0,1
66450,-100.039447731755,4,1,0,80,0,1
66505,-100.078926598264,4,1,0,80,0,1
66616,-100.158697103957,4,1,0,80,0,1
66671,-100.19827016465,4,1,0,80,0,1
66727,-100.238594877397,4,1,0,80,0,1
66837,-100.317898703951,4,1,0,80,0,1
66893,-100.358319782418,4,1,0,80,0,1
66948,-100.398050774867,4,1,0,80,0,1
67059,-100.478331028124,4,1,0,80,0,1
67114,-100.518157119075,4,1,0,80,0,1
67170,-100.558739771457,4,1,0,80,0,1
67280,-100.638551174285,4,1,0,80,0,1
67336,-100.679231119035,4,1,0,80,0,1
67391,-100.719216660408,4,1,0,80,0,1
67502,-100.800011562949,4,1,0,80,0,1
67612,-100.880206562855,4,1,0,80,0,1
67723,-100.961260061382,4,1,0,80,0,1
67778,-101.001469981245,4,1,0,80,0,1
67834,-101.042443911591,4,1,0,80,0,1
67944,-101.123025280756,4,1,0,80,0,1
68055,-101.204469598026,4,1,0,80,0,1
68166,-101.286045211279,4,1,0,80,0,1
68221,-101.32651430398,4,1,0,80,0,1
68277,-101.367752438262,4,1,0,80,0,1
68387,-101.448853718143,4,1,0,80,0,1
68498,-101.530823937049,4,1,0,80,0,1
68609,-101.61292672621,4,1,0,80,0,1
68664,-101.653657505594,4,1,0,80,0,1
68719,-101.694420951325,4,1,0,80,0,1
68830,-101.776788646065,4,1,0,80,0,1
68941,-101.859289876875,4,1,0,80,0,1
69051,-101.941179909957,4,1,0,80,0,1
69107,-101.982919981282,4,1,0,80,0,1
69162,-102.023947978612,4,1,0,80,0,1
69273,-102.106850558557,4,1,0,80,0,1
69384,-102.189887977962,4,1,0,80,0,1
69494,-102.272310659109,4,1,0,80,0,1
69550,-102.314322391344,4,1,0,80,0,1
69605,-102.355617524033,4,1,0,80,0,1
69716,-102.439060216365,4,1,0,80,0,1
69826,-102.521885497137,4,1,0,80,0,1
69937,-102.605599611588,4,1,0,80,0,1
69992,-102.647130251761,4,1,0,80,0,1
70048,-102.689450551069,4,1,0,80,0,1
70158,-102.772681388477,4,1,0,80,0,1
70269,-102.856805746058,4,1,0,80,0,1
70380,-102.941067936086,4,1,0,80,0,1
70435,-102.982870643828,4,1,0,80,0,1
70491,-103.025468297583,4,1,0,80,0,1
70601,-103.1092449399,4,1,0,80,0,1
70712,-103.193921413405,4,1,0,80,0,1
70823,-103.278737079051,4,1,0,80,0,1
70878,-103.320814536619,4,1,0,80,0,1
70933,-103.36292629426,4,1,0,80,0,1
71044,-103.448020114069,4,1,0,80,0,1
71155,-103.53325415677,4,1,0,80,0,1
71265,-103.617859000074,4,1,0,80,0,1
71321,-103.660983694279,4,1,0,80,0,1
71376,-103.703373259281,4,1,0,80,0,1
71487,-103.789028782332,4,1,0,80,0,1
71542,-103.831523155144,4,1,0,80,0,1
71598,-103.874825919554,4,1,0,80,0,1
71708,-103.959990161515,4,1,0,80,0,1
71764,-104.003400168517,4,1,0,80,0,1
71819,-104.04607029898,4,1,0,80,0,1
71930,-104.132293105379,4,1,0,80,0,1
71985,-104.175069086564,4,1,0,80,0,1
72040,-104.217880225651,4,1,0,80,0,1
72151,-104.304388142742,4,1,0,80,0,1
72206,-104.347305658006,4,1,0,80,0,1
72262,-104.391039794032,4,1,0,80,0,1
72372,-104.477052950121,4,1,0,80,0,1
72483,-104.563991843589,4,1,0,80,0,1
72594,-104.651075547152,4,1,0,80,0,1
72649,-104.69427889451,4,1,0,80,0,1
72705,-104.738304422918,4,1,0,80,0,1
72815,-104.824891026605,4,1,0,80,0,1
72871,-104.869026495444,4,1,0,80,0,1
72926,-104.912410021888,4,1,0,80,0,1
72981,-104.955829458064,4,1,0,80,0,1
73039,-105.000075279664,4,1,0,80,0,0
73147,-105.087095413176,4,1,0,80,0,0
73258,-105.175052972093,4,1,0,80,0,0
73369,-105.263157894737,4,1,0,80,0,0
73482,-100,4,1,0,70,0,0
76139,-100,4,1,0,70,0,0
76284,-103.456328818309,4,1,0,70,0,0
76431,-107.134220072551,4,1,0,70,0,0
76579,-111.111111111111,4,1,0,70,0,0
76727,-105.250653361844,4,1,0,70,0,0
76874,-100.011287955751,4,1,0,70,0,0
77025,-95.2380952380952,4,1,0,80,0,1
77133,-95.3850002084462,4,1,0,80,0,1
77243,-95.5310294915868,4,1,0,80,0,1
77299,-95.6055435615294,4,1,0,80,0,1
77354,-95.6788402564817,4,1,0,80,0,1
77465,-95.8271091317762,4,1,0,80,0,1
77520,-95.9007460809791,4,1,0,80,0,1
77575,-95.9744962876998,4,1,0,80,0,1
77686,-96.1236836208828,4,1,0,80,0,1
77741,-96.1977772483287,4,1,0,80,0,1
77797,-96.2733354839615,4,1,0,80,0,1
77908,-96.4234540499536,4,1,0,80,0,1
77963,-96.4980107126288,4,1,0,80,0,1
78018,-96.5726827621138,4,1,0,80,0,1
78129,-96.7237370534771,4,1,0,80,0,1
78240,-96.875264628673,4,1,0,80,0,1
78350,-97.0258961890761,4,1,0,80,0,1
78406,-97.1027614305115,4,1,0,80,0,1
78461,-97.1783727153031,4,1,0,80,0,1
78572,-97.3313292305947,4,1,0,80,0,1
78627,-97.4072970326536,4,1,0,80,0,1
78682,-97.4833835141737,4,1,0,80,0,1
78738,-97.5609756097561,4,1,0,80,0,1
78793,-97.6373024565796,4,1,0,80,0,1
78904,-97.7917082205442,4,1,0,80,0,1
79015,-97.9466031193367,4,1,0,80,0,1
79070,-98.0235347880727,4,1,0,80,0,1
79125,-98.1005874029927,4,1,0,80,0,1
79236,-98.2564631108821,4,1,0,80,0,1
79291,-98.3338824978869,4,1,0,80,0,1
79347,-98.4128349606435,4,1,0,80,0,1
79457,-98.5682898459152,4,1,0,80,0,1
79513,-98.6476193213664,4,1,0,80,0,1
79568,-98.725656588902,4,1,0,80,0,1
79679,-98.8835266152849,4,1,0,80,0,1
79734,-98.961937716263,4,1,0,80,0,1
79789,-99.0404732703268,4,1,0,80,0,1
79900,-99.1993525450183,4,1,0,80,0,1
79955,-99.2782655230767,4,1,0,80,0,1
80011,-99.3587423823517,4,1,0,80,0,1
80066,-99.4379092542157,4,1,0,80,0,1
80122,-99.5186452473468,4,1,0,80,0,1
80288,-99.758741970177,4,1,0,80,0,1
80454,-100,4,1,0,80,0,1
80567,-95.2380952380952,4,1,0,70,0,1
82409,-95.6136560069144,4,1,0,70,0,1
82483,-95.997396680768,4,1,0,70,0,1
82557,-96.3842300152472,4,1,0,70,0,1
82631,-96.7741935483871,4,1,0,70,0,1
82705,-97.167325428195,4,1,0,70,0,1
82778,-97.5582869426225,4,1,0,70,0,1
82852,-97.9578283247551,4,1,0,70,0,1
82926,-98.3606557377049,4,1,0,70,0,1
83000,-98.7668098878411,4,1,0,70,0,1
83074,-99.176332156665,4,1,0,70,0,1
83147,-99.5836615280747,4,1,0,70,0,1
83224,-100,4,1,0,70,0,0
83369,-99.1717036042086,4,1,0,70,0,0
83516,-98.3624757146822,4,1,0,70,0,0
83664,-97.5609756097561,4,1,0,70,0,0
83812,-96.7724318715526,4,1,0,70,0,0
83959,-96.0017336656192,4,1,0,70,0,0
84110,-95.2380952380952,4,1,0,80,0,1
84217,-95.3096812988575,4,1,0,80,0,1
84328,-95.3820273125765,4,1,0,80,0,1
84384,-95.4185679005589,4,1,0,80,0,1
84439,-95.4544832400323,4,1,0,80,0,1
84550,-95.5270493318997,4,1,0,80,0,1
84605,-95.5630463975445,4,1,0,80,0,1
84660,-95.5990706026689,4,1,0,80,0,1
84771,-95.6718567803004,4,1,0,80,0,1
84826,-95.7079630836793,4,1,0,80,0,1
84882,-95.7447538766741,4,1,0,80,0,1
84992,-95.8171039163558,4,1,0,80,0,1
85048,-95.853978682317,4,1,0,80,0,1
85103,-95.8902226072131,4,1,0,80,0,1
85214,-95.9634529780456,4,1,0,80,0,1
85324,-96.036134042978,4,1,0,80,0,1
85435,-96.1095875308353,4,1,0,80,0,1
85491,-96.1466878058868,4,1,0,80,0,1
85546,-96.1831534668827,4,1,0,80,0,1
85657,-96.2568321095346,4,1,0,80,0,1
85767,-96.3299584236916,4,1,0,80,0,1
85878,-96.4038622367521,4,1,0,80,0,1
85933,-96.4405232735017,4,1,0,80,0,1
85989,-96.477879534073,4,1,0,80,0,1
86099,-96.5513422214838,4,1,0,80,0,1
86210,-96.6255862446398,4,1,0,80,0,1
86321,-96.699944536883,4,1,0,80,0,1
86376,-96.7368311544197,4,1,0,80,0,1
86431,-96.7737459238188,4,1,0,80,0,1
86542,-96.8483325116825,4,1,0,80,0,1
86653,-96.9230341607138,4,1,0,80,0,1
86764,-96.9978511373673,4,1,0,80,0,1
86819,-97.0349654241627,4,1,0,80,0,1
86874,-97.0721081239082,4,1,0,80,0,1
86985,-97.1471555134563,4,1,0,80,0,1
87096,-97.2223190325166,4,1,0,80,0,1
87206,-97.296920232988,4,1,0,80,0,1
87262,-97.3349430212353,4,1,0,80,0,1
87317,-97.3723157688978,4,1,0,80,0,1
87428,-97.4478282436615,4,1,0,80,0,1
87483,-97.485287745146,4,1,0,80,0,1
87539,-97.5234579295493,4,1,0,80,0,1
87649,-97.5985221674877,4,1,0,80,0,1
87705,-97.6367810942487,4,1,0,80,0,1
87760,-97.6743860337112,4,1,0,80,0,1
87871,-97.7503679304787,4,1,0,80,0,1
87981,-97.8257820171132,4,1,0,80,0,1
88037,-97.8642193595465,4,1,0,80,0,1
88092,-97.9019997332753,4,1,0,80,0,1
88147,-97.9398092884126,4,1,0,80,0,1
88203,-97.9783363070569,4,1,0,80,0,1
88313,-98.0541026938867,4,1,0,80,0,1
88424,-98.1306767414537,4,1,0,80,0,1
88535,-98.2073704814611,4,1,0,80,0,1
88590,-98.2454163174169,4,1,0,80,0,1
88646,-98.2841841947645,4,1,0,80,0,1
88756,-98.3604245266387,4,1,0,80,0,1
88867,-98.4374779454317,4,1,0,80,0,1
88978,-98.5146521828186,4,1,0,80,0,1
89033,-98.5529365213951,4,1,0,80,0,1
89088,-98.5912506273282,4,1,0,80,0,1
89199,-98.6686662610886,4,1,0,80,0,1
89254,-98.7070704211398,4,1,0,80,0,1
89310,-98.7462035667004,4,1,0,80,0,1
89420,-98.8231626529499,4,1,0,80,0,1
89476,-98.8623879221746,4,1,0,80,0,1
89531,-98.9009430617599,4,1,0,80,0,1
89642,-98.9788460037326,4,1,0,80,0,1
89753,-99.0568717686495,4,1,0,80,0,1
89863,-99.1343160528224,4,1,0,80,0,1
89974,-99.2125872235697,4,1,0,80,0,1
90085,-99.2909820894672,4,1,0,80,0,1
90140,-99.3298723125458,4,1,0,80,0,1
90195,-99.3687930125529,4,1,0,80,0,1
90306,-99.4474350290542,4,1,0,80,0,1
90361,-99.4864479315264,4,1,0,80,0,1
90417,-99.5262016211896,4,1,0,80,0,1
90527,-99.6043817929931,4,1,0,80,0,1
90583,-99.6442298075412,4,1,0,80,0,1
90638,-99.6833972970848,4,1,0,80,0,1
90749,-99.762538265671,4,1,0,80,0,1
90804,-99.801798836552,4,1,0,80,0,1
90860,-99.8418049978168,4,1,0,80,0,1
90970,-99.9204819794972,4,1,0,80,0,1
91026,-99.9605833661805,4,1,0,80,0,1
91081,-100,4,1,0,80,0,1
91192,-95.2380952380952,4,1,0,80,0,1
91247,-95.2733140590331,4,1,0,80,0,1
91302,-95.3085589372793,4,1,0,80,0,1
91413,-95.3797689884494,4,1,0,80,0,1
91468,-95.4150926879852,4,1,0,80,0,1
91524,-95.4510855287532,4,1,0,80,0,1
91634,-95.5218648672334,4,1,0,80,0,1
91690,-95.5579383223074,4,1,0,80,0,1
91745,-95.5933941389174,4,1,0,80,0,1
91856,-95.6650306168605,4,1,0,80,0,1
91911,-95.7005659638269,4,1,0,80,0,1
91967,-95.7367745422606,4,1,0,80,0,1
92077,-95.8079783637593,4,1,0,80,0,1
92133,-95.8442682827846,4,1,0,80,0,1
92188,-95.8799369371198,4,1,0,80,0,1
92299,-95.9520036836902,4,1,0,80,0,1
92409,-96.0235281361813,4,1,0,80,0,1
92465,-96.0599815608222,4,1,0,80,0,1
92520,-96.0958109821846,4,1,0,80,0,1
92575,-96.1316671415585,4,1,0,80,0,1
92631,-96.1682027337016,4,1,0,80,0,1
92741,-96.2400499877747,4,1,0,80,0,1
92852,-96.3126593033135,4,1,0,80,0,1
92963,-96.3853782632947,4,1,0,80,0,1
93018,-96.4214508808579,4,1,0,80,0,1
93074,-96.4582071162604,4,1,0,80,0,1
93184,-96.5304885110325,4,1,0,80,0,1
93295,-96.6035369029601,4,1,0,80,0,1
93406,-96.6766959357581,4,1,0,80,0,1
93461,-96.7129869775315,4,1,0,80,0,1
93516,-96.7493052758072,4,1,0,80,0,1
93627,-96.822685343355,4,1,0,80,0,1
93738,-96.8961768064606,4,1,0,80,0,1
93848,-96.9691163287232,4,1,0,80,0,1
93904,-97.0062913748605,4,1,0,80,0,1
93959,-97.042830335986,4,1,0,80,0,1
94070,-97.1166565003735,4,1,0,80,0,1
94125,-97.153278666045,4,1,0,80,0,1
94181,-97.1905950780543,4,1,0,80,0,1
94291,-97.2639786939033,4,1,0,80,0,1
94347,-97.3013802101215,4,1,0,80,0,1
94402,-97.3381418512794,4,1,0,80,0,1
94513,-97.4124181928175,4,1,0,80,0,1
94623,-97.4861372924034,4,1,0,80,0,1
94734,-97.5606397554443,4,1,0,80,0,1
94789,-97.5975975975976,4,1,0,80,0,1
94845,-97.6352561805804,4,1,0,80,0,1
94955,-97.7093130697411,4,1,0,80,0,1
95066,-97.7841571723334,4,1,0,80,0,1
95177,-97.8591160220994,4,1,0,80,0,1
95232,-97.8963003903416,4,1,0,80,0,1
95288,-97.9341898831286,4,1,0,80,0,1
95398,-98.0087011253363,4,1,0,80,0,1
95509,-98.0840047623003,4,1,0,80,0,1
95620,-98.1594242052689,4,1,0,80,0,1
95675,-98.1968371886738,4,1,0,80,0,1
95730,-98.2342787025033,4,1,0,80,0,1
95786,-98.2724303181197,4,1,0,80,0,1
95841,-98.3099295110174,4,1,0,80,0,1
95952,-98.3856969276167,4,1,0,80,0,1
96062,-98.4608970572908,4,1,0,80,0,1
96118,-98.4992249355271,4,1,0,80,0,1
96173,-98.5368974437429,4,1,0,80,0,1
96284,-98.6130152477852,4,1,0,80,0,1
96339,-98.6507748645901,4,1,0,80,0,1
96395,-98.6892507417364,4,1,0,80,0,1
96450,-98.7270687745163,4,1,0,80,0,1
96505,-98.7649158023865,4,1,0,80,0,1
96616,-98.8413864300612,4,1,0,80,0,1
96727,-98.9179755671902,4,1,0,80,0,1
96782,-98.9559691330005,4,1,0,80,0,1
96837,-98.9939918960458,4,1,0,80,0,1
96948,-99.0708178061792,4,1,0,80,0,1
97003,-99.108928896163,4,1,0,80,0,1
97059,-99.1477630529394,4,1,0,80,0,1
97114,-99.1859333767316,4,1,0,80,0,1
97170,-99.224827914598,4,1,0,80,0,1
97280,-99.301316776106,4,1,0,80,0,1
97336,-99.3403018767395,4,1,0,80,0,1
97391,-99.3786206219404,4,1,0,80,0,1
97446,-99.4169689400902,4,1,0,80,0,1
97502,-99.4560449201614,4,1,0,80,0,1
97557,-99.4944530262604,4,1,0,80,0,1
97612,-99.5328908088364,4,1,0,80,0,1
97668,-99.5720579864942,4,1,0,80,0,1
97723,-99.6105557664459,4,1,0,80,0,1
97778,-99.649083326887,4,1,0,80,0,1
97836,-99.6883420217668,4,1,0,80,0,0
97944,-99.7655474431998,4,1,0,80,0,0
98055,-99.8435760488155,4,1,0,80,0,0
98166,-99.9217268053959,4,1,0,80,0,0
98277,-100,4,1,0,80,0,0
99608,-100,4,1,0,70,0,0
99660,-99.383062254627,4,1,0,70,0,0
99716,-98.7626797458477,4,1,0,70,0,0
99771,-98.160868601817,4,1,0,70,0,0
99826,-97.5663473185772,4,1,0,70,0,0
99882,-96.9683703622633,4,1,0,70,0,0
99937,-96.3881636205396,4,1,0,70,0,0
99995,-100,4,1,0,79,0,0
100051,-95.2380952380952,4,1,0,80,0,1
100158,-95.3330674112485,4,1,0,80,0,1
100214,-95.3814896781918,4,1,0,80,0,1
100269,-95.4290951659301,4,1,0,80,0,1
100380,-95.5253165706811,4,1,0,80,0,1
100491,-95.6217322118663,4,1,0,80,0,1
100546,-95.6695778748181,4,1,0,80,0,1
100601,-95.7174714422246,4,1,0,80,0,1
100712,-95.8142755617107,4,1,0,80,0,1
100823,-95.9112756856343,4,1,0,80,0,1
100933,-96.0075958843453,4,1,0,80,0,1
100989,-96.0567059747709,4,1,0,80,0,1
101044,-96.1049880280017,4,1,0,80,0,1
101099,-96.153318642735,4,1,0,80,0,1
101155,-96.202577965621,4,1,0,80,0,1
101265,-96.2994844369557,4,1,0,80,0,1
101376,-96.3974699789165,4,1,0,80,0,1
101431,-96.446095290503,4,1,0,80,0,1
101487,-96.495655126217,4,1,0,80,0,1
101598,-96.5940404894,4,1,0,80,0,1
101708,-96.6917376193016,4,1,0,80,0,1
101764,-96.7415502934629,4,1,0,80,0,1
101819,-96.790523438291,4,1,0,80,0,1
101874,-96.839546191248,4,1,0,80,0,1
101930,-96.8895113142183,4,1,0,80,0,1
102040,-96.98780735248,4,1,0,80,0,1
102151,-97.0871993722014,4,1,0,80,0,1
102262,-97.1867953125577,4,1,0,80,0,1
102317,-97.2362203996338,4,1,0,80,0,1
102372,-97.2856957832997,4,1,0,80,0,1
102483,-97.3856996008631,4,1,0,80,0,1
102594,-97.485909225749,4,1,0,80,0,1
102649,-97.5356390921654,4,1,0,80,0,1
102705,-97.5863252939375,4,1,0,80,0,1
102760,-97.6361576885225,4,1,0,80,0,1
102815,-97.6860410028704,4,1,0,80,0,1
102926,-97.7868700018598,4,1,0,80,0,1
102981,-97.8369074754617,4,1,0,80,0,1
103037,-97.8879073620717,4,1,0,80,0,1
103147,-97.988240665679,4,1,0,80,0,1
103203,-98.039398487829,4,1,0,80,0,1
103258,-98.0896947988956,4,1,0,80,0,1
103369,-98.1913592350859,4,1,0,80,0,1
103424,-98.2418116253433,4,1,0,80,0,1
103479,-98.2923158888463,4,1,0,80,0,1
103535,-98.343791790968,4,1,0,80,0,1
103590,-98.3944009880609,4,1,0,80,0,1
103701,-98.4966983562029,4,1,0,80,0,1
103812,-98.5992086560279,4,1,0,80,0,1
103922,-98.7010061570806,4,1,0,80,0,1
104033,-98.80394238629,4,1,0,80,0,1
104144,-98.9070935460206,4,1,0,80,0,1
104254,-99.0095281135842,4,1,0,80,0,1
104310,-99.0617581672256,4,1,0,80,0,1
104365,-99.1131092072648,4,1,0,80,0,1
104476,-99.2169072554015,4,1,0,80,0,1
104531,-99.2684193137301,4,1,0,80,0,1
104586,-99.3199848885531,4,1,0,80,0,1
104697,-99.4242169255642,4,1,0,80,0,1
104753,-99.4768855296889,4,1,0,80,0,1
104808,-99.5286679664578,4,1,0,80,0,1
104919,-99.6333387021895,4,1,0,80,0,1
104974,-99.6852841921662,4,1,0,80,0,1
105029,-99.7372838756793,4,1,0,80,0,1
105085,-99.790284776193,4,1,0,80,0,1
105140,-99.8423940907278,4,1,0,80,0,1
105195,-99.8945578554398,4,1,0,80,0,1
105251,-99.9477260846837,4,1,0,80,0,1
105306,-100,4,1,0,80,0,1
105361,-95.2380952380952,4,1,0,80,0,1
105417,-95.3146070639543,4,1,0,80,0,1
105472,-95.3898723636416,4,1,0,80,0,1
105583,-95.5421340235835,4,1,0,80,0,1
105638,-95.6177592286105,4,1,0,80,0,1
105693,-95.6935042488838,4,1,0,80,0,1
105804,-95.8467375467044,4,1,0,80,0,1
105860,-95.9242308303134,4,1,0,80,0,1
105915,-96.000462374292,4,1,0,80,0,1
106026,-96.1546811004819,4,1,0,80,0,1
106081,-96.2312795110223,4,1,0,80,0,1
106136,-96.3080000579819,4,1,0,80,0,1
106247,-96.4632092456008,4,1,0,80,0,1
106302,-96.5403001990671,4,1,0,80,0,1
106358,-96.6189195084709,4,1,0,80,0,1
106413,-96.6962596419735,4,1,0,80,0,1
106468,-96.7737236909184,4,1,0,80,0,1
106524,-96.8527238006385,4,1,0,80,0,1
106579,-96.9304388422035,4,1,0,80,0,1
106634,-97.0082787016893,4,1,0,80,0,1
106690,-97.0876623851066,4,1,0,80,0,1
106856,-97.3237435364085,4,1,0,80,0,1
107022,-97.5609756097561,4,1,0,80,0,1
107133,-95.2380952380952,4,1,0,80,0,1
107243,-95.3320832922136,4,1,0,80,0,1
107299,-95.3800030518729,4,1,0,80,0,1
107354,-95.4271140168116,4,1,0,80,0,1
107465,-95.5223343910968,4,1,0,80,0,1
107575,-95.6168845776606,4,1,0,80,0,1
107631,-95.6650911546252,4,1,0,80,0,1
107686,-95.7124842370744,4,1,0,80,0,1
107741,-95.7599243004551,4,1,0,80,0,1
107797,-95.8082752526846,4,1,0,80,0,1
107908,-95.9042581996065,4,1,0,80,0,1
108018,-95.9995663486557,4,1,0,80,0,1
108074,-96.0481596644732,4,1,0,80,0,1
108129,-96.0959331506552,4,1,0,80,0,1
108184,-96.1437541846872,4,1,0,80,0,1
108240,-96.1924936179458,4,1,0,80,0,1
108350,-96.28837580195,4,1,0,80,0,1
108461,-96.3853235974421,4,1,0,80,0,1
108516,-96.4334331609039,4,1,0,80,0,1
108572,-96.4824668131549,4,1,0,80,0,1
108627,-96.530673425449,4,1,0,80,0,1
108682,-96.5789282338399,4,1,0,80,0,1
108738,-96.6281099956351,4,1,0,80,0,1
108793,-96.6764622929044,4,1,0,80,0,1
108848,-96.7248630049701,4,1,0,80,0,1
108904,-96.7741935483871,4,1,0,80,0,1
108959,-96.8226921920417,4,1,0,80,0,1
109015,-96.872122598937,4,1,0,80,0,1
109125,-96.9693651271662,4,1,0,80,0,1
109236,-97.0676897780214,4,1,0,80,0,1
109347,-97.1662140290237,4,1,0,80,0,1
109402,-97.2151064919857,4,1,0,80,0,1
109457,-97.2640481835074,4,1,0,80,0,1
109568,-97.3629716505708,4,1,0,80,0,1
109679,-97.4620965448925,4,1,0,80,0,1
109789,-97.5605277413076,4,1,0,80,0,1
109845,-97.6107145809794,4,1,0,80,0,1
109900,-97.6600555116446,4,1,0,80,0,1
110011,-97.7597865587193,4,1,0,80,0,1
110122,-97.8597215059309,4,1,0,80,0,1
110232,-97.9589579069639,4,1,0,80,0,1
110288,-98.0095556088472,4,1,0,80,0,1
110343,-98.0593006838127,4,1,0,80,0,1
110454,-98.1598492406607,4,1,0,80,0,1
110509,-98.2097470355001,4,1,0,80,0,1
110564,-98.259695585434,4,1,0,80,0,1
110675,-98.3606557377049,4,1,0,80,0,1
110730,-98.4107579462103,4,1,0,80,0,1
110786,-98.461823573017,4,1,0,80,0,1
110896,-98.5622855022725,4,1,0,80,0,1
110952,-98.6135085472465,4,1,0,80,0,1
111007,-98.6638687452994,4,1,0,80,0,1
111118,-98.7656615979477,4,1,0,80,0,1
111173,-98.8161773595082,4,1,0,80,0,1
111229,-98.8676647096588,4,1,0,80,0,1
111284,-98.9182848950867,4,1,0,80,0,1
111339,-98.9689569420772,4,1,0,80,0,1
111450,-99.0713806220631,4,1,0,80,0,1
111505,-99.1222096808798,4,1,0,80,0,1
111561,-99.1740165196696,4,1,0,80,0,1
111671,-99.2759377773625,4,1,0,80,0,1
111727,-99.3279054767758,4,1,0,80,0,1
111782,-99.3789981669223,4,1,0,80,0,1
111837,-99.4301434466496,4,1,0,80,0,1
111893,-99.4822727570614,4,1,0,80,0,1
112003,-99.5848289176499,4,1,0,80,0,1
112059,-99.6371205941095,4,1,0,80,0,1
112114,-99.6885319723807,4,1,0,80,0,1
112170,-99.740932642487,4,1,0,80,0,1
112225,-99.7924512354317,4,1,0,80,0,1
112280,-99.8440230770676,4,1,0,80,0,1
112336,-99.8965873836608,4,1,0,80,0,1
112449,-100,4,1,0,80,0,0
112889,-101.587984371079,4,1,0,80,0,0
113037,-102.129806479513,4,1,0,80,0,0
113184,-102.673719295703,4,1,0,80,0,0
113332,-103.227216434764,4,1,0,80,0,0
113627,-104.348466438381,4,1,0,80,0,0
113922,-105.494341870161,4,1,0,80,0,0
114217,-106.665662990703,4,1,0,80,0,0
114660,-108.474316772564,4,1,0,80,0,0
114808,-109.092308876742,4,1,0,80,0,0
114955,-109.71313537997,4,1,0,80,0,0
115103,-110.345364638087,4,1,0,80,0,0
115398,-111.627540570348,4,1,0,80,0,0
115546,-112.282091917591,4,1,0,80,0,0
115693,-112.93986370701,4,1,0,80,0,0
115841,-113.609941872119,4,1,0,80,0,0
115989,-114.288018711941,4,1,0,80,0,0
116431,-116.362143297064,4,1,0,80,0,0
116579,-117.073573759656,4,1,0,80,0,0
116727,-117.793757014007,4,1,0,80,0,0
116874,-118.517898962864,4,1,0,80,0,0
117170,-120.003387533875,4,1,0,80,0,0
117465,-121.521375584237,4,1,0,80,0,0
117760,-123.078259358985,4,1,0,80,0,0
118203,-125.492627197449,4,1,0,80,0,0
118350,-126.314851132109,4,1,0,80,0,0
118498,-127.153625269203,4,1,0,80,0,0
118646,-128.003613369467,4,1,0,80,0,0
118941,-129.732204165713,4,1,0,80,0,0
119088,-130.611116231911,4,1,0,80,0,0
119236,-131.508120649652,4,1,0,80,0,0
119531,-133.333333333333,4,1,0,80,0,0
127649,-125.031766200762,4,1,0,80,0,0
127797,-117.656436827421,4,1,0,80,0,0
127944,-111.144578313253,4,1,0,80,0,0
128092,-105.27817403709,4,1,0,80,0,0
128240,-100,4,1,0,80,0,0
128722,-200,4,1,0,80,0,0

[HitObjects]
256,192,863,12,0,2340,0:0:0:0:
256,192,2635,5,12,0:0:0:0:
256,192,3078,1,0,0:0:0:0:
256,192,3225,1,0,0:0:0:0:
256,192,3373,1,0,0:0:0:0:
256,192,3520,1,8,0:0:0:0:
256,192,3816,1,0,0:0:0:0:
256,192,4111,1,8,0:0:0:0:
256,192,4406,1,8,0:0:0:0:
256,192,4849,1,0,0:0:0:0:
256,192,4996,1,0,0:0:0:0:
256,192,5144,1,0,0:0:0:0:
256,192,5292,1,0,0:0:0:0:
256,192,5734,1,8,0:0:0:0:
256,192,5882,1,0,0:0:0:0:
256,192,6030,1,0,0:0:0:0:
256,192,6177,1,8,0:0:0:0:
256,192,6620,1,0,0:0:0:0:
256,192,6768,1,0,0:0:0:0:
256,192,6915,1,0,0:0:0:0:
256,192,7063,1,0,0:0:0:0:
256,192,7358,1,8,0:0:0:0:
256,192,7653,1,8,0:0:0:0:
256,192,7948,1,0,0:0:0:0:
256,192,8391,1,0,0:0:0:0:
256,192,8539,1,0,0:0:0:0:
256,192,8686,1,0,0:0:0:0:
256,192,8834,1,0,0:0:0:0:
256,192,9129,1,8,0:0:0:0:
256,192,9277,1,0,0:0:0:0:
256,192,9424,1,8,0:0:0:0:
256,192,9720,1,0,0:0:0:0:
256,192,10162,1,0,0:0:0:0:
256,192,10310,1,0,0:0:0:0:
256,192,10458,1,0,0:0:0:0:
256,192,10605,1,8,0:0:0:0:
256,192,11048,1,0,0:0:0:0:
256,192,11491,1,8,0:0:0:0:
256,192,11934,1,0,0:0:0:0:
256,192,12081,1,0,0:0:0:0:
256,192,12229,1,0,0:0:0:0:
256,192,12376,1,8,0:0:0:0:
256,192,12819,1,8,0:0:0:0:
256,192,13262,1,0,0:0:0:0:
256,192,13705,1,0,0:0:0:0:
256,192,13852,1,0,0:0:0:0:
256,192,14000,1,0,0:0:0:0:
256,192,14148,1,8,0:0:0:0:
256,192,14443,1,0,0:0:0:0:
256,192,14590,1,8,0:0:0:0:
256,192,14738,1,0,0:0:0:0:
256,192,15033,1,8,0:0:0:0:
256,192,15476,1,8,0:0:0:0:
256,192,15919,1,0,0:0:0:0:
256,192,16066,1,0,0:0:0:0:
256,192,16214,1,8,0:0:0:0:
256,192,16362,1,8,0:0:0:0:
256,192,16509,1,0,0:0:0:0:
256,192,16657,1,0,0:0:0:0:
256,192,16804,1,12,0:0:0:0:
256,192,17025,1,8,0:0:0:0:
256,192,17136,1,0,0:0:0:0:
256,192,17191,1,0,0:0:0:0:
256,192,17246,1,0,0:0:0:0:
256,192,17357,1,8,0:0:0:0:
256,192,17412,1,8,0:0:0:0:
256,192,17468,1,0,0:0:0:0:
256,192,17578,1,8,0:0:0:0:
256,192,17634,1,8,0:0:0:0:
256,192,17689,1,8,0:0:0:0:
256,192,17800,1,0,0:0:0:0:
256,192,17855,1,0,0:0:0:0:
256,192,17911,1,8,0:0:0:0:
256,192,18021,1,0,0:0:0:0:
256,192,18077,1,8,0:0:0:0:
256,192,18132,1,0,0:0:0:0:
256,192,18243,1,8,0:0:0:0:
256,192,18298,1,8,0:0:0:0:
256,192,18353,1,0,0:0:0:0:
256,192,18464,1,0,0:0:0:0:
256,192,18575,1,8,0:0:0:0:
256,192,18685,1,0,0:0:0:0:
256,192,18741,1,0,0:0:0:0:
256,192,18796,1,8,0:0:0:0:
256,192,18907,1,0,0:0:0:0:
256,192,18962,1,0,0:0:0:0:
256,192,19018,1,0,0:0:0:0:
256,192,19128,1,8,0:0:0:0:
256,192,19184,1,8,0:0:0:0:
256,192,19239,1,0,0:0:0:0:
256,192,19350,1,8,0:0:0:0:
256,192,19405,1,8,0:0:0:0:
256,192,19460,1,8,0:0:0:0:
256,192,19571,1,0,0:0:0:0:
256,192,19682,1,8,0:0:0:0:
256,192,19737,1,8,0:0:0:0:
256,192,19792,1,8,0:0:0:0:
256,192,19848,1,8,0:0:0:0:
256,192,19903,1,0,0:0:0:0:
256,192,20051,1,0,0:0:0:0:
256,192,20198,1,0,0:0:0:0:
256,192,20346,1,8,0:0:0:0:
256,192,20457,1,0,0:0:0:0:
256,192,20512,1,0,0:0:0:0:
256,192,20567,1,8,0:0:0:0:
256,192,20678,1,0,0:0:0:0:
256,192,20733,1,8,0:0:0:0:
256,192,20789,1,0,0:0:0:0:
256,192,20899,1,8,0:0:0:0:
256,192,20955,1,8,0:0:0:0:
256,192,21010,1,0,0:0:0:0:
256,192,21121,1,8,0:0:0:0:
256,192,21176,1,0,0:0:0:0:
256,192,21232,1,8,0:0:0:0:
256,192,21342,1,0,0:0:0:0:
256,192,21398,1,0,0:0:0:0:
256,192,21453,1,8,0:0:0:0:
256,192,21564,1,0,0:0:0:0:
256,192,21619,1,8,0:0:0:0:
256,192,21674,1,0,0:0:0:0:
256,192,21785,1,8,0:0:0:0:
256,192,21840,1,8,0:0:0:0:
256,192,21896,1,0,0:0:0:0:
256,192,22006,1,0,0:0:0:0:
256,192,22117,1,8,0:0:0:0:
256,192,22228,1,0,0:0:0:0:
256,192,22283,1,0,0:0:0:0:
256,192,22339,1,8,0:0:0:0:
256,192,22449,1,0,0:0:0:0:
256,192,22505,1,8,0:0:0:0:
256,192,22560,1,0,0:0:0:0:
256,192,22671,1,8,0:0:0:0:
256,192,22726,1,8,0:0:0:0:
256,192,22781,1,0,0:0:0:0:
256,192,22892,1,8,0:0:0:0:
256,192,22947,1,0,0:0:0:0:
256,192,23003,1,8,0:0:0:0:
256,192,23113,1,0,0:0:0:0:
256,192,23224,1,8,0:0:0:0:
256,192,23280,1,8,0:0:0:0:
256,192,23335,1,8,0:0:0:0:
256,192,23390,1,8,0:0:0:0:
256,192,23446,1,0,0:0:0:0:
256,192,23556,1,0,0:0:0:0:
256,192,23667,1,8,0:0:0:0:
256,192,23722,1,8,0:0:0:0:
256,192,23778,1,0,0:0:0:0:
256,192,23888,1,8,0:0:0:0:
256,192,23999,1,8,0:0:0:0:
256,192,24110,1,0,0:0:0:0:
256,192,24165,1,0,0:0:0:0:
256,192,24220,1,8,0:0:0:0:
256,192,24276,1,0,0:0:0:0:
256,192,24331,1,8,0:0:0:0:
256,192,24442,1,8,0:0:0:0:
256,192,24553,1,0,0:0:0:0:
256,192,24608,1,0,0:0:0:0:
256,192,24663,1,0,0:0:0:0:
256,192,24719,1,0,0:0:0:0:
256,192,24774,1,8,0:0:0:0:
256,192,24885,1,8,0:0:0:0:
256,192,24940,1,8,0:0:0:0:
256,192,24995,1,0,0:0:0:0:
256,192,25106,1,8,0:0:0:0:
256,192,25161,1,0,0:0:0:0:
256,192,25217,1,8,0:0:0:0:
256,192,25272,1,8,0:0:0:0:
256,192,25327,1,0,0:0:0:0:
256,192,25438,1,8,0:0:0:0:
256,192,25549,1,0,0:0:0:0:
256,192,25604,1,0,0:0:0:0:
256,192,25660,1,8,0:0:0:0:
256,192,25770,1,0,0:0:0:0:
256,192,25881,1,8,0:0:0:0:
256,192,25936,1,8,0:0:0:0:
256,192,25992,1,0,0:0:0:0:
256,192,26047,1,0,0:0:0:0:
256,192,26102,1,8,0:0:0:0:
256,192,26213,1,8,0:0:0:0:
256,192,26324,1,0,0:0:0:0:
256,192,26379,1,0,0:0:0:0:
256,192,26434,1,8,0:0:0:0:
256,192,26490,1,8,0:0:0:0:
256,192,26545,1,0,0:0:0:0:
256,192,26656,1,8,0:0:0:0:
256,192,26767,1,0,0:0:0:0:
256,192,26822,1,0,0:0:0:0:
256,192,26877,1,8,0:0:0:0:
256,192,26988,1,0,0:0:0:0:
256,192,27099,1,8,0:0:0:0:
256,192,27154,1,0,0:0:0:0:
256,192,27209,1,8,0:0:0:0:
256,192,27265,1,8,0:0:0:0:
256,192,27320,1,0,0:0:0:0:
256,192,27431,1,8,0:0:0:0:
256,192,27486,1,8,0:0:0:0:
256,192,27542,1,0,0:0:0:0:
256,192,27597,1,0,0:0:0:0:
256,192,27652,1,8,0:0:0:0:
256,192,27763,1,8,0:0:0:0:
256,192,27874,1,0,0:0:0:0:
256,192,27984,1,8,0:0:0:0:
256,192,28040,1,8,0:0:0:0:
256,192,28095,1,0,0:0:0:0:
256,192,28206,1,8,0:0:0:0:
256,192,28316,1,0,0:0:0:0:
256,192,28427,1,8,0:0:0:0:
256,192,28482,1,8,0:0:0:0:
256,192,28538,1,0,0:0:0:0:
256,192,28593,1,8,0:0:0:0:
256,192,28649,1,0,0:0:0:0:
256,192,28759,1,8,0:0:0:0:
256,192,28815,1,8,0:0:0:0:
256,192,28870,1,0,0:0:0:0:
256,192,28981,1,8,0:0:0:0:
256,192,29036,1,0,0:0:0:0:
256,192,29091,1,8,0:0:0:0:
256,192,29147,1,8,0:0:0:0:
256,192,29202,1,0,0:0:0:0:
256,192,29313,1,8,0:0:0:0:
256,192,29368,1,8,0:0:0:0:
256,192,29423,1,0,0:0:0:0:
256,192,29479,1,0,0:0:0:0:
256,192,29534,1,0,0:0:0:0:
256,192,29589,1,0,0:0:0:0:
256,192,29645,1,8,0:0:0:0:
256,192,29756,1,8,0:0:0:0:
256,192,29866,1,0,0:0:0:0:
256,192,29922,1,0,0:0:0:0:
256,192,29977,1,8,0:0:0:0:
256,192,30032,1,8,0:0:0:0:
256,192,30088,1,0,0:0:0:0:
256,192,30198,1,8,0:0:0:0:
256,192,30309,1,0,0:0:0:0:
256,192,30364,1,0,0:0:0:0:
256,192,30420,1,8,0:0:0:0:
256,192,30530,1,8,0:0:0:0:
256,192,30586,1,8,0:0:0:0:
256,192,30641,1,0,0:0:0:0:
256,192,30696,1,0,0:0:0:0:
256,192,30752,1,8,0:0:0:0:
256,192,30807,1,8,0:0:0:0:
256,192,30863,1,0,0:0:0:0:
256,192,30973,1,12,0:0:0:0:
256,192,31195,1,8,0:0:0:0:
256,192,31416,1,0,0:0:0:0:
256,192,31748,1,0,0:0:0:0:
256,192,31970,1,0,0:0:0:0:
256,192,32191,1,0,0:0:0:0:
256,192,32302,1,8,0:0:0:0:
256,192,32523,1,8,0:0:0:0:
256,192,32744,1,0,0:0:0:0:
256,192,32966,1,0,0:0:0:0:
256,192,33187,1,8,0:0:0:0:
256,192,33298,1,8,0:0:0:0:
256,192,33519,1,0,0:0:0:0:
256,192,33741,1,8,0:0:0:0:
256,192,33962,1,0,0:0:0:0:
256,192,34073,1,0,0:0:0:0:
256,192,34294,1,0,0:0:0:0:
256,192,34516,1,12,0:0:0:0:
256,192,34737,1,0,0:0:0:0:
256,192,34958,1,8,0:0:0:0:
256,192,35291,1,0,0:0:0:0:
256,192,35401,1,8,0:0:0:0:
256,192,35512,1,0,0:0:0:0:
256,192,35733,1,0,0:0:0:0:
256,192,35844,1,8,0:0:0:0:
256,192,36065,1,8,0:0:0:0:
256,192,36121,1,8,0:0:0:0:
256,192,36176,1,0,0:0:0:0:
256,192,36287,1,8,0:0:0:0:
256,192,36398,1,0,0:0:0:0:
256,192,36508,1,8,0:0:0:0:
256,192,36730,1,0,0:0:0:0:
256,192,36951,1,8,0:0:0:0:
256,192,37062,1,0,0:0:0:0:
256,192,37283,1,0,0:0:0:0:
256,192,37505,1,8,0:0:0:0:
256,192,37615,1,0,0:0:0:0:
256,192,37837,1,8,0:0:0:0:
256,192,37892,1,8,0:0:0:0:
256,192,37947,1,8,0:0:0:0:
256,192,38058,1,4,0:0:0:0:
256,192,38280,1,0,0:0:0:0:
256,192,38501,1,8,0:0:0:0:
256,192,38833,1,0,0:0:0:0:
256,192,38944,1,8,0:0:0:0:
256,192,39054,1,0,0:0:0:0:
256,192,39276,1,0,0:0:0:0:
256,192,39331,1,0,0:0:0:0:
256,192,39387,1,8,0:0:0:0:
256,192,39608,1,0,0:0:0:0:
256,192,39829,1,8,0:0:0:0:
256,192,39940,1,8,0:0:0:0:
256,192,40051,1,0,0:0:0:0:
256,192,40272,1,8,0:0:0:0:
256,192,40494,1,0,0:0:0:0:
256,192,40604,1,8,0:0:0:0:
256,192,40826,1,0,0:0:0:0:
256,192,41047,1,8,0:0:0:0:
256,192,41102,1,8,0:0:0:0:
256,192,41158,1,0,0:0:0:0:
256,192,41379,1,0,0:0:0:0:
256,192,41490,1,8,0:0:0:0:
256,192,41601,1,0,0:0:0:0:
256,192,41711,1,0,0:0:0:0:
256,192,41822,1,0,0:0:0:0:
256,192,42043,1,8,0:0:0:0:
256,192,42154,1,8,0:0:0:0:
256,192,42265,1,0,0:0:0:0:
256,192,42320,1,0,0:0:0:0:
256,192,42375,1,8,0:0:0:0:
256,192,42486,1,0,0:0:0:0:
256,192,42597,1,8,0:0:0:0:
256,192,42708,1,0,0:0:0:0:
256,192,42818,1,8,0:0:0:0:
256,192,42874,1,8,0:0:0:0:
256,192,42929,1,0,0:0:0:0:
256,192,43040,1,0,0:0:0:0:
256,192,43150,1,8,0:0:0:0:
256,192,43206,1,8,0:0:0:0:
256,192,43261,1,8,0:0:0:0:
256,192,43316,1,8,0:0:0:0:
256,192,43372,1,0,0:0:0:0:
256,192,43482,1,0,0:0:0:0:
256,192,43593,1,8,0:0:0:0:
256,192,43649,1,8,0:0:0:0:
256,192,43704,1,8,0:0:0:0:
256,192,43815,1,0,0:0:0:0:
256,192,43925,1,8,0:0:0:0:
256,192,44036,1,0,0:0:0:0:
256,192,44147,1,8,0:0:0:0:
256,192,44202,1,8,0:0:0:0:
256,192,44257,1,0,0:0:0:0:
256,192,44313,1,0,0:0:0:0:
256,192,44368,1,0,0:0:0:0:
256,192,44423,1,0,0:0:0:0:
256,192,44479,1,8,0:0:0:0:
256,192,44589,1,8,0:0:0:0:
256,192,44700,1,0,0:0:0:0:
256,192,44811,1,8,0:0:0:0:
256,192,44922,1,0,0:0:0:0:
256,192,45032,1,0,0:0:0:0:
256,192,45143,1,12,0:0:0:0:
256,192,45364,1,8,0:0:0:0:
256,192,45586,1,0,0:0:0:0:
256,192,45807,1,8,0:0:0:0:
256,192,45955,1,0,0:0:0:0:
256,192,46176,1,0,0:0:0:0:
256,192,46250,1,8,0:0:0:0:
256,192,46471,1,0,0:0:0:0:
256,192,46582,1,0,0:0:0:0:
256,192,46693,1,8,0:0:0:0:
256,192,46803,1,8,0:0:0:0:
256,192,46914,1,0,0:0:0:0:
256,192,47136,1,8,0:0:0:0:
256,192,47357,1,0,0:0:0:0:
256,192,47578,1,8,0:0:0:0:
256,192,47726,1,0,0:0:0:0:
256,192,47947,1,0,0:0:0:0:
256,192,48021,1,8,0:0:0:0:
256,192,48243,1,0,0:0:0:0:
256,192,48390,1,8,0:0:0:0:
256,192,48612,1,0,0:0:0:0:
256,192,48685,1,8,0:0:0:0:
256,192,48907,1,8,0:0:0:0:
256,192,49128,1,0,0:0:0:0:
256,192,49350,1,8,0:0:0:0:
256,192,49497,1,0,0:0:0:0:
256,192,49719,1,0,0:0:0:0:
256,192,49792,1,8,0:0:0:0:
256,192,50014,1,0,0:0:0:0:
256,192,50125,1,0,0:0:0:0:
256,192,50235,1,8,0:0:0:0:
256,192,50383,1,0,0:0:0:0:
256,192,50604,1,0,0:0:0:0:
256,192,50678,1,8,0:0:0:0:
256,192,50899,1,0,0:0:0:0:
256,192,51121,1,8,0:0:0:0:
256,192,51268,1,0,0:0:0:0:
256,192,51490,1,0,0:0:0:0:
256,192,51564,1,8,0:0:0:0:
256,192,51785,1,0,0:0:0:0:
256,192,51933,1,8,0:0:0:0:
256,192,52154,1,0,0:0:0:0:
256,192,52228,1,12,0:0:0:0:
256,192,52523,1,8,0:0:0:0:
256,192,52818,1,0,0:0:0:0:
256,192,53113,1,0,0:0:0:0:
256,192,53409,1,8,0:0:0:0:
256,192,53704,1,8,0:0:0:0:
256,192,53999,1,0,0:0:0:0:
256,192,54294,1,8,0:0:0:0:
256,192,54589,1,8,0:0:0:0:
256,192,54811,1,8,0:0:0:0:
256,192,54885,1,0,0:0:0:0:
256,192,55180,1,8,0:0:0:0:
256,192,55475,1,8,0:0:0:0:
256,192,55770,1,0,0:0:0:0:
256,192,55918,1,0,0:0:0:0:
256,192,56065,1,8,0:0:0:0:
256,192,56213,1,0,0:0:0:0:
256,192,56361,1,8,0:0:0:0:
256,192,56656,1,0,0:0:0:0:
256,192,56803,1,0,0:0:0:0:
256,192,56951,1,8,0:0:0:0:
256,192,57025,1,8,0:0:0:0:
256,192,57099,1,0,0:0:0:0:
256,192,57246,1,8,0:0:0:0:
256,192,57542,1,0,0:0:0:0:
256,192,57689,1,8,0:0:0:0:
256,192,57763,1,8,0:0:0:0:
256,192,57837,1,0,0:0:0:0:
256,192,57984,1,8,0:0:0:0:
256,192,58132,1,0,0:0:0:0:
256,192,58206,1,8,0:0:0:0:
256,192,58280,1,0,0:0:0:0:
256,192,58353,1,0,0:0:0:0:
256,192,58427,1,8,0:0:0:0:
256,192,58501,1,0,0:0:0:0:
256,192,58575,1,8,0:0:0:0:
256,192,58649,1,8,0:0:0:0:
256,192,58722,1,0,0:0:0:0:
256,192,58870,1,8,0:0:0:0:
256,192,59018,1,0,0:0:0:0:
256,192,59165,1,8,0:0:0:0:
256,192,59313,1,4,0:0:0:0:
256,192,59423,1,8,0:0:0:0:
256,192,59534,1,0,0:0:0:0:
256,192,59589,1,0,0:0:0:0:
256,192,59645,1,0,0:0:0:0:
256,192,59756,1,8,0:0:0:0:
256,192,59811,1,8,0:0:0:0:
256,192,59866,1,0,0:0:0:0:
256,192,59977,1,8,0:0:0:0:
256,192,60032,1,8,0:0:0:0:
256,192,60088,1,8,0:0:0:0:
256,192,60198,1,0,0:0:0:0:
256,192,60254,1,0,0:0:0:0:
256,192,60309,1,0,0:0:0:0:
256,192,60420,1,8,0:0:0:0:
256,192,60530,1,0,0:0:0:0:
256,192,60641,1,8,0:0:0:0:
256,192,60696,1,8,0:0:0:0:
256,192,60752,1,0,0:0:0:0:
256,192,60863,1,8,0:0:0:0:
256,192,60973,1,0,0:0:0:0:
256,192,61084,1,8,0:0:0:0:
256,192,61139,1,8,0:0:0:0:
256,192,61195,1,8,0:0:0:0:
256,192,61305,1,0,0:0:0:0:
256,192,61416,1,0,0:0:0:0:
256,192,61527,1,8,0:0:0:0:
256,192,61582,1,8,0:0:0:0:
256,192,61637,1,0,0:0:0:0:
256,192,61748,1,8,0:0:0:0:
256,192,61859,1,0,0:0:0:0:
256,192,61970,1,8,0:0:0:0:
256,192,62025,1,8,0:0:0:0:
256,192,62080,1,8,0:0:0:0:
256,192,62191,1,0,0:0:0:0:
256,192,62302,1,8,0:0:0:0:
256,192,62412,1,0,0:0:0:0:
256,192,62468,1,0,0:0:0:0:
256,192,62523,1,0,0:0:0:0:
256,192,62634,1,8,0:0:0:0:
256,192,62689,1,8,0:0:0:0:
256,192,62744,1,0,0:0:0:0:
256,192,62855,1,8,0:0:0:0:
256,192,62911,1,0,0:0:0:0:
256,192,62966,1,0,0:0:0:0:
256,192,63077,1,8,0:0:0:0:
256,192,63187,1,0,0:0:0:0:
256,192,63298,1,8,0:0:0:0:
256,192,63353,1,8,0:0:0:0:
256,192,63409,1,0,0:0:0:0:
256,192,63519,1,8,0:0:0:0:
256,192,63630,1,0,0:0:0:0:
256,192,63685,1,8,0:0:0:0:
256,192,63741,1,0,0:0:0:0:
256,192,63796,1,8,0:0:0:0:
256,192,63851,1,0,0:0:0:0:
256,192,63962,1,8,0:0:0:0:
256,192,64073,1,0,0:0:0:0:
256,192,64184,1,8,0:0:0:0:
256,192,64239,1,0,0:0:0:0:
256,192,64294,1,0,0:0:0:0:
256,192,64405,1,8,0:0:0:0:
256,192,64460,1,8,0:0:0:0:
256,192,64516,1,0,0:0:0:0:
256,192,64626,1,8,0:0:0:0:
256,192,64682,1,8,0:0:0:0:
256,192,64737,1,8,0:0:0:0:
256,192,64848,1,0,0:0:0:0:
256,192,64958,1,0,0:0:0:0:
256,192,65069,1,8,0:0:0:0:
256,192,65180,1,0,0:0:0:0:
256,192,65291,1,8,0:0:0:0:
256,192,65346,1,8,0:0:0:0:
256,192,65401,1,0,0:0:0:0:
256,192,65512,1,8,0:0:0:0:
256,192,65567,1,8,0:0:0:0:
256,192,65623,1,8,0:0:0:0:
256,192,65733,1,0,0:0:0:0:
256,192,65789,1,0,0:0:0:0:
256,192,65844,1,8,0:0:0:0:
256,192,65955,1,0,0:0:0:0:
256,192,66010,1,0,0:0:0:0:
256,192,66065,1,0,0:0:0:0:
256,192,66176,1,8,0:0:0:0:
256,192,66232,1,8,0:0:0:0:
256,192,66287,1,8,0:0:0:0:
256,192,66398,1,0,0:0:0:0:
256,192,66453,1,0,0:0:0:0:
256,192,66508,1,0,0:0:0:0:
256,192,66619,1,8,0:0:0:0:
256,192,66674,1,8,0:0:0:0:
256,192,66730,1,0,0:0:0:0:
256,192,66840,1,8,0:0:0:0:
256,192,66896,1,8,0:0:0:0:
256,192,66951,1,8,0:0:0:0:
256,192,67062,1,0,0:0:0:0:
256,192,67117,1,0,0:0:0:0:
256,192,67173,1,0,0:0:0:0:
256,192,67283,1,8,0:0:0:0:
256,192,67339,1,8,0:0:0:0:
256,192,67394,1,8,0:0:0:0:
256,192,67505,1,0,0:0:0:0:
256,192,67615,1,8,0:0:0:0:
256,192,67726,1,0,0:0:0:0:
256,192,67781,1,0,0:0:0:0:
256,192,67837,1,0,0:0:0:0:
256,192,67947,1,8,0:0:0:0:
256,192,68058,1,0,0:0:0:0:
256,192,68169,1,8,0:0:0:0:
256,192,68224,1,8,0:0:0:0:
256,192,68280,1,0,0:0:0:0:
256,192,68390,1,8,0:0:0:0:
256,192,68501,1,8,0:0:0:0:
256,192,68612,1,0,0:0:0:0:
256,192,68667,1,0,0:0:0:0:
256,192,68722,1,8,0:0:0:0:
256,192,68833,1,0,0:0:0:0:
256,192,68944,1,0,0:0:0:0:
256,192,69054,1,8,0:0:0:0:
256,192,69110,1,0,0:0:0:0:
256,192,69165,1,0,0:0:0:0:
256,192,69276,1,8,0:0:0:0:
256,192,69387,1,8,0:0:0:0:
256,192,69497,1,0,0:0:0:0:
256,192,69553,1,8,0:0:0:0:
256,192,69608,1,8,0:0:0:0:
256,192,69719,1,0,0:0:0:0:
256,192,69829,1,0,0:0:0:0:
256,192,69940,1,8,0:0:0:0:
256,192,69995,1,8,0:0:0:0:
256,192,70051,1,0,0:0:0:0:
256,192,70161,1,8,0:0:0:0:
256,192,70272,1,0,0:0:0:0:
256,192,70383,1,8,0:0:0:0:
256,192,70438,1,8,0:0:0:0:
256,192,70494,1,8,0:0:0:0:
256,192,70604,1,0,0:0:0:0:
256,192,70715,1,8,0:0:0:0:
256,192,70826,1,0,0:0:0:0:
256,192,70881,1,0,0:0:0:0:
256,192,70936,1,8,0:0:0:0:
256,192,71047,1,0,0:0:0:0:
256,192,71158,1,8,0:0:0:0:
256,192,71268,1,0,0:0:0:0:
256,192,71324,1,0,0:0:0:0:
256,192,71379,1,0,0:0:0:0:
256,192,71490,1,8,0:0:0:0:
256,192,71545,1,8,0:0:0:0:
256,192,71601,1,0,0:0:0:0:
256,192,71711,1,8,0:0:0:0:
256,192,71767,1,8,0:0:0:0:
256,192,71822,1,8,0:0:0:0:
256,192,71933,1,0,0:0:0:0:
256,192,71988,1,0,0:0:0:0:
256,192,72043,1,8,0:0:0:0:
256,192,72154,1,0,0:0:0:0:
256,192,72209,1,0,0:0:0:0:
256,192,72265,1,0,0:0:0:0:
256,192,72375,1,8,0:0:0:0:
256,192,72486,1,0,0:0:0:0:
256,192,72597,1,8,0:0:0:0:
256,192,72652,1,8,0:0:0:0:
256,192,72708,1,0,0:0:0:0:
256,192,72818,1,8,0:0:0:0:
256,192,72874,1,8,0:0:0:0:
256,192,72929,1,8,0:0:0:0:
256,192,72984,1,8,0:0:0:0:
256,192,73040,1,0,0:0:0:0:
256,192,73150,1,0,0:0:0:0:
256,192,73261,1,8,0:0:0:0:
256,192,73372,1,0,0:0:0:0:
256,192,73482,1,12,0:0:0:0:
256,192,73593,1,0,0:0:0:0:
256,192,73649,1,0,0:0:0:0:
256,192,73704,1,8,0:0:0:0:
256,192,73815,1,0,0:0:0:0:
256,192,73870,1,0,0:0:0:0:
256,192,73925,1,0,0:0:0:0:
256,192,74036,1,8,0:0:0:0:
256,192,74091,1,8,0:0:0:0:
256,192,74147,1,0,0:0:0:0:
256,192,74257,1,8,0:0:0:0:
256,192,74313,1,8,0:0:0:0:
256,192,74368,1,8,0:0:0:0:
256,192,74479,1,0,0:0:0:0:
256,192,74534,1,0,0:0:0:0:
256,192,74589,1,8,0:0:0:0:
256,192,74700,1,0,0:0:0:0:
256,192,74756,1,8,0:0:0:0:
256,192,74811,1,0,0:0:0:0:
256,192,74922,1,8,0:0:0:0:
256,192,74977,1,8,0:0:0:0:
256,192,75032,1,0,0:0:0:0:
256,192,75143,1,0,0:0:0:0:
256,192,75254,1,8,0:0:0:0:
256,192,75364,1,0,0:0:0:0:
256,192,75420,1,0,0:0:0:0:
256,192,75475,1,8,0:0:0:0:
256,192,75530,1,8,0:0:0:0:
256,192,75586,1,0,0:0:0:0:
256,192,75696,1,8,0:0:0:0:
256,192,75863,1,8,0:0:0:0:
256,192,76029,1,8,0:0:0:0:
256,192,76139,1,0,0:0:0:0:
256,192,76287,1,0,0:0:0:0:
256,192,76434,1,0,0:0:0:0:
256,192,76582,1,8,0:0:0:0:
256,192,76730,1,8,0:0:0:0:
256,192,76877,1,8,0:0:0:0:
256,192,77025,1,4,0:0:0:0:
256,192,77136,1,8,0:0:0:0:
256,192,77246,1,0,0:0:0:0:
256,192,77302,1,0,0:0:0:0:
256,192,77357,1,0,0:0:0:0:
256,192,77468,1,8,0:0:0:0:
256,192,77523,1,0,0:0:0:0:
256,192,77578,1,0,0:0:0:0:
256,192,77689,1,8,0:0:0:0:
256,192,77744,1,8,0:0:0:0:
256,192,77800,1,0,0:0:0:0:
256,192,77911,1,8,0:0:0:0:
256,192,77966,1,8,0:0:0:0:
256,192,78021,1,8,0:0:0:0:
256,192,78132,1,0,0:0:0:0:
256,192,78243,1,8,0:0:0:0:
256,192,78353,1,0,0:0:0:0:
256,192,78409,1,0,0:0:0:0:
256,192,78464,1,0,0:0:0:0:
256,192,78575,1,8,0:0:0:0:
256,192,78630,1,8,0:0:0:0:
256,192,78685,1,0,0:0:0:0:
256,192,78741,1,0,0:0:0:0:
256,192,78796,1,8,0:0:0:0:
256,192,78907,1,0,0:0:0:0:
256,192,79018,1,8,0:0:0:0:
256,192,79073,1,8,0:0:0:0:
256,192,79128,1,8,0:0:0:0:
256,192,79239,1,0,0:0:0:0:
256,192,79294,1,8,0:0:0:0:
256,192,79350,1,8,0:0:0:0:
256,192,79460,1,0,0:0:0:0:
256,192,79516,1,0,0:0:0:0:
256,192,79571,1,8,0:0:0:0:
256,192,79682,1,0,0:0:0:0:
256,192,79737,1,0,0:0:0:0:
256,192,79792,1,0,0:0:0:0:
256,192,79903,1,8,0:0:0:0:
256,192,79958,1,8,0:0:0:0:
256,192,80014,1,8,0:0:0:0:
256,192,80069,1,8,0:0:0:0:
256,192,80125,1,0,0:0:0:0:
256,192,80291,1,0,0:0:0:0:
256,192,80457,1,0,0:0:0:0:
256,192,80567,1,12,0:0:0:0:
256,192,80678,1,0,0:0:0:0:
256,192,80733,1,0,0:0:0:0:
256,192,80789,1,8,0:0:0:0:
256,192,80899,1,0,0:0:0:0:
256,192,81010,1,8,0:0:0:0:
256,192,81065,1,8,0:0:0:0:
256,192,81121,1,8,0:0:0:0:
256,192,81176,1,8,0:0:0:0:
256,192,81232,1,0,0:0:0:0:
256,192,81287,1,0,0:0:0:0:
256,192,81342,1,0,0:0:0:0:
256,192,81398,1,0,0:0:0:0:
256,192,81453,1,8,0:0:0:0:
256,192,81564,1,0,0:0:0:0:
256,192,81674,1,8,0:0:0:0:
256,192,81730,1,8,0:0:0:0:
256,192,81785,1,8,0:0:0:0:
256,192,81896,1,0,0:0:0:0:
256,192,81951,1,0,0:0:0:0:
256,192,82006,1,0,0:0:0:0:
256,192,82062,1,0,0:0:0:0:
256,192,82117,1,8,0:0:0:0:
256,192,82228,1,8,0:0:0:0:
256,192,82339,1,0,0:0:0:0:
256,192,82412,1,0,0:0:0:0:
256,192,82486,1,8,0:0:0:0:
256,192,82560,1,8,0:0:0:0:
256,192,82634,1,0,0:0:0:0:
256,192,82708,1,0,0:0:0:0:
256,192,82781,1,8,0:0:0:0:
256,192,82855,1,8,0:0:0:0:
256,192,82929,1,0,0:0:0:0:
256,192,83003,1,0,0:0:0:0:
256,192,83077,1,8,0:0:0:0:
256,192,83150,1,8,0:0:0:0:
256,192,83224,1,0,0:0:0:0:
256,192,83372,1,8,0:0:0:0:
256,192,83519,1,0,0:0:0:0:
256,192,83667,1,8,0:0:0:0:
256,192,83815,1,0,0:0:0:0:
256,192,83962,1,8,0:0:0:0:
256,192,84110,1,4,0:0:0:0:
256,192,84220,1,8,0:0:0:0:
256,192,84331,1,0,0:0:0:0:
256,192,84387,1,0,0:0:0:0:
256,192,84442,1,0,0:0:0:0:
256,192,84553,1,8,0:0:0:0:
256,192,84608,1,8,0:0:0:0:
256,192,84663,1,0,0:0:0:0:
256,192,84774,1,8,0:0:0:0:
256,192,84829,1,8,0:0:0:0:
256,192,84885,1,8,0:0:0:0:
256,192,84995,1,0,0:0:0:0:
256,192,85051,1,0,0:0:0:0:
256,192,85106,1,0,0:0:0:0:
256,192,85217,1,8,0:0:0:0:
256,192,85327,1,0,0:0:0:0:
256,192,85438,1,8,0:0:0:0:
256,192,85494,1,8,0:0:0:0:
256,192,85549,1,0,0:0:0:0:
256,192,85660,1,8,0:0:0:0:
256,192,85770,1,0,0:0:0:0:
256,192,85881,1,8,0:0:0:0:
256,192,85936,1,8,0:0:0:0:
256,192,85992,1,8,0:0:0:0:
256,192,86102,1,0,0:0:0:0:
256,192,86213,1,0,0:0:0:0:
256,192,86324,1,8,0:0:0:0:
256,192,86379,1,8,0:0:0:0:
256,192,86434,1,0,0:0:0:0:
256,192,86545,1,8,0:0:0:0:
256,192,86656,1,0,0:0:0:0:
256,192,86767,1,8,0:0:0:0:
256,192,86822,1,8,0:0:0:0:
256,192,86877,1,8,0:0:0:0:
256,192,86988,1,0,0:0:0:0:
256,192,87099,1,8,0:0:0:0:
256,192,87209,1,0,0:0:0:0:
256,192,87265,1,0,0:0:0:0:
256,192,87320,1,0,0:0:0:0:
256,192,87431,1,8,0:0:0:0:
256,192,87486,1,8,0:0:0:0:
256,192,87542,1,0,0:0:0:0:
256,192,87652,1,8,0:0:0:0:
256,192,87708,1,0,0:0:0:0:
256,192,87763,1,0,0:0:0:0:
256,192,87874,1,8,0:0:0:0:
256,192,87984,1,0,0:0:0:0:
256,192,88040,1,8,0:0:0:0:
256,192,88095,1,0,0:0:0:0:
256,192,88150,1,8,0:0:0:0:
256,192,88206,1,0,0:0:0:0:
256,192,88316,1,8,0:0:0:0:
256,192,88427,1,0,0:0:0:0:
256,192,88538,1,8,0:0:0:0:
256,192,88593,1,8,0:0:0:0:
256,192,88649,1,0,0:0:0:0:
256,192,88759,1,8,0:0:0:0:
256,192,88870,1,0,0:0:0:0:
256,192,88981,1,8,0:0:0:0:
256,192,89036,1,0,0:0:0:0:
256,192,89091,1,0,0:0:0:0:
256,192,89202,1,8,0:0:0:0:
256,192,89257,1,8,0:0:0:0:
256,192,89313,1,0,0:0:0:0:
256,192,89423,1,8,0:0:0:0:
256,192,89479,1,8,0:0:0:0:
256,192,89534,1,8,0:0:0:0:
256,192,89645,1,0,0:0:0:0:
256,192,89756,1,0,0:0:0:0:
256,192,89866,1,8,0:0:0:0:
256,192,89977,1,0,0:0:0:0:
256,192,90088,1,8,0:0:0:0:
256,192,90143,1,8,0:0:0:0:
256,192,90198,1,0,0:0:0:0:
256,192,90309,1,8,0:0:0:0:
256,192,90364,1,8,0:0:0:0:
256,192,90420,1,8,0:0:0:0:
256,192,90530,1,0,0:0:0:0:
256,192,90586,1,0,0:0:0:0:
256,192,90641,1,8,0:0:0:0:
256,192,90752,1,0,0:0:0:0:
256,192,90807,1,0,0:0:0:0:
256,192,90863,1,0,0:0:0:0:
256,192,90973,1,8,0:0:0:0:
256,192,91029,1,8,0:0:0:0:
256,192,91084,1,8,0:0:0:0:
256,192,91195,1,0,0:0:0:0:
256,192,91250,1,0,0:0:0:0:
256,192,91305,1,0,0:0:0:0:
256,192,91416,1,8,0:0:0:0:
256,192,91471,1,8,0:0:0:0:
256,192,91527,1,0,0:0:0:0:
256,192,91637,1,8,0:0:0:0:
256,192,91693,1,8,0:0:0:0:
256,192,91748,1,8,0:0:0:0:
256,192,91859,1,0,0:0:0:0:
256,192,91914,1,0,0:0:0:0:
256,192,91970,1,0,0:0:0:0:
256,192,92080,1,8,0:0:0:0:
256,192,92136,1,8,0:0:0:0:
256,192,92191,1,8,0:0:0:0:
256,192,92302,1,0,0:0:0:0:
256,192,92412,1,8,0:0:0:0:
256,192,92468,1,0,0:0:0:0:
256,192,92523,1,8,0:0:0:0:
256,192,92578,1,0,0:0:0:0:
256,192,92634,1,8,0:0:0:0:
256,192,92744,1,0,0:0:0:0:
256,192,92855,1,0,0:0:0:0:
256,192,92966,1,8,0:0:0:0:
256,192,93021,1,8,0:0:0:0:
256,192,93077,1,0,0:0:0:0:
256,192,93187,1,8,0:0:0:0:
256,192,93298,1,8,0:0:0:0:
256,192,93409,1,0,0:0:0:0:
256,192,93464,1,0,0:0:0:0:
256,192,93519,1,8,0:0:0:0:
256,192,93630,1,0,0:0:0:0:
256,192,93741,1,0,0:0:0:0:
256,192,93851,1,8,0:0:0:0:
256,192,93907,1,0,0:0:0:0:
256,192,93962,1,0,0:0:0:0:
256,192,94073,1,8,0:0:0:0:
256,192,94128,1,8,0:0:0:0:
256,192,94184,1,8,0:0:0:0:
256,192,94294,1,0,0:0:0:0:
256,192,94350,1,8,0:0:0:0:
256,192,94405,1,8,0:0:0:0:
256,192,94516,1,0,0:0:0:0:
256,192,94626,1,0,0:0:0:0:
256,192,94737,1,8,0:0:0:0:
256,192,94792,1,8,0:0:0:0:
256,192,94848,1,0,0:0:0:0:
256,192,94958,1,8,0:0:0:0:
256,192,95069,1,0,0:0:0:0:
256,192,95180,1,8,0:0:0:0:
256,192,95235,1,8,0:0:0:0:
256,192,95291,1,8,0:0:0:0:
256,192,95401,1,0,0:0:0:0:
256,192,95512,1,8,0:0:0:0:
256,192,95623,1,0,0:0:0:0:
256,192,95678,1,0,0:0:0:0:
256,192,95733,1,8,0:0:0:0:
256,192,95789,1,8,0:0:0:0:
256,192,95844,1,0,0:0:0:0:
256,192,95955,1,8,0:0:0:0:
256,192,96065,1,0,0:0:0:0:
256,192,96121,1,0,0:0:0:0:
256,192,96176,1,0,0:0:0:0:
256,192,96287,1,8,0:0:0:0:
256,192,96342,1,8,0:0:0:0:
256,192,96398,1,0,0:0:0:0:
256,192,96453,1,0,0:0:0:0:
256,192,96508,1,8,0:0:0:0:
256,192,96619,1,0,0:0:0:0:
256,192,96730,1,8,0:0:0:0:
256,192,96785,1,8,0:0:0:0:
256,192,96840,1,0,0:0:0:0:
256,192,96951,1,8,0:0:0:0:
256,192,97006,1,8,0:0:0:0:
256,192,97062,1,0,0:0:0:0:
256,192,97117,1,0,0:0:0:0:
256,192,97173,1,8,0:0:0:0:
256,192,97283,1,0,0:0:0:0:
256,192,97339,1,0,0:0:0:0:
256,192,97394,1,8,0:0:0:0:
256,192,97449,1,8,0:0:0:0:
256,192,97505,1,0,0:0:0:0:
256,192,97560,1,0,0:0:0:0:
256,192,97615,1,8,0:0:0:0:
256,192,97671,1,8,0:0:0:0:
256,192,97726,1,0,0:0:0:0:
256,192,97781,1,0,0:0:0:0:
256,192,97837,1,8,0:0:0:0:
256,192,97947,1,8,0:0:0:0:
256,192,98058,1,0,0:0:0:0:
256,192,98169,1,0,0:0:0:0:
256,192,98280,1,8,0:0:0:0:
256,192,99608,1,0,0:0:0:0:
256,192,99663,1,0,0:0:0:0:
256,192,99719,1,8,0:0:0:0:
256,192,99774,1,8,0:0:0:0:
256,192,99829,1,0,0:0:0:0:
256,192,99885,1,0,0:0:0:0:
256,192,99940,1,8,0:0:0:0:
256,192,100051,1,4,0:0:0:0:
256,192,100161,1,8,0:0:0:0:
256,192,100217,1,8,0:0:0:0:
256,192,100272,1,0,0:0:0:0:
256,192,100383,1,0,0:0:0:0:
256,192,100494,1,8,0:0:0:0:
256,192,100549,1,8,0:0:0:0:
256,192,100604,1,8,0:0:0:0:
256,192,100715,1,0,0:0:0:0:
256,192,100826,1,8,0:0:0:0:
256,192,100936,1,0,0:0:0:0:
256,192,100992,1,0,0:0:0:0:
256,192,101047,1,8,0:0:0:0:
256,192,101102,1,8,0:0:0:0:
256,192,101158,1,0,0:0:0:0:
256,192,101268,1,8,0:0:0:0:
256,192,101379,1,0,0:0:0:0:
256,192,101434,1,0,0:0:0:0:
256,192,101490,1,0,0:0:0:0:
256,192,101601,1,8,0:0:0:0:
256,192,101711,1,0,0:0:0:0:
256,192,101767,1,8,0:0:0:0:
256,192,101822,1,0,0:0:0:0:
256,192,101877,1,8,0:0:0:0:
256,192,101933,1,0,0:0:0:0:
256,192,102043,1,8,0:0:0:0:
256,192,102154,1,0,0:0:0:0:
256,192,102265,1,8,0:0:0:0:
256,192,102320,1,8,0:0:0:0:
256,192,102375,1,8,0:0:0:0:
256,192,102486,1,0,0:0:0:0:
256,192,102597,1,8,0:0:0:0:
256,192,102652,1,0,0:0:0:0:
256,192,102708,1,8,0:0:0:0:
256,192,102763,1,0,0:0:0:0:
256,192,102818,1,8,0:0:0:0:
256,192,102929,1,0,0:0:0:0:
256,192,102984,1,0,0:0:0:0:
256,192,103040,1,0,0:0:0:0:
256,192,103150,1,8,0:0:0:0:
256,192,103206,1,8,0:0:0:0:
256,192,103261,1,0,0:0:0:0:
256,192,103372,1,8,0:0:0:0:
256,192,103427,1,8,0:0:0:0:
256,192,103482,1,8,0:0:0:0:
256,192,103538,1,8,0:0:0:0:
256,192,103593,1,0,0:0:0:0:
256,192,103704,1,0,0:0:0:0:
256,192,103815,1,8,0:0:0:0:
256,192,103925,1,0,0:0:0:0:
256,192,104036,1,8,0:0:0:0:
256,192,104147,1,8,0:0:0:0:
256,192,104257,1,0,0:0:0:0:
256,192,104313,1,0,0:0:0:0:
256,192,104368,1,8,0:0:0:0:
256,192,104479,1,0,0:0:0:0:
256,192,104534,1,0,0:0:0:0:
256,192,104589,1,0,0:0:0:0:
256,192,104700,1,8,0:0:0:0:
256,192,104756,1,8,0:0:0:0:
256,192,104811,1,0,0:0:0:0:
256,192,104922,1,8,0:0:0:0:
256,192,104977,1,8,0:0:0:0:
256,192,105032,1,8,0:0:0:0:
256,192,105088,1,8,0:0:0:0:
256,192,105143,1,0,0:0:0:0:
256,192,105198,1,0,0:0:0:0:
256,192,105254,1,0,0:0:0:0:
256,192,105364,1,8,0:0:0:0:
256,192,105420,1,8,0:0:0:0:
256,192,105475,1,0,0:0:0:0:
256,192,105586,1,8,0:0:0:0:
256,192,105641,1,8,0:0:0:0:
256,192,105696,1,8,0:0:0:0:
256,192,105807,1,0,0:0:0:0:
256,192,105863,1,0,0:0:0:0:
256,192,105918,1,8,0:0:0:0:
256,192,106029,1,0,0:0:0:0:
256,192,106084,1,0,0:0:0:0:
256,192,106139,1,0,0:0:0:0:
256,192,106250,1,8,0:0:0:0:
256,192,106305,1,8,0:0:0:0:
256,192,106361,1,8,0:0:0:0:
256,192,106416,1,8,0:0:0:0:
256,192,106471,1,0,0:0:0:0:
256,192,106527,1,0,0:0:0:0:
256,192,106582,1,0,0:0:0:0:
256,192,106637,1,0,0:0:0:0:
256,192,106693,1,8,0:0:0:0:
256,192,106859,1,8,0:0:0:0:
256,192,107025,1,8,0:0:0:0:
256,192,107136,1,4,0:0:0:0:
256,192,107246,1,8,0:0:0:0:
256,192,107302,1,8,0:0:0:0:
256,192,107357,1,0,0:0:0:0:
256,192,107468,1,8,0:0:0:0:
256,192,107578,1,0,0:0:0:0:
256,192,107634,1,0,0:0:0:0:
256,192,107689,1,8,0:0:0:0:
256,192,107744,1,8,0:0:0:0:
256,192,107800,1,0,0:0:0:0:
256,192,107911,1,0,0:0:0:0:
256,192,108021,1,8,0:0:0:0:
256,192,108077,1,8,0:0:0:0:
256,192,108132,1,0,0:0:0:0:
256,192,108187,1,0,0:0:0:0:
256,192,108243,1,8,0:0:0:0:
256,192,108353,1,0,0:0:0:0:
256,192,108464,1,8,0:0:0:0:
256,192,108519,1,8,0:0:0:0:
256,192,108575,1,0,0:0:0:0:
256,192,108630,1,0,0:0:0:0:
256,192,108685,1,8,0:0:0:0:
256,192,108741,1,8,0:0:0:0:
256,192,108796,1,8,0:0:0:0:
256,192,108851,1,8,0:0:0:0:
256,192,108907,1,0,0:0:0:0:
256,192,108962,1,0,0:0:0:0:
256,192,109018,1,8,0:0:0:0:
256,192,109128,1,0,0:0:0:0:
256,192,109239,1,0,0:0:0:0:
256,192,109350,1,8,0:0:0:0:
256,192,109405,1,8,0:0:0:0:
256,192,109460,1,0,0:0:0:0:
256,192,109571,1,8,0:0:0:0:
256,192,109682,1,0,0:0:0:0:
256,192,109792,1,8,0:0:0:0:
256,192,109848,1,8,0:0:0:0:
256,192,109903,1,8,0:0:0:0:
256,192,110014,1,0,0:0:0:0:
256,192,110125,1,0,0:0:0:0:
256,192,110235,1,8,0:0:0:0:
256,192,110291,1,8,0:0:0:0:
256,192,110346,1,0,0:0:0:0:
256,192,110457,1,8,0:0:0:0:
256,192,110512,1,8,0:0:0:0:
256,192,110567,1,8,0:0:0:0:
256,192,110678,1,0,0:0:0:0:
256,192,110733,1,0,0:0:0:0:
256,192,110789,1,8,0:0:0:0:
256,192,110899,1,0,0:0:0:0:
256,192,110955,1,0,0:0:0:0:
256,192,111010,1,0,0:0:0:0:
256,192,111121,1,8,0:0:0:0:
256,192,111176,1,8,0:0:0:0:
256,192,111232,1,8,0:0:0:0:
256,192,111287,1,8,0:0:0:0:
256,192,111342,1,0,0:0:0:0:
256,192,111453,1,8,0:0:0:0:
256,192,111508,1,8,0:0:0:0:
256,192,111564,1,0,0:0:0:0:
256,192,111674,1,8,0:0:0:0:
256,192,111730,1,8,0:0:0:0:
256,192,111785,1,0,0:0:0:0:
256,192,111840,1,0,0:0:0:0:
256,192,111896,1,8,0:0:0:0:
256,192,112006,1,0,0:0:0:0:
256,192,112062,1,0,0:0:0:0:
256,192,112117,1,8,0:0:0:0:
256,192,112173,1,8,0:0:0:0:
256,192,112228,1,0,0:0:0:0:
256,192,112283,1,0,0:0:0:0:
256,192,112339,1,8,0:0:0:0:
256,192,112449,1,4,0:0:0:0:
256,192,112892,1,0,0:0:0:0:
256,192,113040,1,0,0:0:0:0:
256,192,113187,1,0,0:0:0:0:
256,192,113335,1,8,0:0:0:0:
256,192,113630,1,0,0:0:0:0:
256,192,113925,1,8,0:0:0:0:
256,192,114220,1,8,0:0:0:0:
256,192,114663,1,8,0:0:0:0:
256,192,114811,1,8,0:0:0:0:
256,192,114958,1,8,0:0:0:0:
256,192,115106,1,8,0:0:0:0:
256,192,115401,1,0,0:0:0:0:
256,192,115549,1,8,0:0:0:0:
256,192,115696,1,0,0:0:0:0:
256,192,115844,1,0,0:0:0:0:
256,192,115992,1,8,0:0:0:0:
256,192,116434,1,0,0:0:0:0:
256,192,116582,1,0,0:0:0:0:
256,192,116730,1,0,0:0:0:0:
256,192,116877,1,0,0:0:0:0:
256,192,117173,1,8,0:0:0:0:
256,192,117468,1,8,0:0:0:0:
256,192,117763,1,0,0:0:0:0:
256,192,118206,1,8,0:0:0:0:
256,192,118353,1,0,0:0:0:0:
256,192,118501,1,0,0:0:0:0:
256,192,118649,1,8,0:0:0:0:
256,192,118944,1,0,0:0:0:0:
256,192,119091,1,8,0:0:0:0:
256,192,119239,1,0,0:0:0:0:
256,192,119534,1,8,0:0:0:0:
256,192,119829,1,0,0:0:0:0:
256,192,120125,1,8,0:0:0:0:
256,192,120420,1,0,0:0:0:0:
256,192,120715,1,0,0:0:0:0:
256,192,121010,1,8,0:0:0:0:
256,192,121305,1,0,0:0:0:0:
256,192,121601,1,0,0:0:0:0:
256,192,121896,1,0,0:0:0:0:
256,192,122191,1,8,0:0:0:0:
256,192,122486,1,8,0:0:0:0:
256,192,122781,1,8,0:0:0:0:
256,192,123077,1,0,0:0:0:0:
256,192,123519,1,8,0:0:0:0:
256,192,123667,1,8,0:0:0:0:
256,192,123815,1,8,0:0:0:0:
256,192,123962,1,0,0:0:0:0:
256,192,124257,1,0,0:0:0:0:
256,192,124553,1,0,0:0:0:0:
256,192,124848,1,8,0:0:0:0:
256,192,125291,1,0,0:0:0:0:
256,192,125438,1,0,0:0:0:0:
256,192,125586,1,0,0:0:0:0:
256,192,125733,1,8,0:0:0:0:
256,192,126029,1,0,0:0:0:0:
256,192,126176,1,8,0:0:0:0:
256,192,126619,1,8,0:0:0:0:
256,192,127062,1,8,0:0:0:0:
256,192,127505,1,0,0:0:0:0:
256,192,127652,1,8,0:0:0:0:
256,192,127800,1,8,0:0:0:0:
256,192,127947,1,0,0:0:0:0:
256,192,128095,1,0,0:0:0:0:
256,192,128243,1,8,0:0:0:0:
256,192,128833,1,0,0:0:0:0:
