osu file format v14

[General]
AudioFilename: audio.mp3
AudioLeadIn: 0
PreviewTime: 59313
Countdown: 0
SampleSet: Normal
StackLeniency: 0.7
Mode: 1
LetterboxInBreaks: 0
WidescreenStoryboard: 1

[Editor]
DistanceSpacing: 1
BeatDivisor: 3
GridSize: 32
TimelineZoom: 1.399999

[Metadata]
Title:Punai Punai Gensou ~Punai Punai in Wonderland~
TitleUnicode:プナイプナイげんそう ~プナイプナイinワンダーランド~
Artist:Rish feat. Choko
ArtistUnicode:立秋 feat. ちょこ
Creator:I love hr
Version:Fapu's Futsuu
Source:BOFXV - THE BMS OF FIGHTERS eXtreme Violence -
Tags:japanese BOFXV fantasy hard 石王マサト teruyama electronic speedcore featured artist fa rissyuu risshuu Muse Dash Faputa Arityle ft. featuring
BeatmapID:3941673
BeatmapSetID:1906400

[Difficulty]
HPDrainRate:7
CircleSize:2
OverallDifficulty:4
ApproachRate:10
SliderMultiplier:1.4
SliderTickRate:1

[Events]
//Background and Video events
0,0,"Punai Punai.png",0,-50
//Break Periods
//Storyboard Layer 0 (Background)
//Storyboard Layer 1 (Fail)
//Storyboard Layer 2 (Pass)
//Storyboard Layer 3 (Foreground)
//Storyboard Layer 4 (Overlay)
//Storyboard Sound Samples

[TimingPoints]
2635,442.80442804428,4,1,0,70,1,0
2635,-80,4,1,0,70,0,0
16063,-80,4,1,0,70,0,0
16211,-80,4,1,0,70,0,0
16359,-80,4,1,0,70,0,0
16506,-80,4,1,0,70,0,0
16654,-80,4,1,0,70,0,0
16804,221.40221402214,4,1,0,80,1,1
16804,-133.333333333333,4,1,0,80,0,1
30973,-133.333333333333,4,1,0,80,0,0
31745,-133.333333333333,4,1,0,79,0,0
31967,-133.333333333333,4,1,0,78,0,0
52228,295.239266822487,3,1,0,78,1,0
57542,221.40221402214,4,1,0,78,1,0
57542,-133.333333333333,4,1,0,78,0,0
57911,-133.333333333333,4,1,0,71,0,0
58058,-133.333333333333,4,1,0,72,0,0
58796,-133.333333333333,4,1,0,77,0,0
58944,-133.333333333333,4,1,0,78,0,0
59091,-133.333333333333,4,1,0,79,0,0
59239,-133.333333333333,4,1,0,80,0,0
59313,221.40221402214,4,1,0,80,1,1
59313,-133.333333333333,4,1,0,80,0,1
73039,-133.333333333333,4,1,0,80,0,0
73482,-133.333333333333,4,1,0,70,0,0
77025,-133.333333333333,4,1,0,80,0,1
80567,-133.333333333333,4,1,0,70,0,1
83224,-133.333333333333,4,1,0,70,0,0
84110,-133.333333333333,4,1,0,80,0,1
97836,-133.333333333333,4,1,0,80,0,0
99608,-133.333333333333,4,1,0,70,0,0
99995,-133.333333333333,4,1,0,79,0,0
100051,-133.333333333333,4,1,0,80,0,1
112449,-133.333333333333,4,1,0,80,0,0

[HitObjects]
256,192,864,12,0,2192,0:0:0:0:
256,192,2635,5,12,0:0:0:0:
256,192,3520,1,8,0:0:0:0:
256,192,3816,1,0,0:0:0:0:
256,192,4111,1,8,0:0:0:0:
256,192,4406,1,8,0:0:0:0:
256,192,5292,1,0,0:0:0:0:
256,192,5734,1,0,0:0:0:0:
256,192,6177,1,8,0:0:0:0:
256,192,7063,1,0,0:0:0:0:
256,192,7358,1,8,0:0:0:0:
256,192,7653,1,8,0:0:0:0:
256,192,7948,1,0,0:0:0:0:
256,192,8834,1,0,0:0:0:0:
256,192,9277,1,8,0:0:0:0:
256,192,9720,1,0,0:0:0:0:
256,192,10605,1,8,0:0:0:0:
256,192,11491,1,0,0:0:0:0:
256,192,12376,1,8,0:0:0:0:
256,192,12819,1,8,0:0:0:0:
256,192,13262,1,0,0:0:0:0:
256,192,14148,1,8,0:0:0:0:
256,192,15033,1,0,0:0:0:0:
256,192,15919,1,8,0:0:0:0:
256,192,16066,1,8,0:0:0:0:
256,192,16214,1,8,0:0:0:0:
256,192,16361,1,8,0:0:0:0:
256,192,16804,1,12,0:0:0:0:
256,192,17025,1,0,0:0:0:0:
256,192,17246,1,8,0:0:0:0:
256,192,17578,1,0,0:0:0:0:
256,192,17800,1,0,0:0:0:0:
256,192,18021,1,8,0:0:0:0:
256,192,18132,1,8,0:0:0:0:
256,192,18353,1,0,0:0:0:0:
256,192,18575,1,8,0:0:0:0:
256,192,18796,1,8,0:0:0:0:
256,192,19018,1,0,0:0:0:0:
256,192,19350,1,8,0:0:0:0:
256,192,19571,1,8,0:0:0:0:
256,192,19792,1,0,0:0:0:0:
256,192,19903,1,0,0:0:0:0:
256,192,20346,1,8,0:0:0:0:
256,192,20567,1,0,0:0:0:0:
256,192,20789,1,8,0:0:0:0:
256,192,21121,1,0,0:0:0:0:
256,192,21342,1,0,0:0:0:0:
256,192,21564,1,8,0:0:0:0:
256,192,21674,1,8,0:0:0:0:
256,192,21896,1,0,0:0:0:0:
256,192,22117,1,8,0:0:0:0:
256,192,22339,1,8,0:0:0:0:
256,192,22560,1,0,0:0:0:0:
256,192,22892,1,8,0:0:0:0:
256,192,23113,1,8,0:0:0:0:
256,192,23335,1,0,0:0:0:0:
256,192,23446,1,0,0:0:0:0:
256,192,23888,1,8,0:0:0:0:
256,192,24110,1,0,0:0:0:0:
256,192,24331,1,8,0:0:0:0:
256,192,24663,1,0,0:0:0:0:
256,192,24885,1,8,0:0:0:0:
256,192,25106,1,8,0:0:0:0:
256,192,25217,1,8,0:0:0:0:
256,192,25438,1,8,0:0:0:0:
256,192,25660,1,0,0:0:0:0:
256,192,25881,1,0,0:0:0:0:
256,192,26102,1,8,0:0:0:0:
256,192,26434,1,8,0:0:0:0:
256,192,26656,1,0,0:0:0:0:
256,192,26877,1,0,0:0:0:0:
256,192,26988,1,0,0:0:0:0:
256,192,27431,1,8,0:0:0:0:
256,192,27652,1,0,0:0:0:0:
256,192,27874,1,8,0:0:0:0:
256,192,28206,1,0,0:0:0:0:
256,192,28427,1,8,0:0:0:0:
256,192,28649,1,8,0:0:0:0:
256,192,28759,1,8,0:0:0:0:
256,192,28981,1,8,0:0:0:0:
256,192,29202,1,0,0:0:0:0:
256,192,29423,1,0,0:0:0:0:
256,192,29645,1,8,0:0:0:0:
256,192,29977,1,8,0:0:0:0:
256,192,30198,1,0,0:0:0:0:
256,192,30420,1,0,0:0:0:0:
256,192,30530,1,0,0:0:0:0:
256,192,30752,1,0,0:0:0:0:
256,192,30973,1,12,0:0:0:0:
256,192,32744,1,0,0:0:0:0:
256,192,33630,12,0,34073,0:0:0:0:
256,192,34516,5,12,0:0:0:0:
256,192,34958,1,8,0:0:0:0:
256,192,35291,1,0,0:0:0:0:
256,192,35512,1,0,0:0:0:0:
256,192,35844,1,8,0:0:0:0:
256,192,36287,1,0,0:0:0:0:
256,192,36508,1,0,0:0:0:0:
256,192,36730,1,8,0:0:0:0:
256,192,37062,1,0,0:0:0:0:
256,192,37283,1,0,0:0:0:0:
256,192,37615,1,8,0:0:0:0:
256,192,38058,1,4,0:0:0:0:
256,192,38501,1,8,0:0:0:0:
256,192,38833,1,8,0:0:0:0:
256,192,39054,1,0,0:0:0:0:
256,192,39387,1,8,0:0:0:0:
256,192,39829,1,0,0:0:0:0:
256,192,40051,1,0,0:0:0:0:
256,192,40272,1,8,0:0:0:0:
256,192,40604,1,0,0:0:0:0:
256,192,40826,1,8,0:0:0:0:
256,192,41158,1,0,0:0:0:0:
256,192,41601,1,8,0:0:0:0:
256,192,42043,1,0,0:0:0:0:
256,192,42375,1,8,0:0:0:0:
256,192,42708,1,8,0:0:0:0:
256,192,42929,1,0,0:0:0:0:
256,192,43150,1,8,0:0:0:0:
256,192,43372,1,0,0:0:0:0:
256,192,43815,1,8,0:0:0:0:
256,192,44147,1,8,0:0:0:0:
256,192,44479,1,0,0:0:0:0:
256,192,44700,1,0,0:0:0:0:
256,192,44922,1,0,0:0:0:0:
256,192,45143,1,12,0:0:0:0:
256,192,45586,1,0,0:0:0:0:
256,192,45918,1,8,0:0:0:0:
256,192,46250,1,8,0:0:0:0:
256,192,46471,1,0,0:0:0:0:
256,192,46914,1,8,0:0:0:0:
256,192,47357,1,0,0:0:0:0:
256,192,47689,1,8,0:0:0:0:
256,192,48021,1,8,0:0:0:0:
256,192,48353,1,8,0:0:0:0:
256,192,48685,1,0,0:0:0:0:
256,192,49128,1,8,0:0:0:0:
256,192,49460,1,0,0:0:0:0:
256,192,49792,1,0,0:0:0:0:
256,192,50014,1,8,0:0:0:0:
256,192,50346,1,0,0:0:0:0:
256,192,50899,1,8,0:0:0:0:
256,192,51232,1,0,0:0:0:0:
256,192,51564,1,0,0:0:0:0:
256,192,52006,1,0,0:0:0:0:
256,192,52228,1,12,0:0:0:0:
256,192,52523,1,8,0:0:0:0:
256,192,52818,1,0,0:0:0:0:
256,192,53409,1,8,0:0:0:0:
256,192,53704,1,8,0:0:0:0:
256,192,54294,1,0,0:0:0:0:
256,192,54589,1,0,0:0:0:0:
256,192,55180,1,8,0:0:0:0:
256,192,55475,1,8,0:0:0:0:
256,192,55770,1,0,0:0:0:0:
256,192,56065,1,8,0:0:0:0:
256,192,56361,1,0,0:0:0:0:
256,192,56656,1,8,0:0:0:0:
256,192,56951,1,0,0:0:0:0:
256,192,57246,1,8,0:0:0:0:
256,192,57542,1,0,0:0:0:0:
256,192,57689,1,0,0:0:0:0:
256,192,57837,1,8,0:0:0:0:
256,192,57984,1,8,0:0:0:0:
256,192,58132,1,0,0:0:0:0:
256,192,58427,1,0,0:0:0:0:
256,192,58575,1,8,0:0:0:0:
256,192,58722,1,0,0:0:0:0:
256,192,58870,1,8,0:0:0:0:
256,192,59313,1,4,0:0:0:0:
256,192,59534,1,0,0:0:0:0:
256,192,59756,1,8,0:0:0:0:
256,192,59977,1,8,0:0:0:0:
256,192,60198,1,0,0:0:0:0:
256,192,60641,1,0,0:0:0:0:
256,192,60863,1,0,0:0:0:0:
256,192,61084,1,8,0:0:0:0:
256,192,61527,1,0,0:0:0:0:
256,192,61970,1,8,0:0:0:0:
256,192,62412,1,8,0:0:0:0:
256,192,62634,1,8,0:0:0:0:
256,192,62855,1,0,0:0:0:0:
256,192,63298,1,8,0:0:0:0:
256,192,63593,1,8,0:0:0:0:
256,192,63741,1,0,0:0:0:0:
256,192,64184,1,0,0:0:0:0:
256,192,64405,1,0,0:0:0:0:
256,192,64626,1,8,0:0:0:0:
256,192,65069,1,0,0:0:0:0:
256,192,65291,1,8,0:0:0:0:
256,192,65512,1,8,0:0:0:0:
256,192,65733,1,0,0:0:0:0:
256,192,65955,1,8,0:0:0:0:
256,192,66176,1,0,0:0:0:0:
256,192,66398,1,8,0:0:0:0:
256,192,66619,1,8,0:0:0:0:
256,192,66840,1,0,0:0:0:0:
256,192,67062,1,0,0:0:0:0:
256,192,67283,1,8,0:0:0:0:
256,192,67726,1,0,0:0:0:0:
256,192,67947,1,0,0:0:0:0:
256,192,68169,1,8,0:0:0:0:
256,192,68612,1,8,0:0:0:0:
256,192,69054,1,0,0:0:0:0:
256,192,69497,1,8,0:0:0:0:
256,192,69719,1,0,0:0:0:0:
256,192,69940,1,8,0:0:0:0:
256,192,70383,1,0,0:0:0:0:
256,192,70826,1,8,0:0:0:0:
256,192,71268,1,0,0:0:0:0:
256,192,71490,1,0,0:0:0:0:
256,192,71711,1,8,0:0:0:0:
256,192,71933,1,0,0:0:0:0:
256,192,72154,1,8,0:0:0:0:
256,192,72375,1,8,0:0:0:0:
256,192,72597,1,0,0:0:0:0:
256,192,73482,1,12,0:0:0:0:
256,192,73704,1,0,0:0:0:0:
256,192,73925,1,8,0:0:0:0:
256,192,74257,1,0,0:0:0:0:
256,192,74479,1,0,0:0:0:0:
256,192,74700,1,8,0:0:0:0:
256,192,74811,1,8,0:0:0:0:
256,192,75032,1,0,0:0:0:0:
256,192,75254,1,8,0:0:0:0:
256,192,75475,1,8,0:0:0:0:
256,192,75696,1,0,0:0:0:0:
256,192,76139,1,0,0:0:0:0:
256,192,76287,1,8,0:0:0:0:
256,192,76434,1,0,0:0:0:0:
256,192,76582,1,8,0:0:0:0:
256,192,77025,1,4,0:0:0:0:
256,192,77246,1,0,0:0:0:0:
256,192,77468,1,8,0:0:0:0:
256,192,77689,1,0,0:0:0:0:
256,192,77911,1,8,0:0:0:0:
256,192,78132,1,8,0:0:0:0:
256,192,78353,1,0,0:0:0:0:
256,192,78796,1,8,0:0:0:0:
256,192,79018,1,0,0:0:0:0:
256,192,79239,1,8,0:0:0:0:
256,192,79460,1,8,0:0:0:0:
256,192,79682,1,0,0:0:0:0:
256,192,79903,1,0,0:0:0:0:
256,192,80125,1,8,0:0:0:0:
256,192,80567,1,12,0:0:0:0:
256,192,80789,1,0,0:0:0:0:
256,192,81010,1,0,0:0:0:0:
256,192,81342,1,8,0:0:0:0:
256,192,81564,1,0,0:0:0:0:
256,192,81785,1,8,0:0:0:0:
256,192,81896,1,8,0:0:0:0:
256,192,82117,1,0,0:0:0:0:
256,192,82339,1,8,0:0:0:0:
256,192,82560,1,8,0:0:0:0:
256,192,82781,1,8,0:0:0:0:
256,192,83003,1,8,0:0:0:0:
256,192,83224,1,0,0:0:0:0:
256,192,83372,1,8,0:0:0:0:
256,192,83519,1,0,0:0:0:0:
256,192,83667,1,8,0:0:0:0:
256,192,84110,1,4,0:0:0:0:
256,192,84331,1,0,0:0:0:0:
256,192,84553,1,8,0:0:0:0:
256,192,84774,1,0,0:0:0:0:
256,192,84995,1,8,0:0:0:0:
256,192,85438,1,0,0:0:0:0:
256,192,85660,1,0,0:0:0:0:
256,192,85881,1,8,0:0:0:0:
256,192,86324,1,0,0:0:0:0:
256,192,86767,1,8,0:0:0:0:
256,192,87209,1,8,0:0:0:0:
256,192,87431,1,0,0:0:0:0:
256,192,87652,1,8,0:0:0:0:
256,192,87947,1,0,0:0:0:0:
256,192,88095,1,8,0:0:0:0:
256,192,88538,1,0,0:0:0:0:
256,192,88759,1,0,0:0:0:0:
256,192,88981,1,8,0:0:0:0:
256,192,89202,1,0,0:0:0:0:
256,192,89423,1,8,0:0:0:0:
256,192,89866,1,0,0:0:0:0:
256,192,90088,1,8,0:0:0:0:
256,192,90309,1,8,0:0:0:0:
256,192,90530,1,0,0:0:0:0:
256,192,90752,1,8,0:0:0:0:
256,192,90973,1,0,0:0:0:0:
256,192,91195,1,8,0:0:0:0:
256,192,91416,1,8,0:0:0:0:
256,192,91637,1,0,0:0:0:0:
256,192,91859,1,0,0:0:0:0:
256,192,92080,1,8,0:0:0:0:
256,192,92412,1,0,0:0:0:0:
256,192,92523,1,0,0:0:0:0:
256,192,92966,1,8,0:0:0:0:
256,192,93187,1,8,0:0:0:0:
256,192,93409,1,0,0:0:0:0:
256,192,93630,1,0,0:0:0:0:
256,192,93851,1,8,0:0:0:0:
256,192,94073,1,0,0:0:0:0:
256,192,94294,1,8,0:0:0:0:
256,192,94737,1,0,0:0:0:0:
256,192,95180,1,8,0:0:0:0:
256,192,95401,1,0,0:0:0:0:
256,192,95623,1,8,0:0:0:0:
256,192,96065,1,0,0:0:0:0:
256,192,96287,1,0,0:0:0:0:
256,192,96508,1,8,0:0:0:0:
256,192,96730,1,0,0:0:0:0:
256,192,96951,1,8,0:0:0:0:
256,192,97283,1,8,0:0:0:0:
256,192,97394,1,8,0:0:0:0:
256,192,98280,1,0,0:0:0:0:
256,192,99608,1,0,0:0:0:0:
256,192,100051,1,4,0:0:0:0:
256,192,100494,1,0,0:0:0:0:
256,192,100715,1,0,0:0:0:0:
256,192,100936,1,8,0:0:0:0:
256,192,101379,1,8,0:0:0:0:
256,192,101711,1,0,0:0:0:0:
256,192,101822,1,0,0:0:0:0:
256,192,102265,1,8,0:0:0:0:
256,192,102486,1,0,0:0:0:0:
256,192,102708,1,8,0:0:0:0:
256,192,103150,1,0,0:0:0:0:
256,192,103372,1,0,0:0:0:0:
256,192,103593,1,8,0:0:0:0:
256,192,104036,1,0,0:0:0:0:
256,192,104257,1,8,0:0:0:0:
256,192,104479,1,0,0:0:0:0:
256,192,104700,1,0,0:0:0:0:
256,192,104922,1,8,0:0:0:0:
256,192,105143,1,8,0:0:0:0:
256,192,105364,1,0,0:0:0:0:
256,192,105586,1,8,0:0:0:0:
256,192,105807,1,0,0:0:0:0:
256,192,106029,1,0,0:0:0:0:
256,192,106250,1,8,0:0:0:0:
256,192,106471,1,8,0:0:0:0:
256,192,106693,1,0,0:0:0:0:
256,192,107136,1,4,0:0:0:0:
256,192,107357,1,8,0:0:0:0:
256,192,107578,1,0,0:0:0:0:
256,192,107800,1,0,0:0:0:0:
256,192,108021,1,8,0:0:0:0:
256,192,108243,1,8,0:0:0:0:
256,192,108464,1,0,0:0:0:0:
256,192,108796,1,0,0:0:0:0:
256,192,108907,1,0,0:0:0:0:
256,192,109350,1,8,0:0:0:0:
256,192,109792,1,0,0:0:0:0:
256,192,110014,1,0,0:0:0:0:
256,192,110235,1,8,0:0:0:0:
256,192,110457,1,0,0:0:0:0:
256,192,110678,1,8,0:0:0:0:
256,192,110899,1,0,0:0:0:0:
256,192,111121,1,8,0:0:0:0:
256,192,111453,1,0,0:0:0:0:
256,192,111564,1,0,0:0:0:0:
256,192,112449,1,4,0:0:0:0:
256,192,113335,1,8,0:0:0:0:
256,192,113630,1,0,0:0:0:0:
256,192,113925,1,8,0:0:0:0:
256,192,114220,1,8,0:0:0:0:
256,192,115106,1,8,0:0:0:0:
256,192,115549,1,0,0:0:0:0:
256,192,115992,1,8,0:0:0:0:
256,192,116877,1,0,0:0:0:0:
256,192,117173,1,8,0:0:0:0:
256,192,117468,1,8,0:0:0:0:
256,192,117763,1,0,0:0:0:0:
256,192,118649,1,8,0:0:0:0:
256,192,119091,1,0,0:0:0:0:
256,192,119534,1,8,0:0:0:0:
256,192,120125,1,8,0:0:0:0:
256,192,120420,1,0,0:0:0:0:
256,192,120715,1,0,0:0:0:0:
256,192,121010,1,8,0:0:0:0:
256,192,121305,1,0,0:0:0:0:
256,192,121896,1,0,0:0:0:0:
256,192,122191,1,8,0:0:0:0:
256,192,122486,1,8,0:0:0:0:
256,192,122781,1,8,0:0:0:0:
256,192,123077,1,0,0:0:0:0:
256,192,123962,1,0,0:0:0:0:
256,192,124257,1,0,0:0:0:0:
256,192,124553,1,8,0:0:0:0:
256,192,124848,1,8,0:0:0:0:
256,192,125733,1,8,0:0:0:0:
256,192,126176,1,0,0:0:0:0:
256,192,126619,1,8,0:0:0:0:
256,192,127505,1,0,0:0:0:0:
256,192,127652,1,0,0:0:0:0:
256,192,127800,1,0,0:0:0:0:
256,192,127947,1,0,0:0:0:0:
256,192,128833,1,0,0:0:0:0:
