osu file format v14

[General]
AudioFilename: audio.mp3
AudioLeadIn: 0
PreviewTime: 77548
Countdown: 0
SampleSet: Normal
StackLeniency: 0.7
Mode: 1
LetterboxInBreaks: 0
WidescreenStoryboard: 0

[Editor]
DistanceSpacing: 1
BeatDivisor: 4
GridSize: 16
TimelineZoom: 2.1

[Metadata]
Title:Bi
TitleUnicode:び
Artist:Rish feat. Choko
ArtistUnicode:立秋 feat. ちょこ
Creator:Nifty
Version:MAXIMUM
Source:SOUND VOLTEX VIVID WAVE
Tags:bibibibibibibibibibibibibibibibi bee sdvx japanese electronic rhythm game 制作決定記念 オリジナル楽曲コンテスト Commemorative Original Song Contest III GRAVITY WARS コナステ konaste dance dance revolution a20 ddr risshuu rissyuu
BeatmapID:3595946
BeatmapSetID:1419755

[Difficulty]
HPDrainRate:6
CircleSize:5
OverallDifficulty:7
ApproachRate:10
SliderMultiplier:1.4
SliderTickRate:1

[Events]
//Background and Video events
0,0,"bee g.png",0,40
//Break Periods
//Storyboard Layer 0 (Background)
//Storyboard Layer 1 (Fail)
//Storyboard Layer 2 (Pass)
//Storyboard Layer 3 (Foreground)
//Storyboard Layer 4 (Overlay)
//Storyboard Sound Samples

[TimingPoints]
1400,355.029585798817,4,1,0,80,1,0
1400,-83.3333333333333,4,1,0,80,0,0
3885,-100,4,1,0,80,0,0
3973,-95.2380952380952,4,1,0,80,0,0
4062,-90.9090909090909,4,1,0,80,0,0
4151,-86.9565217391304,4,1,0,80,0,0
4240,-83.3333333333333,4,1,0,80,0,0
6725,355.029585798817,4,1,0,80,1,0
6725,-83.3333333333333,4,1,0,80,0,0
9387,355.029585798817,4,1,0,80,1,0
9387,-76.9230769230769,4,1,0,80,0,0
11872,355.029585798817,4,1,0,80,1,0
11872,-76.9230769230769,4,1,0,80,0,0
14800,-100,4,1,0,80,0,0
18617,-166.666666666667,4,1,0,80,0,0
18883,-100,4,1,0,80,0,0
22522,-166.666666666667,4,1,0,80,0,0
22877,-100,4,1,0,80,0,0
23055,-95.2380952380952,4,1,0,80,0,0
23232,-90.9090909090909,4,1,0,80,0,0
23410,-95.1914061198555,4,1,0,80,0,0
23587,-99.8970061866216,4,1,0,80,0,0
23765,-105.092134274118,4,1,0,80,0,0
23943,-111.111111111111,4,1,0,80,0,0
24120,-105.263157894737,4,1,0,80,0,0
24298,-100,4,1,0,80,0,0
24475,-95.2380952380952,4,1,0,80,0,0
24653,-90.9090909090909,4,1,0,80,0,0
24741,-95.1914061198555,4,1,0,80,0,0
24918,-99.8970061866216,4,1,0,80,0,0
25096,-105.092134274118,4,1,0,80,0,0
25274,-111.111111111111,4,1,0,80,0,0
25451,-105.263157894737,4,1,0,80,0,0
25629,-100,4,1,0,80,0,0
25806,-95.2380952380952,4,1,0,80,0,0
25984,-90.9090909090909,4,1,0,80,0,0
26250,-95.2380952380952,4,1,0,80,0,0
26339,-97.5609756097561,4,1,0,80,0,0
26428,-100,4,1,0,80,0,0
26605,-105.263157894737,4,1,0,80,0,0
26783,-111.111111111111,4,1,0,80,0,0
26960,-105.263157894737,4,1,0,80,0,0
27049,-102.564102564103,4,1,0,80,0,0
27138,-100,4,1,0,80,0,0
27315,-95.2380952380952,4,1,0,80,0,0
27493,-90.9090909090909,4,1,0,80,0,0
30156,-111.111111111111,4,1,0,80,0,0
30333,-90.9090909090908,4,1,0,80,0,0
34416,355.029585798817,4,1,0,80,1,0
34416,-83.3333333333333,4,1,0,80,0,0
35658,355.029585798817,4,1,0,80,1,0
35658,-80,4,1,0,80,0,0
36900,355.029585798817,4,1,0,80,1,0
36900,-76.9230769230769,4,1,0,80,0,0
39385,355.029585798817,4,1,0,80,1,0
39385,-71.4285714285714,4,1,0,80,0,0
39651,-66.6666666666667,4,1,0,80,0,0
39917,-62.5,4,1,0,80,0,0
40183,-58.8235294117647,4,1,0,80,0,0
40450,-55.5555555555556,4,1,0,80,0,0
40538,-54.054054054054,4,1,0,80,0,0
40627,-52.6315789473684,4,1,0,80,0,0
40716,-51.2820512820513,4,1,0,80,0,0
40805,-50,4,1,0,80,0,0
42669,-55.5555555555556,4,1,0,80,0,0
42757,-56.1797752808989,4,1,0,80,0,0
42846,-56.8181818181818,4,1,0,80,0,0
42935,-57.4712643678161,4,1,0,80,0,0
43024,-58.1395348837209,4,1,0,80,0,0
43112,-58.8235294117647,4,1,0,80,0,0
43201,-59.5238095238095,4,1,0,80,0,0
43290,-60.2409638554217,4,1,0,80,0,0
43379,-60.9756097560976,4,1,0,80,0,0
43467,-61.7283950617284,4,1,0,80,0,0
43556,-62.5,4,1,0,80,0,0
43645,-50,4,1,0,80,0,0
45509,-55.5555555555556,4,1,0,80,0,0
45598,-56.1797752808989,4,1,0,80,0,0
45686,-56.8181818181818,4,1,0,80,0,0
45775,-57.4712643678161,4,1,0,80,0,0
45864,-58.1395348837209,4,1,0,80,0,0
45953,-58.8235294117647,4,1,0,80,0,0
46041,-59.5238095238095,4,1,0,80,0,0
46130,-60.2409638554217,4,1,0,80,0,0
46219,-60.9756097560976,4,1,0,80,0,0
46308,-61.7283950617284,4,1,0,80,0,0
46396,-62.5,4,1,0,80,0,0
46485,-50,4,1,0,80,0,0
48349,-55.5555555555556,4,1,0,80,0,0
48438,-56.1745680877896,4,1,0,80,0,0
48527,-56.8074981352939,4,1,0,80,0,0
48615,-57.4548864231805,4,1,0,80,0,0
48704,-58.1172003084861,4,1,0,80,0,0
48793,-58.7949619772981,4,1,0,80,0,0
48882,-59.4886828729702,4,1,0,80,0,0
48970,-60.199005873617,4,1,0,80,0,0
49059,-60.9264970554224,4,1,0,80,0,0
49148,-61.6717484187364,4,1,0,80,0,0
49237,-62.4354963278563,4,1,0,80,0,0
49325,-49.9587091269066,4,1,0,80,0,0
50657,-55.5555555555556,4,1,0,80,0,0
50745,-56.2724034506238,4,1,0,80,0,0
50834,-57.0079925205514,4,1,0,80,0,0
50923,-57.7630674499339,4,1,0,80,0,0
51100,-59.3348562613107,4,1,0,80,0,0
51189,-60.1532705333189,4,1,0,80,0,0
51278,-60.994577582053,4,1,0,80,0,0
51367,-61.8597133049727,4,1,0,80,0,0
51456,-62.749783356373,4,1,0,80,0,0
51544,-63.6658409207099,4,1,0,80,0,0
51633,-64.6090410015435,4,1,0,80,0,0
51677,-65.0911992793102,4,1,0,80,0,0
51722,-65.5806080765142,4,1,0,80,0,0
51766,-66.0774321781236,4,1,0,80,0,0
51811,355.029585798817,4,1,0,80,1,1
51811,-66.5818414007221,4,1,0,80,0,1
57491,-66.5818414007221,4,1,0,80,0,0
58911,-66.5818414007221,4,1,0,80,0,1
60331,-66.6666666666667,4,1,0,80,0,1
60420,-67.2268907563025,4,1,0,80,0,1
60509,-67.7966101694915,4,1,0,80,0,1
60597,-68.3760683760684,4,1,0,80,0,1
60686,-68.9655172413793,4,1,0,80,0,1
60775,-69.5652173913043,4,1,0,80,0,1
60864,-70.1754385964912,4,1,0,80,0,1
60953,-70.7964601769911,4,1,0,80,0,1
61041,-71.4285714285714,4,1,0,80,0,1
61130,-72.0720720720721,4,1,0,80,0,1
61219,-72.7272727272727,4,1,0,80,0,1
61308,-73.394495412844,4,1,0,80,0,1
61396,-74.0740740740741,4,1,0,80,0,1
61485,-74.7663551401869,4,1,0,80,0,1
61574,-75.4716981132076,4,1,0,80,0,1
61663,-76.1904761904762,4,1,0,80,0,1
61751,-76.9230769230769,4,1,0,80,0,1
61870,-74.0740740740741,4,1,0,80,0,1
61988,-71.4285714285714,4,1,0,80,0,1
62106,-68.9655172413793,4,1,0,80,0,1
62225,-66.6666666666667,4,1,0,80,0,1
62343,-64.5161290322581,4,1,0,80,0,1
62461,-62.5,4,1,0,80,0,1
63171,-62.5,4,1,0,80,0,0
63260,-83.3333333333333,4,1,0,80,0,0
66012,-83.3333333333333,4,1,0,80,0,0
66189,-82.8402268828134,4,1,0,80,0,0
66455,-82.1114465819879,4,1,0,80,0,0
66544,-81.8713163024621,4,1,0,80,0,0
66633,-81.6326530612245,4,1,0,80,0,0
66722,-81.3953772309455,4,1,0,80,0,0
66811,-81.1594108800683,4,1,0,80,0,0
66899,-80.9248742022831,4,1,0,80,0,0
66988,-80.6916240480406,4,1,0,80,0,0
67166,-80.2291987750606,4,1,0,80,0,0
67210,-80.1144675512372,4,1,0,80,0,0
67254,-80,4,1,0,80,0,0
67343,-79.772107044595,4,1,0,80,0,0
67387,-79.6586150393872,4,1,0,80,0,0
67432,-79.5454455061994,4,1,0,80,0,0
67521,-79.3201312906813,4,1,0,80,0,0
67609,-79.0960273229317,4,1,0,80,0,0
67698,-78.8732483237463,4,1,0,80,0,0
67787,-78.6516588814633,4,1,0,80,0,0
67876,-78.4313725490196,4,1,0,80,0,0
67964,-78.2123167192123,4,1,0,80,0,0
68053,-77.9944202791732,4,1,0,80,0,0
68142,-77.7777950617322,4,1,0,80,0,0
68319,-77.3480748450911,4,1,0,80,0,0
68497,355.029585798817,4,1,0,80,1,0
68497,-76.923076923077,4,1,0,80,0,0
69739,355.029585798817,4,1,0,80,1,0
69739,-74.0740740740741,4,1,0,80,0,0
70804,355.029585798817,4,1,0,80,1,0
70804,-71.4285714285714,4,1,0,80,0,0
71691,355.029585798817,4,1,0,80,1,0
71691,-68.9655172413793,4,1,0,80,0,0
72401,355.029585798817,4,1,0,80,1,0
72401,-66.6666666666667,4,1,0,80,0,0
73466,355.029585798817,4,1,0,80,1,0
73466,-66.6666666666667,4,1,0,80,0,0
73584,-68.5714442449015,4,1,0,80,0,0
73702,-70.588218685125,4,1,0,80,0,0
73821,-72.7272727272727,4,1,0,80,0,0
73939,-75.0000187500047,4,1,0,80,0,0
74057,-77.4193348595265,4,1,0,80,0,0
74176,-80,4,1,0,80,0,0
74294,-82.7586435196258,4,1,0,80,0,0
74412,-85.7142612244968,4,1,0,80,0,0
74531,-88.8888888888889,4,1,0,80,0,0
74649,-92.3077207100679,4,1,0,80,0,0
74767,-95.9999692800098,4,1,0,80,0,0
74886,-100,4,1,0,80,0,0
75241,-91.6666743055562,4,1,0,80,0,0
75596,-84.6153976331381,4,1,0,80,0,0
75862,-80,4,1,0,80,0,0
75951,-78.5714454081669,4,1,0,80,0,0
76128,-75.862058501785,4,1,0,80,0,0
76217,-74.5762762424594,4,1,0,80,0,0
76306,-73.3333528888941,4,1,0,80,0,0
76483,-70.9677373569202,4,1,0,80,0,0
76661,-68.7500214843817,4,1,0,80,0,0
76750,-67.6922951952686,4,1,0,80,0,0
76838,-66.6666666666667,4,1,0,80,0,0
77016,-76.9230769230769,4,1,0,80,0,0
77075,-72.2891740455841,4,1,0,80,0,0
77134,-68.1818026859539,4,1,0,80,0,0
77193,-64.5161290322581,4,1,0,80,0,0
77252,-61.2245022907148,4,1,0,80,0,0
77312,-58.2524158733173,4,1,0,80,0,0
77371,355.029585798817,4,1,0,80,1,1
77371,-55.5555555555556,4,1,0,80,0,1
87311,-55.5555555555556,4,1,0,80,0,0
87666,-55.5555555555556,4,1,0,80,0,0
87755,-56.3380281690141,4,1,0,80,0,0
87844,-57.1428571428571,4,1,0,80,0,0
87933,-57.9710144927536,4,1,0,80,0,0
88021,-58.8235294117647,4,1,0,80,0,0
88066,-59.2592592592593,4,1,0,80,0,0
88110,-59.7014925373134,4,1,0,80,0,0
88155,-60.1503759398496,4,1,0,80,0,0
88199,-60.6060606060606,4,1,0,80,0,0
88243,-61.0687022900763,4,1,0,80,0,0
88288,-61.5384615384615,4,1,0,80,0,0
88332,-62.015503875969,4,1,0,80,0,0
88376,-62.5,4,1,0,80,0,0
88465,-63.4920634920635,4,1,0,80,0,0
88554,-64.5161290322581,4,1,0,80,0,0
88643,-65.5737704918033,4,1,0,80,0,1
88731,-66.6666666666667,4,1,0,80,0,1
97252,-66.6666666666667,4,1,0,80,0,1
97341,-67.2268907563025,4,1,0,80,0,1
97430,-67.7966101694915,4,1,0,80,0,1
97518,-68.3760683760684,4,1,0,80,0,1
97607,-68.9655172413793,4,1,0,80,0,1
97696,-69.5652173913043,4,1,0,80,0,1
97785,-70.1754385964912,4,1,0,80,0,1
97873,-70.7964601769911,4,1,0,80,0,1
97962,-71.4285714285714,4,1,0,80,0,1
98051,-72.0720720720721,4,1,0,80,0,1
98140,-72.7272727272727,4,1,0,80,0,1
98228,-73.394495412844,4,1,0,80,0,1
98317,-74.0740740740741,4,1,0,80,0,1
98406,-74.7663551401869,4,1,0,80,0,1
98495,-75.4716981132076,4,1,0,80,0,1
98584,-76.1904761904762,4,1,0,80,0,1
98672,-76.9230769230769,4,1,0,80,0,1
98761,-75.4716981132076,4,1,0,80,0,1
98850,-74.0740740740741,4,1,0,80,0,1
98939,-72.7272727272727,4,1,0,80,0,1
99027,-71.4285714285714,4,1,0,80,0,1
99116,-70.1754385964912,4,1,0,80,0,1
99205,-68.9655172413793,4,1,0,80,0,1
99249,-68.3760683760684,4,1,0,80,0,1
99294,-67.7966101694915,4,1,0,80,0,1
99382,-66.6666666666667,4,1,0,80,0,1
99471,-65.5737704918033,4,1,0,80,0,1
99560,-64.5161290322581,4,1,0,80,0,1
99604,-64,4,1,0,80,0,1
99649,-63.4920634920635,4,1,0,80,0,1
99737,-62.5,4,1,0,80,0,0
100004,-62.5,4,1,0,80,0,1
105773,-62.5,4,1,0,80,0,0
107193,-62.5,4,1,0,80,0,1
108613,-62.5,4,1,0,80,0,1
108702,-62.992125984252,4,1,0,80,0,1
108791,-63.4920634920635,4,1,0,80,0,1
108879,-64,4,1,0,80,0,1
108968,-64.5161290322581,4,1,0,80,0,1
109057,-65.0406504065041,4,1,0,80,0,1
109146,-65.5737704918033,4,1,0,80,0,1
109234,-66.1157024793389,4,1,0,80,0,1
109323,-66.6666666666667,4,1,0,80,0,1
109412,-67.2268907563025,4,1,0,80,0,1
109501,-67.7966101694915,4,1,0,80,0,1
109589,-68.3760683760684,4,1,0,80,0,1
109678,-68.9655172413793,4,1,0,80,0,1
109767,-69.5652173913043,4,1,0,80,0,1
109856,-70.1754385964912,4,1,0,80,0,1
109944,-70.7964601769911,4,1,0,80,0,1
110033,-71.4285714285714,4,1,0,80,0,1
110152,-69.7674580854554,4,1,0,80,0,1
110270,-68.1818026859539,4,1,0,80,0,1
110388,-66.6666666666667,4,1,0,80,0,1
110507,-65.2174054820447,4,1,0,80,0,1
110625,-63.8297736532396,4,1,0,80,0,1
110743,-62.5,4,1,0,80,0,1
111453,-62.5,4,1,0,80,0,1
111631,-64.8006246780219,4,1,0,80,0,1
111808,-67.2770489057052,4,1,0,80,0,1
111986,-69.9503212818257,4,1,0,80,0,1
112163,-72.8448310400566,4,1,0,80,0,1
112252,-74.3837861198367,4,1,0,80,0,1
112341,-75.9892277670717,4,1,0,80,0,1
112430,-77.6654390349603,4,1,0,80,0,1
112518,-79.4172678553843,4,1,0,80,0,1
112607,-81.2500152343779,4,1,0,80,0,1
112696,-83.1692819247368,4,1,0,80,0,1
112873,-86.2068965517241,4,1,0,80,0,1
112962,-86.9565217391304,4,1,0,80,0,1
113228,-90.9090909090909,4,1,0,80,0,1
113495,-95.2380952380952,4,1,0,80,0,1
113761,-100,4,1,0,80,0,1
113939,-66.6666666666667,4,1,0,80,0,1
114027,-68.3229983411176,4,1,0,80,0,1
114116,-70.0636808795514,4,1,0,80,0,1
114205,-71.895429535649,4,1,0,80,0,1
114294,-73.8255281293718,4,1,0,80,0,0
114338,-74.8299116109084,4,1,0,80,0,0
114382,-75.862058501785,4,1,0,80,0,0
114427,-76.9230769230769,4,1,0,80,0,0
114560,-25,4,1,0,80,0,1
114649,-16.6666666666667,4,1,0,80,0,0

[HitObjects]
324,106,1400,5,8,0:0:0:0:
352,121,2820,1,8,0:0:0:0:
352,121,3086,1,8,0:0:0:0:
352,121,3352,1,8,0:0:0:0:
352,121,3618,1,8,0:0:0:0:
356,118,3885,1,0,0:0:0:0:
356,118,3973,1,0,0:0:0:0:
356,118,4062,1,0,0:0:0:0:
356,118,4151,1,0,0:0:0:0:
371,117,4240,1,8,0:0:0:0:
371,115,4417,1,0,0:0:0:0:
371,115,4595,1,8,0:0:0:0:
371,115,4684,1,8,0:0:0:0:
371,115,4772,1,0,0:0:0:0:
371,115,4861,1,0,0:0:0:0:
371,115,4950,1,8,0:0:0:0:
371,114,5039,1,0,0:0:0:0:
371,117,5216,1,8,0:0:0:0:
383,113,5305,1,0,0:0:0:0:
383,113,5394,1,8,0:0:0:0:
371,115,5482,1,8,0:0:0:0:
371,115,5571,1,0,0:0:0:0:
371,115,5660,1,8,0:0:0:0:
363,116,5837,1,0,0:0:0:0:
364,116,6015,1,8,0:0:0:0:
369,108,6104,1,8,0:0:0:0:
368,111,6192,1,0,0:0:0:0:
368,111,6281,1,0,0:0:0:0:
371,115,6370,1,8,0:0:0:0:
371,115,6459,1,8,0:0:0:0:
371,115,6636,1,0,0:0:0:0:
383,109,6725,1,8,0:0:0:0:
382,93,6902,1,0,0:0:0:0:
379,98,6961,1,0,0:0:0:0:
378,95,7020,1,0,0:0:0:0:
378,95,7080,1,8,0:0:0:0:
383,92,7168,1,8,0:0:0:0:
386,103,7257,1,0,0:0:0:0:
389,99,7346,1,0,0:0:0:0:
386,103,7435,1,8,0:0:0:0:
393,101,7523,1,0,0:0:0:0:
393,101,7701,1,8,0:0:0:0:
393,101,7790,1,8,0:0:0:0:
392,101,7878,1,0,0:0:0:0:
392,101,7967,1,8,0:0:0:0:
392,101,8056,1,0,0:0:0:0:
392,101,8145,1,8,0:0:0:0:
389,99,8322,1,0,0:0:0:0:
382,105,8367,1,0,0:0:0:0:
386,103,8411,1,0,0:0:0:0:
382,105,8500,1,8,0:0:0:0:
399,96,8588,1,8,0:0:0:0:
399,96,8677,1,0,0:0:0:0:
399,96,8722,1,0,0:0:0:0:
399,96,8766,1,0,0:0:0:0:
401,92,8855,1,8,0:0:0:0:
401,101,8943,1,8,0:0:0:0:
401,101,9032,1,0,0:0:0:0:
398,99,9121,1,8,0:0:0:0:
393,97,9210,1,8,0:0:0:0:
399,100,9298,1,0,0:0:0:0:
390,73,9343,1,0,0:0:0:0:
393,97,9387,1,8,0:0:0:0:
391,97,9564,1,0,0:0:0:0:
410,106,9742,1,8,0:0:0:0:
400,96,9830,1,8,0:0:0:0:
401,101,9919,1,0,0:0:0:0:
401,101,10008,1,0,0:0:0:0:
402,96,10097,1,8,0:0:0:0:
402,96,10185,1,0,0:0:0:0:
402,96,10363,1,8,0:0:0:0:
408,94,10452,1,0,0:0:0:0:
416,93,10540,1,8,0:0:0:0:
417,94,10629,1,8,0:0:0:0:
417,94,10718,1,0,0:0:0:0:
414,93,10807,1,8,0:0:0:0:
418,89,10984,1,0,0:0:0:0:
418,89,11162,1,8,0:0:0:0:
418,89,11250,1,8,0:0:0:0:
418,89,11339,1,0,0:0:0:0:
419,89,11428,1,0,0:0:0:0:
419,89,11517,1,8,0:0:0:0:
419,89,11605,1,8,0:0:0:0:
419,89,11783,1,0,0:0:0:0:
418,89,11872,1,8,0:0:0:0:
418,89,12049,1,0,0:0:0:0:
429,76,12108,1,0,0:0:0:0:
430,75,12167,1,8,0:0:0:0:
429,76,12227,1,8,0:0:0:0:
431,72,12404,1,0,0:0:0:0:
431,73,12493,1,0,0:0:0:0:
434,73,12582,1,8,0:0:0:0:
433,72,12670,1,0,0:0:0:0:
433,72,12848,1,8,0:0:0:0:
433,72,12937,1,8,0:0:0:0:
433,72,13025,1,0,0:0:0:0:
433,72,13114,1,8,0:0:0:0:
430,75,13203,1,0,0:0:0:0:
431,72,13292,1,8,0:0:0:0:
431,73,13469,1,0,0:0:0:0:
433,72,13647,1,8,0:0:0:0:
433,72,13691,1,8,0:0:0:0:
433,72,13735,1,0,0:0:0:0:
433,72,13824,1,8,0:0:0:0:
433,72,13913,1,0,0:0:0:0:
433,72,14002,1,8,0:0:0:0:
433,72,14090,1,8,0:0:0:0:
432,67,14179,1,0,0:0:0:0:
431,72,14268,1,8,0:0:0:0:
432,67,14357,1,8,0:0:0:0:
432,66,14445,1,8,0:0:0:0:
432,66,14534,1,0,0:0:0:0:
432,66,14623,1,0,0:0:0:0:
449,69,14712,1,0,0:0:0:0:
333,102,15067,1,8,0:0:0:0:
333,102,15422,1,0,0:0:0:0:
362,100,15599,1,0,0:0:0:0:
362,100,15777,1,8,0:0:0:0:
362,100,16132,1,0,0:0:0:0:
388,91,16309,1,0,0:0:0:0:
362,100,16487,1,8,0:0:0:0:
388,91,16842,1,0,0:0:0:0:
388,91,17019,1,0,0:0:0:0:
388,91,17197,1,8,0:0:0:0:
388,91,17374,1,8,0:0:0:0:
382,94,17552,1,8,0:0:0:0:
388,91,17907,1,0,0:0:0:0:
382,94,18262,1,8,0:0:0:0:
403,89,18617,1,0,0:0:0:0:
411,80,18661,1,0,0:0:0:0:
412,80,18706,1,0,0:0:0:0:
411,80,18750,1,0,0:0:0:0:
401,83,18972,1,8,0:0:0:0:
411,74,19150,1,0,0:0:0:0:
411,74,19327,1,8,0:0:0:0:
411,80,19682,1,8,0:0:0:0:
411,80,19860,1,8,0:0:0:0:
411,74,20037,1,0,0:0:0:0:
411,80,20392,1,0,0:0:0:0:
411,80,20570,1,8,0:0:0:0:
411,80,20747,1,0,0:0:0:0:
407,80,21014,1,8,0:0:0:0:
411,80,21102,1,0,0:0:0:0:
411,80,21280,1,0,0:0:0:0:
411,80,21457,1,8,0:0:0:0:
411,80,21635,1,8,0:0:0:0:
407,80,21812,1,0,0:0:0:0:
407,80,21901,1,0,0:0:0:0:
407,80,21990,1,0,0:0:0:0:
405,83,22167,1,8,0:0:0:0:
418,87,22345,1,0,0:0:0:0:
377,88,22522,1,8,0:0:0:0:
369,85,22567,1,8,0:0:0:0:
377,84,22611,1,0,0:0:0:0:
377,84,22656,1,0,0:0:0:0:
411,72,22877,1,0,0:0:0:0:
412,72,23055,1,0,0:0:0:0:
425,84,23232,1,8,0:0:0:0:
425,84,23410,1,8,0:0:0:0:
413,79,23587,1,8,0:0:0:0:
413,79,23765,1,8,0:0:0:0:
414,79,23943,1,0,0:0:0:0:
420,67,24120,1,0,0:0:0:0:
421,67,24298,1,0,0:0:0:0:
421,67,24475,1,0,0:0:0:0:
421,67,24653,1,8,0:0:0:0:
421,67,24830,1,8,0:0:0:0:
439,72,25008,1,0,0:0:0:0:
447,71,25185,1,0,0:0:0:0:
439,72,25363,1,8,0:0:0:0:
439,72,25540,1,8,0:0:0:0:
439,72,25718,1,8,0:0:0:0:
439,72,25895,1,8,0:0:0:0:
436,73,26073,1,0,0:0:0:0:
435,75,26250,1,8,0:0:0:0:
435,75,26339,1,0,0:0:0:0:
435,75,26428,1,8,0:0:0:0:
439,72,26605,1,0,0:0:0:0:
435,75,26783,1,8,0:0:0:0:
436,73,26960,1,0,0:0:0:0:
436,73,27049,1,8,0:0:0:0:
435,75,27138,1,0,0:0:0:0:
435,75,27315,1,8,0:0:0:0:
439,72,27493,1,0,0:0:0:0:
435,75,27670,1,8,0:0:0:0:
435,75,27759,1,8,0:0:0:0:
436,73,27848,1,0,0:0:0:0:
436,73,27937,1,8,0:0:0:0:
436,73,28114,1,8,0:0:0:0:
435,75,28203,1,0,0:0:0:0:
435,75,28292,1,0,0:0:0:0:
439,72,28380,1,8,0:0:0:0:
439,72,28469,1,8,0:0:0:0:
444,65,28558,1,0,0:0:0:0:
442,66,28647,1,8,0:0:0:0:
442,66,28824,1,8,0:0:0:0:
441,66,28913,1,0,0:0:0:0:
441,66,29002,1,8,0:0:0:0:
441,66,29090,1,8,0:0:0:0:
441,66,29179,1,8,0:0:0:0:
444,61,29268,1,0,0:0:0:0:
453,69,29357,1,0,0:0:0:0:
452,69,29445,1,8,0:0:0:0:
452,68,29534,1,8,0:0:0:0:
452,67,29623,1,0,0:0:0:0:
452,67,29712,1,0,0:0:0:0:
449,67,29800,1,8,0:0:0:0:
441,66,29978,1,8,0:0:0:0:
441,66,30156,1,0,0:0:0:0:
426,64,30200,1,0,0:0:0:0:
426,64,30244,1,0,0:0:0:0:
426,64,30289,1,0,0:0:0:0:
440,71,30333,1,8,0:0:0:0:
452,68,30511,1,8,0:0:0:0:
452,67,30599,1,8,0:0:0:0:
452,67,30688,1,0,0:0:0:0:
449,67,30777,1,8,0:0:0:0:
454,66,30866,1,0,0:0:0:0:
430,73,30954,1,8,0:0:0:0:
435,63,31132,1,0,0:0:0:0:
435,62,31221,1,0,0:0:0:0:
446,61,31309,1,8,0:0:0:0:
434,63,31398,1,8,0:0:0:0:
443,62,31487,1,0,0:0:0:0:
443,62,31576,1,0,0:0:0:0:
443,62,31664,1,0,0:0:0:0:
443,62,31753,1,8,0:0:0:0:
449,56,31842,1,8,0:0:0:0:
449,56,31931,1,0,0:0:0:0:
452,54,32108,1,8,0:0:0:0:
452,53,32286,1,0,0:0:0:0:
451,55,32374,1,8,0:0:0:0:
451,55,32463,1,0,0:0:0:0:
451,55,32552,1,0,0:0:0:0:
451,55,32641,1,8,0:0:0:0:
451,55,32729,1,0,0:0:0:0:
451,55,32818,1,8,0:0:0:0:
452,54,32996,1,0,0:0:0:0:
452,53,33173,1,8,0:0:0:0:
451,55,33351,1,0,0:0:0:0:
451,55,33440,1,8,0:0:0:0:
451,55,33528,1,0,0:0:0:0:
451,55,33617,1,0,0:0:0:0:
451,55,33706,1,8,0:0:0:0:
451,55,33795,1,0,0:0:0:0:
452,54,33883,1,8,0:0:0:0:
452,54,33972,1,8,0:0:0:0:
452,53,34061,1,0,0:0:0:0:
452,53,34150,1,0,0:0:0:0:
451,55,34238,1,8,0:0:0:0:
441,54,34327,1,0,0:0:0:0:
451,55,34416,1,8,0:0:0:0:
451,55,34504,1,8,0:0:0:0:
445,54,34593,1,0,0:0:0:0:
444,54,34682,1,0,0:0:0:0:
451,55,34771,1,8,0:0:0:0:
445,54,34859,1,0,0:0:0:0:
445,54,34948,1,8,0:0:0:0:
445,54,35037,1,8,0:0:0:0:
443,54,35126,1,0,0:0:0:0:
443,54,35214,1,0,0:0:0:0:
441,54,35303,1,8,0:0:0:0:
443,54,35392,1,8,0:0:0:0:
443,54,35481,1,0,0:0:0:0:
445,54,35569,1,0,0:0:0:0:
444,54,35658,1,8,0:0:0:0:
443,54,35746,1,8,0:0:0:0:
439,55,35835,1,8,0:0:0:0:
439,55,35924,1,8,0:0:0:0:
439,55,36013,1,0,0:0:0:0:
443,54,36101,1,0,0:0:0:0:
443,54,36190,1,8,0:0:0:0:
441,54,36279,1,0,0:0:0:0:
443,54,36368,1,8,0:0:0:0:
443,54,36456,1,8,0:0:0:0:
437,54,36545,1,0,0:0:0:0:
437,54,36634,1,8,0:0:0:0:
437,54,36723,1,8,0:0:0:0:
439,55,36811,1,8,0:0:0:0:
439,55,36900,1,0,0:0:0:0:
439,55,36988,1,8,0:0:0:0:
436,54,37077,1,8,0:0:0:0:
436,54,37166,1,0,0:0:0:0:
441,54,37255,1,8,0:0:0:0:
441,54,37343,1,8,0:0:0:0:
443,54,37432,1,0,0:0:0:0:
443,55,37521,1,0,0:0:0:0:
432,57,37610,1,8,0:0:0:0:
432,57,37787,1,0,0:0:0:0:
432,57,37965,1,8,0:0:0:0:
432,57,38053,1,8,0:0:0:0:
432,57,38142,1,0,0:0:0:0:
428,59,38231,1,0,0:0:0:0:
428,59,38320,1,0,0:0:0:0:
420,56,39385,1,8,0:0:0:0:
420,56,39651,1,8,0:0:0:0:
420,56,39917,1,8,0:0:0:0:
420,56,40183,1,8,0:0:0:0:
424,61,40450,1,8,0:0:0:0:
411,55,40538,1,0,0:0:0:0:
412,55,40627,1,8,0:0:0:0:
412,55,40716,1,0,0:0:0:0:
412,55,40805,1,8,0:0:0:0:
412,55,40893,1,8,0:0:0:0:
412,55,41071,1,8,0:0:0:0:
412,55,41160,1,8,0:0:0:0:
411,55,41337,1,8,0:0:0:0:
412,55,41426,1,8,0:0:0:0:
408,69,41603,1,8,0:0:0:0:
411,65,41692,1,8,0:0:0:0:
408,69,41870,1,8,0:0:0:0:
411,65,41958,1,8,0:0:0:0:
408,69,42136,1,8,0:0:0:0:
410,66,42225,1,8,0:0:0:0:
402,64,42402,1,8,0:0:0:0:
408,63,42491,1,8,0:0:0:0:
411,65,42669,1,8,0:0:0:0:
411,65,42757,1,8,0:0:0:0:
397,83,42846,1,0,0:0:0:0:
412,71,42935,1,8,0:0:0:0:
414,69,43024,1,8,0:0:0:0:
416,66,43112,1,0,0:0:0:0:
410,66,43201,1,0,0:0:0:0:
413,68,43290,1,8,0:0:0:0:
413,68,43379,1,0,0:0:0:0:
422,67,43467,1,8,0:0:0:0:
419,65,43556,1,0,0:0:0:0:
419,65,43645,1,8,0:0:0:0:
421,58,43734,1,8,0:0:0:0:
428,64,43911,1,8,0:0:0:0:
428,64,44000,1,8,0:0:0:0:
428,64,44177,1,8,0:0:0:0:
428,64,44266,1,8,0:0:0:0:
428,64,44444,1,8,0:0:0:0:
428,64,44532,1,8,0:0:0:0:
428,64,44710,1,8,0:0:0:0:
428,64,44799,1,8,0:0:0:0:
428,64,44976,1,8,0:0:0:0:
428,64,45065,1,8,0:0:0:0:
428,64,45242,1,8,0:0:0:0:
428,64,45331,1,8,0:0:0:0:
428,64,45509,1,8,0:0:0:0:
428,64,45598,1,8,0:0:0:0:
428,64,45686,1,0,0:0:0:0:
416,73,45775,1,8,0:0:0:0:
428,64,45864,1,8,0:0:0:0:
436,69,45953,1,0,0:0:0:0:
436,69,46041,1,8,0:0:0:0:
436,69,46130,1,8,0:0:0:0:
436,69,46219,1,0,0:0:0:0:
436,69,46308,1,8,0:0:0:0:
436,69,46396,1,0,0:0:0:0:
436,69,46485,1,8,0:0:0:0:
428,64,46574,1,8,0:0:0:0:
428,69,46751,1,8,0:0:0:0:
428,69,46840,1,8,0:0:0:0:
428,69,47018,1,8,0:0:0:0:
428,69,47106,1,8,0:0:0:0:
428,69,47284,1,8,0:0:0:0:
428,69,47373,1,8,0:0:0:0:
428,69,47550,1,8,0:0:0:0:
428,69,47639,1,8,0:0:0:0:
428,69,47816,1,8,0:0:0:0:
428,69,47905,1,8,0:0:0:0:
428,69,48083,1,8,0:0:0:0:
428,69,48171,1,8,0:0:0:0:
428,69,48349,1,8,0:0:0:0:
428,69,48438,1,8,0:0:0:0:
428,69,48527,1,0,0:0:0:0:
428,69,48615,1,8,0:0:0:0:
428,69,48704,1,8,0:0:0:0:
428,69,48793,1,0,0:0:0:0:
428,69,48882,1,0,0:0:0:0:
428,69,48970,1,8,0:0:0:0:
428,69,49059,1,0,0:0:0:0:
428,69,49148,1,8,0:0:0:0:
428,69,49237,1,0,0:0:0:0:
428,69,49325,1,8,0:0:0:0:
434,63,49414,1,8,0:0:0:0:
433,64,49592,1,8,0:0:0:0:
433,64,49680,1,8,0:0:0:0:
433,64,49858,1,8,0:0:0:0:
433,64,49947,1,8,0:0:0:0:
433,64,50124,1,8,0:0:0:0:
433,64,50213,1,8,0:0:0:0:
433,64,50390,1,8,0:0:0:0:
433,64,50479,1,8,0:0:0:0:
433,64,50657,1,8,0:0:0:0:
433,64,50745,1,8,0:0:0:0:
433,64,50834,1,8,0:0:0:0:
433,64,50923,1,0,0:0:0:0:
433,64,51100,1,8,0:0:0:0:
433,64,51189,1,0,0:0:0:0:
433,64,51278,1,8,0:0:0:0:
445,79,51367,1,8,0:0:0:0:
439,79,51456,1,0,0:0:0:0:
451,80,51544,1,0,0:0:0:0:
449,84,51633,1,8,0:0:0:0:
444,68,51677,1,8,0:0:0:0:
444,69,51722,1,0,0:0:0:0:
439,70,51766,1,0,0:0:0:0:
439,70,51811,1,8,0:0:0:0:
470,63,51899,1,0,0:0:0:0:
460,74,51988,1,0,0:0:0:0:
454,90,52077,1,8,0:0:0:0:
448,68,52166,1,0,0:0:0:0:
448,68,52254,1,0,0:0:0:0:
436,75,52343,1,8,0:0:0:0:
446,74,52432,1,8,0:0:0:0:
446,73,52521,1,0,0:0:0:0:
436,75,52609,1,8,0:0:0:0:
446,73,52698,1,8,0:0:0:0:
445,73,52787,1,0,0:0:0:0:
436,75,52876,1,8,0:0:0:0:
441,72,52964,1,0,0:0:0:0:
445,73,53053,1,0,0:0:0:0:
436,75,53142,1,8,0:0:0:0:
448,68,53231,1,0,0:0:0:0:
446,72,53319,1,0,0:0:0:0:
436,75,53408,1,8,0:0:0:0:
446,73,53497,1,8,0:0:0:0:
446,72,53586,1,0,0:0:0:0:
436,75,53674,1,8,0:0:0:0:
445,73,53763,1,8,0:0:0:0:
446,72,53852,1,0,0:0:0:0:
434,80,53941,1,8,0:0:0:0:
445,73,54029,1,0,0:0:0:0:
469,76,54118,1,8,0:0:0:0:
494,79,54207,1,0,0:0:0:0:
494,79,54296,1,8,0:0:0:0:
494,79,54384,1,8,0:0:0:0:
494,79,54473,1,0,0:0:0:0:
494,79,54562,1,0,0:0:0:0:
434,80,54651,1,8,0:0:0:0:
474,59,54739,1,0,0:0:0:0:
474,59,54828,1,0,0:0:0:0:
424,82,54917,1,8,0:0:0:0:
474,59,55006,1,0,0:0:0:0:
473,59,55095,1,0,0:0:0:0:
428,81,55183,1,8,0:0:0:0:
474,59,55272,1,8,0:0:0:0:
474,59,55361,1,0,0:0:0:0:
428,81,55450,1,8,0:0:0:0:
474,59,55538,1,0,0:0:0:0:
474,59,55627,1,0,0:0:0:0:
429,81,55716,1,8,0:0:0:0:
474,59,55805,1,8,0:0:0:0:
474,59,55893,1,0,0:0:0:0:
428,81,55982,1,8,0:0:0:0:
477,58,56071,1,8,0:0:0:0:
480,57,56160,1,0,0:0:0:0:
480,57,56248,1,8,0:0:0:0:
480,57,56337,1,0,0:0:0:0:
480,57,56426,1,0,0:0:0:0:
429,81,56515,1,8,0:0:0:0:
493,61,56603,1,0,0:0:0:0:
493,61,56692,1,0,0:0:0:0:
428,81,56781,1,8,0:0:0:0:
493,61,56870,1,8,0:0:0:0:
493,61,56958,1,0,0:0:0:0:
428,81,57047,1,8,0:0:0:0:
493,61,57136,1,0,0:0:0:0:
491,64,57195,1,0,0:0:0:0:
367,100,57254,1,0,0:0:0:0:
429,81,57313,1,8,0:0:0:0:
447,78,57402,1,0,0:0:0:0:
429,81,57491,1,8,0:0:0:0:
394,75,57580,1,8,0:0:0:0:
428,81,57757,1,8,0:0:0:0:
399,78,57846,1,8,0:0:0:0:
428,81,58024,1,8,0:0:0:0:
399,78,58112,1,8,0:0:0:0:
429,81,58290,1,8,0:0:0:0:
434,78,58334,1,8,0:0:0:0:
399,78,58379,1,0,0:0:0:0:
428,81,58556,1,8,0:0:0:0:
445,80,58600,1,8,0:0:0:0:
411,86,58645,1,0,0:0:0:0:
444,80,58734,1,8,0:0:0:0:
411,89,58778,1,8,0:0:0:0:
429,66,58822,1,0,0:0:0:0:
454,75,58911,1,8,0:0:0:0:
433,84,59000,1,0,0:0:0:0:
429,81,59089,1,8,0:0:0:0:
436,85,59177,1,8,0:0:0:0:
436,85,59266,1,0,0:0:0:0:
428,81,59355,1,8,0:0:0:0:
436,85,59444,1,8,0:0:0:0:
436,85,59532,1,0,0:0:0:0:
430,78,59621,1,8,0:0:0:0:
436,85,59710,1,0,0:0:0:0:
437,85,59799,1,0,0:0:0:0:
429,81,59887,1,8,0:0:0:0:
433,84,59976,1,0,0:0:0:0:
437,85,60065,1,0,0:0:0:0:
419,79,60154,1,8,0:0:0:0:
436,85,60242,1,0,0:0:0:0:
422,79,60331,1,8,0:0:0:0:
446,90,60420,1,8,0:0:0:0:
449,90,60509,1,0,0:0:0:0:
433,89,60597,1,8,0:0:0:0:
436,85,60686,1,8,0:0:0:0:
449,90,60775,1,0,0:0:0:0:
433,89,60864,1,8,0:0:0:0:
433,84,60953,1,0,0:0:0:0:
450,89,61041,1,0,0:0:0:0:
436,87,61130,1,8,0:0:0:0:
436,85,61219,1,8,0:0:0:0:
436,87,61308,1,0,0:0:0:0:
433,89,61396,1,8,0:0:0:0:
468,93,61485,1,0,0:0:0:0:
468,93,61574,1,8,0:0:0:0:
468,93,61663,1,8,0:0:0:0:
433,89,61751,1,0,0:0:0:0:
417,158,61870,1,0,0:0:0:0:
424,140,61988,1,8,0:0:0:0:
425,140,62106,1,8,0:0:0:0:
425,140,62225,1,0,0:0:0:0:
425,140,62343,1,0,0:0:0:0:
443,91,62461,1,8,0:0:0:0:
429,108,62506,1,8,0:0:0:0:
430,108,62550,1,0,0:0:0:0:
431,108,62595,1,0,0:0:0:0:
443,91,62639,1,8,0:0:0:0:
436,120,62728,1,0,0:0:0:0:
436,120,62772,1,0,0:0:0:0:
436,120,62816,1,8,0:0:0:0:
443,91,62905,1,8,0:0:0:0:
443,91,62994,1,0,0:0:0:0:
443,113,63083,1,8,0:0:0:0:
440,120,63171,1,8,0:0:0:0:
438,115,63349,1,8,0:0:0:0:
460,114,63615,1,0,0:0:0:0:
460,114,63704,1,0,0:0:0:0:
458,115,63793,1,0,0:0:0:0:
462,114,63882,1,8,0:0:0:0:
462,114,63970,1,8,0:0:0:0:
463,114,64148,1,8,0:0:0:0:
460,113,64325,1,0,0:0:0:0:
461,118,64414,1,0,0:0:0:0:
461,118,64503,1,8,0:0:0:0:
461,118,64592,1,8,0:0:0:0:
468,117,64769,1,8,0:0:0:0:
468,117,65035,1,0,0:0:0:0:
469,117,65124,1,0,0:0:0:0:
468,117,65213,1,0,0:0:0:0:
470,117,65302,1,8,0:0:0:0:
471,118,65390,1,0,0:0:0:0:
472,118,65568,1,0,0:0:0:0:
475,118,65745,1,0,0:0:0:0:
475,118,65834,1,0,0:0:0:0:
475,118,65923,1,0,0:0:0:0:
476,118,66012,1,8,0:0:0:0:
474,118,66189,1,8,0:0:0:0:
472,112,66455,1,0,0:0:0:0:
472,112,66544,1,0,0:0:0:0:
472,112,66633,1,0,0:0:0:0:
471,107,66722,1,8,0:0:0:0:
470,109,66811,1,8,0:0:0:0:
470,109,66899,1,0,0:0:0:0:
469,112,66988,1,8,0:0:0:0:
469,112,67166,1,0,0:0:0:0:
468,107,67210,1,0,0:0:0:0:
468,107,67254,1,8,0:0:0:0:
468,107,67343,1,0,0:0:0:0:
468,107,67387,1,0,0:0:0:0:
472,112,67432,1,8,0:0:0:0:
493,108,67521,1,0,0:0:0:0:
493,108,67609,1,0,0:0:0:0:
493,108,67698,1,0,0:0:0:0:
493,108,67787,1,8,0:0:0:0:
487,108,67876,1,8,0:0:0:0:
486,106,67964,1,0,0:0:0:0:
482,104,68053,1,0,0:0:0:0:
482,104,68142,1,8,0:0:0:0:
479,112,68319,1,8,0:0:0:0:
472,112,68497,1,0,0:0:0:0:
483,107,68585,1,8,0:0:0:0:
484,107,68763,1,8,0:0:0:0:
487,108,68852,1,0,0:0:0:0:
486,106,68940,1,8,0:0:0:0:
482,104,69029,1,8,0:0:0:0:
482,104,69118,1,0,0:0:0:0:
501,118,69207,1,8,0:0:0:0:
501,117,69295,1,0,0:0:0:0:
500,115,69384,1,0,0:0:0:0:
500,115,69473,1,8,0:0:0:0:
500,115,69562,1,8,0:0:0:0:
509,120,69650,1,0,0:0:0:0:
504,118,69739,1,8,0:0:0:0:
504,114,69916,1,0,0:0:0:0:
503,117,70005,1,8,0:0:0:0:
474,110,70094,1,8,0:0:0:0:
501,118,70182,1,0,0:0:0:0:
501,117,70271,1,8,0:0:0:0:
500,115,70360,1,0,0:0:0:0:
473,115,70449,1,0,0:0:0:0:
473,115,70537,1,8,0:0:0:0:
501,117,70626,1,8,0:0:0:0:
491,125,70715,1,0,0:0:0:0:
482,123,70804,1,8,0:0:0:0:
486,108,70981,1,0,0:0:0:0:
487,104,71070,1,0,0:0:0:0:
484,104,71159,1,8,0:0:0:0:
484,104,71247,1,8,0:0:0:0:
484,104,71336,1,0,0:0:0:0:
484,100,71425,1,8,0:0:0:0:
484,100,71514,1,0,0:0:0:0:
484,100,71602,1,0,0:0:0:0:
483,100,71691,1,8,0:0:0:0:
482,120,71868,1,0,0:0:0:0:
469,119,71957,1,8,0:0:0:0:
469,119,72046,1,0,0:0:0:0:
469,119,72134,1,0,0:0:0:0:
470,118,72223,1,8,0:0:0:0:
471,118,72312,1,0,0:0:0:0:
469,116,72401,1,8,0:0:0:0:
468,117,72489,1,8,0:0:0:0:
468,117,72578,1,0,0:0:0:0:
468,117,72667,1,0,0:0:0:0:
465,115,72756,1,8,0:0:0:0:
465,115,72844,1,0,0:0:0:0:
469,119,72933,1,0,0:0:0:0:
469,119,73022,1,0,0:0:0:0:
469,119,73111,1,8,0:0:0:0:
470,118,73199,1,0,0:0:0:0:
465,115,73288,1,0,0:0:0:0:
469,116,73377,1,8,0:0:0:0:
468,117,73466,1,0,0:0:0:0:
459,120,73584,1,0,0:0:0:0:
459,120,73702,1,0,0:0:0:0:
460,119,73821,1,0,0:0:0:0:
464,119,73939,1,0,0:0:0:0:
462,123,74057,1,0,0:0:0:0:
462,123,74176,1,8,0:0:0:0:
462,123,74294,1,8,0:0:0:0:
462,123,74412,1,8,0:0:0:0:
459,120,74531,1,8,0:0:0:0:
459,120,74649,1,8,0:0:0:0:
460,119,74767,1,8,0:0:0:0:
453,124,74886,1,0,0:0:0:0:
453,124,75241,1,0,0:0:0:0:
453,124,75596,1,0,0:0:0:0:
453,124,75862,1,0,0:0:0:0:
466,141,75951,1,8,0:0:0:0:
453,124,76128,1,0,0:0:0:0:
469,140,76217,1,8,0:0:0:0:
469,140,76306,1,0,0:0:0:0:
469,135,76483,1,8,0:0:0:0:
470,135,76661,1,0,0:0:0:0:
470,135,76750,1,8,0:0:0:0:
470,135,76838,1,0,0:0:0:0:
459,129,77016,1,0,0:0:0:0:
462,121,77075,1,0,0:0:0:0:
462,121,77134,1,0,0:0:0:0:
462,121,77193,1,0,0:0:0:0:
463,121,77252,1,0,0:0:0:0:
465,122,77312,1,0,0:0:0:0:
464,124,77371,1,8,0:0:0:0:
419,118,77459,1,8,0:0:0:0:
419,118,77548,1,8,0:0:0:0:
454,127,77637,1,8,0:0:0:0:
424,118,77726,1,8,0:0:0:0:
426,118,77814,1,8,0:0:0:0:
454,127,77903,1,8,0:0:0:0:
429,116,77992,1,8,0:0:0:0:
429,116,78081,1,8,0:0:0:0:
454,127,78169,1,8,0:0:0:0:
429,116,78258,1,8,0:0:0:0:
429,116,78347,1,8,0:0:0:0:
471,128,78436,1,8,0:0:0:0:
481,132,78524,1,8,0:0:0:0:
481,132,78613,1,8,0:0:0:0:
481,132,78702,1,8,0:0:0:0:
481,132,78791,1,8,0:0:0:0:
481,132,78879,1,8,0:0:0:0:
481,132,78968,1,8,0:0:0:0:
481,132,79057,1,8,0:0:0:0:
481,132,79146,1,8,0:0:0:0:
481,132,79234,1,8,0:0:0:0:
481,132,79323,1,8,0:0:0:0:
481,132,79412,1,8,0:0:0:0:
480,131,79501,1,8,0:0:0:0:
481,132,79589,1,8,0:0:0:0:
481,132,79678,1,8,0:0:0:0:
481,132,79767,1,8,0:0:0:0:
481,132,79856,1,8,0:0:0:0:
481,132,79944,1,8,0:0:0:0:
481,132,80033,1,8,0:0:0:0:
474,130,80122,1,8,0:0:0:0:
503,132,80211,1,8,0:0:0:0:
474,130,80299,1,8,0:0:0:0:
474,130,80388,1,8,0:0:0:0:
503,133,80477,1,8,0:0:0:0:
474,130,80566,1,8,0:0:0:0:
474,130,80655,1,8,0:0:0:0:
477,127,80743,1,8,0:0:0:0:
503,132,80832,1,8,0:0:0:0:
477,127,80921,1,8,0:0:0:0:
477,127,81010,1,8,0:0:0:0:
481,126,81098,1,8,0:0:0:0:
503,132,81187,1,8,0:0:0:0:
483,125,81276,1,8,0:0:0:0:
486,126,81365,1,8,0:0:0:0:
486,125,81453,1,8,0:0:0:0:
503,133,81542,1,8,0:0:0:0:
485,126,81631,1,8,0:0:0:0:
485,126,81720,1,8,0:0:0:0:
488,127,81808,1,8,0:0:0:0:
503,132,81897,1,8,0:0:0:0:
492,129,81986,1,8,0:0:0:0:
492,129,82075,1,8,0:0:0:0:
489,134,82163,1,8,0:0:0:0:
503,132,82252,1,8,0:0:0:0:
491,133,82341,1,8,0:0:0:0:
500,131,82430,1,8,0:0:0:0:
493,135,82518,1,8,0:0:0:0:
503,133,82607,1,8,0:0:0:0:
499,131,82696,1,8,0:0:0:0:
493,134,82785,1,8,0:0:0:0:
503,132,82873,1,8,0:0:0:0:
502,148,82962,1,8,0:0:0:0:
503,132,83051,1,8,0:0:0:0:
487,139,83140,1,8,0:0:0:0:
487,139,83228,1,8,0:0:0:0:
488,138,83317,1,8,0:0:0:0:
502,148,83406,1,8,0:0:0:0:
488,138,83495,1,8,0:0:0:0:
488,138,83584,1,8,0:0:0:0:
489,140,83672,1,8,0:0:0:0:
502,148,83761,1,8,0:0:0:0:
492,142,83850,1,8,0:0:0:0:
498,140,83939,1,8,0:0:0:0:
501,138,84027,1,8,0:0:0:0:
502,148,84116,1,8,0:0:0:0:
495,146,84205,1,8,0:0:0:0:
502,148,84294,1,8,0:0:0:0:
502,148,84382,1,8,0:0:0:0:
398,174,84471,1,8,0:0:0:0:
398,174,84560,1,8,0:0:0:0:
448,156,84649,1,8,0:0:0:0:
398,174,84737,1,8,0:0:0:0:
398,174,84826,1,8,0:0:0:0:
398,174,84915,1,8,0:0:0:0:
398,174,85004,1,8,0:0:0:0:
398,174,85092,1,8,0:0:0:0:
398,174,85181,1,8,0:0:0:0:
398,174,85270,1,8,0:0:0:0:
398,174,85359,1,8,0:0:0:0:
398,174,85447,1,8,0:0:0:0:
398,174,85536,1,8,0:0:0:0:
443,151,85625,1,8,0:0:0:0:
398,174,85714,1,8,0:0:0:0:
443,151,85802,1,8,0:0:0:0:
443,151,85891,1,8,0:0:0:0:
443,151,85980,1,8,0:0:0:0:
398,174,86069,1,8,0:0:0:0:
398,174,86157,1,8,0:0:0:0:
398,174,86246,1,8,0:0:0:0:
398,174,86335,1,8,0:0:0:0:
398,174,86424,1,8,0:0:0:0:
398,174,86513,1,8,0:0:0:0:
398,174,86601,1,8,0:0:0:0:
398,174,86690,1,8,0:0:0:0:
398,174,86779,1,8,0:0:0:0:
398,174,86868,1,8,0:0:0:0:
398,174,86956,1,8,0:0:0:0:
398,174,87045,1,8,0:0:0:0:
398,174,87134,1,8,0:0:0:0:
398,174,87223,1,8,0:0:0:0:
398,174,87311,1,8,0:0:0:0:
425,147,87400,1,8,0:0:0:0:
460,155,87489,1,0,0:0:0:0:
443,144,87666,1,8,0:0:0:0:
439,146,87755,1,0,0:0:0:0:
439,146,87844,1,8,0:0:0:0:
437,146,87933,1,0,0:0:0:0:
431,129,88021,1,8,0:0:0:0:
430,129,88066,1,8,0:0:0:0:
436,131,88110,1,0,0:0:0:0:
430,129,88155,1,0,0:0:0:0:
430,129,88199,1,8,0:0:0:0:
429,128,88243,1,8,0:0:0:0:
429,128,88288,1,0,0:0:0:0:
445,135,88332,1,0,0:0:0:0:
445,135,88376,1,8,0:0:0:0:
449,132,88465,1,8,0:0:0:0:
437,132,88554,1,0,0:0:0:0:
437,132,88643,1,8,0:0:0:0:
449,134,88731,1,0,0:0:0:0:
442,137,88820,1,0,0:0:0:0:
447,121,88909,1,8,0:0:0:0:
449,134,88998,1,0,0:0:0:0:
448,137,89086,1,0,0:0:0:0:
457,112,89175,1,8,0:0:0:0:
449,134,89264,1,8,0:0:0:0:
449,134,89353,1,0,0:0:0:0:
457,112,89442,1,8,0:0:0:0:
450,135,89530,1,8,0:0:0:0:
445,137,89619,1,0,0:0:0:0:
457,112,89708,1,8,0:0:0:0:
442,137,89797,1,0,0:0:0:0:
445,137,89885,1,0,0:0:0:0:
457,112,89974,1,8,0:0:0:0:
448,137,90063,1,0,0:0:0:0:
445,137,90152,1,0,0:0:0:0:
457,112,90240,1,8,0:0:0:0:
445,137,90329,1,8,0:0:0:0:
445,137,90418,1,0,0:0:0:0:
457,112,90506,1,8,0:0:0:0:
445,137,90595,1,8,0:0:0:0:
442,137,90684,1,0,0:0:0:0:
463,108,90773,1,8,0:0:0:0:
455,123,90862,1,0,0:0:0:0:
455,123,90950,1,0,0:0:0:0:
463,117,91039,1,8,0:0:0:0:
454,124,91128,1,0,0:0:0:0:
454,124,91217,1,0,0:0:0:0:
463,108,91305,1,8,0:0:0:0:
463,117,91394,1,8,0:0:0:0:
463,117,91483,1,0,0:0:0:0:
466,119,91572,1,8,0:0:0:0:
462,120,91660,1,0,0:0:0:0:
467,112,91749,1,8,0:0:0:0:
466,119,91838,1,0,0:0:0:0:
466,119,91927,1,0,0:0:0:0:
467,112,92015,1,8,0:0:0:0:
466,119,92104,1,8,0:0:0:0:
475,119,92193,1,0,0:0:0:0:
464,110,92282,1,8,0:0:0:0:
475,119,92371,1,0,0:0:0:0:
475,119,92459,1,0,0:0:0:0:
467,112,92548,1,8,0:0:0:0:
462,120,92637,1,8,0:0:0:0:
462,120,92726,1,0,0:0:0:0:
467,112,92814,1,8,0:0:0:0:
466,119,92903,1,8,0:0:0:0:
462,120,92992,1,0,0:0:0:0:
464,110,93080,1,8,0:0:0:0:
469,122,93169,1,0,0:0:0:0:
469,122,93258,1,0,0:0:0:0:
471,102,93347,1,8,0:0:0:0:
469,122,93436,1,0,0:0:0:0:
469,122,93524,1,0,0:0:0:0:
482,104,93613,1,8,0:0:0:0:
474,120,93702,1,8,0:0:0:0:
474,120,93791,1,0,0:0:0:0:
484,104,93879,1,8,0:0:0:0:
474,120,93968,1,0,0:0:0:0:
474,120,94057,1,0,0:0:0:0:
468,94,94146,1,8,0:0:0:0:
474,120,94234,1,8,0:0:0:0:
468,107,94323,1,0,0:0:0:0:
469,122,94412,1,8,0:0:0:0:
469,122,94501,1,0,0:0:0:0:
470,101,94589,1,8,0:0:0:0:
485,114,94678,1,0,0:0:0:0:
485,114,94767,1,0,0:0:0:0:
470,101,94856,1,8,0:0:0:0:
485,114,94944,1,8,0:0:0:0:
483,114,95033,1,0,0:0:0:0:
470,101,95122,1,8,0:0:0:0:
482,113,95211,1,8,0:0:0:0:
481,113,95299,1,0,0:0:0:0:
470,101,95388,1,0,0:0:0:0:
463,114,95477,1,8,0:0:0:0:
465,111,95566,1,0,0:0:0:0:
470,101,95654,1,8,0:0:0:0:
413,121,95699,1,8,0:0:0:0:
416,117,95743,1,0,0:0:0:0:
465,97,95832,1,0,0:0:0:0:
470,101,95921,5,8,0:0:0:0:
474,102,96010,1,8,0:0:0:0:
476,102,96098,1,0,0:0:0:0:
470,101,96187,1,8,0:0:0:0:
473,102,96276,1,0,0:0:0:0:
470,101,96365,1,0,0:0:0:0:
470,101,96454,1,8,0:0:0:0:
473,100,96542,1,8,0:0:0:0:
470,101,96631,1,0,0:0:0:0:
470,101,96720,1,8,0:0:0:0:
473,100,96808,1,0,0:0:0:0:
473,100,96897,1,0,0:0:0:0:
484,108,96986,1,8,0:0:0:0:
476,102,97075,1,8,0:0:0:0:
470,101,97163,1,0,0:0:0:0:
484,108,97252,1,8,0:0:0:0:
470,101,97341,1,8,0:0:0:0:
470,101,97430,1,0,0:0:0:0:
471,108,97518,1,8,0:0:0:0:
470,101,97607,1,0,0:0:0:0:
470,101,97696,1,0,0:0:0:0:
475,107,97785,1,8,0:0:0:0:
473,100,97873,1,8,0:0:0:0:
474,101,97962,1,0,0:0:0:0:
475,107,98051,1,8,0:0:0:0:
463,96,98140,1,0,0:0:0:0:
463,96,98228,1,0,0:0:0:0:
476,107,98317,1,8,0:0:0:0:
474,98,98406,1,0,0:0:0:0:
476,107,98495,1,8,0:0:0:0:
485,91,98584,1,8,0:0:0:0:
489,90,98672,1,0,0:0:0:0:
493,85,98761,1,0,0:0:0:0:
492,85,98850,1,8,0:0:0:0:
489,84,98939,1,8,0:0:0:0:
487,83,99027,1,0,0:0:0:0:
487,83,99116,1,0,0:0:0:0:
487,83,99205,1,8,0:0:0:0:
478,82,99249,1,8,0:0:0:0:
487,83,99294,1,8,0:0:0:0:
487,82,99382,1,0,0:0:0:0:
492,78,99471,1,8,0:0:0:0:
494,83,99560,1,0,0:0:0:0:
494,83,99604,1,0,0:0:0:0:
475,92,99649,1,0,0:0:0:0:
475,92,99737,1,8,0:0:0:0:
494,99,99915,1,0,0:0:0:0:
475,75,100004,1,8,0:0:0:0:
446,69,100092,1,0,0:0:0:0:
439,55,100181,1,0,0:0:0:0:
483,84,100270,1,8,0:0:0:0:
452,76,100314,1,8,0:0:0:0:
439,55,100359,1,8,0:0:0:0:
439,55,100447,1,0,0:0:0:0:
471,78,100536,1,8,0:0:0:0:
442,69,100625,1,0,0:0:0:0:
446,69,100714,1,0,0:0:0:0:
485,77,100802,1,8,0:0:0:0:
446,69,100891,1,8,0:0:0:0:
475,75,100980,1,0,0:0:0:0:
485,77,101069,1,8,0:0:0:0:
475,68,101157,1,0,0:0:0:0:
475,68,101246,1,0,0:0:0:0:
471,78,101336,1,8,0:0:0:0:
462,72,101424,1,8,0:0:0:0:
460,74,101513,1,0,0:0:0:0:
471,78,101602,1,8,0:0:0:0:
460,74,101690,1,0,0:0:0:0:
460,74,101779,1,0,0:0:0:0:
485,77,101868,1,8,0:0:0:0:
460,76,101956,1,8,0:0:0:0:
460,78,102045,1,0,0:0:0:0:
485,77,102134,1,8,0:0:0:0:
454,77,102223,1,0,0:0:0:0:
454,77,102311,1,0,0:0:0:0:
483,74,102400,1,8,0:0:0:0:
454,77,102489,1,0,0:0:0:0:
454,77,102578,1,8,0:0:0:0:
491,89,102666,1,8,0:0:0:0:
454,77,102755,1,0,0:0:0:0:
454,77,102844,1,0,0:0:0:0:
487,86,102933,1,8,0:0:0:0:
475,73,103021,1,0,0:0:0:0:
475,73,103110,1,8,0:0:0:0:
475,72,103199,1,8,0:0:0:0:
477,71,103288,1,0,0:0:0:0:
477,71,103376,1,8,0:0:0:0:
470,75,103465,1,0,0:0:0:0:
470,75,103554,1,0,0:0:0:0:
483,83,103643,1,8,0:0:0:0:
470,75,103731,1,8,0:0:0:0:
470,75,103820,1,0,0:0:0:0:
486,77,103909,5,8,0:0:0:0:
467,75,103998,1,0,0:0:0:0:
462,80,104086,1,0,0:0:0:0:
486,77,104175,1,8,0:0:0:0:
467,80,104264,1,0,0:0:0:0:
467,80,104353,1,0,0:0:0:0:
486,77,104442,1,8,0:0:0:0:
467,80,104530,1,8,0:0:0:0:
467,81,104619,1,0,0:0:0:0:
486,77,104708,1,8,0:0:0:0:
466,82,104797,1,0,0:0:0:0:
466,82,104885,1,0,0:0:0:0:
486,77,104974,1,8,0:0:0:0:
466,83,105063,1,8,0:0:0:0:
466,83,105152,1,0,0:0:0:0:
494,74,105240,1,8,0:0:0:0:
467,80,105329,1,8,0:0:0:0:
467,83,105418,1,0,0:0:0:0:
494,74,105462,1,0,0:0:0:0:
436,95,105507,1,8,0:0:0:0:
450,87,105595,1,0,0:0:0:0:
436,95,105640,1,0,0:0:0:0:
436,95,105684,1,0,0:0:0:0:
436,95,105728,1,0,0:0:0:0:
486,77,105773,1,8,0:0:0:0:
461,78,105862,1,0,0:0:0:0:
477,73,106039,1,8,0:0:0:0:
478,72,106128,1,8,0:0:0:0:
478,72,106305,1,8,0:0:0:0:
461,78,106394,1,0,0:0:0:0:
478,72,106572,1,8,0:0:0:0:
479,72,106660,1,8,0:0:0:0:
470,79,106749,1,0,0:0:0:0:
478,72,106838,1,8,0:0:0:0:
474,64,106882,1,8,0:0:0:0:
474,65,106927,1,0,0:0:0:0:
474,65,107015,1,8,0:0:0:0:
472,67,107060,1,8,0:0:0:0:
469,68,107104,1,0,0:0:0:0:
491,95,107193,1,8,0:0:0:0:
473,67,107282,1,0,0:0:0:0:
473,67,107371,1,8,0:0:0:0:
463,77,107459,1,0,0:0:0:0:
474,67,107548,1,0,0:0:0:0:
463,77,107637,1,8,0:0:0:0:
463,77,107726,1,8,0:0:0:0:
463,76,107814,1,0,0:0:0:0:
465,76,107903,1,8,0:0:0:0:
482,64,107992,1,0,0:0:0:0:
483,64,108081,1,0,0:0:0:0:
463,77,108169,1,8,0:0:0:0:
470,90,108258,1,8,0:0:0:0:
477,80,108347,1,0,0:0:0:0:
463,77,108436,1,8,0:0:0:0:
463,77,108480,1,8,0:0:0:0:
474,77,108524,1,0,0:0:0:0:
464,81,108569,1,0,0:0:0:0:
464,81,108613,1,8,0:0:0:0:
441,75,108702,1,0,0:0:0:0:
448,68,108791,1,8,0:0:0:0:
448,68,108879,1,8,0:0:0:0:
468,63,108968,1,0,0:0:0:0:
459,54,109057,1,8,0:0:0:0:
459,54,109146,1,0,0:0:0:0:
459,54,109234,1,0,0:0:0:0:
459,54,109323,1,8,0:0:0:0:
459,54,109412,1,8,0:0:0:0:
459,54,109501,1,0,0:0:0:0:
459,54,109589,1,8,0:0:0:0:
459,54,109678,1,0,0:0:0:0:
460,55,109767,1,0,0:0:0:0:
460,55,109856,1,8,0:0:0:0:
444,55,109944,1,8,0:0:0:0:
442,55,110033,1,0,0:0:0:0:
459,54,110152,1,0,0:0:0:0:
459,54,110270,1,0,0:0:0:0:
459,54,110388,1,8,0:0:0:0:
459,54,110507,1,8,0:0:0:0:
450,60,110625,1,8,0:0:0:0:
449,60,110743,1,0,0:0:0:0:
460,55,110788,1,0,0:0:0:0:
464,55,110832,1,0,0:0:0:0:
464,55,110876,1,0,0:0:0:0:
465,55,110921,1,8,0:0:0:0:
422,54,111098,1,0,0:0:0:0:
448,55,111187,1,8,0:0:0:0:
448,55,111365,1,8,0:0:0:0:
458,43,111453,1,0,0:0:0:0:
458,43,111631,1,0,0:0:0:0:
458,43,111808,1,0,0:0:0:0:
458,43,111986,1,0,0:0:0:0:
460,54,112163,1,0,0:0:0:0:
460,52,112252,1,0,0:0:0:0:
460,54,112341,1,0,0:0:0:0:
460,53,112430,1,0,0:0:0:0:
460,52,112518,1,0,0:0:0:0:
460,52,112607,1,0,0:0:0:0:
460,52,112696,1,8,0:0:0:0:
469,57,112962,1,8,0:0:0:0:
469,57,113228,1,8,0:0:0:0:
469,57,113495,1,8,0:0:0:0:
469,57,113761,1,8,0:0:0:0:
469,57,113939,1,8,0:0:0:0:
488,57,114027,1,8,0:0:0:0:
443,57,114116,1,8,0:0:0:0:
446,54,114205,1,8,0:0:0:0:
458,68,114294,1,0,0:0:0:0:
428,64,114338,1,0,0:0:0:0:
428,64,114382,1,0,0:0:0:0:
428,64,114427,1,0,0:0:0:0:
433,62,114560,1,12,0:0:0:0:
