osu file format v14

[General]
AudioFilename: audio.mp3
AudioLeadIn: 0
PreviewTime: 77548
Countdown: 0
SampleSet: Normal
StackLeniency: 0.7
Mode: 1
LetterboxInBreaks: 0
WidescreenStoryboard: 0

[Editor]
DistanceSpacing: 1
BeatDivisor: 4
GridSize: 16
TimelineZoom: 2.1

[Metadata]
Title:Bi
TitleUnicode:び
Artist:Rish feat. Choko
ArtistUnicode:立秋 feat. ちょこ
Creator:Nifty
Version:BASIC
Source:SOUND VOLTEX VIVID WAVE
Tags:bibibibibibibibibibibibibibibibi bee sdvx japanese electronic rhythm game 制作決定記念 オリジナル楽曲コンテスト Commemorative Original Song Contest III GRAVITY WARS コナステ konaste dance dance revolution a20 ddr risshuu rissyuu
BeatmapID:3595947
BeatmapSetID:1419755

[Difficulty]
HPDrainRate:7.5
CircleSize:5
OverallDifficulty:3
ApproachRate:10
SliderMultiplier:1.4
SliderTickRate:1

[Events]
//Background and Video events
0,0,"bee g.png",0,40
//Break Periods
//Storyboard Layer 0 (Background)
//Storyboard Layer 1 (Fail)
//Storyboard Layer 2 (Pass)
//Storyboard Layer 3 (Foreground)
//Storyboard Layer 4 (Overlay)
//Storyboard Sound Samples

[TimingPoints]
1400,355.029585798817,4,1,0,80,1,0
6725,355.029585798817,4,1,0,80,1,0
9387,355.029585798817,4,1,0,80,1,0
11872,355.029585798817,4,1,0,80,1,0
34416,355.029585798817,4,1,0,80,1,0
35658,355.029585798817,4,1,0,80,1,0
36900,355.029585798817,4,1,0,80,1,0
39385,355.029585798817,4,1,0,80,1,0
51811,355.029585798817,4,1,0,80,1,1
63171,-100,4,1,0,80,0,0
68497,355.029585798817,4,1,0,80,1,0
69739,355.029585798817,4,1,0,80,1,0
70804,355.029585798817,4,1,0,80,1,0
71691,355.029585798817,4,1,0,80,1,0
72401,355.029585798817,4,1,0,80,1,0
73466,355.029585798817,4,1,0,80,1,0
77371,355.029585798817,4,1,0,80,1,1
87311,-100,4,1,0,80,0,0
88643,-100,4,1,0,80,0,1
99737,-100,4,1,0,80,0,0
100004,-100,4,1,0,80,0,1
105773,-100,4,1,0,80,0,0
107193,-100,4,1,0,80,0,1
114294,-100,4,1,0,80,0,0
114560,-100,4,1,0,80,0,1
114649,-100,4,1,0,80,0,0

[HitObjects]
324,106,1400,5,8,0:0:0:0:
352,121,2820,1,8,0:0:0:0:
356,118,3885,1,0,0:0:0:0:
371,117,4240,1,8,0:0:0:0:
371,115,4950,1,0,0:0:0:0:
371,117,5305,1,0,0:0:0:0:
371,115,5660,1,8,0:0:0:0:
364,116,6370,1,0,0:0:0:0:
383,109,6725,1,8,0:0:0:0:
386,103,7435,1,8,0:0:0:0:
383,118,7790,1,8,0:0:0:0:
392,101,8145,1,0,0:0:0:0:
393,97,9387,1,8,0:0:0:0:
402,96,10097,1,0,0:0:0:0:
393,97,10452,1,0,0:0:0:0:
414,93,10807,1,8,0:0:0:0:
419,89,11517,1,0,0:0:0:0:
418,89,11872,1,8,0:0:0:0:
434,73,12582,1,8,0:0:0:0:
406,88,12937,1,8,0:0:0:0:
431,72,13292,1,0,0:0:0:0:
432,67,14357,1,8,0:0:0:0:
449,69,14712,1,0,0:0:0:0:
333,102,15422,1,0,0:0:0:0:
362,100,16132,1,0,0:0:0:0:
388,91,16842,1,0,0:0:0:0:
382,94,17552,1,8,0:0:0:0:
401,83,18972,1,8,0:0:0:0:
411,80,19682,1,8,0:0:0:0:
411,74,20037,1,0,0:0:0:0:
411,80,20392,1,8,0:0:0:0:
411,80,21102,1,0,0:0:0:0:
407,80,21812,1,0,0:0:0:0:
405,83,22167,1,8,0:0:0:0:
377,88,22522,1,8,0:0:0:0:
425,84,23232,1,8,0:0:0:0:
414,79,23943,1,0,0:0:0:0:
421,67,24653,1,8,0:0:0:0:
421,67,25008,1,0,0:0:0:0:
439,72,25363,1,8,0:0:0:0:
436,73,26073,1,0,0:0:0:0:
435,75,26783,1,8,0:0:0:0:
439,72,27493,1,0,0:0:0:0:
435,75,28203,1,0,0:0:0:0:
444,65,28558,1,8,0:0:0:0:
441,66,28913,1,0,0:0:0:0:
452,67,29978,1,8,0:0:0:0:
410,97,30333,1,0,0:0:0:0:
435,63,31043,1,0,0:0:0:0:
434,63,31398,1,8,0:0:0:0:
443,62,31753,1,8,0:0:0:0:
451,55,32818,1,0,0:0:0:0:
452,53,33173,1,8,0:0:0:0:
452,54,33883,1,0,0:0:0:0:
451,55,34416,1,8,0:0:0:0:
443,54,35126,1,0,0:0:0:0:
444,54,35658,1,8,0:0:0:0:
443,54,36368,1,0,0:0:0:0:
439,55,36900,1,8,0:0:0:0:
432,57,37610,1,0,0:0:0:0:
428,59,38320,1,0,0:0:0:0:
420,56,39385,1,8,0:0:0:0:
420,56,39917,1,8,0:0:0:0:
424,61,40450,1,8,0:0:0:0:
412,55,40805,1,0,0:0:0:0:
411,55,41337,1,8,0:0:0:0:
408,69,41870,1,0,0:0:0:0:
402,64,42402,1,8,0:0:0:0:
419,65,43645,1,0,0:0:0:0:
428,64,44177,1,8,0:0:0:0:
428,64,44710,1,8,0:0:0:0:
428,64,45242,1,0,0:0:0:0:
436,69,46485,1,0,0:0:0:0:
428,69,47018,1,8,0:0:0:0:
428,69,47550,1,0,0:0:0:0:
428,69,48083,1,8,0:0:0:0:
428,69,49325,1,0,0:0:0:0:
433,64,49858,1,8,0:0:0:0:
433,64,50390,1,8,0:0:0:0:
439,70,51811,1,0,0:0:0:0:
436,75,52343,1,8,0:0:0:0:
436,75,52876,1,0,0:0:0:0:
436,75,53408,1,8,0:0:0:0:
434,80,53941,1,0,0:0:0:0:
434,80,54651,1,0,0:0:0:0:
428,81,55183,1,8,0:0:0:0:
429,81,55716,1,8,0:0:0:0:
480,57,56248,1,0,0:0:0:0:
428,81,56781,1,0,0:0:0:0:
429,81,57491,1,8,0:0:0:0:
428,81,58556,1,0,0:0:0:0:
454,75,58911,1,8,0:0:0:0:
428,81,59444,1,0,0:0:0:0:
429,81,59976,1,8,0:0:0:0:
422,79,60331,1,8,0:0:0:0:
433,89,60864,1,0,0:0:0:0:
433,89,61396,1,0,0:0:0:0:
433,89,61751,1,8,0:0:0:0:
443,91,62461,1,8,0:0:0:0:
436,120,62816,1,8,0:0:0:0:
416,89,63171,1,0,0:0:0:0:
463,114,64237,1,0,0:0:0:0:
461,118,64592,1,8,0:0:0:0:
472,118,65657,1,0,0:0:0:0:
476,118,66012,1,0,0:0:0:0:
471,107,66722,1,8,0:0:0:0:
469,112,67077,1,0,0:0:0:0:
472,112,67432,1,8,0:0:0:0:
482,104,68142,1,8,0:0:0:0:
472,112,68497,1,0,0:0:0:0:
500,115,69207,1,8,0:0:0:0:
504,118,69739,1,0,0:0:0:0:
501,117,70449,1,8,0:0:0:0:
482,123,70804,1,0,0:0:0:0:
483,100,71691,1,0,0:0:0:0:
469,116,72401,1,0,0:0:0:0:
465,115,72756,1,0,0:0:0:0:
468,117,73466,1,0,0:0:0:0:
462,123,74176,1,8,0:0:0:0:
453,124,74886,1,0,0:0:0:0:
466,141,75951,1,8,0:0:0:0:
469,135,76483,1,8,0:0:0:0:
459,129,77016,1,0,0:0:0:0:
225,198,77371,2,4,L|264:190,112,35
449,134,88731,1,0,0:0:0:0:
457,112,89264,1,8,0:0:0:0:
383,91,89797,1,0,0:0:0:0:
445,137,90329,1,8,0:0:0:0:
455,123,90862,1,0,0:0:0:0:
466,119,91572,1,0,0:0:0:0:
466,119,92104,1,8,0:0:0:0:
462,120,92637,1,8,0:0:0:0:
469,122,93169,1,0,0:0:0:0:
474,120,93702,1,8,0:0:0:0:
469,122,94412,1,8,0:0:0:0:
425,120,95477,1,0,0:0:0:0:
465,97,95832,1,8,0:0:0:0:
473,102,96365,1,0,0:0:0:0:
470,101,96897,1,0,0:0:0:0:
484,108,97252,1,8,0:0:0:0:
475,107,97785,1,0,0:0:0:0:
476,107,98317,1,8,0:0:0:0:
489,90,98672,1,0,0:0:0:0:
446,69,100092,1,0,0:0:0:0:
442,69,100625,1,8,0:0:0:0:
475,68,101157,1,0,0:0:0:0:
460,74,101690,1,8,0:0:0:0:
454,77,102223,1,0,0:0:0:0:
487,86,102933,1,0,0:0:0:0:
470,75,103465,1,8,0:0:0:0:
467,75,103998,1,8,0:0:0:0:
467,80,104530,1,0,0:0:0:0:
466,83,105063,1,0,0:0:0:0:
486,77,105773,1,8,0:0:0:0:
478,72,106838,1,0,0:0:0:0:
491,95,107193,1,8,0:0:0:0:
463,77,107726,1,0,0:0:0:0:
470,90,108258,1,0,0:0:0:0:
464,81,108613,1,8,0:0:0:0:
459,54,109146,1,0,0:0:0:0:
459,54,109678,1,8,0:0:0:0:
442,55,110033,1,0,0:0:0:0:
449,60,110743,1,8,0:0:0:0:
460,54,112163,1,0,0:0:0:0:
460,52,112696,1,8,0:0:0:0:
469,57,113228,1,8,0:0:0:0:
469,57,113761,1,8,0:0:0:0:
433,62,114560,1,12,0:0:0:0:
