osu file format v14

[General]
AudioFilename: audio.mp3
AudioLeadIn: 0
PreviewTime: 77548
Countdown: 0
SampleSet: Normal
StackLeniency: 0.7
Mode: 1
LetterboxInBreaks: 0
WidescreenStoryboard: 0

[Editor]
DistanceSpacing: 1
BeatDivisor: 4
GridSize: 16
TimelineZoom: 2.1

[Metadata]
Title:Bi
TitleUnicode:び
Artist:Rish feat. Choko
ArtistUnicode:立秋 feat. ちょこ
Creator:Nifty
Version:ADVANCED
Source:SOUND VOLTEX VIVID WAVE
Tags:bibibibibibibibibibibibibibibibi bee sdvx japanese electronic rhythm game 制作決定記念 オリジナル楽曲コンテスト Commemorative Original Song Contest III GRAVITY WARS コナステ konaste dance dance revolution a20 ddr risshuu rissyuu
BeatmapID:3595944
BeatmapSetID:1419755

[Difficulty]
HPDrainRate:5.5
CircleSize:5
OverallDifficulty:5
ApproachRate:10
SliderMultiplier:1.4
SliderTickRate:1

[Events]
//Background and Video events
0,0,"bee g.png",0,40
//Break Periods
//Storyboard Layer 0 (Background)
//Storyboard Layer 1 (Fail)
//Storyboard Layer 2 (Pass)
//Storyboard Layer 3 (Foreground)
//Storyboard Layer 4 (Overlay)
//Storyboard Sound Samples

[TimingPoints]
1400,355.029585798817,4,1,0,80,1,0
6725,355.029585798817,4,1,0,80,1,0
9387,355.029585798817,4,1,0,80,1,0
11872,355.029585798817,4,1,0,80,1,0
34416,355.029585798817,4,1,0,80,1,0
35658,355.029585798817,4,1,0,80,1,0
36900,355.029585798817,4,1,0,80,1,0
39385,355.029585798817,4,1,0,80,1,0
51811,355.029585798817,4,1,0,80,1,1
63171,-100,4,1,0,80,0,0
68497,355.029585798817,4,1,0,80,1,0
69739,355.029585798817,4,1,0,80,1,0
70804,355.029585798817,4,1,0,80,1,0
71691,355.029585798817,4,1,0,80,1,0
72401,355.029585798817,4,1,0,80,1,0
73466,355.029585798817,4,1,0,80,1,0
77371,355.029585798817,4,1,0,80,1,1
87311,-100,4,1,0,80,0,0
88643,-100,4,1,0,80,0,1
99737,-100,4,1,0,80,0,0
100004,-100,4,1,0,80,0,1
105773,-100,4,1,0,80,0,0
107193,-100,4,1,0,80,0,1
114294,-100,4,1,0,80,0,0
114560,-66.6666666666667,4,1,0,80,0,1
114649,-66.6666666666667,4,1,0,80,0,0

[HitObjects]
324,106,1400,5,8,0:0:0:0:
352,121,2820,1,8,0:0:0:0:
352,121,3086,1,8,0:0:0:0:
352,121,3352,1,8,0:0:0:0:
352,121,3618,1,8,0:0:0:0:
356,118,3885,1,0,0:0:0:0:
356,118,4062,1,0,0:0:0:0:
371,117,4240,1,8,0:0:0:0:
371,115,4595,1,8,0:0:0:0:
371,115,4772,1,0,0:0:0:0:
371,115,4950,1,8,0:0:0:0:
375,104,5039,1,8,0:0:0:0:
371,117,5216,1,8,0:0:0:0:
383,113,5482,1,0,0:0:0:0:
371,115,5660,1,8,0:0:0:0:
364,116,6015,1,8,0:0:0:0:
368,111,6192,1,0,0:0:0:0:
371,115,6370,1,8,0:0:0:0:
376,108,6459,1,8,0:0:0:0:
383,109,6725,1,8,0:0:0:0:
378,95,7080,1,8,0:0:0:0:
386,103,7257,1,0,0:0:0:0:
386,103,7435,1,8,0:0:0:0:
361,99,7523,1,8,0:0:0:0:
393,101,7701,1,8,0:0:0:0:
392,101,7967,1,0,0:0:0:0:
392,101,8145,1,8,0:0:0:0:
389,99,8322,1,0,0:0:0:0:
382,105,8500,1,8,0:0:0:0:
401,92,8855,1,0,0:0:0:0:
393,97,9387,1,8,0:0:0:0:
410,106,9742,1,8,0:0:0:0:
401,101,9919,1,0,0:0:0:0:
398,97,10097,1,8,0:0:0:0:
393,97,10185,1,8,0:0:0:0:
402,96,10363,1,8,0:0:0:0:
417,94,10629,1,0,0:0:0:0:
414,93,10807,1,8,0:0:0:0:
418,89,11162,1,8,0:0:0:0:
418,89,11339,1,0,0:0:0:0:
419,89,11517,1,8,0:0:0:0:
403,101,11605,1,8,0:0:0:0:
418,89,11872,1,8,0:0:0:0:
429,76,12227,1,8,0:0:0:0:
431,72,12404,1,0,0:0:0:0:
434,73,12582,1,8,0:0:0:0:
407,98,12670,1,8,0:0:0:0:
433,72,12848,1,8,0:0:0:0:
430,75,13114,1,0,0:0:0:0:
431,72,13292,1,8,0:0:0:0:
433,72,13647,1,8,0:0:0:0:
433,72,13824,1,0,0:0:0:0:
433,72,14002,1,8,0:0:0:0:
407,98,14090,1,8,0:0:0:0:
432,67,14357,1,8,0:0:0:0:
432,66,14534,1,0,0:0:0:0:
449,69,14712,1,0,0:0:0:0:
333,102,15067,1,8,0:0:0:0:
333,102,15422,1,0,0:0:0:0:
362,100,15777,1,8,0:0:0:0:
362,100,16132,1,0,0:0:0:0:
388,91,16309,1,0,0:0:0:0:
362,100,16487,1,8,0:0:0:0:
388,91,16842,1,0,0:0:0:0:
388,91,17197,1,8,0:0:0:0:
388,91,17374,1,8,0:0:0:0:
382,94,17552,1,8,0:0:0:0:
388,91,17907,1,0,0:0:0:0:
382,94,18262,1,8,0:0:0:0:
401,83,18972,1,8,0:0:0:0:
411,74,19150,1,0,0:0:0:0:
411,74,19327,1,8,0:0:0:0:
411,80,19682,1,8,0:0:0:0:
411,74,20037,1,0,0:0:0:0:
411,80,20392,1,0,0:0:0:0:
411,80,20570,1,8,0:0:0:0:
411,80,20747,1,0,0:0:0:0:
411,80,21102,1,0,0:0:0:0:
411,80,21457,1,8,0:0:0:0:
407,80,21812,1,0,0:0:0:0:
407,80,21990,1,0,0:0:0:0:
405,83,22167,1,8,0:0:0:0:
418,87,22345,1,0,0:0:0:0:
377,88,22522,1,8,0:0:0:0:
425,84,23232,1,8,0:0:0:0:
425,84,23410,1,8,0:0:0:0:
413,79,23587,1,8,0:0:0:0:
414,79,23943,1,0,0:0:0:0:
420,67,24120,1,0,0:0:0:0:
421,67,24298,1,0,0:0:0:0:
421,67,24653,1,8,0:0:0:0:
421,67,25008,1,0,0:0:0:0:
439,72,25185,1,0,0:0:0:0:
439,72,25363,1,8,0:0:0:0:
439,72,25540,1,8,0:0:0:0:
439,72,25718,1,0,0:0:0:0:
436,73,26073,1,0,0:0:0:0:
435,75,26250,1,8,0:0:0:0:
435,75,26428,1,0,0:0:0:0:
435,75,26783,1,8,0:0:0:0:
435,75,27049,1,8,0:0:0:0:
435,75,27315,1,8,0:0:0:0:
439,72,27493,1,0,0:0:0:0:
436,73,27848,1,0,0:0:0:0:
436,73,28025,1,8,0:0:0:0:
435,75,28203,1,0,0:0:0:0:
444,65,28558,1,0,0:0:0:0:
442,66,28735,1,0,0:0:0:0:
441,66,28913,1,8,0:0:0:0:
444,61,29268,1,8,0:0:0:0:
452,69,29445,1,0,0:0:0:0:
452,67,29623,1,8,0:0:0:0:
439,65,30156,1,8,0:0:0:0:
410,97,30333,1,0,0:0:0:0:
452,67,30688,1,0,0:0:0:0:
449,67,30866,1,8,0:0:0:0:
435,63,31043,1,0,0:0:0:0:
434,63,31398,1,8,0:0:0:0:
443,62,31576,1,0,0:0:0:0:
443,62,31753,1,8,0:0:0:0:
452,54,32108,1,8,0:0:0:0:
452,53,32286,1,0,0:0:0:0:
451,55,32374,1,0,0:0:0:0:
451,55,32463,1,0,0:0:0:0:
451,55,32641,1,8,0:0:0:0:
451,55,32818,1,8,0:0:0:0:
452,53,33173,1,8,0:0:0:0:
451,55,33440,1,0,0:0:0:0:
451,55,33706,1,0,0:0:0:0:
452,54,33883,1,8,0:0:0:0:
451,55,34416,1,8,0:0:0:0:
444,54,34682,1,0,0:0:0:0:
445,54,34948,1,8,0:0:0:0:
443,54,35126,1,8,0:0:0:0:
443,54,35481,1,0,0:0:0:0:
444,54,35658,1,8,0:0:0:0:
439,55,35924,1,0,0:0:0:0:
443,54,36190,1,0,0:0:0:0:
443,54,36368,1,8,0:0:0:0:
439,55,36900,1,0,0:0:0:0:
441,54,37166,1,0,0:0:0:0:
443,54,37432,1,0,0:0:0:0:
432,57,37610,1,8,0:0:0:0:
432,57,37965,1,8,0:0:0:0:
432,57,38142,1,0,0:0:0:0:
428,59,38320,1,0,0:0:0:0:
420,56,39385,1,8,0:0:0:0:
420,56,39651,1,8,0:0:0:0:
420,56,39917,1,8,0:0:0:0:
420,56,40183,1,8,0:0:0:0:
424,61,40450,1,8,0:0:0:0:
412,55,40627,1,8,0:0:0:0:
412,55,40805,1,0,0:0:0:0:
412,55,41071,1,0,0:0:0:0:
414,58,41160,1,0,0:0:0:0:
411,55,41337,1,8,0:0:0:0:
408,69,41603,1,8,0:0:0:0:
389,62,41692,1,8,0:0:0:0:
408,69,41870,1,0,0:0:0:0:
408,69,42136,1,0,0:0:0:0:
367,63,42225,1,0,0:0:0:0:
402,64,42402,1,8,0:0:0:0:
411,65,42669,1,8,0:0:0:0:
374,61,42757,1,8,0:0:0:0:
412,71,42935,1,0,0:0:0:0:
419,65,43645,1,0,0:0:0:0:
428,64,43911,1,0,0:0:0:0:
401,72,44000,1,0,0:0:0:0:
428,64,44177,1,8,0:0:0:0:
428,64,44444,1,0,0:0:0:0:
405,71,44532,1,0,0:0:0:0:
428,64,44710,1,8,0:0:0:0:
428,64,44976,1,8,0:0:0:0:
406,70,45065,1,8,0:0:0:0:
428,64,45242,1,0,0:0:0:0:
428,64,45509,1,8,0:0:0:0:
408,69,45598,1,8,0:0:0:0:
416,73,45775,1,0,0:0:0:0:
436,69,46485,1,0,0:0:0:0:
428,69,46751,1,0,0:0:0:0:
425,74,46840,1,0,0:0:0:0:
428,69,47018,1,8,0:0:0:0:
428,69,47284,1,8,0:0:0:0:
422,72,47373,1,8,0:0:0:0:
428,69,47550,1,0,0:0:0:0:
422,72,47816,1,0,0:0:0:0:
406,83,47905,1,0,0:0:0:0:
428,69,48083,1,8,0:0:0:0:
428,69,48349,1,8,0:0:0:0:
411,80,48438,1,8,0:0:0:0:
428,69,48615,1,0,0:0:0:0:
428,69,49325,1,0,0:0:0:0:
433,64,49592,1,0,0:0:0:0:
428,69,49680,1,0,0:0:0:0:
433,64,49858,1,8,0:0:0:0:
433,64,50124,1,0,0:0:0:0:
437,67,50213,1,0,0:0:0:0:
433,64,50390,1,8,0:0:0:0:
433,64,50657,1,8,0:0:0:0:
438,67,50745,1,8,0:0:0:0:
433,64,51100,1,8,0:0:0:0:
433,64,51278,1,8,0:0:0:0:
439,79,51456,1,0,0:0:0:0:
439,70,51811,1,0,0:0:0:0:
407,81,51899,1,0,0:0:0:0:
454,90,52077,1,0,0:0:0:0:
436,75,52343,1,8,0:0:0:0:
424,73,52432,1,8,0:0:0:0:
436,75,52609,1,8,0:0:0:0:
436,75,52876,1,0,0:0:0:0:
417,76,52964,1,0,0:0:0:0:
436,75,53142,1,0,0:0:0:0:
436,75,53408,1,8,0:0:0:0:
422,78,53497,1,8,0:0:0:0:
436,75,53674,1,8,0:0:0:0:
434,80,53941,1,0,0:0:0:0:
422,79,54029,1,0,0:0:0:0:
469,76,54118,1,0,0:0:0:0:
494,79,54296,1,8,0:0:0:0:
434,80,54651,1,0,0:0:0:0:
452,78,54739,1,0,0:0:0:0:
424,82,54917,1,0,0:0:0:0:
428,81,55183,1,8,0:0:0:0:
453,77,55272,1,8,0:0:0:0:
428,81,55450,1,0,0:0:0:0:
429,81,55716,1,8,0:0:0:0:
424,82,55805,1,8,0:0:0:0:
428,81,55982,1,8,0:0:0:0:
480,57,56248,1,0,0:0:0:0:
428,81,56337,1,0,0:0:0:0:
429,81,56515,1,8,0:0:0:0:
428,81,56781,1,0,0:0:0:0:
493,61,56958,1,0,0:0:0:0:
493,61,57136,1,8,0:0:0:0:
429,81,57491,1,8,0:0:0:0:
387,86,58290,1,0,0:0:0:0:
428,81,58556,1,0,0:0:0:0:
429,66,58734,1,0,0:0:0:0:
454,75,58911,1,8,0:0:0:0:
437,67,59089,1,0,0:0:0:0:
438,66,59177,1,0,0:0:0:0:
428,81,59444,1,8,0:0:0:0:
430,78,59621,1,0,0:0:0:0:
419,72,59710,1,0,0:0:0:0:
429,81,59976,1,8,0:0:0:0:
419,79,60154,1,0,0:0:0:0:
422,79,60331,1,8,0:0:0:0:
404,67,60420,1,8,0:0:0:0:
433,89,60597,1,0,0:0:0:0:
433,89,60864,1,8,0:0:0:0:
402,78,60953,1,8,0:0:0:0:
436,87,61130,1,0,0:0:0:0:
433,89,61396,1,8,0:0:0:0:
468,93,61574,1,0,0:0:0:0:
433,89,61751,1,8,0:0:0:0:
447,108,62106,1,0,0:0:0:0:
443,91,62461,1,8,0:0:0:0:
443,91,62639,1,8,0:0:0:0:
436,120,62816,1,0,0:0:0:0:
443,91,62905,1,0,0:0:0:0:
443,113,63083,1,8,0:0:0:0:
416,89,63171,1,8,0:0:0:0:
458,115,63704,1,0,0:0:0:0:
462,114,63882,1,8,0:0:0:0:
463,114,64148,1,8,0:0:0:0:
461,118,64414,1,0,0:0:0:0:
461,118,64592,1,8,0:0:0:0:
469,117,65124,1,0,0:0:0:0:
470,117,65302,1,8,0:0:0:0:
472,118,65568,1,0,0:0:0:0:
475,118,65834,1,0,0:0:0:0:
476,118,66012,1,8,0:0:0:0:
474,118,66189,1,8,0:0:0:0:
472,112,66544,1,0,0:0:0:0:
471,107,66722,1,8,0:0:0:0:
469,112,66988,1,8,0:0:0:0:
469,112,67254,1,0,0:0:0:0:
472,112,67432,1,8,0:0:0:0:
493,108,67787,1,8,0:0:0:0:
486,106,67964,1,0,0:0:0:0:
482,104,68142,1,8,0:0:0:0:
472,112,68497,1,0,0:0:0:0:
484,107,68852,1,8,0:0:0:0:
486,106,69029,1,0,0:0:0:0:
482,104,69207,1,0,0:0:0:0:
501,117,69384,1,0,0:0:0:0:
500,115,69562,1,8,0:0:0:0:
504,118,69739,1,0,0:0:0:0:
474,110,70094,1,8,0:0:0:0:
500,115,70271,1,0,0:0:0:0:
473,115,70449,1,0,0:0:0:0:
501,117,70626,1,8,0:0:0:0:
482,123,70804,1,0,0:0:0:0:
484,104,71159,1,8,0:0:0:0:
484,104,71336,1,0,0:0:0:0:
484,100,71514,1,8,0:0:0:0:
483,100,71691,1,0,0:0:0:0:
469,119,72046,1,0,0:0:0:0:
470,118,72223,1,8,0:0:0:0:
469,116,72401,1,0,0:0:0:0:
465,115,72756,1,8,0:0:0:0:
469,119,72933,1,0,0:0:0:0:
469,119,73111,1,8,0:0:0:0:
468,117,73466,1,0,0:0:0:0:
459,120,73702,1,0,0:0:0:0:
460,119,73821,1,0,0:0:0:0:
462,123,74176,1,8,0:0:0:0:
462,123,74412,1,8,0:0:0:0:
459,120,74531,1,8,0:0:0:0:
453,124,74886,1,0,0:0:0:0:
466,141,75951,1,8,0:0:0:0:
469,140,76217,1,8,0:0:0:0:
469,135,76483,1,8,0:0:0:0:
470,135,76750,1,8,0:0:0:0:
459,129,77016,1,0,0:0:0:0:
462,121,77193,1,0,0:0:0:0:
225,198,77371,2,4,L|264:190,110,35
398,174,87311,5,8,0:0:0:0:
443,144,87666,1,8,0:0:0:0:
439,146,87844,1,0,0:0:0:0:
431,129,88021,1,8,0:0:0:0:
449,134,88731,1,0,0:0:0:0:
447,121,88998,1,8,0:0:0:0:
436,114,89175,1,8,0:0:0:0:
457,112,89264,1,8,0:0:0:0:
450,135,89530,1,0,0:0:0:0:
449,125,89708,1,0,0:0:0:0:
383,91,89797,1,0,0:0:0:0:
448,137,90063,1,0,0:0:0:0:
425,110,90240,1,8,0:0:0:0:
445,137,90329,1,8,0:0:0:0:
445,137,90595,1,8,0:0:0:0:
401,118,90773,1,0,0:0:0:0:
455,123,90862,1,0,0:0:0:0:
463,117,91039,1,0,0:0:0:0:
454,124,91217,1,8,0:0:0:0:
466,119,91572,1,8,0:0:0:0:
467,112,91749,1,0,0:0:0:0:
466,119,91838,1,0,0:0:0:0:
466,119,92104,1,8,0:0:0:0:
464,110,92282,1,0,0:0:0:0:
475,119,92371,1,0,0:0:0:0:
462,120,92637,1,8,0:0:0:0:
467,112,92814,1,8,0:0:0:0:
466,119,92903,1,8,0:0:0:0:
469,122,93169,1,0,0:0:0:0:
471,102,93347,1,8,0:0:0:0:
469,122,93436,1,8,0:0:0:0:
474,120,93702,1,8,0:0:0:0:
484,104,93879,1,8,0:0:0:0:
474,120,94057,1,0,0:0:0:0:
469,122,94412,1,8,0:0:0:0:
470,101,94589,1,0,0:0:0:0:
485,114,94678,1,0,0:0:0:0:
485,114,94944,1,8,0:0:0:0:
463,114,95477,1,8,0:0:0:0:
432,111,95655,1,8,0:0:0:0:
465,97,95832,1,0,0:0:0:0:
474,102,96010,1,8,0:0:0:0:
470,101,96187,1,0,0:0:0:0:
473,102,96276,1,0,0:0:0:0:
473,100,96542,1,8,0:0:0:0:
470,101,96720,1,0,0:0:0:0:
484,108,96897,1,8,0:0:0:0:
484,108,97252,1,8,0:0:0:0:
461,101,97341,1,8,0:0:0:0:
471,108,97518,1,8,0:0:0:0:
475,107,97785,1,0,0:0:0:0:
464,103,97873,1,0,0:0:0:0:
475,107,98051,1,0,0:0:0:0:
476,107,98317,1,8,0:0:0:0:
476,107,98495,1,8,0:0:0:0:
489,90,98672,1,0,0:0:0:0:
492,85,98850,1,8,0:0:0:0:
487,83,99027,1,0,0:0:0:0:
487,82,99382,1,8,0:0:0:0:
494,83,99560,1,8,0:0:0:0:
446,69,100092,1,0,0:0:0:0:
439,55,100359,1,8,0:0:0:0:
471,78,100536,1,0,0:0:0:0:
442,69,100625,1,0,0:0:0:0:
446,69,100891,1,8,0:0:0:0:
485,77,101069,1,0,0:0:0:0:
475,68,101157,1,0,0:0:0:0:
462,72,101424,1,0,0:0:0:0:
471,78,101602,1,8,0:0:0:0:
460,74,101690,1,8,0:0:0:0:
460,76,101956,1,8,0:0:0:0:
485,77,102134,1,0,0:0:0:0:
454,77,102223,1,0,0:0:0:0:
483,74,102400,1,8,0:0:0:0:
454,77,102578,1,8,0:0:0:0:
487,86,102933,1,0,0:0:0:0:
475,72,103199,1,8,0:0:0:0:
477,71,103376,1,0,0:0:0:0:
470,75,103465,1,0,0:0:0:0:
470,75,103731,1,0,0:0:0:0:
486,77,103909,5,8,0:0:0:0:
467,75,103998,1,8,0:0:0:0:
467,80,104264,1,0,0:0:0:0:
486,77,104442,1,8,0:0:0:0:
467,80,104530,1,8,0:0:0:0:
466,82,104797,1,8,0:0:0:0:
486,77,104974,1,0,0:0:0:0:
466,83,105063,1,0,0:0:0:0:
505,98,105418,1,0,0:0:0:0:
450,87,105595,1,0,0:0:0:0:
486,77,105773,1,8,0:0:0:0:
470,79,106660,1,0,0:0:0:0:
478,72,106838,1,8,0:0:0:0:
413,83,107015,1,8,0:0:0:0:
491,95,107193,1,8,0:0:0:0:
463,77,107459,1,0,0:0:0:0:
463,77,107637,1,8,0:0:0:0:
463,77,107726,1,8,0:0:0:0:
482,64,107992,1,0,0:0:0:0:
463,77,108169,1,8,0:0:0:0:
470,90,108258,1,8,0:0:0:0:
463,77,108436,1,0,0:0:0:0:
464,81,108613,1,8,0:0:0:0:
448,68,108879,1,8,0:0:0:0:
459,54,109146,1,0,0:0:0:0:
459,54,109412,1,0,0:0:0:0:
459,54,109678,1,8,0:0:0:0:
460,55,109856,1,8,0:0:0:0:
442,55,110033,1,0,0:0:0:0:
459,54,110270,1,0,0:0:0:0:
459,54,110388,1,8,0:0:0:0:
450,60,110625,1,0,0:0:0:0:
449,60,110743,1,8,0:0:0:0:
465,55,110921,1,8,0:0:0:0:
422,54,111098,1,0,0:0:0:0:
448,55,111187,1,0,0:0:0:0:
448,55,111365,1,8,0:0:0:0:
399,65,111453,1,8,0:0:0:0:
460,54,112163,1,0,0:0:0:0:
460,54,112341,1,0,0:0:0:0:
460,52,112518,1,0,0:0:0:0:
460,52,112696,1,8,0:0:0:0:
469,57,112962,1,8,0:0:0:0:
469,57,113228,1,8,0:0:0:0:
469,57,113495,1,8,0:0:0:0:
469,57,113761,1,8,0:0:0:0:
469,57,113939,1,8,0:0:0:0:
488,57,114027,1,8,0:0:0:0:
443,57,114116,1,8,0:0:0:0:
433,62,114560,1,12,0:0:0:0:
