osu file format v14

[General]
AudioFilename: audio.mp3
AudioLeadIn: 0
PreviewTime: 59308
Countdown: 0
SampleSet: Soft
StackLeniency: 0.7
Mode: 0
LetterboxInBreaks: 0
EpilepsyWarning: 1
WidescreenStoryboard: 1

[Editor]
DistanceSpacing: 3.2
BeatDivisor: 4
GridSize: 4
TimelineZoom: 1

[Metadata]
Title:Tragedy + Time
TitleUnicode:Tragedy + Time
Artist:Rise Against
ArtistUnicode:Rise Against
Creator:Dino99
Version:Insane
Source:
Tags:
BeatmapID:982559
BeatmapSetID:458558

[Difficulty]
HPDrainRate:7
CircleSize:4
OverallDifficulty:7.5
ApproachRate:9
SliderMultiplier:1.6
SliderTickRate:2

[Events]
//Background and Video events
0,0,"Bright BG.jpg",0,0
//Break Periods
2,25218,27004
2,82857,86324
2,172024,180517
2,194161,204493
//Storyboard Layer 0 (Background)
//Storyboard Layer 1 (Fail)
//Storyboard Layer 2 (Pass)
//Storyboard Layer 3 (Foreground)
//Storyboard Sound Samples

[TimingPoints]
211.499047277606,347.322720694645,4,2,1,80,1,0
16709,-166.666666666667,4,2,1,80,0,0
17230,-100,4,2,1,80,0,0
25218,340.909090909091,4,2,1,80,1,0
27604,-166.666666666667,4,2,1,80,0,0
27860,-166.666666666667,4,2,1,5,0,0
27945,-100,4,2,2,80,0,0
51808,-166.666666666667,4,2,2,80,0,0
52320,-100,4,2,2,80,0,0
59308,-100,4,2,1,80,0,0
60672,346.650489643817,4,2,1,85,1,0
60672,-66.6666666666667,4,2,1,85,0,1
61018,-90.9090909090909,4,2,1,85,0,1
71591,-166.666666666667,4,2,1,85,0,0
72111,-66.6666666666667,4,2,1,85,0,1
72458,-90.9090909090909,4,2,1,85,0,1
82857,338.983050847458,4,2,2,80,1,0
82857,-100,4,2,2,80,0,0
86924,-200,4,2,2,10,0,0
87602,-100,4,2,2,80,0,0
88280,340.909090909091,4,2,2,80,1,0
121007,346.820809248555,4,2,1,85,1,0
121007,-66.6666666666667,4,2,1,85,0,1
121353,-90.9090909090909,4,2,1,85,0,1
131931,-166.666666666667,4,2,1,85,0,0
132278,-166.666666666667,4,2,1,20,0,0
132452,-66.6666666666667,4,2,1,85,0,1
132798,-90.9090909090909,4,2,1,85,0,1
143030,-133.333333333333,4,2,1,65,0,0
148059,393.44262295082,4,2,1,80,1,0
148845,419.58041958042,4,2,1,80,1,0
148845,-100,4,2,1,30,0,0
153879,-100,4,2,1,70,0,0
155558,270.574971815107,3,2,1,70,1,0
155558,-133.333333333333,3,2,1,70,0,0
168545,409.976084728391,4,2,1,50,1,0
171824,-100,4,2,1,5,0,0
181117,-100,4,2,1,60,0,0
181664,-133.333333333333,4,2,1,60,0,0
188223,413.793103448276,4,2,1,60,1,0
189050,639.658848614073,4,2,1,60,1,0
190009,776.658848614073,4,2,1,60,1,0
190009,-200,4,2,1,70,0,0
190203,-200,4,2,1,10,0,0
193115,727.978645959719,4,2,1,5,1,0
193842,319.829424307036,4,2,1,80,1,0
194161,347.050809248555,4,2,1,80,1,0
205093,-100,4,2,2,80,0,0
205266,-117.647058823529,4,2,3,30,0,0
208043,-117.647058823529,4,2,3,40,0,0
210819,-117.647058823529,4,2,3,50,0,0
212207,-117.647058823529,4,2,3,60,0,0
213595,-117.647058823529,4,2,2,70,0,0
213942,-117.647058823529,4,2,2,80,0,0
214289,-117.647058823529,4,2,2,90,0,0
216198,-166.666666666667,4,2,2,80,0,0
216719,-66.6666666666667,4,2,1,85,0,1
217066,-90.9090909090909,4,2,1,85,0,1
226263,-90.9090909090909,4,2,2,85,0,1
227304,-166.666666666667,4,2,1,85,0,0
227824,-66.6666666666667,4,2,1,85,0,1
228171,-100,4,2,1,85,0,1
232857,-133.333333333333,4,2,1,70,0,0
237195,-133.333333333333,4,2,2,70,0,0
238409,-153.846153846154,4,2,1,60,0,0
243961,359.281437125748,4,2,1,50,1,0
243961,-200,4,2,1,50,0,0
244050,-200,4,2,1,30,0,0
245308,-200,4,2,1,5,0,0
245398,416.666666666667,4,2,1,80,1,0
245398,-100,4,2,1,50,0,0
245502,-100,4,2,1,30,0,0
247064,-100,4,2,1,60,0,0
247168,-100,4,2,1,70,0,0
247898,-100,4,2,1,65,0,0
248731,-100,4,2,1,60,0,0
249564,-100,4,2,1,55,0,0
250398,-100,4,2,1,50,0,0
251231,-100,4,2,1,45,0,0
252064,-100,4,2,1,40,0,0
252898,-100,4,2,1,35,0,0
253731,-100,4,2,1,25,0,0
254564,-100,4,2,1,15,0,0
255398,-100,4,2,1,10,0,0
256231,-100,4,2,1,5,0,0

[Colours]
Combo1 : 121,121,0
Combo2 : 151,0,0
Combo3 : 0,125,63
Combo4 : 96,0,96

[HitObjects]
76,224,5074,5,8,0:0:0:0:
172,348,5247,1,8,0:0:0:0:
60,336,5421,1,8,0:0:0:0:
188,236,5595,6,0,B|216:216|216:216|224:240|224:240|264:212|320:236,1,160,4|2,1:0|0:0,0:0:0:0:
428,268,6115,2,0,P|432:320|416:356,1,80,8|0,0:0|0:0,0:0:0:0:
344,124,6463,2,0,P|340:72|356:36,1,80,2|2,0:0|0:0,0:0:0:0:
452,156,6810,1,8,0:0:0:0:
272,304,6984,1,0,0:0:0:0:
76,168,7157,6,0,L|72:88,1,80,2|2,0:0|0:0,0:0:0:0:
216,16,7505,2,0,L|212:96,1,80,8|0,0:0|0:0,0:0:0:0:
208,252,7852,1,2,0:0:0:0:
76,168,8026,1,2,0:0:0:0:
212,95,8199,1,8,0:0:0:0:
208,252,8373,6,0,B|212:284|184:304|184:304|240:288|288:320,1,160,6|2,0:0|0:0,0:0:0:0:
408,364,8894,1,8,0:0:0:0:
296,216,9068,1,0,0:0:0:0:
432,92,9241,2,0,B|500:96|500:96|472:116,1,80,2|2,0:0|0:0,0:0:0:0:
256,96,9589,2,0,B|188:92|188:92|216:72,1,80,8|0,0:0|0:0,0:0:0:0:
344,32,9936,5,2,0:0:0:0:
272,204,10110,1,2,0:0:0:0:
116,120,10283,2,0,P|112:76|132:36,1,80,8|0,0:0|0:0,0:0:0:0:
272,204,10631,2,0,P|276:248|256:288,1,80,2|2,0:0|0:0,0:0:0:0:
172,224,10978,1,8,0:0:0:0:
348,168,11152,6,0,P|360:256|332:328,1,160,6|2,0:0|0:0,0:0:0:0:
172,224,11673,2,0,P|168:180|188:140,1,80,8|0,0:0|0:0,0:0:0:0:
272,96,12020,1,2,0:0:0:0:
220,296,12194,1,2,0:0:0:0:
68,156,12367,1,8,0:0:0:0:
264,80,12541,6,0,B|316:68|352:92|424:80,1,160,6|2,0:0|0:0,0:0:0:0:
332,200,13062,1,8,0:0:0:0:
200,124,13236,2,0,P|188:72|200:36,1,80,0|2,0:0|0:0,0:0:0:0:
332,200,13583,1,2,0:0:0:0:
194,47,13757,1,8,0:0:0:0:
108,236,13930,6,0,P|120:288|202:261,1,160,6|2,0:0|0:0,0:0:0:0:
96,136,14451,2,0,L|12:144,1,80,8|0,0:0|0:0,0:0:0:0:
194,47,14799,1,2,0:0:0:0:
313,68,14972,1,2,0:0:0:0:
432,89,15145,1,8,0:0:0:0:
432,89,15493,5,2,0:0:0:0:
313,68,15666,1,2,0:0:0:0:
194,47,15841,2,0,L|208:128,1,80,8|0,0:0|0:0,0:0:0:0:
328,256,16188,1,8,0:0:0:0:
156,292,16362,1,8,3:0:0:0:
320,332,16535,1,8,3:0:0:0:
164,216,16709,6,0,B|84:208|84:208|92:224,1,95.9999970703126,8|2,0:3|0:0,0:0:0:0:
196,280,17230,6,0,P|236:216|188:148,1,160,4|2,1:0|0:0,0:0:0:0:
90,221,17751,1,2,0:0:0:0:
292,340,17924,2,0,L|372:348,1,80,8|0,0:0|0:0,0:0:0:0:
448,236,18272,5,2,0:0:0:0:
448,236,18445,1,2,0:0:0:0:
332,64,18619,2,0,P|316:124|324:152,1,80,8|0,0:0|0:0,0:0:0:0:
448,236,18966,2,0,P|464:176|456:148,1,80,2|2,0:0|0:0,0:0:0:0:
332,64,19314,1,8,0:0:0:0:
192,208,19487,6,0,P|144:228|88:148,1,160,6|2,0:0|0:0,0:0:0:0:
319,140,20008,2,0,P|363:136|407:140,1,80,8|0,0:0|0:0,0:0:0:0:
300,256,20356,1,2,0:0:0:0:
300,256,20529,1,2,0:0:0:0:
212,92,20703,2,0,P|212:48|220:12,1,80,8|0,0:0|0:0,0:0:0:0:
324,144,21050,5,2,0:0:0:0:
324,144,21224,1,2,0:0:0:0:
192,208,21398,2,0,P|148:212|104:208,1,80,8|0,0:0|0:0,0:0:0:0:
324,144,21745,2,0,P|368:140|412:144,1,80,2|2,0:0|0:0,0:0:0:0:
284,344,22092,1,8,0:0:0:0:
64,272,22266,6,0,P|36:228|92:132,1,160,6|2,0:0|0:0,0:0:0:0:
192,208,22787,1,8,0:0:0:0:
312,128,22961,2,0,P|320:84|316:44,1,80,0|2,0:0|0:0,0:0:0:0:
376,232,23308,2,0,P|384:276|380:316,1,80,2|8,0:0|0:0,0:0:0:0:
476,168,23655,6,0,P|488:104|480:4,1,160,6|2,0:0|0:0,0:0:0:0:
228,116,24176,2,0,P|225:155|233:194,1,80,8|0,0:0|0:0,0:0:0:0:
344,236,24524,1,2,0:0:0:0:
248,36,24697,1,2,0:0:0:0:
104,208,24871,1,8,0:0:0:0:
104,208,27604,6,0,P|140:216|176:232,1,71.9999978027344,4|0,3:0|0:0,0:0:0:0:
236,280,27945,6,0,P|204:208|252:144,1,160,4|8,0:0|0:0,0:0:0:0:
380,224,28456,1,0,0:0:0:0:
276,348,28627,2,0,P|228:360|184:340,1,80,2|2,0:0|0:0,0:0:0:0:
104,168,28968,2,0,L|96:252,1,80,8|0,0:0|0:0,0:0:0:0:
56,100,29308,6,0,B|84:84|116:80|144:92|164:112|164:112|204:92,1,160,2|8,0:0|0:0,0:0:0:0:
460,40,29820,2,0,B|432:56|400:60|372:48|352:28|352:28|312:48,1,160,0|2,0:0|0:0,0:0:0:0:
288,208,30331,2,0,P|288:272|296:304,1,80,8|0,0:0|0:0,0:0:0:0:
404,228,30672,5,2,0:0:0:0:
300,368,30843,1,0,0:0:0:0:
140,292,31013,2,0,P|100:288|60:288,1,80,8|0,0:0|0:0,0:0:0:0:
132,40,31353,1,2,0:0:0:0:
104,139,31524,1,2,0:0:0:0:
272,134,31695,1,8,0:0:0:0:
190,198,31865,1,0,0:0:0:0:
236,36,32036,6,0,B|284:16|328:40|328:40|360:32|400:48,1,160,2|8,0:0|0:0,0:0:0:0:
416,272,32547,2,0,P|368:280|384:196,1,160,0|2,0:0|0:0,0:0:0:0:
440,352,33058,2,0,P|396:364|360:360,1,80,8|0,0:0|0:0,0:0:0:0:
208,208,33399,1,2,0:0:0:0:
140,372,33570,1,0,0:0:0:0:
52,204,33740,5,8,0:0:0:0:
136,352,33911,1,0,0:0:0:0:
200,168,34081,5,2,0:0:0:0:
132,332,34252,1,2,0:0:0:0:
44,164,34422,5,8,0:0:0:0:
128,312,34593,1,0,0:0:0:0:
192,128,34763,6,0,B|256:132|256:132|292:128|292:128|352:132,1,160,2|8,0:0|0:0,0:0:0:0:
100,52,35274,2,0,B|160:56|160:56|196:52|196:52|260:56,1,160,0|2,0:0|0:0,0:0:0:0:
448,208,35786,1,8,0:0:0:0:
352,44,35956,1,0,0:0:0:0:
252,272,36127,6,0,P|248:312|260:356,1,80,2|0,0:0|0:0,0:0:0:0:
453,286,36468,2,0,P|457:246|445:202,1,80,8|0,0:0|0:0,0:0:0:0:
328,168,36808,1,2,0:0:0:0:
252,272,36979,1,2,0:0:0:0:
132,228,37149,2,0,L|120:312,1,80,8|0,0:0|0:0,0:0:0:0:
44,88,37490,6,0,L|52:248,1,160,2|8,0:0|0:0,0:0:0:0:
256,100,38002,2,0,P|312:64|404:92,1,160,0|4,0:0|0:3,0:0:0:0:
256,256,38513,1,8,0:0:0:0:
332,144,38683,1,2,0:0:0:0:
300,324,38854,6,0,B|248:348|208:320|208:320|172:308|140:328,2,160,4|8|2,0:0|0:0|0:0,0:0:0:0:
176,216,39706,1,2,0:0:0:0:
76,364,39877,2,0,P|68:324|80:272,1,80,8|0,0:0|0:0,0:0:0:0:
100,68,40218,6,0,B|88:116|104:180|104:180|120:152|148:140,2,160,2|8|2,0:0|0:0|0:0,0:0:0:0:
252,16,41070,1,2,0:0:0:0:
320,160,41240,1,8,0:0:0:0:
464,88,41411,1,0,0:0:0:0:
256,120,41581,6,0,P|256:200|320:236,1,160,2|8,0:0|0:0,0:0:0:0:
440,100,42093,1,0,0:0:0:0:
332,16,42263,1,2,0:0:0:0:
320,160,42433,1,2,0:0:0:0:
464,88,42604,1,8,0:0:0:0:
356,4,42774,1,0,0:0:0:0:
344,148,42945,6,0,P|336:228|340:312,1,160,2|8,0:0|0:0,0:0:0:0:
448,256,43456,1,0,0:0:0:0:
224,228,43627,2,0,P|180:224|128:228,1,80,2|2,0:0|0:0,0:0:0:0:
112,352,43968,2,0,P|156:356|208:352,1,80,8|0,0:0|0:0,0:0:0:0:
256,160,44308,6,0,P|172:152|96:160,1,160,4|8,0:0|0:0,0:0:0:0:
44,264,44820,1,0,0:0:0:0:
140,60,44990,1,2,0:0:0:0:
264,248,45161,1,2,0:0:0:0:
360,44,45331,1,8,0:0:0:0:
360,44,45672,6,0,P|408:104|384:188,1,160,2|8,0:0|0:0,0:0:0:0:
296,256,46183,1,0,0:0:0:0:
448,292,46354,1,2,0:0:0:0:
267,283,46524,1,2,0:0:0:0:
460,328,46695,1,8,0:0:0:0:
460,328,47036,5,2,0:0:0:0:
460,328,47206,1,2,0:0:0:0:
267,283,47377,2,0,P|219:279|163:287,1,80,8|0,0:0|0:0,0:0:0:0:
72,340,47718,1,2,0:0:0:0:
72,340,47888,1,2,0:0:0:0:
80,132,48058,2,0,P|72:172|80:212,1,80,8|0,0:0|0:0,0:0:0:0:
272,136,48399,6,0,P|279:97|272:57,1,80,2|2,0:0|0:0,0:0:0:0:
244,288,48740,2,0,P|284:296|324:288,1,80,8|0,0:0|0:0,0:0:0:0:
272,136,49081,2,0,P|233:128|193:135,1,80,2|2,0:0|0:0,0:0:0:0:
382,340,49422,2,0,P|398:300|390:252,1,80,8|2,0:0|0:0,0:0:0:0:
278,29,49763,5,12,0:0:0:0:
174,83,49933,1,2,0:0:0:0:
276,45,50104,5,8,0:0:0:0:
369,131,50274,1,2,0:0:0:0:
274,61,50445,5,8,0:0:0:0:
146,111,50615,1,2,0:0:0:0:
272,77,50786,5,8,0:0:0:0:
401,159,50956,1,2,0:0:0:0:
269,92,51127,5,8,0:0:0:0:
107,130,51297,1,2,0:0:0:0:
267,108,51468,5,8,0:0:0:0:
450,187,51638,1,2,0:0:0:0:
288,292,51808,6,0,P|284:320|288:360,2,47.9999985351563,8|8|8,0:0|0:3|0:3,0:0:0:0:
288,292,52320,6,0,P|236:324|156:272,1,160,4|2,0:0|0:0,0:0:0:0:
116,120,52831,2,0,P|120:68|120:36,1,80,8|0,0:0|0:0,0:0:0:0:
232,168,53172,2,0,P|228:220|228:252,1,80,2|2,0:0|0:0,0:0:0:0:
340,84,53513,1,8,0:0:0:0:
340,84,53854,5,2,0:0:0:0:
428,164,54024,1,2,0:0:0:0:
372,272,54195,2,0,L|456:276,1,80,8|0,0:0|0:0,0:0:0:0:
188,304,54536,2,0,L|272:300,1,80,2|2,0:0|0:0,0:0:0:0:
48,328,54877,2,0,P|100:292|96:212,1,120,8|0,0:0|0:0,0:0:0:0:
92,212,55218,6,0,P|80:168|88:120,1,80,12|2,0:0|0:0,0:0:0:0:
236,40,55558,2,0,P|248:84|240:132,1,80,8|2,0:0|0:0,0:0:0:0:
220,316,55899,2,0,P|208:272|216:224,1,80,8|2,0:0|0:0,0:0:0:0:
436,260,56240,2,0,P|392:276|356:272,1,80,8|2,0:0|0:0,0:0:0:0:
336,120,56581,6,0,P|380:104|416:108,1,80,8|2,0:0|0:0,0:0:0:0:
220,316,56922,2,0,P|172:320|136:304,1,80,8|2,0:0|0:0,0:0:0:0:
120,136,57263,5,8,0:0:0:0:
156,116,57348,1,8,0:0:0:0:
196,112,57433,1,8,0:0:0:0:
236,120,57519,1,8,0:0:0:0:
268,144,57604,1,8,0:0:0:0:
88,208,57774,6,0,P|44:152|72:76,1,160,4|2,0:0|0:0,0:0:0:0:
232,260,58286,1,8,0:0:0:0:
320,112,58456,1,0,0:0:0:0:
316,304,58627,1,2,0:0:0:0:
236,68,58797,5,2,0:0:0:0:
218,282,58968,1,8,0:0:0:0:
333,89,59138,1,2,0:0:0:0:
316,304,59308,1,8,0:0:0:0:
316,304,60672,6,0,B|340:276|340:276|368:308|368:308|408:288|408:288|456:328|520:300,1,240.000009155274,4|8,1:0|0:0,0:0:0:0:
388,140,61191,5,0,0:0:0:0:
220,272,61365,2,0,L|232:360,1,88.000002685547,2|2,0:0|0:0,0:0:0:0:
200,80,61711,1,8,0:0:0:0:
85,248,61885,6,0,P|141:305|221:269,1,176.000005371094,0|2,0:0|0:0,0:0:0:0:
200,80,62405,2,0,P|156:60|108:56,1,88.000002685547,8|0,0:0|0:0,0:0:0:0:
24,140,62751,1,2,0:0:0:0:
157,232,62925,1,2,0:0:0:0:
320,168,63098,2,0,P|384:160|428:168,1,88.000002685547,8|2,0:0|0:0,0:0:0:0:
460,332,63445,6,0,P|372:348|280:340,1,176.000005371094,0|8,0:0|0:0,0:0:0:0:
304,83,63965,2,0,P|320:127|320:167,1,88.000002685547,0|2,0:0|0:0,0:0:0:0:
132,264,64311,2,0,P|132:220|147:179,1,88.000002685547,2|8,0:0|0:0,0:0:0:0:
184,316,64658,6,0,B|160:336|128:344|96:336|72:304|72:304|80:352,1,176.000005371094,0|2,0:0|0:0,0:0:0:0:
52,140,65178,1,8,0:0:0:0:
132,264,65351,1,0,0:0:0:0:
272,172,65525,2,0,P|280:116|260:76,1,88.000002685547,2|2,0:0|0:0,0:0:0:0:
136,28,65871,1,8,0:0:0:0:
264,184,66045,6,0,B|404:168|404:168|372:188,1,176.000005371094,6|2,0:0|0:0,0:0:0:0:
172,248,66565,2,0,L|84:240,1,88.000002685547,8|0,0:0|0:0,0:0:0:0:
292,288,66911,2,0,L|380:280,1,88.000002685547,2|2,0:0|0:0,0:0:0:0:
200,352,67258,1,8,0:0:0:0:
264,184,67431,6,0,B|276:100|256:60|256:60|248:116,1,176.000005371094,6|2,0:0|0:0,0:0:0:0:
292,288,67951,1,8,0:0:0:0:
384,144,68124,1,0,0:0:0:0:
180,160,68298,1,2,0:0:0:0:
372,232,68471,1,2,0:0:0:0:
248,109,68644,1,8,0:0:0:0:
216,292,68818,6,0,P|240:344|348:340,1,176.000005371094,6|2,0:0|0:0,0:0:0:0:
324,96,69338,2,0,P|308:144|316:188,1,88.000002685547,8|0,0:0|0:0,0:0:0:0:
408,228,69684,1,2,0:0:0:0:
336,16,69858,1,2,0:0:0:0:
204,192,70031,2,0,P|144:200|100:188,1,88.000002685547,8|0,0:0|0:0,0:0:0:0:
80,96,70378,5,2,0:0:0:0:
312,180,70551,1,2,0:0:0:0:
140,312,70724,2,0,L|48:320,1,88.000002685547,8|0,0:0|0:0,0:0:0:0:
204,192,71071,1,8,0:0:0:0:
284,340,71244,1,8,0:3:0:0:
364,144,71418,1,8,0:3:0:0:
456,372,71591,6,0,P|464:320|456:272,1,95.9999970703126,8|2,0:3|0:0,0:0:0:0:
444,260,72111,6,0,B|420:252|420:252|396:260|396:260|368:236|368:236|340:280|340:280|304:240|248:260,1,240.000009155274,4|2,0:0|0:0,0:0:0:0:
80,360,72631,6,0,P|116:336|140:292,1,88.000002685547,2|8,0:0|0:0,0:0:0:0:
112,28,72978,2,0,P|108:132|164:188,1,176.000005371094,0|2,0:0|0:0,0:0:0:0:
424,100,73498,2,0,P|384:76|344:76,1,88.000002685547,8|0,0:0|0:0,0:0:0:0:
388,256,73844,2,0,P|428:233|448:198,1,88.000002685547,2|2,0:0|0:0,0:0:0:0:
272,148,74191,2,0,P|271:194|291:229,1,88.000002685547,8|2,0:0|0:0,0:0:0:0:
440,348,74538,6,0,B|384:340|384:340|324:344|324:344|264:336,1,176.000005371094,0|8,0:0|0:0,0:0:0:0:
184,180,75057,1,0,0:0:0:0:
68,312,75231,1,2,0:0:0:0:
224,260,75404,1,2,0:0:0:0:
48,128,75577,1,8,0:0:0:0:
252,40,75751,6,0,B|292:24|292:24|324:36|324:36|372:20|420:52,1,176.000005371094,0|2,0:0|0:0,0:0:0:0:
412,240,76271,2,0,P|360:260|312:252,1,88.000002685547,8|0,0:0|0:0,0:0:0:0:
460,176,76617,1,2,0:0:0:0:
280,196,76790,1,2,0:0:0:0:
388,336,76964,1,8,0:0:0:0:
208,356,77137,6,0,B|160:364|124:344|124:344|72:352|40:320,1,176.000005371094,6|2,0:0|0:0,0:0:0:0:
132,116,77657,2,0,P|144:180|144:216,1,88.000002685547,8|0,0:0|0:0,0:0:0:0:
336,104,78004,2,0,P|331:168|321:203,1,88.000002685547,2|2,0:0|0:0,0:0:0:0:
228,268,78351,1,8,0:0:0:0:
272,64,78524,6,0,P|352:32|408:92,1,176.000005371094,6|2,0:0|0:0,0:0:0:0:
348,256,79044,1,8,0:0:0:0:
200,160,79217,1,0,0:0:0:0:
132,324,79391,5,2,0:0:0:0:
216,168,79564,1,2,0:0:0:0:
364,264,79737,1,8,0:0:0:0:
424,100,79911,6,0,P|364:41|288:74,1,176.000005371094,6|2,0:0|0:0,0:0:0:0:
276,275,80431,2,0,L|368:263,1,88.000002685547,8|0,0:0|0:0,0:0:0:0:
174,167,80777,2,0,L|138:253,1,88.000002685547,2|2,0:0|0:0,0:0:0:0:
317,133,81124,2,0,L|261:59,1,88.000002685547,8|0,0:0|0:0,0:0:0:0:
140,248,81471,5,2,0:0:0:0:
363,263,81644,1,2,0:0:0:0:
264,64,81817,1,8,0:0:0:0:
121,256,81991,5,0,0:0:0:0:
380,274,82164,1,2,0:0:0:0:
265,43,82337,1,2,0:0:0:0:
256,192,82510,5,8,0:0:0:0:
212,276,86924,6,0,B|232:268|232:268|256:276|256:276|276:268|276:268|296:280|296:280|320:272|320:272|344:280,1,140,4|0,0:0|0:0,0:0:0:0:
452,316,87602,5,8,0:0:0:0:
412,311,87686,1,8,0:0:0:0:
380,288,87771,1,8,0:0:0:0:
362,253,87856,1,8,0:0:0:0:
363,213,87940,1,8,0:0:0:0:
383,179,88025,1,8,0:0:0:0:
416,158,88110,1,8,0:0:0:0:
456,155,88195,1,8,0:0:0:0:
492,172,88280,6,0,L|444:236,1,80,4|0,0:0|0:0,0:0:0:0:
264,116,88620,2,0,L|312:52,1,80,8|0,0:0|0:0,0:0:0:0:
324,220,88961,6,0,L|276:284,1,80,2|2,0:0|0:0,0:0:0:0:
96,164,89302,2,0,L|144:100,1,80,8|0,0:0|0:0,0:0:0:0:
56,244,89643,6,0,L|64:80,1,160,2|8,0:0|0:0,0:0:0:0:
248,179,90155,2,0,L|256:20,1,160,0|2,0:0|0:0,0:0:0:0:
452,240,90666,2,0,L|456:152,1,80,8|0,0:0|0:0,0:0:0:0:
324,300,91007,5,2,0:0:0:0:
248,179,91177,1,0,0:0:0:0:
136,272,91348,2,0,L|56:264,1,80,8|0,0:0|0:0,0:0:0:0:
248,179,91689,1,2,0:0:0:0:
324,300,91859,1,2,0:0:0:0:
428,200,92030,2,0,P|436:136|424:104,1,80,8|0,0:0|0:0,0:0:0:0:
248,179,92370,6,0,B|220:239|244:303|244:303|260:271,1,160,2|8,0:0|0:0,0:0:0:0:
258,83,92882,2,0,B|243:54|243:54|219:118|247:178,1,160,0|2,0:0|0:0,0:0:0:0:
380,236,93393,2,0,L|468:228,1,80,8|0,0:0|0:0,0:0:0:0:
124,116,93734,5,2,0:0:0:0:
124,116,93905,1,0,0:0:0:0:
228,256,94075,2,0,P|228:300|224:336,1,80,8|0,0:0|0:0,0:0:0:0:
120,195,94416,2,0,P|120:151|124:115,1,80,2|2,0:0|0:0,0:0:0:0:
304,264,94757,2,0,P|304:308|300:344,1,80,8|0,0:0|0:0,0:0:0:0:
52,240,95098,6,0,P|44:140|60:64,1,160,2|8,0:0|0:0,0:0:0:0:
204,24,95609,2,0,B|256:20|296:32|296:32|332:32|364:44,1,160,0|2,0:0|0:0,0:0:0:0:
467,196,96120,2,0,L|388:208,1,80,8|0,0:0|0:0,0:0:0:0:
172,284,96461,5,2,0:0:0:0:
312,352,96632,1,0,0:0:0:0:
388,208,96802,2,0,P|380:160|360:128,1,80,8|0,0:0|0:0,0:0:0:0:
172,284,97143,2,0,P|153:319|148:358,1,80,2|2,0:0|0:0,0:0:0:0:
312,352,97484,1,8,0:0:0:0:
240,160,97655,1,0,0:0:0:0:
32,180,97825,6,0,P|20:220|104:220,1,160,2|8,0:0|0:0,0:0:0:0:
184,80,98336,2,0,P|155:49|113:122,1,160,0|2,0:0|0:0,0:0:0:0:
200,260,98848,2,0,P|240:250|198:177,1,160,8|4,0:0|0:0,0:0:0:0:
444,48,99530,5,8,0:0:0:0:
444,48,99870,2,0,L|440:128,1,80,2|2,0:0|0:0,0:0:0:0:
324,128,100211,2,0,L|328:208,1,80,8|0,0:0|0:0,0:0:0:0:
412,320,100552,5,2,0:0:0:0:
412,320,100893,1,8,0:0:0:0:
412,320,101234,2,0,P|348:328|328:324,1,80,2|2,0:0|0:0,0:0:0:0:
152,296,101575,2,0,P|216:288|236:292,1,80,8|0,0:0|0:0,0:0:0:0:
60,356,101916,5,2,0:0:0:0:
60,356,102257,1,8,0:0:0:0:
60,356,102598,2,0,L|52:276,1,80,2|2,0:0|0:0,0:0:0:0:
132,120,102939,2,0,L|124:200,1,80,8|0,0:0|0:0,0:0:0:0:
68,28,103280,5,2,0:0:0:0:
68,28,103620,1,8,0:0:0:0:
68,28,103961,2,0,P|108:20|156:24,1,80,2|2,0:0|0:0,0:0:0:0:
252,72,104302,2,0,P|292:75|337:92,1,80,8|0,0:0|0:0,0:0:0:0:
400,188,104643,6,0,P|432:256|388:344,1,160,4|8,0:0|0:0,0:0:0:0:
184,184,105155,1,0,0:0:0:0:
204,360,105325,1,2,0:0:0:0:
348,260,105495,1,2,0:0:0:0:
164,172,105666,1,8,0:0:0:0:
328,248,105836,1,0,0:0:0:0:
184,348,106007,6,0,B|56:356|56:356|88:332,1,160,2|8,0:0|0:0,0:0:0:0:
304,304,106518,1,0,0:0:0:0:
164,188,106689,2,0,P|152:144|160:104,1,80,2|2,0:0|0:0,0:0:0:0:
348,100,107030,2,0,P|360:144|352:184,1,80,8|0,0:0|0:0,0:0:0:0:
88,236,107370,6,0,P|64:156|76:80,2,160,2|8|2,0:0|0:0|0:0,0:0:0:0:
216,332,108223,1,2,0:0:0:0:
368,280,108393,2,0,P|424:276|452:280,1,80,8|0,0:0|0:0,0:0:0:0:
216,332,108734,5,2,0:0:0:0:
88,236,108905,1,2,0:0:0:0:
232,108,109075,2,0,P|240:156|236:192,1,80,8|0,0:0|0:0,0:0:0:0:
88,236,109416,1,2,0:0:0:0:
152,104,109586,1,2,0:0:0:0:
216,280,109757,1,8,0:0:0:0:
304,56,109927,1,2,0:0:0:0:
348,320,110098,6,0,L|436:312,1,80,12|2,0:0|0:0,0:0:0:0:
380,160,110439,2,0,L|300:152,1,80,8|2,0:0|0:0,0:0:0:0:
388,316,110780,6,0,L|476:308,1,80,8|2,0:0|0:0,0:0:0:0:
340,156,111120,2,0,L|260:148,1,80,8|2,0:0|0:0,0:0:0:0:
92,132,111461,5,8,0:0:0:0:
184,48,111632,1,2,0:0:0:0:
168,232,111802,1,8,0:0:0:0:
260,148,111973,1,2,0:0:0:0:
64,129,112143,5,8,0:0:0:0:
287,150,112314,1,8,0:3:0:0:
186,17,112484,1,8,0:3:0:0:
165,262,112655,6,0,B|156:320|156:320|204:296|256:320,1,160,4|2,0:0|0:0,0:0:0:0:
424,344,113166,2,0,P|412:304|412:252,1,80,8|0,0:0|0:0,0:0:0:0:
356,76,113507,2,0,P|360:120|344:160,1,80,2|2,0:0|0:0,0:0:0:0:
192,96,113848,1,8,0:0:0:0:
192,96,114189,5,2,0:0:0:0:
192,96,114359,1,2,0:0:0:0:
88,208,114530,2,0,P|84:256|92:296,1,80,8|0,0:0|0:0,0:0:0:0:
296,256,114870,1,2,0:0:0:0:
296,256,115041,1,2,0:0:0:0:
192,96,115211,2,0,P|144:84|104:88,1,80,8|2,0:0|0:0,0:0:0:0:
217,245,115552,6,0,P|265:257|305:253,1,80,12|2,0:0|0:0,0:0:0:0:
124,204,115893,2,0,P|116:252|128:288,1,80,8|2,0:0|0:0,0:0:0:0:
288,132,116234,2,0,P|296:84|284:48,1,80,8|2,0:0|0:0,0:0:0:0:
84,344,116575,2,0,P|124:356|168:340,1,80,8|2,0:0|0:0,0:0:0:0:
424,208,116916,6,0,P|384:196|340:212,1,80,8|2,0:0|0:0,0:0:0:0:
284,352,117257,2,0,P|324:364|368:348,1,80,8|2,0:0|0:0,0:0:0:0:
220,104,117598,2,0,P|208:144|216:200,1,80,8|2,0:0|0:0,0:0:0:0:
324,288,117939,1,8,0:0:0:0:
280,60,118109,6,0,P|236:32|148:84,1,160,4|2,0:0|0:0,0:0:0:0:
324,288,118620,2,0,P|336:240|332:204,1,80,8|0,0:0|0:0,0:0:0:0:
172,264,118961,2,0,P|170:303|181:342,1,80,2|2,0:0|0:0,0:0:0:0:
412,224,119302,2,0,P|396:164|380:144,1,80,8|0,0:0|0:0,0:0:0:0:
172,264,119643,5,2,0:0:0:0:
172,264,119814,1,2,0:0:0:0:
340,120,119984,1,8,0:0:0:0:
340,120,120155,1,8,0:0:0:0:
328,276,120325,1,2,0:0:0:0:
328,276,120496,1,2,0:0:0:0:
184,108,120666,1,8,0:0:0:0:
184,108,121007,6,0,B|176:68|176:68|160:136|160:136|128:100|128:100|104:124|104:124|56:120,1,240.000009155274,4|8,1:0|0:0,0:0:0:0:
88,8,121527,5,0,0:0:0:0:
216,188,121700,2,0,P|176:212|132:208,1,88.000002685547,2|2,0:0|0:0,0:0:0:0:
56,120,122047,1,8,0:0:0:0:
124,316,122220,6,0,P|208:284|296:288,1,176.000005371094,0|2,0:0|0:0,0:0:0:0:
428,336,122741,1,8,0:0:0:0:
396,200,122914,1,0,0:0:0:0:
272,63,123087,2,0,L|256:171,1,88.000002685547,2|2,0:0|0:0,0:0:0:0:
111,228,123434,2,0,L|127:336,1,88.000002685547,8|2,0:0|0:0,0:0:0:0:
168,184,123781,6,0,P|104:156|40:228,1,176.000005371094,0|8,0:0|0:0,0:0:0:0:
123,315,124301,1,0,0:0:0:0:
240,184,124475,2,0,P|220:136|180:104,1,88.000002685547,2|2,0:0|0:0,0:0:0:0:
40,224,124822,1,8,0:0:0:0:
272,260,124995,6,0,L|280:84,1,176.000005371094,0|2,0:0|0:0,0:0:0:0:
416,224,125515,2,0,L|412:136,1,88.000002685547,8|0,0:0|0:0,0:0:0:0:
364,320,125862,1,2,0:0:0:0:
256,232,126035,1,2,0:0:0:0:
184,352,126209,1,8,0:0:0:0:
76,260,126382,6,0,P|48:192|92:100,1,176.000005371094,6|2,0:0|0:0,0:0:0:0:
328,148,126902,2,0,P|272:160|232:148,1,88.000002685547,8|0,0:0|0:0,0:0:0:0:
280,56,127249,1,2,0:0:0:0:
396,224,127423,1,2,0:0:0:0:
196,236,127596,1,8,0:0:0:0:
280,56,127770,6,0,B|352:44|392:68|460:56,1,176.000005371094,6|2,0:0|0:0,0:0:0:0:
200,140,128290,2,0,P|152:136|104:144,1,88.000002685547,8|0,0:0|0:0,0:0:0:0:
272,224,128637,2,0,P|320:220|368:228,1,88.000002685547,2|2,0:0|0:0,0:0:0:0:
180,296,128983,1,8,0:0:0:0:
376,296,129157,6,0,P|424:256|388:160,1,176.000005371094,6|2,0:0|0:0,0:0:0:0:
124,92,129677,2,0,P|112:152|120:196,1,88.000002685547,8|0,0:0|0:0,0:0:0:0:
208,236,130024,1,2,0:0:0:0:
24,116,130197,1,2,0:0:0:0:
208,92,130371,1,8,0:0:0:0:
72,252,130544,1,0,0:0:0:0:
268,160,130717,5,2,0:0:0:0:
124,72,130891,1,2,0:0:0:0:
144,260,131064,1,8,0:0:0:0:
208,72,131238,1,0,0:0:0:0:
304,244,131411,5,2,0:0:0:0:
104,168,131585,1,2,0:0:0:0:
288,88,131758,1,8,0:0:0:0:
216,292,131931,6,0,P|212:344|228:384,1,95.9999970703126,2|2,0:0|0:0,0:0:0:0:
432,228,132452,6,0,P|380:180|364:292,1,240.000009155274,4|2,0:0|0:0,0:0:0:0:
480,336,132972,1,2,0:0:0:0:
336,108,133145,1,8,0:0:0:0:
192,248,133319,6,0,B|140:260|108:224|108:224|72:256|28:244,1,176.000005371094,0|2,0:0|0:0,0:0:0:0:
168,80,133839,2,0,P|176:128|168:176,1,88.000002685547,8|0,0:0|0:0,0:0:0:0:
52,72,134186,2,0,P|44:120|52:168,1,88.000002685547,2|2,0:0|0:0,0:0:0:0:
120,304,134533,1,8,0:0:0:0:
284,248,134706,1,2,0:0:0:0:
452,356,134879,6,0,P|404:324|416:216,1,176.000005371094,0|8,0:0|0:0,0:0:0:0:
440,44,135400,2,0,P|472:88|460:132,1,88.000002685547,0|2,0:0|0:0,0:0:0:0:
268,136,135746,2,0,P|312:120|376:148,1,88.000002685547,2|8,0:0|0:0,0:0:0:0:
232,204,136093,6,0,P|192:148|240:64,1,176.000005371094,0|2,0:0|0:0,0:0:0:0:
288,284,136613,2,0,L|200:296,1,88.000002685547,8|0,0:0|0:0,0:0:0:0:
360,240,136960,1,2,0:0:0:0:
128,340,137134,1,2,0:0:0:0:
336,352,137307,1,8,0:0:0:0:
152,228,137480,6,0,B|108:208|108:208|64:216|64:216|36:180|56:136,1,176.000005371094,6|2,0:0|0:0,0:0:0:0:
280,72,138001,2,0,P|232:88|192:88,1,88.000002685547,8|0,0:0|0:0,0:0:0:0:
408,24,138348,1,2,0:0:0:0:
372,152,138521,1,2,0:0:0:0:
480,228,138694,1,8,0:0:0:0:
436,352,138868,6,0,B|372:340|372:340|328:352|328:352|264:340,1,176.000005371094,6|2,0:0|0:0,0:0:0:0:
144,200,139388,2,0,P|136:252|144:296,1,88.000002685547,8|0,0:0|0:0,0:0:0:0:
252,184,139735,2,0,P|260:132|252:88,1,88.000002685547,2|2,0:0|0:0,0:0:0:0:
52,132,140082,1,8,0:0:0:0:
207,37,140255,6,0,B|247:65|255:97|255:97|311:89|355:105,1,176.000005371094,6|2,0:0|0:0,0:0:0:0:
472,48,140775,1,8,0:0:0:0:
472,48,141122,2,0,L|464:136,1,88.000002685547,2|2,0:0|0:0,0:0:0:0:
452,268,141469,1,8,0:0:0:0:
452,268,141816,6,0,P|400:264|360:272,1,88.000002685547,2|2,0:0|0:0,0:0:0:0:
180,348,142163,2,0,P|232:352|272:344,1,88.000002685547,8|2,0:0|0:0,0:0:0:0:
80,272,142509,1,8,0:0:0:0:
80,272,142683,1,2,0:0:0:0:
80,272,142856,1,8,0:0:0:0:
80,272,143030,6,0,P|88:208|72:144,1,120.000004577637,4|0,0:0|0:0,0:0:0:0:
16,88,143550,1,2,0:0:0:0:
180,16,143897,1,8,0:0:0:0:
320,128,144243,1,0,0:0:0:0:
320,128,144417,6,0,P|388:116|448:116,1,120.000004577637,4|0,0:0|0:0,0:0:0:0:
504,276,144937,2,0,P|444:274|385:263,2,120.000004577637,2|8|0,0:0|0:0|0:0,0:0:0:0:
352,196,145804,6,0,P|312:240|368:336,1,180.000006866455,4|2,0:0|0:0,0:0:0:0:
500,136,146671,1,8,0:0:0:0:
260,148,147018,1,0,0:0:0:0:
160,80,147191,1,8,0:0:0:0:
160,80,147278,1,8,0:0:0:0:
160,80,147365,6,0,L|96:88,1,60.0000022888184,2|8,0:0|0:0,0:0:0:0:
68,204,147712,2,0,L|127:211,1,60.0000022888184,0|2,0:0|0:0,0:0:0:0:
308,344,148059,5,8,0:0:0:0:
280,252,148256,1,8,0:3:0:0:
216,320,148452,1,2,0:0:0:0:
256,192,148845,12,0,152201,0:0:0:0:
64,84,153879,6,0,P|132:56|184:72,1,106.666666666667,4|0,0:0|0:0,0:0:0:0:
248,104,154299,2,0,L|236:212,1,106.666666666667,8|0,0:0|0:0,0:0:0:0:
148,244,154719,2,0,L|88:236,2,53.3333333333333,8|8|8,0:0|0:0|0:0,0:0:0:0:
176,336,155138,2,0,L|116:344,2,53.3333333333333,2|2|2,0:0|0:0|0:0,0:0:0:0:
264,302,155558,6,0,P|328:286|432:330,1,180.000006866455,4|2,0:0|0:0,0:0:0:0:
384,144,156234,1,2,0:0:0:0:
384,144,156369,2,0,P|352:192|360:260,2,120.000004577637,8|2|2,0:0|0:0|0:0,0:0:0:0:
236,84,157181,6,0,L|176:80,1,60.0000022888184,2|2,0:0|0:0,0:0:0:0:
68,192,157587,1,2,0:0:0:0:
136,332,157857,1,2,0:0:0:0:
136,332,157993,2,0,L|196:336,1,60.0000022888184,8|0,0:0|0:0,0:0:0:0:
340,296,158263,2,0,L|280:292,1,60.0000022888184,2|0,0:0|0:0,0:0:0:0:
424,348,158534,1,2,0:0:0:0:
424,348,158804,6,0,P|376:292|412:192,1,180.000006866455,2|2,0:0|0:0,0:0:0:0:
256,88,159481,1,2,0:0:0:0:
256,88,159616,2,0,P|288:124|360:120,2,120.000004577637,8|2|8,0:0|0:0|0:0,0:0:0:0:
328,48,160293,1,0,0:0:0:0:
328,48,160428,2,0,L|264:224,1,180.000006866455,4|8,0:0|0:0,0:0:0:0:
180,360,160969,2,0,L|156:300,1,60.0000022888184,2|2,0:0|0:0,0:0:0:0:
108,152,161240,5,8,0:0:0:0:
144,184,161375,1,8,0:0:0:0:
100,200,161510,1,8,0:0:0:0:
102,136,161645,5,2,0:0:0:0:
160,187,161780,1,2,0:0:0:0:
89,212,161915,1,2,0:0:0:0:
176,112,162051,6,0,B|216:92|216:92|248:112|248:112|288:84|344:108,1,180.000006866455,4|2,0:0|0:0,0:0:0:0:
320,292,162728,1,2,0:0:0:0:
320,292,162863,2,0,P|296:236|296:176,2,120.000004577637,8|2|2,0:0|0:0|0:0,0:0:0:0:
480,316,163675,6,0,L|492:252,1,60.0000022888184,2|2,0:0|0:0,0:0:0:0:
256,360,164081,1,0,0:0:0:0:
32,316,164351,1,2,0:0:0:0:
32,316,164486,2,0,L|20:252,1,60.0000022888184,8|0,0:0|0:0,0:0:0:0:
156,304,164757,2,0,L|106:346,1,60.0000022888184,2|0,0:0|0:0,0:0:0:0:
84,200,165028,2,0,L|145:221,1,60.0000022888184,2|0,0:0|0:0,0:0:0:0:
20,256,165298,6,0,P|4:176|80:116,1,180.000006866455,2|2,0:0|0:0,0:0:0:0:
284,216,165975,1,2,0:0:0:0:
284,216,166110,2,0,B|276:176|292:144|292:144|280:112|284:80,2,120.000004577637,8|2|8,0:0|0:0|0:0,0:0:0:0:
188,40,166922,6,0,B|244:40|284:68|284:68|324:52|364:68,1,180.000006866455,2|8,0:0|0:0,0:0:0:0:
408,276,167597,1,2,0:0:0:0:
408,276,167733,2,0,L|336:288,1,60.0000022888184,8|0,0:0|0:0,0:0:0:0:
196,334,168004,2,0,L|256:344,1,60.0000022888184,2|2,0:0|0:0,0:0:0:0:
136,244,168275,1,2,0:0:0:0:
256,192,168545,12,0,171824,0:0:0:0:
60,104,181117,6,8,L|64:160,1,53.3333333333333
152,196,181390,2,8,L|148:252,1,53.3333333333333
68,300,181664,6,0,P|144:288|216:324,1,160.000006103516,4|2,0:0|0:0,0:0:0:0:
424,240,182484,2,0,P|396:268|480:328,1,160.000006103516,8|2,0:0|0:0,0:0:0:0:
424,116,183304,6,0,B|376:92|296:120|256:96,1,160.000006103516,2|2,0:0|0:0,0:0:0:0:
52,28,184124,1,8,0:0:0:0:
266,100,184397,1,0,0:0:0:0:
84,232,184670,1,2,0:0:0:0:
298,304,184944,6,0,B|422:320|422:320|394:296,1,160.000006103516,2|2,0:0|0:0,0:0:0:0:
184,220,185763,2,0,B|60:236|60:236|88:212,1,160.000006103516,8|2,0:0|0:0,0:0:0:0:
296,20,186583,6,0,B|324:44|324:44|304:84|304:84|336:112|324:156,1,160.000006103516,2|2,0:0|0:0,0:0:0:0:
226,346,187403,1,8,0:0:0:0:
193,133,187677,1,2,0:0:0:0:
346,286,187950,1,8,0:0:0:0:
132,252,188223,6,0,P|61:257|8:323,1,160,4|8,0:0|0:0,0:0:0:0:
8,322,188774,1,2,0:0:0:0:
196,292,189050,2,0,P|204:234|172:188,2,80,8|8|8,0:0|0:3|0:3,0:0:0:0:
105,118,190009,6,0,B|170:66|256:98|256:98|341:66|406:118,1,320,4|0,0:0|0:0,0:0:0:0:
144,120,205093,5,8,0:0:0:0:
144,120,205179,1,8,0:0:0:0:
144,120,205266,2,0,P|176:108|220:108,1,68.0000012969971,12|2,0:0|0:0,0:0:0:0:
289,63,205613,2,0,P|311:89|324:131,1,68.0000012969971,8|2,0:0|0:0,0:0:0:0:
388,184,205960,2,0,P|370:212|334:238,1,68.0000012969971,8|2,0:0|0:0,0:0:0:0:
304,316,206307,2,0,P|271:306|235:281,1,68.0000012969971,8|2,0:0|0:0,0:0:0:0:
152,276,206654,6,0,P|151:242|164:200,1,68.0000012969971,8|2,0:0|0:0,0:0:0:0:
304,316,207001,2,0,P|271:306|235:281,1,68.0000012969971,8|2,0:0|0:0,0:0:0:0:
388,184,207348,2,0,P|370:212|334:238,1,68.0000012969971,8|2,0:0|0:0,0:0:0:0:
289,63,207695,2,0,P|311:89|324:131,1,68.0000012969971,8|2,0:0|0:0,0:0:0:0:
243,288,208043,5,8,0:0:0:0:
243,288,208216,1,2,0:0:0:0:
179,132,208390,1,8,0:0:0:0:
179,132,208563,1,2,0:0:0:0:
345,155,208737,1,8,0:0:0:0:
345,155,208910,1,2,0:0:0:0:
243,288,209084,2,0,L|176:296,1,68.0000012969971,8|2,0:0|0:0,0:0:0:0:
345,155,209431,5,8,0:0:0:0:
345,155,209604,1,2,0:0:0:0:
179,132,209778,1,8,0:0:0:0:
179,132,209951,1,2,0:0:0:0:
243,288,210125,1,8,0:0:0:0:
243,288,210298,1,2,0:0:0:0:
345,155,210472,2,0,L|337:87,1,68.0000012969971,8|2,0:0|0:0,0:0:0:0:
243,288,210819,5,8,0:0:0:0:
228,212,210992,1,2,0:0:0:0:
168,304,211166,1,8,0:0:0:0:
153,228,211339,1,2,0:3:0:0:
243,288,211513,5,8,0:0:0:0:
137,187,211686,1,2,0:0:0:0:
240,183,211860,1,8,0:0:0:0:
139,291,212033,1,2,0:0:0:0:
262,155,212207,5,8,0:0:0:0:
111,267,212381,1,2,0:0:0:0:
243,288,212554,1,8,0:0:0:0:
132,137,212727,1,2,0:3:0:0:
243,288,212901,5,8,0:0:0:0:
131,62,213074,1,2,0:0:0:0:
299,116,213247,1,8,0:0:0:0:
73,229,213421,1,2,0:0:0:0:
332,92,213595,6,0,L|400:84,1,68.0000012969971,12|8,0:0|0:0,0:0:0:0:
208,144,213942,1,8,0:0:0:0:
304,188,214116,1,8,0:0:0:0:
144,212,214289,5,8,0:0:0:0:
340,268,214463,1,8,0:0:0:0:
80,280,214636,5,8,0:0:0:0:
376,348,214810,1,8,0:0:0:0:
96,296,214984,5,8,0:0:0:0:
96,296,215070,1,8,0:0:0:0:
96,296,215157,1,8,0:0:0:0:
96,296,215244,1,8,0:0:0:0:
96,296,215331,1,8,0:0:0:0:
348,276,215504,1,8,0:0:0:0:
348,276,215591,1,8,0:0:0:0:
348,276,215678,1,8,0:0:0:0:
144,212,215851,5,2,0:0:0:0:
304,188,216024,1,8,0:0:0:0:
208,144,216198,6,0,P|204:104|208:48,1,95.9999970703126,8|2,0:0|0:0,0:0:0:0:
207,48,216719,6,0,P|224:172|212:288,1,240.000009155274,4|2,1:0|0:0,0:0:0:0:
68,212,217239,6,0,P|64:164|76:112,1,88.000002685547,2|8,0:0|0:0,0:0:0:0:
280,320,217586,2,0,P|228:360|140:308,1,176.000005371094,0|2,0:0|0:0,0:0:0:0:
224,156,218107,1,8,0:0:0:0:
380,240,218281,1,0,0:0:0:0:
348,24,218454,2,0,P|336:72|348:108,1,88.000002685547,2|2,0:0|0:0,0:0:0:0:
488,148,218801,1,8,0:0:0:0:
224,156,218975,6,0,B|180:140|140:156|140:156|92:144|40:172,1,176.000005371094,6|2,0:0|0:0,0:0:0:0:
104,252,219495,1,8,0:0:0:0:
144,64,219669,1,0,0:0:0:0:
184,252,219842,2,0,L|188:344,1,88.000002685547,2|2,0:0|0:0,0:0:0:0:
224,156,220189,1,8,0:0:0:0:
224,156,220536,5,2,0:0:0:0:
224,156,220710,1,2,0:0:0:0:
328,88,220883,2,0,P|372:76|424:88,1,88.000002685547,8|2,0:0|0:0,0:0:0:0:
324,196,221230,1,8,0:0:0:0:
208,52,221404,1,8,0:3:0:0:
140,224,221577,1,8,0:3:0:0:
304,312,221751,6,0,B|364:304|364:304|484:320,1,176.000005371094,4|2,0:0|0:0,0:0:0:0:
140,224,222272,2,0,P|132:276|144:312,1,88.000002685547,8|0,0:0|0:0,0:0:0:0:
210,136,222619,2,0,P|218:84|206:48,1,88.000002685547,2|2,0:0|0:0,0:0:0:0:
88,116,222966,1,8,0:0:0:0:
262,244,223139,6,0,B|304:260|304:260|322:232|322:232|360:268|420:248,1,176.000005371094,6|2,0:0|0:0,0:0:0:0:
444,56,223660,1,8,0:0:0:0:
380,176,223833,1,0,0:0:0:0:
280,76,224007,1,2,0:0:0:0:
204,196,224180,2,0,P|188:252|200:288,1,88.000002685547,2|8,0:0|0:0,0:0:0:0:
280,328,224527,6,0,L|92:304,1,176.000005371094,6|2,0:0|0:0,0:0:0:0:
64,164,225048,2,0,P|68:108|80:72,1,88.000002685547,8|0,0:0|0:0,0:0:0:0:
224,144,225395,2,0,P|228:200|240:236,1,88.000002685547,2|2,0:0|0:0,0:0:0:0:
360,128,225742,2,0,P|364:72|376:36,1,88.000002685547,8|2,0:0|0:0,0:0:0:0:
456,272,226089,5,8,0:0:0:0:
280,336,226263,1,8,0:0:0:0:
228,328,226349,1,8,0:0:0:0:
176,320,226436,1,8,0:0:0:0:
456,272,226610,5,8,0:0:0:0:
228,328,226783,1,8,0:3:0:0:
456,272,226957,5,8,0:0:0:0:
176,320,227130,1,8,0:0:0:0:
456,272,227304,6,0,P|464:236|448:180,1,95.9999970703126,8|2,0:0|0:0,0:0:0:0:
216,48,227824,6,0,P|176:108|296:156,1,240.000009155274,4|2,0:0|0:0,0:0:0:0:
140,136,228345,6,0,P|100:132|60:140,1,80,2|8,0:0|0:0,0:0:0:0:
324,236,228692,2,0,L|312:64,1,160,0|2,0:0|0:0,0:0:0:0:
204,323,229213,2,0,L|207:243,1,80,8|0,0:0|0:0,0:0:0:0:
312,76,229560,1,2,0:0:0:0:
207,243,229733,2,0,P|151:247|119:239,1,80,2|8,0:0|0:0,0:0:0:0:
268,192,230080,6,0,P|340:184|428:204,1,160,6|2,0:0|0:0,0:0:0:0:
207,243,230601,2,0,P|187:199|192:160,1,80,8|0,0:0|0:0,0:0:0:0:
312,64,230948,1,2,0:0:0:0:
312,64,231121,1,2,0:0:0:0:
424,202,231295,2,0,P|416:264|408:288,1,80,8|0,0:0|0:0,0:0:0:0:
132,244,231642,5,2,0:0:0:0:
224,272,231816,1,2,0:0:0:0:
272,58,231989,5,8,0:0:0:0:
202,124,232163,1,0,0:0:0:0:
363,273,232336,5,2,0:0:0:0:
341,179,232510,1,2,0:0:0:0:
132,244,232683,1,8,0:0:0:0:
216,368,232857,6,0,B|260:348|304:368|304:368|348:380|388:352,1,180.000006866455,4|2,0:0|0:0,0:0:0:0:
396,160,233724,2,0,B|380:116|380:116|360:180|388:252,1,180.000006866455,8|6,0:0|0:0,0:0:0:0:
432,60,234592,1,0,0:0:0:0:
432,60,234765,2,0,P|368:40|320:68,1,120.000004577637,2|8,0:0|0:0,0:0:0:0:
183,196,235460,1,0,0:0:0:0:
183,196,235633,6,0,P|203:158|195:81,1,120.000004577637,6|0,0:0|0:0,0:0:0:0:
52,65,236154,2,0,P|31:104|39:181,2,120.000004577637,2|8|0,0:0|0:0|0:0,0:0:0:0:
183,196,237021,1,2,0:0:0:0:
64,340,237195,5,8,0:0:0:0:
272,312,237368,1,8,0:0:0:0:
316,304,237455,1,8,0:0:0:0:
360,296,237542,1,8,0:0:0:0:
183,196,237715,5,8,0:0:0:0:
272,312,237889,1,8,0:3:0:0:
271,180,238062,1,8,0:0:0:0:
360,296,238236,1,8,0:0:0:0:
359,164,238409,6,0,P|304:100|236:100,1,155.999992858887,4|2,0:0|0:0,0:0:0:0:
168,232,239277,1,8,0:0:0:0:
168,232,239798,2,0,P|223:296|291:296,1,155.999992858887,4|2,0:0|0:0,0:0:0:0:
256,32,240665,1,8,0:0:0:0:
256,32,241186,6,0,P|192:44|96:48,1,155.999992858887,4|2,0:0|0:0,0:0:0:0:
272,176,242054,2,0,P|324:176|376:184,1,103.999995239258,8|2,0:0|0:0,0:0:0:0:
240,312,242748,2,0,P|188:312|136:320,2,103.999995239258,2|2|8,0:0|0:0|0:0,0:0:0:0:
240,312,243789,1,2,0:0:0:0:
240,312,243961,6,0,B|284:296|284:296|312:316|312:316|356:300|356:300|376:324|376:324|416:316|436:288|424:244|412:220|388:208,1,300,4|0,0:0|0:0,0:0:0:0:
368,188,245398,6,0,B|348:212|348:212|324:180|324:180|292:216|292:216|240:164|240:164|212:244|212:244|176:176|176:176|132:208|88:188|64:152|64:120|76:92|100:64|156:52|188:104,1,640,4|4,0:0|0:0,0:0:0:0:
256,192,247168,12,0,256231,0:0:0:0:
