osu file format v14

[General]
AudioFilename: audio.mp3
AudioLeadIn: 0
PreviewTime: 119321
Countdown: 0
SampleSet: Drum
StackLeniency: 0.3
Mode: 0
LetterboxInBreaks: 0
WidescreenStoryboard: 1

[Editor]
Bookmarks: 21006,41875,62745,83614,104484,114919,125190,142962
DistanceSpacing: 1
BeatDivisor: 4
GridSize: 32
TimelineZoom: 3.499999

[Metadata]
Title:The Violence
TitleUnicode:The Violence
Artist:Rise Against
ArtistUnicode:Rise Against
Creator:Mao
Version:Normal
Source:
Tags:cartography championship 2019 contest collab collaboration celerih thicc bish lmt icekalt seonah undeadphoneguy altai wolves punk rock english cut
BeatmapID:2365718
BeatmapSetID:1106635

[Difficulty]
HPDrainRate:4
CircleSize:3
OverallDifficulty:4.3
ApproachRate:5.5
SliderMultiplier:1.2
SliderTickRate:1

[Events]
//Background and Video events
0,0,"BG song 1-4.png",0,0
//Break Periods
2,68162,76620
2,115119,119011
//Storyboard Layer 0 (Background)
//Storyboard Layer 1 (Fail)
//Storyboard Layer 2 (Pass)
//Storyboard Layer 3 (Foreground)
//Storyboard Layer 4 (Overlay)
//Storyboard Sound Samples

[TimingPoints]
136.492681338138,326.086956521739,4,3,0,50,1,0
218,-100,4,3,0,50,0,0
5353,-100,4,3,0,70,0,0
41875,-100,4,3,0,90,0,0
43995,-100,4,3,0,90,0,0
44484,-100,4,3,0,90,0,0
46440,-100,4,3,0,90,0,0
46929,-100,4,3,0,90,0,0
54429,-100,4,3,0,90,0,0
54919,-100,4,3,0,90,0,0
56875,-100,4,3,0,90,0,0
57364,-100,4,3,0,90,0,0
59810,-100,4,3,0,90,0,0
62093,-100,4,3,0,90,0,0
62419,-100,4,3,0,90,0,0
62745,-100,4,3,0,90,0,1
67962,-100,4,3,0,70,0,0
78234,-100,4,3,0,70,0,0
83614,-100,4,3,0,70,0,0
114919,-100,4,3,0,50,0,0
120136,-100,4,3,0,90,0,0
125190,-100,4,3,0,90,0,0
151440,-100,4,3,0,90,0,1
153351,326.086956521739,4,3,0,90,1,1
153432,370.37037037037,4,3,0,90,1,1
153524,416.666666666667,4,3,0,90,1,1
153628,461.538461538462,4,3,0,90,1,1
153743,545.454545454546,4,3,0,90,1,1
153879,508.474576271186,4,3,0,90,1,1
154006,588.235294117647,4,3,0,90,1,1
154153,424.028268551237,4,3,0,90,1,1
154153,-100,4,3,0,90,0,1
155425,-100,4,2,0,30,0,1
155848,375,4,3,0,50,1,0
156035,428.571428571429,4,3,0,50,1,0
156035,-100,4,3,0,50,0,0
156249,571.428571428571,4,3,0,50,1,0
156534,750,4,3,0,50,1,0
156908,600,4,3,0,50,1,0
157208,621.761658031088,4,3,0,50,1,0
157985,-100,4,3,0,5,0,0

[Colours]
Combo1 : 150,150,211
Combo2 : 150,211,150
Combo3 : 150,211,197
Combo4 : 150,177,211

[HitObjects]
180,41,5353,6,0,P|229:61|243:136,1,120,6|8,1:0|1:0,0:0:0:0:
189,226,6006,1,2,1:0:0:0:
252,327,6332,1,8,1:0:0:0:
252,327,6495,2,0,P|290:336|378:362,1,120,2|2,0:1|0:0,0:0:0:0:
423,380,6984,1,8,1:1:0:0:
461,266,7310,2,0,L|516:241,2,60,2|4|10,1:0|0:0|1:0,0:0:0:0:
421,152,7962,6,0,P|438:117|407:45,1,120,6|8,1:0|1:0,0:0:0:0:
290,29,8614,1,2,1:0:0:0:
245,140,8940,1,8,1:0:0:0:
245,140,9103,2,0,P|244:171|239:266,1,120,2|0,0:1|0:0,0:0:0:0:
270,311,9593,1,8,1:0:0:0:
164,368,9919,2,0,L|93:356,1,60,6|6,0:0|0:0,0:0:0:0:
47,376,10245,1,10,1:0:0:0:
14,260,10571,6,0,B|4:198|4:198|41:139,1,120,6|8,1:0|1:0,0:0:0:0:
76,106,11060,1,0,0:0:0:0:
76,106,11223,2,0,P|124:109|195:139,1,120,6|8,0:2|1:0,0:0:0:0:
221,186,11712,1,2,0:1:0:0:
298,94,12038,1,0,0:0:0:0:
298,94,12201,2,0,P|346:82|415:45,1,120,8|6,1:0|0:0,0:0:0:0:
500,271,13179,6,0,B|444:290|444:290|418:355,1,120,6|10,1:0|1:0,0:0:0:0:
364,367,13669,1,2,0:0:0:0:
364,367,13832,2,0,P|311:347|289:276,1,120,6|8,0:0|1:0,0:0:0:0:
288,231,14321,1,2,0:1:0:0:
179,282,14647,2,0,P|159:314|160:345,1,60,2|10,0:0|1:0,0:0:0:0:
41,363,15136,2,0,L|-19:348,2,60,0|8|10,0:0|1:0|1:0,0:0:0:0:
76,248,15788,5,4,1:0:0:0:
76,248,15951,2,0,P|59:210|59:179,1,60,0|8,0:0|1:0,0:0:0:0:
70,72,16440,1,6,0:0:0:0:
70,72,16603,1,4,0:0:0:0:
179,23,16929,2,0,L|300:40,1,120,4|0,0:2|0:0,0:0:0:0:
449,137,17745,1,6,0:0:0:0:
449,137,17908,2,0,P|465:185|460:216,1,60,2|8,0:0|1:0,0:0:0:0:
493,310,18397,5,6,1:0:0:0:
493,310,18560,2,0,P|453:324|425:348,1,60,0|8,0:0|1:0,0:0:0:0:
323,367,19049,1,6,0:0:0:0:
323,367,19212,2,0,B|283:320|283:320|284:260,1,120,2|6,0:0|0:2,0:0:0:0:
316,146,19864,1,4,0:0:0:0:
316,146,20027,2,0,L|216:56,1,120,10|6,1:0|0:0,0:0:0:0:
180,27,20516,1,2,0:0:0:0:
180,27,20679,1,10,1:0:0:0:
75,86,21006,6,0,P|115:121|90:197,1,120,6|8,1:0|1:0,0:0:0:0:
17,263,21659,1,2,1:0:0:0:
88,365,21985,1,8,1:0:0:0:
88,365,22148,2,0,P|126:356|214:330,1,120,2|0,0:1|0:0,0:0:0:0:
246,375,22637,1,8,1:0:0:0:
356,329,22963,2,0,L|381:384,2,60,2|2|8,1:0|0:0|1:0,0:0:0:0:
266,248,23615,6,0,P|249:213|280:141,1,120,6|8,1:0|1:0,0:0:0:0:
336,37,24267,1,2,1:0:0:0:
459,55,24593,1,8,1:0:0:0:
459,55,24756,2,0,P|458:86|453:181,1,120,2|0,0:1|0:0,0:0:0:0:
493,219,25246,1,4,0:0:0:0:
493,338,25572,2,0,B|465:342|465:342|425:368,1,60,2|0,1:0|0:0,0:0:0:0:
381,377,25898,1,2,1:0:0:0:
316,276,26224,6,0,B|326:214|326:214|289:155,1,120,6|8,1:0|1:0,0:0:0:0:
313,108,26713,1,2,0:0:0:0:
313,108,26876,2,0,P|265:105|194:75,1,120,2|8,1:0|1:0,0:0:0:0:
157,35,27365,1,2,0:0:0:0:
52,91,27691,1,4,0:0:0:0:
52,91,27854,2,0,P|40:139|3:208,1,120,8|6,1:0|3:0,0:0:0:0:
178,370,28832,6,0,B|200:313|200:313|256:294,1,120,6|8,1:0|1:0,0:0:0:0:
315,282,29322,1,0,0:0:0:0:
315,282,29485,2,0,P|337:335|391:357,1,120,2|8,1:0|1:0,0:0:0:0:
451,351,29974,1,6,0:0:0:0:
433,232,30300,2,0,P|436:202|454:178,1,60,4|8,0:0|1:0,0:0:0:0:
499,67,30789,2,0,L|520:-1,2,60,2|0|8,1:0|0:0|1:0,0:0:0:0:
385,93,31441,5,6,1:0:0:0:
385,93,31604,2,0,P|368:55|368:24,1,60,0|8,0:0|1:0,0:0:0:0:
252,17,32093,1,2,1:0:0:0:
252,17,32256,1,6,0:0:0:0:
241,136,32582,2,0,L|267:269,1,120,6|4,0:0|0:0,0:0:0:0:
122,363,33398,1,2,1:0:0:0:
122,363,33561,2,0,P|74:379|43:374,1,60,6|8,0:0|1:0,0:0:0:0:
65,262,34050,5,6,1:0:0:0:
65,262,34213,2,0,P|51:222|27:194,1,60,6|8,0:0|1:0,0:0:0:0:
25,89,34701,2,0,P|55:56|142:51,1,120,2|8,1:0|1:0,0:0:0:0:
151,99,35190,1,6,0:2:0:0:
274,88,35517,1,6,0:0:0:0:
274,88,35680,2,0,L|409:67,1,120,10|6,1:0|0:0,0:0:0:0:
425,21,36169,1,2,0:0:0:0:
425,21,36332,1,10,1:0:0:0:
466,133,36658,6,0,P|446:186|481:244,1,120,6|8,1:0|1:0,0:0:0:0:
479,359,37311,1,2,1:0:0:0:
363,365,37637,1,8,1:0:0:0:
363,365,37800,2,0,P|354:327|328:239,1,120,2|0,0:1|0:0,0:0:0:0:
283,213,38289,1,8,1:0:0:0:
203,303,38615,2,0,L|202:368,2,60,2|0|8,1:0|0:0|1:0,0:0:0:0:
83,291,39267,6,0,P|48:273|28:198,1,120,6|8,1:0|1:0,0:0:0:0:
43,81,39919,2,0,P|82:58|160:24,1,120,2|10,1:0|1:0,0:0:0:0:
204,53,40408,1,2,0:2:0:0:
204,53,40571,1,6,1:0:0:0:
382,34,41060,2,0,L|446:24,1,60,6|6,0:0|1:0,0:0:0:0:
492,55,41386,1,0,0:0:0:0:
501,234,41875,6,0,P|461:221|333:348,1,240,6|2,1:0|1:0,0:0:0:0:
216,370,42853,1,8,1:0:0:0:
216,370,43016,2,0,B|200:311|200:311|214:242,1,120,6|0,0:0|0:0,0:0:0:0:
91,243,43669,2,0,L|72:180,1,60,2|6,0:2|0:0,0:0:0:0:
15,172,43995,1,2,1:0:0:0:
173,86,44484,6,0,P|205:63|277:14,2,120,6|8|2,1:0|1:0|1:0,0:0:0:0:
238,186,45462,1,8,1:0:0:0:
238,186,45625,2,0,P|260:223|258:306,1,120,6|0,0:0|0:0,0:0:0:0:
224,345,46114,1,8,1:0:0:0:
341,370,46440,1,2,1:0:0:0:
454,331,46766,5,8,1:0:0:0:
454,331,46929,2,0,B|436:274|436:274|466:212,1,120,6|2,1:0|0:0,0:0:0:0:
486,101,47582,1,2,0:0:0:0:
391,27,47908,1,12,0:0:0:0:
285,85,48234,2,0,P|277:122|267:212,1,120,2|0,0:0|0:0,0:0:0:0:
291,258,48723,1,8,1:0:0:0:
229,360,49049,1,2,1:0:0:0:
110,343,49375,5,8,1:0:0:0:
110,343,49538,2,0,B|94:283|94:283|41:235,1,120,6|2,1:0|0:0,0:0:0:0:
18,128,50190,1,2,0:0:0:0:
95,36,50516,1,6,0:0:0:0:
214,52,50843,2,0,P|217:95|200:194,1,120,2|2,0:0|0:0,0:0:0:0:
176,222,51332,1,8,1:0:0:0:
269,297,51658,2,0,L|279:371,2,60,2|8|8,1:0|1:0|1:0,0:0:0:0:
276,177,52310,6,0,P|330:76|444:73,1,240,6|2,1:0|1:0,0:0:0:0:
498,186,53288,1,8,1:0:0:0:
498,186,53451,2,0,B|482:245|482:245|496:314,1,120,2|2,0:0|0:0,0:0:0:0:
391,366,54104,2,0,L|346:321,1,60,2|0,0:0|0:0,0:0:0:0:
362,265,54430,1,6,0:0:0:0:
185,302,54919,6,0,P|134:309|81:374,2,120,6|8|2,1:0|1:0|1:0,0:0:0:0:
233,194,55897,1,8,1:0:0:0:
233,194,56060,2,0,P|208:158|132:125,1,120,4|2,0:0|0:0,0:0:0:0:
84,146,56549,1,8,1:0:0:0:
51,30,56875,1,2,1:0:0:0:
174,19,57201,5,8,1:0:0:0:
174,19,57364,2,0,B|231:37|231:37|293:7,1,120,6|2,1:0|0:0,0:0:0:0:
405,7,58017,1,2,0:0:0:0:
482,98,58343,1,6,0:0:0:0:
432,207,58669,2,0,P|420:278|414:334,1,120,2|0,0:0|0:0,0:0:0:0:
380,374,59158,1,8,1:0:0:0:
265,337,59484,1,2,1:0:0:0:
323,234,59810,5,8,1:0:0:0:
323,234,59973,2,0,B|307:174|307:174|254:126,1,120,6|4,0:0|0:0,0:0:0:0:
207,29,60625,1,6,0:0:0:0:
87,43,60951,1,6,0:0:0:0:
70,162,61278,2,0,P|73:205|56:304,1,120,6|0,0:0|0:0,0:0:0:0:
18,320,61767,1,8,1:0:0:0:
128,366,62093,2,0,L|197:361,2,60,2|4|8,1:0|0:0|1:0,0:0:0:0:
183,259,62745,6,0,L|207:134,1,120,14|10,1:0|1:0,0:0:0:0:
325,139,63397,2,0,L|349:14,1,120,10|10,1:0|1:0,0:0:0:0:
458,67,64049,2,0,L|498:187,1,120,14|10,1:0|1:0,0:0:0:0:
472,298,64701,2,0,L|352:367,1,120,10|10,1:0|0:0,0:0:0:0:
261,302,65353,6,0,L|234:367,2,60,14|4|10,1:0|0:0|1:0,0:0:0:0:
353,225,66006,2,0,L|380:160,2,60,10|4|10,1:0|0:0|1:0,0:0:0:0:
239,186,66658,1,14,1:0:0:0:
204,71,66984,1,10,1:0:0:0:
84,85,67310,1,10,1:0:0:0:
123,198,67636,2,0,B|136:258|136:258|121:321,1,120,6|6,0:0|1:0,0:0:0:0:
258,260,77745,6,0,L|250:340,2,60,8|0|4,1:0|0:0|0:0,0:0:0:0:
298,215,78234,1,6,1:0:0:0:
265,99,78560,1,4,0:0:0:0:
265,99,78723,2,0,P|217:73|147:29,2,120,8|2|8,1:0|1:0|1:0,0:0:0:0:
380,64,79701,2,0,P|414:43|481:94,1,120,6|8,1:2|1:0,0:0:0:0:
503,132,80190,2,0,P|485:171|474:249,1,120,4|4,0:0|0:0,0:0:0:0:
493,365,80843,1,0,0:0:0:0:
322,307,81332,5,8,1:0:0:0:
212,356,81658,1,2,1:0:0:0:
212,356,81821,2,0,P|166:340|92:339,1,120,6|4,0:0|0:0,0:0:0:0:
30,170,82636,2,0,P|14:121|54:49,1,120,8|6,1:0|0:0,0:0:0:0:
151,16,83288,1,8,1:0:0:0:
245,90,83614,6,0,P|233:145|210:347,1,240,6|4,1:0|0:0,0:0:0:0:
322,370,84593,1,8,1:0:0:0:
397,276,84919,2,0,P|451:284|502:351,1,120,6|10,1:0|1:0,0:0:0:0:
490,89,85897,2,0,L|426:45,1,60,8|0,1:0|0:0,0:0:0:0:
408,4,86223,6,0,P|364:31|326:156,1,180,6|4,1:0|0:0,0:0:0:0:
366,189,86875,2,0,P|326:217|289:342,1,180,6|2,0:0|0:0,0:0:0:0:
235,365,87527,2,0,P|209:334|127:343,1,120,6|8,1:0|1:0,0:0:0:0:
24,288,88179,2,0,L|-5:350,2,60,6|0|8,1:0|1:0|1:0,0:0:0:0:
76,258,88669,6,0,P|72:201|45:129,1,120,6|0,1:0|0:0,0:0:0:0:
11,97,89158,1,10,1:0:0:0:
104,21,89484,1,6,0:0:0:0:
104,21,89647,1,4,0:0:0:0:
263,103,90136,2,0,P|318:105|366:47,1,120,6|8,1:0|1:0,0:0:0:0:
399,14,90625,2,0,L|482:129,1,120,6|4,0:0|0:0,0:0:0:0:
504,159,91114,1,8,1:0:0:0:
504,159,91277,1,2,0:0:0:0:
479,337,91766,5,8,1:0:0:0:
362,369,92093,1,2,1:0:0:0:
294,269,92419,1,8,1:0:0:0:
186,323,92745,2,0,P|131:330|68:369,1,120,6|8,1:0|1:0,0:0:0:0:
65,242,93397,2,0,P|32:224|2:220,2,60,2|0|10,1:0|0:0|1:0,0:0:0:0:
78,122,94049,6,0,B|172:51|254:122|327:199|417:111,1,360,6|2,1:0|1:0,0:0:0:0:
488,20,95353,1,6,1:0:0:0:
494,260,96006,2,0,L|485:329,1,60,2|0,1:0|0:0,0:0:0:0:
446,364,96332,1,8,1:0:0:0:
348,294,96658,6,0,P|336:255|388:119,1,180,6|0,1:0|0:0,0:0:0:0:
377,67,97310,2,0,P|405:52|428:25,2,60,6|4|8,0:0|0:0|1:0,0:0:0:0:
142,15,98288,1,8,1:0:0:0:
44,85,98614,2,0,L|52:165,1,60,14|14,3:0|3:0,0:0:0:0:
23,198,98940,5,14,0:0:0:0:
23,198,99103,2,0,P|58:210|100:290,1,120,6|0,1:0|0:0,0:0:0:0:
84,336,99593,2,0,P|146:352|218:378,1,120,8|6,1:0|0:0,0:0:0:0:
262,268,100245,1,8,1:0:0:0:
359,337,100571,2,0,P|410:354|467:302,1,120,6|10,1:0|1:0,0:0:0:0:
502,206,101223,1,6,0:0:0:0:
502,206,101386,1,4,0:0:0:0:
483,87,101712,6,0,L|377:19,1,120,0|4,0:0|0:0,0:0:0:0:
322,31,102201,1,8,1:0:0:0:
244,193,102690,2,0,L|256:265,1,60,4|8,0:0|1:0,0:0:0:0:
293,297,103016,1,2,0:0:0:0:
204,378,103343,1,2,0:0:0:0:
97,323,103669,2,0,P|82:264|59:204,1,120,2|6,0:0|0:0,0:0:0:0:
19,165,104158,1,10,1:0:0:0:
94,72,104484,6,0,L|100:3,2,60,6|4|8,1:0|0:0|1:0,0:0:0:0:
204,213,105299,1,4,0:0:0:0:
204,213,105462,1,10,1:0:0:0:
270,313,105788,2,0,P|308:310|378:361,1,120,6|8,1:0|1:0,0:0:0:0:
430,332,106277,2,0,P|443:294|483:197,1,120,0|4,0:0|0:0,0:0:0:0:
501,167,106766,1,10,1:0:0:0:
467,51,107093,6,0,P|427:37|353:86,1,120,6|8,1:0|1:0,0:0:0:0:
339,125,107582,1,2,0:0:0:0:
288,297,108071,1,10,1:0:0:0:
186,361,108397,2,0,P|147:343|68:335,1,120,6|8,1:0|1:0,0:0:0:0:
38,284,108886,2,0,P|8:256|26:172,1,120,2|8,0:0|1:0,0:0:0:0:
62,146,109375,1,8,1:0:0:0:
46,27,109701,6,0,P|113:31|183:20,1,120,6|8,1:0|1:0,0:0:0:0:
284,34,110353,1,6,0:0:0:0:
239,145,110679,2,0,L|229:222,1,60,10|0,1:0|0:0,0:0:0:0:
202,257,111006,2,0,P|244:271|278:357,1,120,6|8,1:0|1:0,0:0:0:0:
329,367,111495,1,2,0:0:0:0:
445,337,111821,2,0,L|501:297,1,60,4|8,0:0|1:0,0:0:0:0:
470,184,112310,6,0,P|483:112|502:50,2,120,6|10|6,1:0|1:0|0:0,0:0:0:0:
320,83,113451,1,0,0:0:0:0:
320,83,113614,2,0,P|251:76|196:42,1,120,6|8,1:0|1:0,0:0:0:0:
164,9,114103,1,4,0:0:0:0:
68,81,114429,2,0,B|40:137|40:137|71:210,1,120,4|0,0:0|1:0,0:0:0:0:
82,246,114919,5,6,1:0:0:0:
385,56,120136,6,0,P|345:43|217:170,1,240,6|2,1:0|1:0,0:0:0:0:
100,158,121114,1,8,1:0:0:0:
100,158,121277,2,0,B|60:201|60:201|43:260,1,120,2|4,0:0|0:0,0:0:0:0:
111,359,121930,2,0,L|184:342,1,60,2|6,0:0|0:0,0:0:0:0:
222,372,122256,1,4,0:0:0:0:
401,364,122745,6,0,P|433:341|512:371,2,120,6|8|2,1:0|1:0|1:0,0:0:0:0:
328,276,123723,1,8,1:0:0:0:
328,276,123886,2,0,P|350:239|408:165,1,120,2|4,0:0|0:0,0:0:0:0:
454,163,124375,1,8,1:0:0:0:
422,47,124701,1,6,0:0:0:0:
313,92,125027,5,8,1:0:0:0:
313,92,125190,2,0,B|256:74|256:74|194:104,1,120,6|2,1:0|0:0,0:0:0:0:
92,48,125843,1,2,0:1:0:0:
33,152,126169,1,4,0:0:0:0:
141,202,126495,2,0,P|133:239|123:329,1,120,4|2,0:0|0:0,0:0:0:0:
171,356,126984,1,10,1:0:0:0:
290,362,127310,1,2,1:0:0:0:
357,264,127636,5,8,1:0:0:0:
357,264,127799,2,0,B|341:204|341:204|288:156,1,120,6|2,1:0|0:0,0:0:0:0:
338,52,128451,1,0,0:0:0:0:
457,43,128777,1,4,0:0:0:0:
428,159,129104,2,0,P|449:202|457:297,1,120,2|0,0:0|0:0,0:0:0:0:
446,331,129593,1,8,1:0:0:0:
335,377,129919,2,0,L|272:366,2,60,6|0|8,0:0|1:0|1:0,0:0:0:0:
311,259,130571,6,0,P|233:219|132:326,1,240,6|2,1:0|1:0,0:0:0:0:
30,369,131549,1,8,1:0:0:0:
30,369,131712,2,0,B|32:308|32:308|0:234,1,120,2|0,0:0|0:0,0:0:0:0:
70,150,132365,2,0,L|41:92,1,60,0|0,0:0|0:0,0:0:0:0:
14,43,132691,1,6,0:0:0:0:
193,49,133180,6,0,P|224:25|309:21,2,120,6|8|6,1:0|1:0|0:0,0:0:0:0:
196,168,134158,1,8,1:0:0:0:
196,168,134321,2,0,P|239:166|308:120,1,120,2|0,0:0|0:0,0:0:0:0:
356,156,134810,1,8,1:0:0:0:
436,67,135136,1,6,0:0:0:0:
500,174,135462,5,8,1:0:0:0:
500,174,135625,2,0,B|482:231|482:231|512:293,1,120,6|2,1:0|0:0,0:0:0:0:
419,365,136278,1,2,0:0:0:0:
332,281,136604,1,4,0:0:0:0:
236,353,136930,2,0,P|165:341|109:335,1,120,0|0,0:0|0:0,0:0:0:0:
72,375,137419,1,8,1:0:0:0:
15,269,137745,1,2,1:0:0:0:
123,213,138071,5,8,1:0:0:0:
123,213,138234,2,0,B|107:153|107:153|54:105,1,120,6|4,0:0|0:0,0:0:0:0:
143,24,138886,1,2,0:0:0:0:
253,70,139212,1,4,0:0:0:0:
365,26,139539,2,0,P|407:29|503:59,1,120,6|0,0:0|0:0,0:0:0:0:
484,109,140028,1,8,1:0:0:0:
388,181,140354,2,0,L|342:143,2,60,2|0|8,1:0|0:0|1:0,0:0:0:0:
477,261,141006,6,0,B|374:181|370:339|274:336,1,240,6|6,1:0|0:0,0:0:0:0:
231,298,141821,1,4,0:0:0:0:
231,298,141984,2,0,P|180:315|138:378,2,120,8|6|8,1:0|1:0|1:0,0:0:0:0:
321,219,142962,1,2,1:0:0:0:
285,104,143288,1,8,1:0:0:0:
272,45,143451,1,0,0:0:0:0:
216,21,143614,6,0,P|134:30|99:71,1,120,6|8,1:0|1:0,0:0:0:0:
28,280,144593,1,8,1:0:0:0:
121,355,144919,2,0,P|179:332|252:353,1,120,6|8,1:0|1:0,0:0:0:0:
343,292,145571,2,0,P|327:239|268:187,1,120,6|8,1:0|1:0,0:0:0:0:
269,74,146223,6,0,B|321:106|384:83|403:23|498:38,1,240,6|6,1:0|0:0,0:0:0:0:
503,97,147038,1,4,0:0:0:0:
503,97,147201,2,0,L|511:226,2,120,8|6|8,1:0|1:0|1:0,0:0:0:0:
403,164,148179,1,6,0:0:0:0:
433,280,148506,1,8,1:0:0:0:
401,330,148669,1,0,0:0:0:0:
347,356,148832,6,0,B|320:284|254:192|159:304|97:265,1,300,6|4,1:0|0:0,0:0:0:0:
24,169,149973,1,0,0:0:0:0:
24,169,150136,2,0,P|18:111|118:57,1,180,6|0,1:0|0:0,0:0:0:0:
141,107,150788,2,0,P|178:111|232:43,1,120,6|8,0:0|1:0,0:0:0:0:
346,22,151440,5,6,1:0:0:0:
458,63,151766,1,10,1:0:0:0:
503,174,152093,1,10,1:0:0:0:
480,291,152419,1,10,1:0:0:0:
374,347,152745,1,14,1:0:0:0:
265,295,153071,1,10,1:0:0:0:
181,355,153351,6,0,B|150:347|150:347|120:361|120:361|87:346|87:346|48:358|48:358|17:316|17:316|36:274|36:274|28:189,1,295,6|4,1:0|1:0,0:0:0:0:
256,192,155848,12,6,157829,2:0:0:0:
