osu file format v14

[General]
AudioFilename: audio.mp3
AudioLeadIn: 0
PreviewTime: 119321
Countdown: 0
SampleSet: Drum
StackLeniency: 0.7
Mode: 0
LetterboxInBreaks: 0
WidescreenStoryboard: 0

[Editor]
Bookmarks: 21006,41223,62745,83614,104484,125190,142962
DistanceSpacing: 1.9
BeatDivisor: 4
GridSize: 16
TimelineZoom: 3.499999

[Metadata]
Title:The Violence
TitleUnicode:The Violence
Artist:Rise Against
ArtistUnicode:Rise Against
Creator:Mao
Version:Collab Expert
Source:
Tags:cartography championship 2019 contest collab collaboration celerih thicc bish lmt icekalt seonah undeadphoneguy altai wolves punk rock english cut
BeatmapID:2312878
BeatmapSetID:1106635

[Difficulty]
HPDrainRate:5.6
CircleSize:4.2
OverallDifficulty:8.2
ApproachRate:9.2
SliderMultiplier:1.4
SliderTickRate:1

[Events]
//Background and Video events
0,0,"BG song 1-4.png",0,0
//Break Periods
2,68162,75218
//Storyboard Layer 0 (Background)
//Storyboard Layer 1 (Fail)
//Storyboard Layer 2 (Pass)
//Storyboard Layer 3 (Foreground)
//Storyboard Layer 4 (Overlay)
//Storyboard Sound Samples

[TimingPoints]
136.492681338138,326.086956521739,4,3,0,50,1,0
5353,-66.6666666666667,4,3,0,70,0,0
41875,-52.6315789473684,4,3,0,90,0,0
62745,-52.6315789473684,4,3,0,90,0,1
67962,-52.6315789473684,4,3,0,70,0,0
83614,-52.6315789473684,4,3,0,70,0,0
114919,-133.333333333333,4,3,0,50,0,0
120136,-52.6315789473684,4,3,0,90,0,0
125190,-52.6315789473684,4,3,0,90,0,0
151440,-52.6315789473684,4,3,0,90,0,1
153351,326.086956521739,4,3,0,90,1,1
153432,370.37037037037,4,3,0,90,1,1
153524,416.666666666667,4,3,0,90,1,1
153628,461.538461538462,4,3,0,90,1,1
153743,545.454545454546,4,3,0,90,1,1
153879,508.474576271186,4,3,0,90,1,1
154006,588.235294117647,4,3,0,90,1,1
154153,424.028268551237,4,3,0,90,1,1
154153,-200,4,3,0,90,0,1
155848,375,4,3,0,50,1,0
156035,428.571428571429,4,3,0,50,1,0
156035,-142.857142857143,4,3,0,50,0,0
156249,571.428571428571,4,3,0,50,1,0
156534,750,4,3,0,50,1,0
156908,600,4,3,0,50,1,0
157208,621.761658031088,4,3,0,50,1,0

[Colours]
Combo1 : 150,150,211
Combo2 : 150,211,150
Combo3 : 150,211,197
Combo4 : 150,177,211

[HitObjects]
65,81,136,5,2,0:0:0:0:
316,132,462,5,0,0:0:0:0:
406,107,625,1,0,0:0:0:0:
494,86,788,1,2,0:0:0:0:
125,249,1114,5,0,0:0:0:0:
27,230,1277,1,2,0:0:0:0:
337,282,1603,5,0,0:0:0:0:
337,282,1766,1,0,0:0:0:0:
337,282,1929,1,0,0:0:0:0:
392,350,2093,5,2,0:0:0:0:
260,339,2256,1,2,0:2:0:0:
271,206,2419,1,2,0:0:0:0:
404,218,2582,1,2,0:2:0:0:
337,282,2745,1,2,0:0:0:0:
118,94,3071,5,0,0:0:0:0:
23,126,3234,1,0,0:0:0:0:
23,126,3397,1,2,0:0:0:0:
394,94,3723,5,0,0:0:0:0:
489,126,3886,1,2,0:0:0:0:
247,173,4212,5,0,0:0:0:0:
247,173,4375,1,0,0:0:0:0:
247,173,4538,1,0,0:0:0:0:
254,84,4701,5,2,0:0:0:0:
241,257,4864,1,2,0:2:0:0:
338,176,5027,1,2,0:0:0:0:
162,163,5190,1,2,0:2:0:0:
17,250,5353,6,0,P|86:251|126:375,1,210,6|8,1:0|1:0,0:0:0:0:
366,312,5843,1,0,0:0:0:0:
274,379,6006,2,0,P|263:314|242:144,1,210.000008010865,2|8,1:0|1:0,0:0:0:0:
290,383,6495,1,2,0:1:0:0:
438,112,6821,5,2,0:0:0:0:
350,91,6984,1,8,1:1:0:0:
262,67,7147,1,0,0:0:0:0:
449,124,7310,5,2,1:0:0:0:
343,100,7473,1,4,0:0:0:0:
205,138,7636,1,10,1:0:0:0:
89,99,7799,1,2,0:0:0:0:
254,50,7962,6,0,B|201:177|279:121|210:292,1,210.000008010865,6|8,1:0|1:0,0:0:0:0:
40,305,8451,1,0,0:0:0:0:
260,355,8614,2,0,P|201:262|87:251,1,210.000008010865,2|8,1:0|1:0,0:0:0:0:
345,265,9103,1,2,0:1:0:0:
25,158,9429,5,0,0:0:0:0:
125,144,9593,1,8,1:0:0:0:
182,67,9756,1,0,0:0:0:0:
16,147,9919,5,6,0:0:0:0:
88,67,10082,1,6,0:0:0:0:
219,148,10245,1,10,1:0:0:0:
157,230,10408,1,8,0:0:0:0:
351,292,10571,6,0,P|370:215|386:168,1,105.000004005432,6|4,1:0|0:0,0:0:0:0:
262,327,10897,1,8,1:0:0:0:
471,199,11060,1,0,0:0:0:0:
379,377,11223,2,0,P|377:302|240:242,1,210.000008010865,6|8,0:2|1:0,0:0:0:0:
499,107,11712,2,0,P|452:160|333:95,1,210.000008010865,2|0,0:1|0:0,0:0:0:0:
273,49,12201,1,8,1:0:0:0:
182,94,12364,1,0,0:0:0:0:
326,127,12527,5,6,0:0:0:0:
209,187,12690,1,4,0:0:0:0:
49,83,12853,1,10,1:0:0:0:
156,8,13016,1,2,0:0:0:0:
87,203,13179,6,0,P|77:258|65:345,1,105.000004005432,6|2,1:0|0:0,0:0:0:0:
74,179,13506,1,10,1:0:0:0:
88,334,13669,1,2,0:0:0:0:
203,289,13832,2,2,P|95:262|-6:246,1,210.000008010865,6|8,0:0|1:0,0:0:0:0:
299,246,14321,2,2,P|370:230|436:216,1,105.000004005432,2|0,0:1|0:0,0:0:0:0:
489,193,14647,1,2,0:0:0:0:
200,164,14810,2,2,P|162:98|18:88,1,210.000008010865,10|0,1:0|0:0,0:0:0:0:
309,58,15299,1,8,1:0:0:0:
490,47,15462,1,10,1:0:0:0:
421,356,15788,6,0,P|326:345|300:244,1,210.000008010865,4|8,1:0|1:0,0:0:0:0:
428,346,16277,1,0,0:0:0:0:
88,295,16440,5,6,0:0:0:0:
172,351,16603,2,0,P|182:293|200:227,1,105.000004005432,4|8,0:0|1:0,0:0:0:0:
0,185,16929,2,0,P|70:173|30:50,1,210.000008010865,4|0,0:2|0:0,0:0:0:0:
96,302,17419,2,0,P|90:238|73:169,1,105.000004005432,8|0,1:0|0:0,0:0:0:0:
481,99,17745,5,6,0:0:0:0:
369,236,17908,2,0,P|381:181|399:123,1,105.000004005432,2|8,0:0|1:0,0:0:0:0:
283,282,18234,1,2,0:2:0:0:
130,31,18397,6,0,P|207:48|227:205,1,210.000008010865,6|8,1:0|1:0,0:0:0:0:
310,14,18886,1,0,0:0:0:0:
36,226,19049,5,6,0:0:0:0:
202,312,19212,2,0,P|159:303|81:298,1,105.000004005432,2|8,0:0|1:0,0:0:0:0:
320,377,19538,2,0,P|305:313|441:272,1,210.000008010865,6|4,0:2|0:0,0:0:0:0:
197,159,20027,5,10,1:0:0:0:
223,228,20190,1,2,0:2:0:0:
97,159,20353,1,6,0:0:0:0:
108,86,20516,1,2,0:0:0:0:
14,21,20679,1,10,1:0:0:0:
259,21,20843,5,4,0:0:0:0:
259,21,20924,1,4,0:0:0:0:
259,21,21006,6,0,P|226:115|194:242,1,210.000008010865,6|8,1:0|1:0,0:0:0:0:
291,281,21495,1,0,0:0:0:0:
137,155,21658,2,0,P|118:85|-14:115,1,210.000008010865,2|8,1:0|1:0,0:0:0:0:
235,135,22147,2,0,P|174:149|172:188,1,105.000004005432,2|0,0:1|0:0,0:0:0:0:
393,187,22473,1,4,0:0:0:0:
380,114,22636,1,8,1:0:0:0:
369,40,22799,1,0,0:0:0:0:
384,203,22962,5,2,1:0:0:0:
303,193,23125,1,6,0:0:0:0:
313,112,23288,1,10,1:0:0:0:
392,123,23451,1,2,0:0:0:0:
235,291,23614,6,0,B|182:299|108:285|148:259|77:238|16:243,1,210.000008010865,6|8,1:0|1:0,0:0:0:0:
158,180,24103,1,0,0:0:0:0:
70,0,24266,2,0,P|103:92|137:207,1,210.000008010865,2|8,1:0|1:0,0:0:0:0:
227,1,24756,2,0,P|202:45|181:100,1,105.000004005432,2|6,0:1|1:2,0:0:0:0:
285,340,25082,1,0,0:0:0:0:
342,288,25245,1,4,0:0:0:0:
419,306,25408,1,2,0:0:0:0:
265,110,25571,5,2,1:0:0:0:
216,286,25734,1,0,1:0:0:0:
216,286,25815,1,0,1:0:0:0:
216,286,25897,1,2,1:0:0:0:
141,157,26060,2,14,P|112:166|94:183,1,52.5000020027161,14|0,0:0|1:0,0:0:0:0:
84,150,26223,6,0,B|75:197|90:275|112:232|136:301|130:375,1,210.000008010865,6|8,1:0|1:0,0:0:0:0:
356,228,26712,1,2,0:0:0:0:
443,280,26875,2,0,P|491:270|485:214,1,105.000004005432,2|4,1:0|0:0,0:0:0:0:
246,109,27201,1,8,1:0:0:0:
315,3,27364,6,0,P|293:109|276:236,1,210.000008010865,2|4,0:0|0:0,0:0:0:0:
465,384,27853,1,8,1:0:0:0:
419,276,28016,1,4,0:0:0:0:
479,94,28179,6,0,P|482:141|427:158,1,105.000004005432,2|6,1:0|0:0,0:0:0:0:
260,237,28506,2,0,P|301:210|289:162,1,105.000004005432,10|4,1:0|0:0,0:0:0:0:
110,38,28832,6,0,P|132:143|150:268,1,210.000008010865,6|8,1:0|1:0,0:0:0:0:
16,360,29321,1,0,0:0:0:0:
68,265,29484,2,0,P|56:312|41:393,1,105.000004005432,2|4,1:0|0:0,0:0:0:0:
131,200,29810,1,8,1:0:0:0:
22,52,29973,6,0,P|24:123|145:157,1,210.000008010865,6|4,0:0|0:0,0:0:0:0:
251,7,30462,2,0,P|248:44|185:63,1,105.000004005432,10|0,1:0|0:0,0:0:0:0:
320,69,30788,1,2,1:0:0:0:
230,275,30951,1,0,1:0:0:0:
436,179,31114,1,8,1:0:0:0:
382,348,31440,6,0,B|388:293|377:230|348:265|334:191|337:126,1,210.000008010865,6|0,1:0|1:0,0:0:0:0:
245,356,31929,1,0,0:0:0:0:
181,301,32093,2,0,P|204:246|247:243,1,105.000004005432,2|6,1:0|0:0,0:0:0:0:
110,80,32419,1,8,1:0:0:0:
96,207,32582,6,0,P|76:120|36:-18,1,210.000008010865,6|4,0:0|0:0,0:0:0:0:
257,224,33071,2,0,P|272:169|292:121,1,105.000004005432,8|0,1:0|0:0,0:0:0:0:
340,371,33397,1,2,1:0:0:0:
440,287,33560,1,6,0:0:0:0:
346,183,33723,2,0,P|334:127|318:70,1,105.000004005432,8|0,1:0|0:0,0:0:0:0:
169,317,34049,5,6,1:0:0:0:
219,207,34212,1,6,0:0:0:0:
40,295,34375,2,0,B|87:291|157:313|112:338|181:359|244:358,1,210.000008010865,8|2,1:0|1:0,0:0:0:0:
56,121,34864,1,6,0:0:0:0:
134,209,35027,1,8,1:0:0:0:
330,243,35190,6,0,P|349:133|375:31,1,210.000008010865,6|6,0:2|0:0,0:0:0:0:
313,236,35679,1,10,1:0:0:0:
360,321,35843,1,2,0:0:0:0:
351,158,36006,1,6,0:0:0:0:
292,251,36169,1,2,0:0:0:0:
188,56,36332,1,10,1:0:0:0:
337,42,36658,6,0,P|325:125|214:136,1,210.000008010865,6|8,1:0|1:0,0:0:0:0:
111,72,37147,1,0,0:0:0:0:
172,261,37310,2,0,P|283:233|389:215,1,210.000008010865,2|8,1:0|1:0,0:0:0:0:
337,42,37799,2,0,P|288:52|289:116,1,105.000004005432,2|0,0:1|0:0,0:0:0:0:
450,283,38125,1,4,0:0:0:0:
465,211,38288,1,8,1:0:0:0:
477,138,38451,1,0,0:0:0:0:
430,292,38614,5,2,1:0:0:0:
367,242,38777,1,2,0:0:0:0:
284,263,38940,1,10,1:0:0:0:
219,188,39103,1,6,0:0:0:0:
0,301,39266,6,0,P|102:278|210:262,1,210.000008010865,6|8,1:0|1:0,0:0:0:0:
106,77,39756,1,0,0:0:0:0:
38,136,39919,2,0,P|51:178|118:179,1,105.000004005432,2|2,1:0|0:2,0:0:0:0:
273,30,40245,2,0,P|230:20|195:77,1,105.000004005432,10|2,1:0|0:2,0:0:0:0:
317,276,40571,5,6,1:0:0:0:
377,159,40734,1,4,0:2:0:0:
465,358,40897,1,8,1:0:0:0:
487,212,41060,1,6,0:0:0:0:
288,376,41223,1,6,1:0:0:0:
208,334,41386,1,0,0:0:0:0:
205,314,41468,1,0,0:0:0:0:
193,291,41549,1,8,1:0:0:0:
171,262,41631,1,0,1:0:0:0:
161,225,41712,1,0,1:0:0:0:
173,184,41794,1,0,1:0:0:0:
219,158,41875,6,2,P|241:93|183:63,1,132.999996448517,6|0,1:0|0:0,0:0:0:0:
441,138,42201,2,0,P|343:124|252:162,1,199.499994672775,8|0,1:0|0:0,0:0:0:0:
217,237,42527,1,2,1:0:0:0:
461,306,42690,1,6,0:0:0:0:
327,347,42853,1,8,1:0:0:0:
459,190,43016,6,0,P|465:140|437:51,1,132.999996448517,6|6,0:0|1:2,0:0:0:0:
377,272,43343,1,0,0:0:0:0:
314,191,43506,1,8,1:0:0:0:
126,304,43669,2,0,P|158:271|169:222,1,66.4999982242585,2|0,0:2|0:0,0:0:0:0:
168,133,43832,1,6,0:0:0:0:
4,294,43995,2,0,B|110:336|117:204|226:220|259:288,1,265.999992897034,2|0,1:0|0:0,0:0:0:0:
437,34,44484,6,2,P|388:108|397:263,1,199.499994672775,6|0,1:0|0:0,0:0:0:0:
448,264,44810,2,0,P|393:197|319:172,1,132.999996448517,8|0,1:0|0:0,0:0:0:0:
214,380,45136,1,2,1:0:0:0:
128,169,45299,1,6,0:0:0:0:
140,313,45462,1,8,1:0:0:0:
249,142,45625,6,0,L|263:1,1,132.999996448517,6|6,0:0|1:2,0:0:0:0:
303,242,45951,1,0,0:0:0:0:
121,302,46114,1,8,1:0:0:0:
220,373,46277,1,2,0:0:0:0:
336,324,46440,2,0,P|340:221|419:168,1,199.499994672775,2|0,1:0|0:0,0:0:0:0:
415,184,46766,1,8,1:0:0:0:
220,31,46929,6,2,B|146:1|45:54|80:157,1,199.499994672775,6|0,1:0|0:0,0:0:0:0:
102,211,47256,2,0,P|122:132|109:72,1,132.999996448517,2|8,0:0|1:0,0:0:0:0:
244,301,47582,2,0,L|98:321,1,132.999996448517,2|2,0:0|1:0,0:0:0:0:
310,183,47908,1,12,0:0:0:0:
440,310,48071,1,8,1:0:0:0:
489,212,48234,1,2,0:0:0:0:
174,130,48397,5,6,1:2:0:0:
371,70,48560,1,0,0:0:0:0:
386,238,48723,1,8,1:0:0:0:
272,271,48886,1,2,0:0:0:0:
313,193,49049,2,0,P|321:122|220:45,1,199.499994672775,2|0,1:0|0:0,0:0:0:0:
221,34,49375,1,8,1:0:0:0:
90,243,49538,6,2,P|176:233|295:269,1,199.499994672775,6|0,1:0|0:0,0:0:0:0:
316,357,49864,2,0,P|245:323|281:269,1,132.999996448517,2|8,0:0|1:0,0:0:0:0:
486,318,50190,1,2,0:0:0:0:
392,260,50353,1,2,1:0:0:0:
434,82,50516,1,6,0:0:0:0:
467,230,50679,1,8,1:0:0:0:
308,70,50843,6,0,P|247:91|164:96,1,132.999996448517,2|6,0:0|1:2,0:0:0:0:
217,281,51169,2,2,P|226:159|106:135,1,265.999992897034,2|0,0:0|0:0,0:0:0:0:
21,287,51658,6,0,P|45:229|72:207,1,66.4999982242585,2|0,1:0|0:0,0:0:0:0:
262,169,51821,1,8,1:0:0:0:
457,335,51984,1,8,1:0:0:0:
449,355,52310,6,0,P|419:279|487:165,1,199.499994672775,6|0,1:0|0:0,0:0:0:0:
430,94,52636,2,0,L|458:247,1,132.999996448517,8|0,1:0|0:0,0:0:0:0:
319,29,52962,1,2,1:0:0:0:
236,163,53125,1,6,0:0:0:0:
145,78,53288,1,8,1:0:0:0:
70,289,53451,6,0,P|72:237|44:132,1,132.999996448517,2|6,0:0|1:2,0:0:0:0:
200,314,53777,1,2,0:0:0:0:
323,219,53940,1,8,1:0:0:0:
452,356,54103,2,0,P|427:330|413:279,1,66.4999982242585,2|0,0:0|0:0,0:0:0:0:
453,195,54266,1,2,1:0:0:0:
210,118,54429,2,0,B|228:178|342:184|328:80|407:85|488:136,1,265.999992897034,6|0,0:0|0:0,0:0:0:0:
153,358,54919,6,2,P|165:253|98:137,1,199.499994672775,6|0,1:0|0:0,0:0:0:0:
14,162,55245,2,0,P|68:203|142:214,1,132.999996448517,8|0,1:0|0:0,0:0:0:0:
329,113,55571,1,2,1:0:0:0:
131,49,55734,1,6,0:0:0:0:
278,5,55897,1,8,1:0:0:0:
324,252,56060,6,0,P|337:178|393:104,1,132.999996448517,0|6,0:0|1:2,0:0:0:0:
396,322,56386,1,2,0:0:0:0:
229,295,56549,1,8,1:0:0:0:
306,376,56712,1,2,0:0:0:0:
149,118,56875,5,2,1:0:0:0:
73,250,57038,1,6,0:0:0:0:
14,35,57201,1,8,1:0:0:0:
213,210,57364,2,2,P|266:159|263:26,1,199.499994672775,6|0,1:0|0:0,0:0:0:0:
365,15,57690,2,0,P|287:49|251:118,1,132.999996448517,2|8,0:0|1:0,0:0:0:0:
378,313,58016,1,2,0:0:0:0:
429,105,58179,1,2,1:0:0:0:
279,182,58343,1,6,0:0:0:0:
319,378,58506,1,8,1:0:0:0:
482,264,58669,6,0,P|458:205|396:200,1,132.999996448517,2|6,0:0|1:2,0:0:0:0:
216,325,58995,2,0,P|206:283|219:234,1,66.4999982242585
297,167,59158,1,8,1:0:0:0:
78,94,59321,1,2,0:0:0:0:
228,59,59484,1,2,1:0:0:0:
208,260,59647,2,0,P|218:161|191:54,1,199.499994672775,2|0,0:0|0:0,0:0:0:0:
188,144,59973,5,6,0:0:0:0:
290,227,60136,1,6,1:0:0:0:
402,154,60299,1,4,0:0:0:0:
357,28,60462,1,8,1:0:0:0:
323,331,60625,5,6,0:0:0:0:
391,237,60788,1,2,1:0:0:0:
431,351,60951,1,6,0:0:0:0:
101,340,61114,5,8,1:0:0:0:
101,340,61277,1,4,0:0:0:0:
223,90,61440,5,6,1:0:0:0:
111,255,61603,1,4,0:0:0:0:
56,63,61766,1,8,1:0:0:0:
459,258,61929,5,6,0:0:0:0:
342,317,62093,2,0,L|189:282,1,132.999996448517,2|4,1:0|0:0,0:0:0:0:
411,113,62419,2,0,L|281:142,1,132.999996448517,8|4,1:0|0:0,0:0:0:0:
40,43,62745,6,0,P|103:57|171:107,1,132.999996448517,14|4,1:0|0:0,0:0:0:0:
447,247,63071,2,0,P|383:249|331:332,1,132.999996448517,10|4,1:0|0:0,0:0:0:0:
112,259,63398,5,10,1:0:0:0:
142,362,63561,1,4,0:0:0:0:
233,217,63724,5,10,1:0:0:0:
87,288,63887,1,4,0:0:0:0:
170,60,64050,5,14,1:0:0:0:
267,224,64213,1,0,1:0:0:0:
465,21,64375,2,0,P|429:83|360:100,1,132.999996448517,10|4,1:0|0:0,0:0:0:0:
43,111,64701,2,0,P|103:130|172:147,1,132.999996448517,10|4,1:0|3:0,0:0:0:0:
493,197,65027,1,10,0:0:0:0:
364,356,65190,1,6,0:0:0:0:
353,322,65272,1,4,0:0:0:0:
360,286,65353,6,0,P|433:320|476:403,1,132.999996448517,14|4,1:0|0:0,0:0:0:0:
208,243,65679,2,0,P|273:181|232:127,1,132.999996448517,10|4,1:0|0:0,0:0:0:0:
62,329,66006,5,10,1:0:0:0:
36,192,66169,1,4,0:0:0:0:
219,328,66332,5,10,1:0:0:0:
18,226,66495,1,4,0:0:0:0:
231,17,66658,5,14,1:0:0:0:
119,33,66821,1,4,0:0:0:0:
112,54,66902,1,4,0:0:0:0:
108,76,66984,2,0,P|159:81|200:9,1,132.999996448517,10|4,1:0|0:0,0:0:0:0:
492,131,67310,5,10,1:0:0:0:
398,90,67473,1,4,0:0:0:0:
354,105,67554,1,4,0:0:0:0:
327,146,67636,1,6,0:0:0:0:
455,233,67799,1,4,0:0:0:0:
293,13,67962,5,6,1:0:0:0:
256,192,75788,12,0,77093,0:0:0:0:
162,108,77419,5,4,0:0:0:0:
162,108,77745,1,8,1:0:0:0:
260,175,77908,1,0,0:0:0:0:
349,59,78071,1,4,0:0:0:0:
502,223,78234,2,0,P|423:231|252:265,1,199.499994672775,6|0,1:0|0:0,0:0:0:0:
287,256,78560,5,4,0:0:0:0:
480,350,78723,2,0,P|475:310|375:279,1,132.999996448517,8|0,1:0|0:0,0:0:0:0:
185,241,79049,1,2,1:0:0:0:
236,353,79212,1,4,0:0:0:0:
328,94,79375,2,0,P|250:133|136:154,1,199.499994672775,8|0,1:0|0:0,0:0:0:0:
123,151,79701,5,6,1:2:0:0:
31,81,79864,1,4,0:0:0:0:
146,268,80027,5,8,1:0:0:0:
20,332,80190,2,0,P|79:281|141:321,1,132.999996448517,4|6,0:0|0:0,0:0:0:0:
328,313,80516,2,0,P|257:327|223:377,1,132.999996448517,4|8,0:0|1:0,0:0:0:0:
232,188,80843,1,0,0:0:0:0:
342,332,81006,5,6,1:0:0:0:
411,236,81169,1,2,0:0:0:0:
437,83,81332,2,0,P|442:171|499:289,1,199.499994672775,8|0,1:0|0:0,0:0:0:0:
480,281,81658,2,0,P|489:218|476:193,1,66.4999982242585,2|0,1:0|0:0,0:0:0:0:
301,107,81821,2,0,P|322:29|406:24,1,132.999996448517,6|8,0:0|1:0,0:0:0:0:
349,199,82147,1,4,0:0:0:0:
188,74,82310,5,6,1:2:0:0:
163,178,82473,1,2,0:0:0:0:
8,151,82636,1,8,1:0:0:0:
38,13,82799,1,2,0:0:0:0:
97,270,82962,5,6,0:0:0:0:
188,169,83125,1,4,0:0:0:0:
382,276,83288,1,8,1:0:0:0:
382,276,83614,5,6,1:0:0:0:
274,216,83777,1,4,0:0:0:0:
477,243,83940,2,0,B|370:248|391:318|216:330,1,265.999992897034,10|4,1:0|0:0,0:0:0:0:
476,337,84429,1,6,0:0:0:0:
491,141,84593,2,0,P|463:200|405:154,1,132.999996448517,8|0,1:0|0:0,0:0:0:0:
302,121,84919,5,6,1:0:0:0:
385,38,85082,1,2,0:0:0:0:
187,99,85245,2,0,P|272:121|273:282,1,265.999992897034,10|4,1:0|0:0,0:0:0:0:
118,174,85734,1,4,0:0:0:0:
246,15,85897,2,0,P|190:55|150:17,1,132.999996448517,8|0,1:0|0:0,0:0:0:0:
67,291,86223,6,2,P|45:208|-3:22,1,265.999992897034,6|8,1:0|1:0,0:0:0:0:
50,312,86712,1,4,0:0:0:0:
255,105,86875,2,2,P|226:227|207:377,1,265.999992897034,6|8,0:0|1:0,0:0:0:0:
235,89,87364,1,2,0:0:0:0:
444,301,87527,2,2,P|427:197|401:34,1,265.999992897034,6|8,1:0|1:0,0:0:0:0:
469,315,88016,1,4,0:0:0:0:
333,164,88179,5,6,1:0:0:0:
272,303,88343,1,0,1:0:0:0:
163,57,88506,1,8,1:0:0:0:
0,222,88669,6,0,B|50:193|113:183|88:243|184:246|255:194,1,265.999992897034,6|0,1:0|0:0,0:0:0:0:
14,230,89158,2,0,P|54:189|7:140,1,132.999996448517,10|0,1:0|0:0,0:0:0:0:
241,112,89484,1,6,0:0:0:0:
203,354,89647,2,0,P|172:273|154:212,1,132.999996448517,4|8,0:0|1:0,0:0:0:0:
420,108,89973,1,0,0:0:0:0:
471,352,90136,6,0,P|388:331|361:154,1,265.999992897034,6|8,1:0|1:0,0:0:0:0:
89,296,90625,2,2,P|151:194|221:26,1,265.999992897034,6|4,0:0|0:0,0:0:0:0:
483,223,91114,1,8,1:0:0:0:
348,45,91277,1,0,0:0:0:0:
238,311,91440,6,0,P|216:200|39:167,1,265.999992897034,6|8,1:0|1:0,0:0:0:0:
378,326,91929,1,2,0:0:0:0:
133,304,92093,2,2,P|219:267|412:219,1,265.999992897034,2|8,1:0|1:0,0:0:0:0:
30,246,92582,1,4,0:0:0:0:
226,361,92745,2,0,P|248:266|279:78,1,265.999992897034,6|8,1:0|1:0,0:0:0:0:
97,352,93234,1,4,0:0:0:0:
365,347,93397,2,0,P|290:273|253:244,1,132.999996448517,2|0,1:0|0:0,0:0:0:0:
53,105,93723,1,10,1:0:0:0:
499,151,94049,5,6,1:0:0:0:
311,80,94212,1,4,0:0:0:0:
442,272,94375,2,0,P|419:168|375:-12,1,265.999992897034,10|6,1:0|0:0,0:0:0:0:
160,188,94864,1,4,0:0:0:0:
223,274,95027,2,0,P|278:266|253:195,1,132.999996448517,2|0,1:0|0:0,0:0:0:0:
59,270,95353,6,0,P|122:287|352:345,1,265.999992897034,6|8,1:0|1:0,0:0:0:0:
512,202,95843,1,2,0:0:0:0:
493,298,96006,2,0,P|441:282|355:256,1,132.999996448517,2|0,1:0|0:0,0:0:0:0:
197,31,96332,2,0,P|220:109|239:197,1,132.999996448517,8|0,1:0|0:0,0:0:0:0:
460,32,96658,6,0,P|453:146|329:91,2,265.999992897034,6|8|6,1:0|1:0|0:0,0:0:0:0:
280,236,97473,1,4,0:0:0:0:
360,315,97636,2,0,P|370:223|381:33,2,265.999992897034,8|6|8,1:0|1:0|1:0,0:0:0:0:
476,228,98451,1,0,0:0:0:0:
233,30,98614,5,14,3:0:0:0:
210,187,98777,1,14,3:0:0:0:
190,354,98940,1,14,0:0:0:0:
0,140,99103,6,0,P|80:152|100:342,1,265.999992897034,6|0,1:0|0:0,0:0:0:0:
9,13,99593,2,0,P|77:36|151:44,1,132.999996448517,8|0,1:0|0:0,0:0:0:0:
355,73,99919,1,6,0:0:0:0:
246,6,100082,1,4,0:0:0:0:
276,227,100245,2,0,P|324:207|271:150,1,132.999996448517,8|0,1:0|0:0,0:0:0:0:
486,355,100571,6,0,P|407:299|345:261,1,132.999996448517,6|4,1:0|0:0,0:0:0:0:
174,206,100897,2,0,P|243:235|438:345,1,265.999992897034,10|6,1:0|0:0,0:0:0:0:
72,373,101386,2,0,P|130:345|223:324,1,132.999996448517,4|8,0:0|1:0,0:0:0:0:
11,240,101712,1,0,0:0:0:0:
238,22,101875,5,6,1:0:0:0:
291,142,102038,1,4,0:0:0:0:
169,124,102201,2,0,B|300:72|273:156|456:88,1,265.999992897034,8|6,1:0|0:0,0:0:0:0:
174,303,102690,2,0,P|152:245|204:213,1,132.999996448517,4|8,0:0|1:0,0:0:0:0:
386,340,103016,2,0,P|359:281|295:311,1,132.999996448517,2|6,0:0|1:0,0:0:0:0:
468,192,103343,2,0,P|486:283|510:341,1,132.999996448517,2|8,0:0|1:0,0:0:0:0:
343,56,103669,2,0,P|329:125|315:195,1,132.999996448517,2|14,0:0|0:0,0:0:0:0:
485,41,103995,1,6,0:0:0:0:
36,60,104158,2,0,P|122:70|250:88,1,199.499994672775,10|0,1:0|0:0,0:0:0:0:
239,96,104484,5,6,1:0:0:0:
148,164,104647,1,4,0:0:0:0:
71,246,104810,2,0,P|119:195|182:210,1,132.999996448517,8|0,1:0|0:0,0:0:0:0:
59,285,105136,1,4,0:0:0:0:
193,319,105299,1,6,0:0:0:0:
273,172,105462,2,0,P|249:228|272:374,1,199.499994672775,10|0,1:0|0:0,0:0:0:0:
261,376,105788,5,6,1:0:0:0:
341,290,105951,1,0,0:0:0:0:
451,320,106114,2,0,P|408:220|363:67,1,265.999992897034,8|6,1:0|0:0,0:0:0:0:
481,14,106603,1,4,0:0:0:0:
510,215,106766,2,0,P|412:193|313:191,1,199.499994672775,10|0,1:0|0:0,0:0:0:0:
318,207,107093,5,6,1:0:0:0:
230,132,107256,1,4,0:0:0:0:
200,19,107419,1,8,1:0:0:0:
73,140,107582,2,0,P|145:156|176:220,1,132.999996448517,2|6,0:0|0:0,0:0:0:0:
38,158,107908,1,4,0:0:0:0:
269,310,108071,2,0,P|187:299|35:286,1,199.499994672775,10|0,1:0|0:0,0:0:0:0:
76,303,108397,5,6,1:0:0:0:
196,333,108560,1,4,0:0:0:0:
315,242,108723,1,8,1:0:0:0:
489,361,108886,2,0,P|433:325|347:355,1,132.999996448517,2|6,0:0|0:0,0:0:0:0:
218,186,109212,5,8,1:0:0:0:
486,26,109375,1,8,1:0:0:0:
486,26,109701,6,0,P|453:93|437:156,2,132.999996448517,6|0|8,1:0|0:0|1:0,0:0:0:0:
452,171,110190,1,2,0:0:0:0:
297,15,110353,2,0,P|301:89|319:152,1,132.999996448517,6|4,0:0|0:0,0:0:0:0:
277,365,110679,2,0,B|216:320|241:228|185:187,1,199.499994672775,10|0,1:0|0:0,0:0:0:0:
179,196,111006,5,6,1:0:0:0:
137,304,111169,1,4,0:0:0:0:
28,351,111332,1,8,1:0:0:0:
9,151,111495,2,0,P|26:216|97:185,1,132.999996448517,2|6,0:0|0:0,0:0:0:0:
214,29,111821,2,0,P|159:82|88:103,2,132.999996448517,4|8|2,0:0|1:0|0:0,0:0:0:0:
439,161,112310,5,6,1:0:0:0:
369,68,112473,1,4,0:0:0:0:
489,12,112636,2,0,P|391:94|310:196,1,199.499994672775,10|0,1:0|0:0,0:0:0:0:
328,153,112962,1,6,0:0:0:0:
389,256,113125,1,4,0:0:0:0:
501,289,113288,1,8,1:0:0:0:
282,374,113451,1,0,0:0:0:0:
236,234,113614,6,0,P|308:285|366:381,1,199.499994672775,6|0,1:0|0:0,0:0:0:0:
376,366,113940,1,8,1:0:0:0:
168,295,114103,1,4,0:0:0:0:
289,83,114266,1,6,0:0:0:0:
63,8,114429,1,4,0:0:0:0:
74,52,114511,1,0,0:0:0:0:
109,89,114593,1,8,1:0:0:0:
225,192,114756,1,0,1:0:0:0:
89,371,114919,5,6,1:0:0:0:
313,321,115245,5,0,0:0:0:0:
224,293,115408,1,0,0:0:0:0:
314,337,115571,1,2,0:0:0:0:
494,214,115897,5,0,0:0:0:0:
385,246,116060,1,2,0:0:0:0:
364,45,116386,6,0,L|381:100,2,52.5000020027161
456,53,116876,5,2,0:0:0:0:
373,112,117039,1,0,0:0:0:0:
267,27,117202,1,2,0:0:0:0:
170,106,117365,1,0,0:0:0:0:
16,14,117528,1,2,0:0:0:0:
144,208,117854,5,0,0:0:0:0:
42,117,118017,1,0,0:0:0:0:
42,117,118180,1,2,0:0:0:0:
77,288,118506,5,0,0:0:0:0:
18,206,118669,1,2,0:0:0:0:
374,131,120136,6,2,P|396:66|463:62,1,132.999996448517,6|0,1:0|0:0,0:0:0:0:
422,248,120462,2,0,P|351:162|314:71,1,199.499994672775,8|0,1:0|0:0,0:0:0:0:
288,6,120788,1,2,1:0:0:0:
327,201,120951,1,4,0:0:0:0:
219,125,121114,1,8,1:0:0:0:
184,361,121277,6,0,P|185:310|227:227,1,132.999996448517,2|6,0:0|1:2,0:0:0:0:
217,379,121604,1,4,0:0:0:0:
185,211,121767,1,10,1:0:0:0:
346,357,121930,2,0,P|314:324|272:316,1,66.4999982242585,2|0,0:0|0:0,0:0:0:0:
88,347,122093,1,6,0:0:0:0:
274,184,122256,2,2,B|240:145|159:128|133:247|73:253|22:214,1,265.999992897034,4|0,0:0|0:0,0:0:0:0:
98,11,122745,6,2,P|172:60|327:51,1,199.499994672775,6|0,1:0|0:0,0:0:0:0:
409,10,123071,2,0,P|347:72|273:95,1,132.999996448517,8|0,1:0|0:0,0:0:0:0:
302,376,123397,1,2,1:0:0:0:
202,165,123560,1,4,0:0:0:0:
211,298,123723,1,8,1:0:0:0:
392,171,123886,6,0,P|436:177|484:270,1,132.999996448517,2|6,0:0|1:2,0:0:0:0:
373,182,124212,5,4,0:0:0:0:
471,143,124375,1,8,1:0:0:0:
377,68,124538,1,4,0:0:0:0:
181,303,124701,5,6,0:0:0:0:
223,167,124864,1,4,0:0:0:0:
264,31,125027,1,8,1:0:0:0:
434,353,125190,6,2,P|367:385|303:288,1,199.499994672775,6|0,1:0|0:0,0:0:0:0:
238,182,125516,2,0,P|265:251|260:324,1,132.999996448517,2|8,0:0|1:0,0:0:0:0:
352,53,125843,2,0,L|206:64,1,132.999996448517,2|6,0:1|0:0,0:0:0:0:
483,118,126169,1,4,0:0:0:0:
334,191,126332,1,8,1:0:0:0:
441,243,126495,1,4,0:0:0:0:
213,325,126658,5,6,1:0:0:0:
35,255,126821,1,2,0:0:0:0:
168,182,126984,1,10,1:0:0:0:
108,333,127147,1,4,0:0:0:0:
24,242,127310,2,0,P|28:180|94:42,1,199.499994672775,2|0,1:0|0:0,0:0:0:0:
95,73,127636,1,8,1:0:0:0:
384,124,127799,6,2,P|280:107|184:186,1,199.499994672775,6|0,1:0|0:0,0:0:0:0:
230,245,128125,2,0,P|252:187|202:112,1,132.999996448517,2|8,0:0|1:0,0:0:0:0:
136,317,128451,1,0,0:0:0:0:
78,137,128614,1,6,0:0:0:0:
221,335,128777,1,4,0:0:0:0:
312,165,128940,1,8,1:0:0:0:
434,337,129103,2,0,P|406:293|389:205,1,132.999996448517,2|6,0:0|1:2,0:0:0:0:
208,174,129429,2,0,B|201:125|273:89|310:128|325:175|365:194|449:152,1,265.999992897034,2|0,0:0|0:0,0:0:0:0:
234,378,129919,5,6,0:0:0:0:
118,334,130082,1,0,1:0:0:0:
96,285,130163,1,0,1:0:0:0:
110,233,130245,1,8,1:0:0:0:
150,199,130326,1,0,1:0:0:0:
191,165,130408,1,0,1:0:0:0:
198,112,130489,1,0,1:0:0:0:
173,64,130571,6,2,P|165:126|275:140,1,199.499994672775,6|0,1:0|0:0,0:0:0:0:
395,213,130897,2,0,P|331:181|251:184,1,132.999996448517,8|0,1:0|0:0,0:0:0:0:
165,312,131223,1,2,1:0:0:0:
97,127,131386,1,4,0:0:0:0:
61,254,131549,1,8,1:0:0:0:
268,383,131712,6,0,P|295:344|296:244,1,132.999996448517,2|6,0:0|1:2,0:0:0:0:
420,384,132038,1,0,0:0:0:0:
473,259,132201,1,8,1:0:0:0:
233,160,132364,2,0,P|271:132|307:126,1,66.4999982242585
372,191,132527,1,6,0:0:0:0:
173,314,132690,6,0,B|116:291|115:160|225:185|224:125|197:65,1,265.999992897034,6|0,0:0|0:0,0:0:0:0:
467,36,133179,6,2,P|393:59|392:173,1,199.499994672775,6|0,1:0|0:0,0:0:0:0:
462,266,133506,2,0,P|405:203|352:209,1,132.999996448517,8|0,1:0|0:0,0:0:0:0:
213,336,133832,1,6,0:0:0:0:
158,154,133995,1,4,0:0:0:0:
310,356,134158,1,8,1:0:0:0:
287,116,134321,6,0,P|245:92|151:74,1,132.999996448517,2|6,0:0|1:2,0:0:0:0:
77,255,134647,1,0,0:0:0:0:
32,103,134810,1,8,1:0:0:0:
110,180,134973,1,2,0:0:0:0:
18,360,135136,1,6,0:0:0:0:
256,313,135299,2,0,P|232:345|179:370,1,66.4999982242585,4|0,0:0|0:0,0:0:0:0:
105,275,135462,1,8,1:0:0:0:
392,369,135625,6,2,P|429:318|429:156,1,199.499994672775,6|0,1:0|0:0,0:0:0:0:
376,85,135951,2,0,L|413:239,1,132.999996448517,2|8,0:0|1:0,0:0:0:0:
188,191,136277,2,0,L|176:348,1,132.999996448517,2|6,0:0|0:0,0:0:0:0:
112,108,136603,1,4,0:0:0:0:
294,0,136766,1,8,1:0:0:0:
158,29,136929,1,0,0:0:0:0:
363,208,137093,5,6,1:0:0:0:
316,366,137256,1,0,0:0:0:0:
172,227,137419,1,8,1:0:0:0:
283,271,137582,1,0,0:0:0:0:
79,324,137745,2,0,P|80:286|63:243,1,66.4999982242585,2|0,1:0|0:0,0:0:0:0:
15,154,137908,2,0,P|30:250|99:192,1,199.499994672775,6|0,0:0|0:0,0:0:0:0:
132,96,138234,5,6,0:0:0:0:
250,35,138397,1,6,1:0:0:0:
333,125,138560,1,4,0:0:0:0:
254,231,138723,1,8,1:0:0:0:
490,289,138886,5,2,0:0:0:0:
304,343,139049,1,6,0:0:0:0:
427,384,139212,1,4,0:0:0:0:
100,264,139375,5,8,1:0:0:0:
75,348,139538,1,0,0:0:0:0:
331,182,139701,5,6,1:0:0:0:
252,38,139864,1,4,0:0:0:0:
90,62,140027,1,8,1:0:0:0:
292,371,140190,5,2,0:0:0:0:
214,226,140353,2,0,L|219:292,1,66.4999982242585,2|0,1:0|0:0,0:0:0:0:
173,382,140516,2,0,L|196:183,1,199.499994672775,6|0,0:0|0:0,0:0:0:0:
123,109,140843,5,6,0:0:0:0:
120,76,140924,1,4,0:0:0:0:
116,41,141006,1,6,1:0:0:0:
60,192,141169,1,2,0:0:0:0:
285,18,141332,2,2,P|348:66|327:204,1,199.499994672775,8|0,1:0|0:0,0:0:0:0:
262,201,141658,1,6,0:0:0:0:
396,85,141821,1,4,0:0:0:0:
512,289,141984,6,2,B|490:342|418:341|385:281|329:290|313:326,1,199.499994672775,8|0,1:0|0:0,0:0:0:0:
241,364,142310,1,6,1:0:0:0:
163,206,142473,1,0,0:0:0:0:
0,384,142636,2,2,P|-2:308|89:188,1,199.499994672775,8|0,1:0|0:0,0:0:0:0:
153,193,142962,1,2,1:0:0:0:
264,276,143125,1,0,0:0:0:0:
299,42,143288,6,0,B|260:9|186:52|213:129|248:149|305:159,1,199.499994672775,8|0,1:0|0:0,0:0:0:0:
438,141,143614,2,0,P|438:97|357:117,1,132.999996448517,6|0,1:0|0:0,0:0:0:0:
101,251,143940,2,0,B|75:118|75:118|103:49,1,199.499994672775,8|0,1:0|0:0,0:0:0:0:
31,16,144266,1,6,0:0:0:0:
166,110,144429,1,4,0:0:0:0:
35,342,144593,2,0,P|73:281|200:285,1,199.499994672775,8|0,1:0|0:0,0:0:0:0:
300,371,144919,6,0,P|352:298|391:315,1,132.999996448517,6|0,1:0|0:0,0:0:0:0:
501,62,145245,2,0,P|437:86|450:143,1,132.999996448517,8|0,1:0|0:0,0:0:0:0:
276,68,145571,1,6,1:0:0:0:
333,257,145734,1,0,0:0:0:0:
379,172,145897,2,0,P|364:252|348:372,1,199.499994672775,8|0,1:0|0:0,0:0:0:0:
244,165,146223,6,2,B|265:126|273:68|238:25|172:40|154:79,1,199.499994672775,6|0,1:0|0:0,0:0:0:0:
73,212,146549,2,2,P|3:184|16:139,1,132.999996448517,8|0,1:0|0:0,0:0:0:0:
181,325,146875,1,6,0:0:0:0:
140,136,147038,1,4,0:0:0:0:
329,206,147201,2,2,P|394:192|483:183,1,132.999996448517,8|0,1:0|0:0,0:0:0:0:
134,370,147527,6,2,B|131:326|149:260|172:300|188:236|180:180,1,199.499994672775,6|0,1:0|0:0,0:0:0:0:
251,290,147853,2,0,P|298:348|362:325,1,132.999996448517,8|0,1:0|0:0,0:0:0:0:
224,126,148179,1,6,0:0:0:0:
361,215,148343,1,4,0:0:0:0:
439,70,148506,2,0,P|408:0|348:6,1,132.999996448517,8|0,1:0|0:0,0:0:0:0:
512,269,148832,6,2,P|424:278|294:305,1,199.499994672775,6|0,0:0|0:0,0:0:0:0:
239,166,149158,2,0,P|305:185|375:196,1,132.999996448517,8|0,1:0|0:0,0:0:0:0:
216,347,149484,1,6,0:0:0:0:
178,245,149647,1,4,0:0:0:0:
322,90,149810,2,0,P|323:30|251:27,1,132.999996448517,10|0,1:0|0:0,0:0:0:0:
32,121,150136,6,2,P|108:132|98:250,1,199.499994672775,6|0,1:0|0:0,0:0:0:0:
36,361,150462,2,0,P|26:295|10:226,1,132.999996448517,8|0,1:0|0:0,0:0:0:0:
178,346,150788,1,6,0:0:0:0:
270,252,150951,1,4,0:0:0:0:
196,96,151114,2,0,P|179:125|162:174,1,66.4999982242585,8|0,1:0|0:0,0:0:0:0:
68,29,151277,1,4,0:0:0:0:
45,43,151359,1,4,0:0:0:0:
26,67,151440,6,2,P|89:53|166:18,1,132.999996448517,6|4,1:0|0:0,0:0:0:0:
505,255,151766,2,2,P|446:228|378:177,1,132.999996448517,10|0,1:0|0:0,0:0:0:0:
121,346,152093,5,10,1:0:0:0:
79,251,152256,1,4,0:0:0:0:
277,163,152419,5,10,1:0:0:0:
309,23,152582,1,4,0:0:0:0:
471,178,152745,5,14,1:0:0:0:
436,297,152908,1,4,0:0:0:0:
316,47,153071,2,0,P|376:28|445:11,1,132.999996448517,10|4,1:0|0:0,0:0:0:0:
227,154,153351,5,0,1:0:0:0:
179,94,153432,1,0,1:0:0:0:
118,74,153524,1,0,1:0:0:0:
63,81,153628,1,0,1:0:0:0:
32,105,153743,1,4,0:0:0:0:
18,145,153879,1,4,0:0:0:0:
27,182,154006,1,4,0:0:0:0:
42,203,154153,6,0,B|111:198|190:158|141:133|233:88|295:83,1,280,4|0,1:0|0:0,0:0:0:0:
396,239,156035,2,0,P|378:221|349:198,1,48.9999985046387,2|0,0:0|0:0,0:0:0:0:
480,111,156534,2,0,P|475:142|470:180,1,70
378,68,157208,5,2,0:2:0:0:
374,54,157829,5,0,0:0:0:0:
