osu file format v14

[General]
AudioFilename: good.mp3
AudioLeadIn: 0
PreviewTime: 26193
Countdown: 0
SampleSet: Soft
StackLeniency: 1
Mode: 0
LetterboxInBreaks: 0
WidescreenStoryboard: 0

[Editor]
DistanceSpacing: 1.4
BeatDivisor: 4
GridSize: 4
TimelineZoom: 2.999999

[Metadata]
Title:The Good Left Undone
TitleUnicode:The Good Left Undone
Artist:Rise Against
ArtistUnicode:Rise Against
Creator:pishifat
Version:Extreme
Source:
Tags:the sufferer & and witness metal punk milan-
BeatmapID:774564
BeatmapSetID:351431

[Difficulty]
HPDrainRate:6
CircleSize:4.2
OverallDifficulty:8.6
ApproachRate:9.2
SliderMultiplier:1.8
SliderTickRate:2

[Events]
//Background and Video events
0,0,"hi please rank my map thank u.jpg",0,0
//Break Periods
2,57477,59323
//Storyboard Layer 0 (Background)
//Storyboard Layer 1 (Fail)
//Storyboard Layer 2 (Pass)
//Storyboard Layer 3 (Foreground)
//Storyboard Sound Samples

[TimingPoints]
219,302.076777847703,4,2,0,50,1,0
219,-166.666666666667,4,2,0,50,0,0
5052,-166.666666666667,4,2,0,60,0,0
5203,304.568527918782,4,2,0,60,1,8
5203,-117.647058823529,4,2,0,60,0,0
6116,304.568527918782,4,2,0,60,1,0
6116,-117.647058823529,4,2,0,60,0,0
14696,304.568527918782,4,2,0,60,1,0
15000,-117.647058823529,4,2,0,60,0,0
15914,-117.647058823529,4,2,0,60,0,0
26726,-100,4,2,0,70,0,0
26878,302.076777847703,4,2,0,70,1,0
29294,-111.111111111111,4,2,0,70,0,0
30502,-100,4,2,0,70,0,0
36393,-105.263157894737,4,2,0,70,0,0
41269,500,4,2,0,60,1,1
41269,-90.9090909090909,4,2,0,60,0,1
56269,302.076777847703,4,2,0,50,1,0
59893,-166.666666666667,4,2,0,50,0,0
62461,304.568527918782,4,2,0,60,1,8
62461,-117.647058823529,4,2,0,60,0,0
63374,304.568527918782,4,2,0,60,1,0
63374,-117.647058823529,4,2,0,60,0,0
71924,304.568527918782,4,2,0,60,1,0
72228,-117.647058823529,4,2,0,60,0,0
73141,-117.647058823529,4,2,0,60,0,0
83954,-100,4,2,0,70,0,0
84088,302.076777847703,4,2,0,70,1,0
86504,-111.111111111111,4,2,0,70,0,0
87712,-100,4,2,0,70,0,0
93603,-105.263157894737,4,2,0,70,0,0
94056,-90.9090909090909,4,2,0,70,0,0
94358,-105.263157894737,4,2,0,70,0,0
98512,500,4,2,0,60,1,1
98512,-90.9090909090909,4,2,0,60,0,1
106512,498.960498960499,4,2,0,60,1,1
106512,-90.9090909090909,4,2,0,60,0,1
113497,508.474576271186,4,2,0,60,1,8
114513,500,4,2,0,60,1,1
114513,-90.9090909090909,4,2,0,60,0,1
122513,498.960498960499,4,2,0,60,1,1
122513,-90.9090909090909,4,2,0,60,0,1
129498,-100,4,2,0,60,0,0

[Colours]
Combo1 : 136,170,174
Combo2 : 219,163,121
Combo3 : 141,131,186
Combo4 : 204,134,134

[HitObjects]
103,283,2635,6,0,L|108:239,5,26.9999991760254,2|0|0|0|0|0,0:3|0:0|0:0|0:0|0:0|0:0,0:0:0:0:
187,326,3088,2,0,L|185:274,5,26.9999991760254,2|0|0|0|0|0,0:3|0:0|0:0|0:0|0:0|0:0,0:0:0:0:
274,341,3541,1,2,0:3:0:0:
274,341,3843,6,0,L|320:336,5,26.9999991760254,2|0|0|0|0|0,0:3|0:0|0:0|0:0|0:0|0:0,0:0:0:0:
369,286,4297,1,0,1:0:0:0:
341,257,4372,1,0,1:0:0:0:
333,217,4448,1,0,1:0:0:0:
342,178,4523,1,0,1:0:0:0:
358,141,4599,1,0,1:0:0:0:
358,101,4674,1,0,1:0:0:0:
348,66,4750,1,0,1:0:0:0:
348,66,5052,5,4,3:2:0:0:
179,127,5203,2,0,L|102:132,1,76.5000014591217,0|0,1:0|0:0,0:0:0:0:
272,177,5507,1,0,3:0:0:0:
272,177,5659,1,0,3:0:0:0:
231,42,5812,2,0,P|196:32|143:29,1,76.5000014591217,0|0,1:0|0:0,0:0:0:0:
0,113,6116,5,0,3:0:0:0:
102,132,6268,1,0,3:0:0:0:
30,237,6420,1,0,1:0:0:0:
213,287,6572,2,0,P|258:287|318:271,1,76.5000014591217,0|0,0:0|3:0,0:0:0:0:
131,227,6877,1,0,3:0:0:0:
155,369,7029,1,0,1:0:0:0:
248,206,7181,1,0,3:0:0:0:
248,206,7486,5,0,3:0:0:0:
391,258,7638,2,0,L|484:262,1,76.5000014591217,0|0,1:0|0:0,0:0:0:0:
297,294,7943,2,0,P|284:332|278:371,1,76.5000014591217,0|0,3:0|3:0,0:0:0:0:
369,162,8247,2,0,P|363:126|338:64,1,76.5000014591217,0|0,1:0|0:0,0:0:0:0:
163,64,8552,5,0,3:0:0:0:
163,64,8704,1,0,3:0:0:0:
271,152,8857,1,0,1:0:0:0:
93,188,9009,2,0,L|-1:180,1,76.5000014591217,0|0,0:0|3:0,0:0:0:0:
205,282,9313,1,0,3:0:0:0:
182,146,9466,1,0,1:0:0:0:
124,332,9618,1,0,3:0:0:0:
124,332,9923,5,0,3:0:0:0:
300,278,10075,2,0,L|383:275,1,76.5000014591217,0|0,1:0|0:0,0:0:0:0:
506,180,10379,1,0,3:0:0:0:
410,184,10532,1,0,3:0:0:0:
466,322,10684,1,0,1:0:0:0:
459,99,10836,1,0,3:0:0:0:
459,99,11141,5,0,3:0:0:0:
324,39,11293,1,0,1:0:0:0:
240,147,11445,2,0,P|190:152|144:151,1,76.5000014591217,0|0,0:0|3:0,0:0:0:0:
22,89,11750,1,0,3:0:0:0:
85,212,11902,1,0,1:0:0:0:
113,10,12055,1,0,3:0:0:0:
113,10,12359,5,0,3:0:0:0:
248,46,12511,2,0,L|333:39,1,76.5000014591217,0|0,1:0|0:0,0:0:0:0:
145,115,12816,1,0,3:0:0:0:
240,147,12968,1,0,3:0:0:0:
113,10,13121,1,0,1:0:0:0:
85,212,13273,1,0,3:0:0:0:
319,171,13425,5,0,1:0:0:0:
335,165,13730,1,8,0:3:0:0:
295,366,14034,1,0,1:0:0:0:
263,251,14187,1,8,0:3:0:0:
373,277,14339,1,4,0:3:0:0:
160,351,14491,1,0,1:0:0:0:
160,351,14848,5,4,3:2:0:0:
85,212,15000,2,0,P|94:152|108:120,1,76.5000014591217,0|0,1:0|0:0,0:0:0:0:
238,60,15305,1,0,3:0:0:0:
136,47,15457,1,0,3:0:0:0:
258,159,15609,2,0,L|354:166,1,76.5000014591217,0|0,1:0|0:0,0:0:0:0:
457,30,15914,5,0,3:0:0:0:
360,68,16066,1,0,3:0:0:0:
512,118,16218,1,0,1:0:0:0:
382,244,16371,2,0,P|342:253|281:253,1,76.5000014591217,0|0,0:0|3:0,0:0:0:0:
186,194,16675,1,0,3:0:0:0:
254,319,16827,1,0,1:0:0:0:
334,164,16980,1,0,3:0:0:0:
334,164,17284,5,0,3:0:0:0:
205,91,17437,2,0,L|121:87,1,76.5000014591217,0|0,1:0|0:0,0:0:0:0:
8,166,17741,1,0,3:0:0:0:
8,166,17893,1,0,3:0:0:0:
186,194,18046,1,0,1:0:0:0:
86,263,18198,1,0,0:0:0:0:
254,319,18350,6,0,P|310:310|351:297,1,76.5000014591217,0|0,3:0|3:0,0:0:0:0:
190,198,18655,1,0,1:0:0:0:
148,363,18807,2,0,L|52:368,1,76.5000014591217,0|0,0:0|3:0,0:0:0:0:
190,198,19112,1,0,3:0:0:0:
254,319,19264,1,0,1:0:0:0:
286,114,19416,1,0,3:0:0:0:
286,114,19721,5,0,3:0:0:0:
406,200,19873,2,0,L|482:194,1,76.5000014591217,0|0,1:0|0:0,0:0:0:0:
309,235,20178,1,0,3:1:0:0:
309,235,20330,1,0,3:0:0:0:
385,72,20482,1,0,1:0:0:0:
430,301,20635,1,0,3:0:0:0:
430,301,20939,5,0,3:0:0:0:
309,235,21091,1,0,1:0:0:0:
190,312,21244,2,0,P|134:321|88:320,1,76.5000014591217,0|0,0:0|3:0,0:0:0:0:
225,185,21548,1,0,3:0:0:0:
268,370,21701,1,0,1:0:0:0:
326,129,21853,1,0,3:0:0:0:
326,129,22157,5,0,3:0:0:0:
137,140,22310,1,0,1:0:0:0:
268,45,22462,2,0,P|303:35|370:30,1,76.5000014591217,0|0,0:0|3:0,0:0:0:0:
493,188,22767,1,0,3:0:0:0:
326,129,22919,1,0,1:0:0:0:
484,86,23071,1,0,3:0:0:0:
431,287,23223,5,0,3:0:0:0:
447,294,23528,1,0,1:0:0:0:
261,331,23833,1,0,3:0:0:0:
365,359,23985,1,0,3:0:0:0:
315,212,24137,2,0,B|279:201|279:201|219:197,1,76.5000014591217,0|0,1:0|0:0,0:0:0:0:
85,266,24442,5,0,1:0:0:0:
126,113,24594,1,0,3:0:0:0:
152,319,24746,5,0,1:0:0:0:
43,167,24899,1,0,3:0:0:0:
227,279,25051,5,0,1:0:0:0:
37,264,25203,1,0,3:0:0:0:
240,198,25355,5,0,1:0:0:0:
103,339,25508,1,0,3:0:0:0:
209,71,25660,5,0,1:0:0:0:
350,216,25812,1,8,0:3:0:0:
368,219,25888,1,8,0:3:0:0:
386,222,25965,1,8,0:3:0:0:
240,198,26117,1,8,0:3:0:0:
384,332,26269,1,8,0:3:0:0:
402,328,26345,1,0,0:0:0:0:
420,324,26421,1,4,0:3:0:0:
439,320,26498,1,0,0:0:0:0:
457,317,26574,1,8,0:3:0:0:
302,157,26726,6,0,B|242:149|242:149|195:171|195:171|125:160,1,180,4|0,3:2|3:0,0:0:0:0:
357,7,27180,2,0,P|373:47|372:116,1,90,0|0,1:0|0:0,0:0:0:0:
251,234,27482,1,0,3:0:0:0:
394,181,27633,1,0,3:0:0:0:
278,70,27784,1,0,1:0:0:0:
351,290,27935,1,0,0:0:0:0:
351,290,28010,1,0,0:0:0:0:
351,290,28086,5,0,3:2:0:0:
477,237,28237,1,0,3:0:0:0:
302,157,28388,1,0,1:0:0:0:
208,320,28539,2,0,P|166:320|110:305,1,90,0|0,0:0|3:0,0:0:0:0:
0,197,28841,1,0,3:0:0:0:
42,372,28992,1,0,1:0:0:0:
169,237,29143,1,0,0:0:0:0:
169,237,29219,1,0,0:0:0:0:
169,237,29294,5,4,3:2:0:0:
91,168,29445,1,0,3:0:0:0:
302,157,29596,2,0,B|323:193|323:193|336:241,1,80.9999975280763,4|0,1:0|0:0,0:0:0:0:
179,136,29898,5,0,3:0:0:0:
253,78,30049,1,0,3:0:0:0:
232,302,30200,2,0,B|194:315|194:315|131:319,1,80.9999975280763,0|0,1:0|0:0,0:0:0:0:
104,79,30502,5,0,3:0:0:0:
179,136,30653,1,0,3:0:0:0:
7,262,30804,5,0,1:0:0:0:
19,115,30956,1,0,3:0:0:0:
232,302,31107,5,0,1:0:0:0:
188,51,31258,1,0,3:0:0:0:
74,192,31409,1,0,1:0:0:0:
307,226,31560,6,0,B|374:222|374:222|416:200|416:200|487:195,1,180,4|0,3:2|3:0,0:0:0:0:
232,302,32013,2,0,L|130:295,1,90,0|0,1:0|0:0,0:0:0:0:
342,140,32315,1,0,3:0:0:0:
334,321,32466,1,0,3:0:0:0:
210,209,32617,1,0,1:0:0:0:
407,250,32768,1,0,0:0:0:0:
407,250,32844,1,0,0:0:0:0:
407,250,32919,5,0,3:2:0:0:
342,140,33070,1,0,3:0:0:0:
232,302,33221,1,0,1:0:0:0:
150,127,33372,2,0,L|144:27,1,90,0|0,0:0|3:0,0:0:0:0:
210,209,33674,1,0,3:0:0:0:
54,137,33825,1,0,1:0:0:0:
249,121,33976,1,0,3:0:0:0:
174,365,34127,5,4,1:2:0:0:
110,218,34278,1,0,3:0:0:0:
82,342,34429,5,0,1:0:0:0:
171,171,34580,1,0,3:0:0:0:
26,268,34731,5,0,1:0:0:0:
239,199,34883,1,0,3:0:0:0:
26,177,35034,5,0,1:0:0:0:
248,273,35185,1,0,3:0:0:0:
77,104,35336,5,0,1:0:0:0:
170,293,35487,1,0,1:0:0:0:
170,293,35562,1,0,1:0:0:0:
170,293,35638,1,0,1:0:0:0:
228,123,35789,1,0,1:0:0:0:
375,324,35940,5,0,1:0:0:0:
351,190,36091,1,8,0:3:0:0:
248,273,36242,1,4,0:3:0:0:
449,238,36393,6,0,B|464:182|464:182|451:128|451:128|466:62,1,170.999995433807,4|0,3:2|3:0,0:0:0:0:
351,190,36846,2,0,L|231:197,1,85.4999977169037,0|0,1:0|0:0,0:0:0:0:
78,178,37148,1,0,3:0:0:0:
221,107,37299,1,0,3:0:0:0:
170,293,37450,1,0,1:0:0:0:
125,86,37601,6,0,P|178:77|316:67,1,170.999995433807,4|0,3:2|3:0,0:0:0:0:
78,178,38054,2,0,B|34:182|34:182|-26:170,1,85.4999977169037,0|0,1:0|0:0,0:0:0:0:
221,107,38356,1,0,3:0:0:0:
110,283,38507,1,0,3:0:0:0:
26,89,38658,2,0,L|21:1,1,85.4999977169037,0|0,1:0|0:0,0:0:0:0:
198,236,38961,6,0,P|230:237|300:213,1,85.4999977169037,8|0,3:0|3:0,0:0:0:0:
132,148,39263,1,0,1:0:0:0:
132,148,39414,1,0,3:0:0:0:
313,311,39565,6,0,P|353:289|402:231,1,85.4999977169037,4|0,3:0|3:0,0:0:0:0:
235,132,39867,1,0,1:0:0:0:
235,132,40018,1,0,3:0:0:0:
188,372,40169,5,2,1:3:0:0:
241,110,41269,6,0,P|292:95|365:93,1,99.0000030212403,4|0,3:2|3:0,0:0:0:0:
146,178,41769,2,0,L|27:170,1,99.0000030212403,0|0,1:0|0:0,0:0:0:0:
252,225,42269,1,0,3:0:0:0:
252,225,42519,1,0,3:0:0:0:
138,74,42769,1,0,1:0:0:0:
158,285,43019,1,0,3:0:0:0:
338,166,43269,6,0,B|356:118|356:118|351:62,1,99.0000030212403,4|0,3:1|3:0,0:0:0:0:
340,269,43769,2,0,B|382:297|382:297|451:311,1,99.0000030212403,0|0,1:0|0:0,0:0:0:0:
256,128,44269,1,0,3:0:0:0:
264,325,44519,1,0,3:0:0:0:
419,217,44769,1,0,1:0:0:0:
183,230,45019,1,0,3:0:0:0:
360,106,45269,6,0,L|470:100,2,99.0000030212403,4|0|0,3:2|3:0|1:0,0:0:0:0:
252,147,46019,1,0,0:0:0:0:
303,9,46269,1,0,3:0:0:0:
303,9,46519,1,0,3:0:0:0:
289,247,46769,1,0,1:0:0:0:
360,106,47019,1,0,3:0:0:0:
146,173,47269,6,0,B|126:220|126:220|124:269,1,99.0000030212403,4|0,3:1|3:0,0:0:0:0:
284,381,47769,1,0,1:0:0:0:
284,381,48019,1,0,0:0:0:0:
227,135,48269,1,0,3:0:0:0:
216,244,48519,1,0,3:0:0:0:
408,328,48769,1,0,1:0:0:0:
395,219,49019,1,0,3:0:0:0:
174,342,49269,6,0,L|63:335,2,99.0000030212403,4|0|0,3:2|3:0|1:0,0:0:0:0:
284,381,50019,1,0,0:0:0:0:
121,209,50269,1,0,3:0:0:0:
121,209,50519,1,0,3:0:0:0:
339,156,50769,1,0,1:0:0:0:
251,258,51019,1,0,3:0:0:0:
124,62,51269,6,0,B|77:46|77:46|14:41,1,99.0000030212403,4|0,3:1|3:0,0:0:0:0:
240,164,51769,2,0,L|360:154,1,99.0000030212403,0|0,1:0|0:0,0:0:0:0:
107,285,52269,1,0,3:0:0:0:
160,138,52519,1,0,3:0:0:0:
170,359,52769,1,0,1:0:0:0:
40,212,53019,1,0,3:0:0:0:
264,285,53269,6,0,L|371:294,1,99.0000030212403,4|0,3:2|3:0,0:0:0:0:
160,138,53769,2,0,P|138:191|134:255,1,99.0000030212403,0|0,1:0|0:0,0:0:0:0:
252,372,54269,1,0,3:0:0:0:
252,372,54519,1,0,3:0:0:0:
279,176,54769,1,0,1:0:0:0:
184,305,55019,1,0,3:0:0:0:
433,209,55269,5,4,3:1:0:0:
433,209,55519,1,0,3:0:0:0:
196,218,55769,1,0,1:0:0:0:
343,272,56019,1,0,3:0:0:0:
332,40,56269,1,2,1:3:0:0:
386,348,59893,6,0,L|430:353,5,26.9999991760254,2|0|0|0|0|0,0:3|0:0|0:0|0:0|0:0|0:0,0:0:0:0:
416,266,60347,2,0,L|459:264,5,26.9999991760254,2|0|0|0|0|0,0:3|0:0|0:0|0:0|0:0|0:0,0:0:0:0:
325,282,60800,1,0,1:0:0:0:
293,275,60875,1,0,1:0:0:0:
260,269,60951,1,0,1:0:0:0:
414,161,61102,5,0,1:0:0:0:
451,156,61177,1,0,1:0:0:0:
488,151,61253,1,0,1:0:0:0:
358,75,61404,1,0,1:0:0:0:
393,64,61479,1,0,1:0:0:0:
429,53,61555,1,0,1:0:0:0:
297,184,61706,1,0,1:0:0:0:
276,17,61857,1,0,1:0:0:0:
145,121,62008,1,0,1:0:0:0:
145,121,62310,5,4,3:2:0:0:
222,271,62461,2,0,L|227:365,1,76.5000014591217,0|0,1:0|0:0,0:0:0:0:
297,184,62765,1,0,3:0:0:0:
297,184,62917,1,0,3:0:0:0:
127,226,63070,2,0,P|115:272|112:312,1,76.5000014591217,0|0,1:0|0:0,0:0:0:0:
297,184,63374,6,0,L|290:96,1,76.5000014591217,0|0,3:0|3:0,0:0:0:0:
333,293,63678,2,0,P|388:308|427:304,1,76.5000014591217,0|0,1:0|0:0,0:0:0:0:
509,167,63983,1,0,3:0:0:0:
386,216,64135,1,0,3:0:0:0:
401,82,64287,1,0,1:0:0:0:
498,304,64439,1,0,3:0:0:0:
498,304,64744,5,0,3:0:0:0:
333,293,64896,2,0,L|247:297,1,76.5000014591217,0|0,1:0|0:0,0:0:0:0:
147,157,65201,2,0,P|170:201|179:249,1,76.5000014591217,0|0,3:0|3:0,0:0:0:0:
102,381,65505,2,0,P|133:346|171:327,1,76.5000014591217,0|0,1:0|0:0,0:0:0:0:
412,348,65810,5,0,3:0:0:0:
412,348,65962,1,0,3:0:0:0:
294,215,66115,2,0,L|287:126,1,76.5000014591217,0|0,1:0|0:0,0:0:0:0:
401,25,66419,1,0,3:0:0:0:
386,123,66571,1,0,3:0:0:0:
211,20,66724,1,0,1:0:0:0:
197,229,66876,1,0,3:0:0:0:
197,229,67181,5,0,3:0:0:0:
288,138,67333,1,0,1:0:0:0:
81,195,67485,1,0,0:0:0:0:
172,113,67637,1,0,0:0:0:0:
172,113,67790,1,0,0:0:0:0:
197,229,67942,1,0,1:0:0:0:
58,91,68094,1,0,3:0:0:0:
58,91,68399,5,0,3:0:0:0:
211,20,68551,1,0,1:0:0:0:
81,195,68703,2,0,P|72:252|74:293,1,76.5000014591217,0|0,0:0|3:0,0:0:0:0:
252,310,69008,1,0,3:0:0:0:
187,137,69160,1,0,1:0:0:0:
168,357,69313,1,0,3:0:0:0:
168,357,69617,5,0,3:0:0:0:
256,217,69769,2,0,P|318:209|355:210,1,76.5000014591217,0|0,1:0|0:0,0:0:0:0:
474,263,70074,1,0,3:0:0:0:
474,263,70226,1,0,3:0:0:0:
404,139,70379,1,0,1:0:0:0:
380,319,70531,1,0,3:0:0:0:
291,86,70683,5,0,1:0:0:0:
307,78,70988,1,8,0:3:0:0:
260,271,71292,1,0,1:0:0:0:
141,281,71445,1,8,0:3:0:0:
24,291,71597,1,4,0:3:0:0:
168,127,71749,1,0,1:0:0:0:
168,127,72076,5,4,3:2:0:0:
307,178,72228,2,0,L|387:181,1,76.5000014591217,0|0,1:0|0:0,0:0:0:0:
248,63,72533,1,0,3:0:0:0:
248,63,72685,1,0,3:0:0:0:
181,221,72837,2,0,P|130:238|82:238,1,76.5000014591217,0|0,1:0|0:0,0:0:0:0:
0,148,73142,5,0,3:0:0:0:
0,148,73294,1,0,3:0:0:0:
51,321,73446,2,0,L|127:325,1,76.5000014591217,0|0,1:0|0:0,0:0:0:0:
311,277,73751,1,0,3:0:0:0:
236,354,73903,1,0,3:0:0:0:
288,175,74055,1,0,1:0:0:0:
419,314,74208,1,0,3:0:0:0:
419,314,74512,5,0,3:0:0:0:
503,213,74665,2,0,P|512:170|511:124,1,76.5000014591217,0|0,1:0|0:0,0:0:0:0:
337,35,74969,2,0,L|345:126,1,76.5000014591217,0|0,3:0|3:0,0:0:0:0:
170,192,75274,2,0,L|179:88,1,76.5000014591217,0|0,1:0|0:0,0:0:0:0:
362,217,75578,5,0,3:0:0:0:
362,217,75731,1,0,3:0:0:0:
200,291,75883,2,0,P|158:290|101:276,1,76.5000014591217,0|0,1:0|0:0,0:0:0:0:
11,129,76187,1,0,3:0:0:0:
97,81,76340,1,0,3:0:0:0:
78,203,76492,1,0,1:0:0:0:
34,13,76644,1,0,3:0:0:0:
34,13,76949,5,0,3:0:0:0:
172,115,77101,2,0,L|261:122,1,76.5000014591217,0|0,1:0|0:0,0:0:0:0:
423,80,77406,1,0,3:0:0:0:
305,35,77558,1,0,3:0:0:0:
440,70,77710,1,0,1:0:0:0:
325,238,77863,1,0,3:0:0:0:
325,238,78167,5,0,3:0:0:0:
443,166,78319,1,0,1:0:0:0:
246,180,78472,2,0,P|227:234|227:276,1,76.5000014591217,0|0,0:0|3:0,0:0:0:0:
362,369,78776,1,0,3:0:0:0:
325,238,78929,1,0,1:0:0:0:
170,350,79081,1,0,3:0:0:0:
170,350,79385,5,0,3:0:0:0:
290,324,79538,1,0,1:0:0:0:
110,204,79690,2,0,L|18:196,1,76.5000014591217,0|0,0:0|3:0,0:0:0:0:
182,98,79995,1,0,3:0:0:0:
217,272,80147,1,0,1:0:0:0:
110,204,80299,1,0,3:0:0:0:
313,163,80451,5,0,1:0:0:0:
328,168,80756,1,8,0:3:0:0:
104,31,81061,1,0,1:0:0:0:
120,128,81213,1,8,0:3:0:0:
216,151,81365,1,4,0:3:0:0:
281,79,81517,1,0,0:0:0:0:
281,79,81594,1,0,0:0:0:0:
281,79,81670,5,0,1:0:0:0:
306,240,81822,1,0,3:0:0:0:
188,61,81974,5,0,1:0:0:0:
328,168,82127,1,0,3:0:0:0:
120,128,82279,5,0,1:0:0:0:
321,91,82431,1,0,3:0:0:0:
133,218,82583,5,0,1:0:0:0:
283,28,82736,1,0,3:0:0:0:
203,275,82888,5,0,1:0:0:0:
410,210,83040,1,8,0:3:0:0:
429,209,83116,1,8,0:3:0:0:
448,208,83193,1,8,0:3:0:0:
328,168,83345,1,4,0:3:0:0:
359,372,83497,5,8,0:3:0:0:
411,110,83649,1,8,0:3:0:0:
512,272,83802,1,4,0:3:0:0:
254,294,83954,6,0,B|188:286|188:286|152:260|152:260|86:251,1,168.75,4|0,3:2|3:0,0:0:0:0:
219,112,84390,2,0,P|231:141|230:213,1,90,0|0,1:0|0:0,0:0:0:0:
110,339,84692,1,0,3:0:0:0:
149,169,84843,1,0,3:0:0:0:
254,294,84994,1,0,1:0:0:0:
341,48,85145,6,0,P|406:27|501:94,1,180,4|0,3:2|3:0,0:0:0:0:
244,17,85598,1,0,1:0:0:0:
411,110,85749,2,0,B|426:152|426:152|431:200,1,90,0|0,0:0|3:0,0:0:0:0:
254,294,86051,1,0,3:0:0:0:
329,170,86202,1,0,1:0:0:0:
382,376,86353,1,0,0:0:0:0:
382,376,86429,1,0,0:0:0:0:
382,376,86504,5,4,3:2:0:0:
455,310,86655,1,0,3:0:0:0:
241,281,86806,2,0,B|225:240|225:240|220:183,1,80.9999975280763,4|0,1:0|0:0,0:0:0:0:
411,110,87108,5,0,3:0:0:0:
422,207,87259,1,0,3:0:0:0:
241,89,87410,2,0,B|199:90|199:90|148:104,1,80.9999975280763,0|0,1:0|3:0,0:0:0:0:
100,314,87712,5,0,1:0:0:0:
215,175,87863,1,0,3:0:0:0:
113,324,88014,1,8,0:3:0:0:
85,196,88166,1,4,0:3:0:0:
274,362,88317,5,0,1:0:0:0:
241,89,88468,1,0,1:0:0:0:
97,206,88619,1,0,1:0:0:0:
340,221,88770,6,0,B|406:215|406:215|443:191|443:191|512:186,1,180,4|0,3:2|3:0,0:0:0:0:
241,89,89223,2,0,P|224:132|216:208,1,90,0|0,1:0|0:0,0:0:0:0:
274,362,89525,1,0,3:0:0:0:
190,266,89676,1,0,3:0:0:0:
393,282,89827,1,0,1:0:0:0:
167,355,89978,6,0,P|103:289|128:195,1,180,4|0,3:2|3:0,0:0:0:0:
55,384,90431,1,0,1:0:0:0:
190,266,90582,2,0,B|235:257|235:257|294:255,1,90,0|0,0:0|3:0,0:0:0:0:
468,296,90884,1,0,3:0:0:0:
365,174,91035,1,0,1:0:0:0:
511,144,91186,1,0,3:0:0:0:
353,302,91337,5,4,1:2:0:0:
299,123,91488,1,0,3:0:0:0:
284,348,91639,5,0,1:0:0:0:
258,146,91790,1,0,3:0:0:0:
200,360,91941,5,0,1:0:0:0:
214,153,92093,1,0,3:0:0:0:
120,341,92244,5,0,1:0:0:0:
168,151,92395,1,0,3:0:0:0:
353,302,92546,5,0,1:0:0:0:
353,302,92621,1,0,1:0:0:0:
353,302,92697,1,0,1:0:0:0:
224,70,92848,1,0,1:0:0:0:
198,245,92999,1,0,1:0:0:0:
315,89,93150,5,8,0:3:0:0:
129,57,93301,1,8,0:3:0:0:
331,81,93452,1,4,0:3:0:0:
183,257,93603,6,0,B|116:263|116:263|74:243|74:243|-16:251,1,170.999995433807,4|0,3:2|3:0,0:0:0:0:
276,193,94056,2,0,P|238:173|144:157,1,99.0000030212403,4|0,1:0|0:0,0:0:0:0:
55,337,94358,1,0,3:0:0:0:
55,337,94509,1,0,3:0:0:0:
91,205,94660,1,0,1:0:0:0:
276,355,94811,6,0,P|377:357|437:305,1,170.999995433807,4|0,3:2|3:0,0:0:0:0:
342,94,95264,2,0,L|332:291,1,170.999995433807,0|0,1:0|3:0,0:0:0:0:
435,210,95717,1,0,3:0:0:0:
243,133,95868,2,0,B|199:135|199:135|141:155,1,85.4999977169037,0|0,1:0|0:0,0:0:0:0:
199,313,96171,6,0,P|214:279|220:204,1,85.4999977169037,8|0,3:0|3:0,0:0:0:0:
182,43,96473,1,0,1:0:0:0:
182,43,96624,1,0,3:0:0:0:
124,247,96775,6,0,P|79:241|13:203,1,85.4999977169037,4|0,3:0|3:0,0:0:0:0:
18,95,97077,1,0,1:0:0:0:
18,95,97228,1,0,3:0:0:0:
107,343,97379,5,2,1:3:0:0:
351,107,98512,6,0,P|398:92|478:85,1,99.0000030212403,4|0,3:2|3:0,0:0:0:0:
269,218,99012,2,0,B|220:214|220:214|149:182,1,99.0000030212403,0|0,1:0|0:0,0:0:0:0:
142,45,99512,1,0,3:0:0:0:
142,45,99762,1,0,3:0:0:0:
269,218,100012,1,0,1:0:0:0:
67,258,100262,1,0,3:0:0:0:
252,111,100512,6,0,P|302:121|373:166,1,99.0000030212403,4|0,3:1|3:0,0:0:0:0:
285,312,101012,2,0,B|264:265|264:265|272:184,1,99.0000030212403,0|0,1:0|0:0,0:0:0:0:
367,31,101512,1,0,3:0:0:0:
457,87,101762,1,0,3:0:0:0:
268,217,102012,1,0,1:0:0:0:
252,111,102262,1,0,3:0:0:0:
421,215,102512,6,0,L|428:328,2,99.0000030212403,4|0|0,3:2|3:0|1:0,0:0:0:0:
355,129,103262,1,0,0:0:0:0:
189,285,103512,1,0,3:0:0:0:
88,259,103762,1,0,3:0:0:0:
261,208,104012,1,0,1:0:0:0:
220,384,104262,1,0,3:0:0:0:
161,189,104512,6,0,P|178:111|195:82,1,99.0000030212403,4|0,3:1|3:0,0:0:0:0:
373,42,105012,2,0,L|261:48,1,99.0000030212403,0|0,1:0|0:0,0:0:0:0:
58,62,105512,1,0,3:0:0:0:
192,0,105762,1,0,3:0:0:0:
161,189,106012,1,0,1:0:0:0:
306,137,106262,1,0,1:0:0:0:
299,122,106387,1,0,1:0:0:0:
286,113,106512,6,0,P|268:152|260:213,1,99.0000030212403,4|0,3:2|3:0,0:0:0:0:
419,319,107010,2,0,B|376:293|376:293|313:281,1,99.0000030212403,0|0,1:0|0:0,0:0:0:0:
137,340,107509,1,0,3:0:0:0:
137,340,107759,1,0,3:0:0:0:
88,142,108008,1,0,1:0:0:0:
45,298,108258,1,0,3:0:0:0:
228,206,108507,6,0,P|257:124|254:73,1,99.0000030212403,4|0,3:1|3:0,0:0:0:0:
250,312,109006,2,0,P|312:268|339:225,1,99.0000030212403,0|0,1:0|0:0,0:0:0:0:
152,27,109505,2,0,L|157:155,1,99.0000030212403,0|0,3:0|3:0,0:0:0:0:
163,364,110004,1,0,1:0:0:0:
228,206,110254,1,0,3:0:0:0:
10,273,110503,6,0,P|63:251|127:248,1,99.0000030212403,4|0,3:2|3:0,0:0:0:0:
316,349,111002,2,0,L|450:360,1,99.0000030212403,0|0,1:0|0:0,0:0:0:0:
279,124,111501,2,0,P|242:165|226:227,1,99.0000030212403,0|0,3:0|3:0,0:0:0:0:
502,137,112000,2,0,P|449:101|393:95,1,99.0000030212403,0|0,1:0|3:0,0:0:0:0:
238,281,112499,6,0,B|187:286|187:286|125:268,1,99.0000030212403,4|0,3:1|3:0,0:0:0:0:
132,37,112998,2,0,P|157:97|150:166,1,99.0000030212403,0|0,1:0|3:0,0:0:0:0:
152,144,113372,1,0,3:0:0:0:
145,159,113497,5,0,3:0:0:0:
457,109,113751,1,0,1:0:0:0:
322,272,114005,1,0,1:0:0:0:
284,11,114259,1,0,3:0:0:0:
322,272,114513,6,0,P|387:289|446:290,1,99.0000030212403,4|0,3:2|3:0,0:0:0:0:
221,143,115013,2,0,B|174:150|174:150|109:185,1,99.0000030212403,0|0,1:0|0:0,0:0:0:0:
322,272,115513,1,0,3:0:0:0:
336,157,115763,1,0,3:0:0:0:
189,331,116013,2,0,L|73:339,1,99.0000030212403,0|0,1:0|3:0,0:0:0:0:
77,331,116388,1,0,1:0:0:0:
65,323,116513,6,0,B|43:276|43:276|52:192,1,99.0000030212403,4|0,3:1|3:0,0:0:0:0:
163,78,117013,2,0,P|205:101|269:109,1,99.0000030212403,0|0,1:0|0:0,0:0:0:0:
434,13,117513,1,0,3:0:0:0:
460,131,117763,1,0,3:0:0:0:
322,217,118013,1,0,1:0:0:0:
340,95,118263,1,0,3:0:0:0:
390,315,118513,6,0,P|435:330|497:327,2,99.0000030212403,4|0|0,3:1|3:0|1:0,0:0:0:0:
322,217,119263,1,0,0:0:0:0:
96,364,119513,1,0,3:0:0:0:
46,261,119763,1,0,3:0:0:0:
207,134,120013,1,0,1:0:0:0:
166,239,120263,1,0,3:0:0:0:
85,37,120513,6,0,P|150:15|212:18,1,99.0000030212403,4|0,3:2|3:0,0:0:0:0:
313,125,121013,2,0,L|434:134,1,99.0000030212403,0|0,1:0|0:0,0:0:0:0:
428,126,121388,1,0,1:0:0:0:
441,118,121513,5,0,3:0:0:0:
262,40,121763,1,0,3:0:0:0:
288,334,122013,1,0,1:0:0:0:
453,225,122263,1,0,3:0:0:0:
231,258,122513,6,0,L|102:249,1,99.0000030212403,4|0,3:2|3:0,0:0:0:0:
38,68,123011,2,0,P|71:129|77:182,1,99.0000030212403,0|0,1:0|0:0,0:0:0:0:
2,368,123510,1,0,3:0:0:0:
25,246,123760,1,0,3:0:0:0:
227,277,124009,1,0,1:0:0:0:
209,153,124259,1,0,3:0:0:0:
150,352,124508,6,0,P|211:382|275:377,1,99.0000030212403,4|0,3:1|3:0,0:0:0:0:
395,162,125007,2,0,B|340:176|340:176|295:205,1,99.0000030212403,0|0,1:0|0:0,0:0:0:0:
299,215,125382,1,0,1:0:0:0:
294,233,125506,5,0,3:0:0:0:
479,209,125756,1,0,3:0:0:0:
369,42,126005,1,0,1:0:0:0:
361,310,126255,1,0,3:0:0:0:
112,178,126504,6,0,P|99:123|108:66,2,99.0000030212403,4|0|0,3:2|3:0|1:0,0:0:0:0:
221,217,127253,1,0,0:0:0:0:
195,31,127502,1,0,3:0:0:0:
195,31,127752,1,0,3:0:0:0:
364,99,128001,1,0,1:0:0:0:
260,117,128251,1,0,3:0:0:0:
442,280,128500,5,4,3:1:0:0:
442,280,128750,1,0,3:0:0:0:
364,99,128999,1,0,1:0:0:0:
481,188,129248,1,0,3:0:0:0:
121,264,129498,1,2,1:3:0:0:
