osu file format v14

[General]
AudioFilename: audio.mp3
AudioLeadIn: 0
PreviewTime: 26421
Countdown: 0
SampleSet: Normal
StackLeniency: 0.7
Mode: 1
LetterboxInBreaks: 0
WidescreenStoryboard: 0

[Editor]
DistanceSpacing: 1.4
BeatDivisor: 4
GridSize: 16
TimelineZoom: 1.8

[Metadata]
Title:The Good Left Undone
TitleUnicode:The Good Left Undone
Artist:Rise Against
ArtistUnicode:Rise Against
Creator:Chromoxx
Version:Muzukashii
Source:
Tags:the sufferer & and witness metal punk darkvortex
BeatmapID:996637
BeatmapSetID:457264

[Difficulty]
HPDrainRate:6
CircleSize:5
OverallDifficulty:5
ApproachRate:5
SliderMultiplier:1.4
SliderTickRate:1

[Events]
//Background and Video events
0,0,"hi please rank my map thank u.jpg",0,0
//Break Periods
//Storyboard Layer 0 (Background)
//Storyboard Layer 1 (Fail)
//Storyboard Layer 2 (Pass)
//Storyboard Layer 3 (Foreground)
//Storyboard Sound Samples

[TimingPoints]
219,302.076777847703,4,1,0,100,1,0
4901,304.568527918782,4,1,0,100,1,0
14647,304.568527918782,4,1,0,100,1,8
14695,304.568527918782,4,1,0,100,1,0
26725,-100,4,1,0,100,0,1
26878,302.076777847703,4,1,0,100,1,1
40169,-100,4,1,0,100,0,0
41269,500,4,1,0,100,1,0
41269,-76.9230769230769,4,1,0,100,0,0
57269,500,4,1,0,100,1,8
57477,302.076777847703,4,1,0,100,1,0
62159,304.568527918782,4,1,0,100,1,0
71905,304.568527918782,4,1,0,100,1,8
71923,304.568527918782,4,1,0,100,1,0
83953,-100,4,1,0,100,0,1
84088,302.076777847703,4,1,0,100,1,1
97379,-100,4,1,0,100,0,0
98512,500,4,1,0,100,1,0
98512,-76.9230769230769,4,1,0,100,0,0
106512,498.960498960499,4,1,0,100,1,0
106512,-76.9230769230769,4,1,0,100,0,0
113497,508.474576271186,4,1,0,100,1,8
113497,-75.7575757575758,4,1,0,100,0,8
114513,500,4,1,0,100,1,0
114513,-76.9230769230769,4,1,0,100,0,0
122513,498.960498960499,4,1,0,100,1,0
122513,-76.9230769230769,4,1,0,100,0,0

[HitObjects]
288,160,219,5,0,0:0:0:0:
288,160,521,1,0,0:0:0:0:
256,112,672,1,0,0:0:0:0:
288,160,823,1,0,0:0:0:0:
288,128,974,1,0,0:0:0:0:
288,160,1125,1,0,0:0:0:0:
272,208,1427,1,8,0:0:0:0:
272,208,1729,1,8,0:0:0:0:
256,112,1880,1,8,0:0:0:0:
368,112,2031,1,8,0:0:0:0:
256,112,2182,1,8,0:0:0:0:
224,96,2333,1,8,0:0:0:0:
304,176,2635,1,8,0:0:0:0:
304,176,2786,1,0,0:0:0:0:
304,176,2937,1,0,0:0:0:0:
304,176,3088,1,8,0:0:0:0:
304,176,3239,1,0,0:0:0:0:
304,176,3390,1,0,0:0:0:0:
304,176,3541,1,8,0:0:0:0:
304,176,3843,1,8,0:0:0:0:
304,176,3994,1,8,0:0:0:0:
304,176,4145,1,0,0:0:0:0:
304,176,4297,1,0,0:0:0:0:
256,208,4448,1,8,0:0:0:0:
256,208,4523,1,8,0:0:0:0:
256,208,4599,1,8,0:0:0:0:
256,208,4750,1,8,0:0:0:0:
304,192,5053,1,4,0:0:0:0:
304,192,5205,1,0,0:0:0:0:
304,192,5357,1,8,0:0:0:0:
304,192,5510,1,0,0:0:0:0:
192,160,5814,1,0,0:0:0:0:
208,160,5966,1,8,0:0:0:0:
208,160,6119,1,8,0:0:0:0:
336,80,6271,1,4,0:0:0:0:
176,160,6576,1,12,0:0:0:0:
320,80,6880,1,4,0:0:0:0:
336,240,7489,1,8,0:0:0:0:
336,224,7642,1,0,0:0:0:0:
336,224,7794,1,0,0:0:0:0:
336,224,7946,1,8,0:0:0:0:
304,256,8251,1,0,0:0:0:0:
208,144,8403,1,8,0:0:0:0:
208,144,8555,1,8,0:0:0:0:
320,64,8708,1,4,0:0:0:0:
320,64,9012,1,12,0:0:0:0:
320,64,9317,1,4,0:0:0:0:
304,224,9926,1,0,0:0:0:0:
304,224,10078,1,0,0:0:0:0:
304,224,10230,1,8,0:0:0:0:
304,224,10535,1,8,0:0:0:0:
304,224,10687,1,0,0:0:0:0:
304,224,10840,1,8,0:0:0:0:
352,272,11144,1,8,0:0:0:0:
352,272,11296,1,8,0:0:0:0:
352,272,11449,1,0,0:0:0:0:
352,272,11753,1,8,0:0:0:0:
352,272,11906,1,0,0:0:0:0:
240,96,12058,1,8,0:0:0:0:
336,256,12362,1,0,0:0:0:0:
336,256,12515,1,0,0:0:0:0:
336,256,12667,1,8,0:0:0:0:
336,256,12819,1,8,0:0:0:0:
336,256,12972,1,0,0:0:0:0:
336,256,13276,1,8,0:0:0:0:
336,256,13428,1,4,0:0:0:0:
352,208,13733,1,4,0:0:0:0:
352,208,14038,1,12,0:0:0:0:
352,208,14190,1,4,0:0:0:0:
352,208,14494,1,12,0:0:0:0:
208,144,14847,1,8,0:0:0:0:
208,144,14999,1,0,0:0:0:0:
208,144,15151,1,8,0:0:0:0:
208,144,15304,1,0,0:0:0:0:
208,144,15608,1,0,0:0:0:0:
208,144,15760,1,8,0:0:0:0:
208,144,15913,1,8,0:0:0:0:
208,144,16065,1,4,0:0:0:0:
320,224,16370,1,12,0:0:0:0:
336,144,16674,1,4,0:0:0:0:
384,272,17283,1,0,0:0:0:0:
384,272,17436,1,0,0:0:0:0:
384,272,17588,1,8,0:0:0:0:
384,272,17740,1,0,0:0:0:0:
384,272,18045,1,0,0:0:0:0:
384,272,18197,1,8,0:0:0:0:
384,272,18349,1,8,0:0:0:0:
384,272,18502,1,4,0:0:0:0:
288,144,18806,1,12,0:0:0:0:
288,144,19111,1,4,0:0:0:0:
224,208,19720,1,0,0:0:0:0:
224,208,19872,1,0,0:0:0:0:
224,208,20024,1,8,0:0:0:0:
224,208,20329,1,8,0:0:0:0:
224,208,20481,1,0,0:0:0:0:
224,208,20634,1,8,0:0:0:0:
336,256,20938,1,8,0:0:0:0:
336,256,21090,1,8,0:0:0:0:
336,256,21243,1,0,0:0:0:0:
336,256,21547,1,8,0:0:0:0:
336,256,21700,1,0,0:0:0:0:
336,256,21852,1,8,0:0:0:0:
256,208,22156,1,0,0:0:0:0:
240,96,22309,1,0,0:0:0:0:
240,96,22461,1,8,0:0:0:0:
240,96,22613,1,8,0:0:0:0:
240,96,22766,1,0,0:0:0:0:
240,96,23070,1,8,0:0:0:0:
240,96,23222,1,4,0:0:0:0:
256,144,23527,1,4,0:0:0:0:
304,144,23832,1,12,0:0:0:0:
320,192,23984,1,4,0:0:0:0:
320,192,24136,1,12,0:0:0:0:
427,220,24441,1,0,0:0:0:0:
256,208,24593,1,0,0:0:0:0:
208,176,24745,1,8,0:0:0:0:
208,176,25050,1,0,0:0:0:0:
336,240,25354,1,0,0:0:0:0:
384,240,25659,1,8,0:0:0:0:
224,144,25811,1,0,0:0:0:0:
224,144,25887,1,0,0:0:0:0:
224,144,25964,1,0,0:0:0:0:
224,144,26116,1,8,0:0:0:0:
336,112,26268,1,0,0:0:0:0:
320,64,26725,1,12,0:0:0:0:
400,192,27180,1,8,0:0:0:0:
400,192,27482,1,0,0:0:0:0:
400,192,27633,1,0,0:0:0:0:
400,192,27784,1,8,0:0:0:0:
400,192,27935,1,0,0:0:0:0:
384,272,28237,1,0,0:0:0:0:
384,272,28388,1,8,0:0:0:0:
320,112,28539,1,8,0:0:0:0:
320,112,28690,1,0,0:0:0:0:
320,112,28841,1,0,0:0:0:0:
320,112,28992,1,8,0:0:0:0:
352,240,29294,1,0,0:0:0:0:
352,240,29596,1,8,0:0:0:0:
352,240,29898,1,0,0:0:0:0:
352,240,30049,1,0,0:0:0:0:
352,240,30200,1,8,0:0:0:0:
368,224,30502,1,0,0:0:0:0:
368,224,30653,1,0,0:0:0:0:
368,224,30804,1,8,0:0:0:0:
368,224,30956,1,8,0:0:0:0:
368,224,31107,1,0,0:0:0:0:
368,224,31258,1,0,0:0:0:0:
224,112,31409,1,8,0:0:0:0:
224,112,31560,1,4,0:0:0:0:
304,192,32013,1,8,0:0:0:0:
304,192,32315,1,0,0:0:0:0:
304,192,32466,1,0,0:0:0:0:
304,192,32617,1,8,0:0:0:0:
352,112,32768,1,0,0:0:0:0:
288,160,33070,1,0,0:0:0:0:
288,160,33221,1,8,0:0:0:0:
288,160,33372,1,8,0:0:0:0:
288,160,33523,1,0,0:0:0:0:
288,160,33674,1,0,0:0:0:0:
288,160,33825,1,8,0:0:0:0:
416,288,34127,1,0,0:0:0:0:
416,288,34429,1,0,0:0:0:0:
416,288,34731,1,8,0:0:0:0:
416,288,34883,1,0,0:0:0:0:
416,288,35034,1,8,0:0:0:0:
368,224,35336,1,8,0:0:0:0:
368,224,35487,1,0,0:0:0:0:
368,224,35638,1,8,0:0:0:0:
368,224,35789,1,8,0:0:0:0:
368,224,35940,1,0,0:0:0:0:
368,224,36091,1,0,0:0:0:0:
368,224,36242,1,8,0:0:0:0:
368,224,36393,1,4,0:0:0:0:
416,272,36846,1,8,0:0:0:0:
320,128,37148,1,0,0:0:0:0:
320,128,37299,1,0,0:0:0:0:
320,128,37450,1,8,0:0:0:0:
320,128,37601,1,0,0:0:0:0:
288,208,37903,1,0,0:0:0:0:
288,208,38054,1,8,0:0:0:0:
288,208,38205,1,8,0:0:0:0:
288,208,38356,1,0,0:0:0:0:
288,208,38507,1,0,0:0:0:0:
288,208,38658,1,8,0:0:0:0:
352,240,38961,1,0,0:0:0:0:
352,240,39112,1,0,0:0:0:0:
352,240,39263,1,8,0:0:0:0:
352,240,39565,1,8,0:0:0:0:
352,240,39716,1,0,0:0:0:0:
352,240,39867,1,8,0:0:0:0:
368,240,40169,1,4,0:0:0:0:
368,144,41269,1,12,0:0:0:0:
304,144,41769,1,0,0:0:0:0:
304,144,42269,1,8,0:0:0:0:
416,272,42519,1,0,0:0:0:0:
304,144,42769,1,8,0:0:0:0:
304,144,43019,1,0,0:0:0:0:
304,144,43269,1,8,0:0:0:0:
304,144,43769,1,0,0:0:0:0:
336,32,44269,1,8,0:0:0:0:
320,208,44519,1,8,0:0:0:0:
304,160,44769,1,0,0:0:0:0:
352,80,45019,1,0,0:0:0:0:
352,80,45269,1,8,0:0:0:0:
352,80,45769,1,0,0:0:0:0:
352,80,46269,1,8,0:0:0:0:
304,240,46519,1,0,0:0:0:0:
352,80,46769,1,8,0:0:0:0:
352,80,47019,1,8,0:0:0:0:
352,80,47269,1,0,0:0:0:0:
352,80,47769,1,0,0:0:0:0:
352,80,48269,1,8,0:0:0:0:
304,240,48519,1,8,0:0:0:0:
352,80,48769,1,8,0:0:0:0:
352,80,49019,1,0,0:0:0:0:
320,48,49269,1,8,0:0:0:0:
336,64,49769,1,0,0:0:0:0:
352,64,50269,1,8,0:0:0:0:
304,224,50519,1,0,0:0:0:0:
352,64,50769,1,8,0:0:0:0:
224,240,51019,1,0,0:0:0:0:
368,64,51269,1,0,0:0:0:0:
336,64,51769,1,0,0:0:0:0:
336,64,52269,1,8,0:0:0:0:
240,224,52519,1,8,0:0:0:0:
368,64,52769,1,0,0:0:0:0:
368,64,53019,1,0,0:0:0:0:
368,64,53269,1,8,0:0:0:0:
320,96,53769,1,0,0:0:0:0:
320,80,54269,1,8,0:0:0:0:
240,224,54519,1,0,0:0:0:0:
320,80,54769,1,8,0:0:0:0:
320,96,55019,1,0,0:0:0:0:
320,96,55269,1,8,0:0:0:0:
320,96,55769,1,0,0:0:0:0:
320,80,56269,1,0,0:0:0:0:
224,144,57477,1,0,0:0:0:0:
240,128,57779,1,0,0:0:0:0:
240,128,57930,1,0,0:0:0:0:
240,128,58081,1,0,0:0:0:0:
240,128,58232,1,0,0:0:0:0:
240,128,58383,1,0,0:0:0:0:
320,64,58685,1,8,0:0:0:0:
320,64,58987,1,8,0:0:0:0:
320,64,59138,1,8,0:0:0:0:
320,64,59289,1,8,0:0:0:0:
320,64,59441,1,8,0:0:0:0:
256,128,59591,1,8,0:0:0:0:
336,224,59893,1,8,0:0:0:0:
336,224,60044,1,0,0:0:0:0:
336,224,60195,1,0,0:0:0:0:
336,224,60346,1,8,0:0:0:0:
336,224,60497,1,0,0:0:0:0:
336,208,60648,1,0,0:0:0:0:
336,208,60799,1,8,0:0:0:0:
352,224,61101,1,8,0:0:0:0:
352,224,61177,1,8,0:0:0:0:
352,224,61252,1,8,0:0:0:0:
352,224,61403,1,0,0:0:0:0:
352,224,61479,1,0,0:0:0:0:
352,224,61555,1,0,0:0:0:0:
352,224,61706,1,8,0:0:0:0:
352,224,61857,1,8,0:0:0:0:
352,224,62008,1,8,0:0:0:0:
304,192,62311,1,4,0:0:0:0:
304,192,62463,1,0,0:0:0:0:
304,192,62615,1,8,0:0:0:0:
304,192,62768,1,0,0:0:0:0:
192,160,63072,1,0,0:0:0:0:
208,160,63224,1,8,0:0:0:0:
208,160,63377,1,8,0:0:0:0:
336,80,63529,1,4,0:0:0:0:
320,80,63834,1,12,0:0:0:0:
320,80,64138,1,4,0:0:0:0:
336,240,64747,1,8,0:0:0:0:
336,224,64900,1,0,0:0:0:0:
336,224,65052,1,0,0:0:0:0:
336,224,65204,1,8,0:0:0:0:
304,256,65509,1,0,0:0:0:0:
208,144,65661,1,8,0:0:0:0:
208,144,65813,1,8,0:0:0:0:
320,64,65966,1,4,0:0:0:0:
320,64,66270,1,12,0:0:0:0:
320,64,66575,1,4,0:0:0:0:
304,224,67184,1,0,0:0:0:0:
304,224,67336,1,0,0:0:0:0:
304,224,67488,1,8,0:0:0:0:
304,224,67793,1,8,0:0:0:0:
304,224,67945,1,0,0:0:0:0:
304,224,68098,1,8,0:0:0:0:
352,272,68402,1,8,0:0:0:0:
352,272,68554,1,8,0:0:0:0:
352,272,68707,1,0,0:0:0:0:
352,272,69011,1,8,0:0:0:0:
352,272,69164,1,0,0:0:0:0:
240,96,69316,1,8,0:0:0:0:
336,256,69620,1,0,0:0:0:0:
336,256,69773,1,0,0:0:0:0:
336,256,69925,1,8,0:0:0:0:
336,256,70077,1,8,0:0:0:0:
336,256,70230,1,0,0:0:0:0:
336,256,70534,1,8,0:0:0:0:
336,256,70686,1,4,0:0:0:0:
352,208,70991,1,4,0:0:0:0:
352,208,71296,1,12,0:0:0:0:
352,208,71448,1,4,0:0:0:0:
352,208,71752,1,12,0:0:0:0:
208,144,72075,1,8,0:0:0:0:
208,144,72227,1,0,0:0:0:0:
208,144,72379,1,8,0:0:0:0:
208,144,72532,1,0,0:0:0:0:
208,144,72836,1,0,0:0:0:0:
208,144,72988,1,8,0:0:0:0:
208,144,73141,1,8,0:0:0:0:
208,144,73293,1,4,0:0:0:0:
320,224,73598,1,12,0:0:0:0:
336,144,73902,1,4,0:0:0:0:
384,272,74511,1,0,0:0:0:0:
384,272,74664,1,0,0:0:0:0:
384,272,74816,1,8,0:0:0:0:
384,272,74968,1,0,0:0:0:0:
384,272,75273,1,0,0:0:0:0:
384,272,75425,1,8,0:0:0:0:
384,272,75577,1,8,0:0:0:0:
384,272,75730,1,4,0:0:0:0:
288,144,76034,1,12,0:0:0:0:
288,144,76339,1,4,0:0:0:0:
224,208,76948,1,0,0:0:0:0:
224,208,77100,1,0,0:0:0:0:
224,208,77252,1,8,0:0:0:0:
224,208,77557,1,8,0:0:0:0:
224,208,77709,1,0,0:0:0:0:
224,208,77862,1,8,0:0:0:0:
336,256,78166,1,8,0:0:0:0:
336,256,78318,1,8,0:0:0:0:
336,256,78471,1,0,0:0:0:0:
336,256,78775,1,8,0:0:0:0:
336,256,78928,1,0,0:0:0:0:
336,256,79080,1,8,0:0:0:0:
256,208,79384,1,0,0:0:0:0:
240,96,79537,1,0,0:0:0:0:
240,96,79689,1,8,0:0:0:0:
240,96,79841,1,8,0:0:0:0:
240,96,79994,1,0,0:0:0:0:
240,96,80298,1,8,0:0:0:0:
240,96,80450,1,4,0:0:0:0:
256,144,80755,1,4,0:0:0:0:
304,144,81060,1,12,0:0:0:0:
320,192,81212,1,4,0:0:0:0:
320,192,81364,1,12,0:0:0:0:
327,206,81669,1,0,0:0:0:0:
256,208,81821,1,0,0:0:0:0:
208,176,81973,1,8,0:0:0:0:
224,144,82278,1,0,0:0:0:0:
336,240,82582,1,0,0:0:0:0:
336,240,82887,1,8,0:0:0:0:
224,144,83039,1,0,0:0:0:0:
224,144,83115,1,0,0:0:0:0:
224,144,83192,1,0,0:0:0:0:
224,144,83344,1,8,0:0:0:0:
128,208,83496,1,0,0:0:0:0:
320,64,83953,1,12,0:0:0:0:
400,192,84390,1,8,0:0:0:0:
400,192,84692,1,0,0:0:0:0:
400,192,84843,1,0,0:0:0:0:
400,192,84994,1,8,0:0:0:0:
400,192,85145,1,0,0:0:0:0:
384,272,85447,1,0,0:0:0:0:
384,272,85598,1,8,0:0:0:0:
320,112,85749,1,8,0:0:0:0:
320,112,85900,1,0,0:0:0:0:
320,112,86051,1,0,0:0:0:0:
320,112,86202,1,8,0:0:0:0:
352,240,86504,1,0,0:0:0:0:
352,240,86806,1,8,0:0:0:0:
256,112,87108,1,0,0:0:0:0:
352,240,87259,1,0,0:0:0:0:
352,240,87410,1,8,0:0:0:0:
368,224,87712,1,0,0:0:0:0:
368,224,87863,1,0,0:0:0:0:
368,224,88014,1,8,0:0:0:0:
368,224,88166,1,8,0:0:0:0:
368,224,88317,1,0,0:0:0:0:
368,224,88468,1,0,0:0:0:0:
224,112,88619,1,8,0:0:0:0:
224,112,88770,1,4,0:0:0:0:
304,192,89223,1,8,0:0:0:0:
304,192,89525,1,0,0:0:0:0:
304,192,89676,1,0,0:0:0:0:
304,192,89827,1,8,0:0:0:0:
352,112,89978,1,0,0:0:0:0:
288,160,90280,1,0,0:0:0:0:
288,160,90431,1,8,0:0:0:0:
288,160,90582,1,8,0:0:0:0:
288,160,90733,1,0,0:0:0:0:
288,160,90884,1,0,0:0:0:0:
288,160,91035,1,8,0:0:0:0:
416,288,91337,1,0,0:0:0:0:
416,288,91639,1,0,0:0:0:0:
416,288,91941,1,8,0:0:0:0:
416,288,92093,1,0,0:0:0:0:
416,288,92244,1,8,0:0:0:0:
368,224,92546,1,8,0:0:0:0:
368,224,92697,1,0,0:0:0:0:
368,224,92848,1,8,0:0:0:0:
368,224,92999,1,8,0:0:0:0:
368,224,93150,1,0,0:0:0:0:
368,224,93301,1,0,0:0:0:0:
368,224,93452,1,8,0:0:0:0:
368,224,93603,1,4,0:0:0:0:
416,272,94056,1,8,0:0:0:0:
320,128,94358,1,0,0:0:0:0:
320,128,94509,1,0,0:0:0:0:
320,128,94660,1,8,0:0:0:0:
320,128,94811,1,0,0:0:0:0:
288,208,95113,1,0,0:0:0:0:
288,208,95264,1,8,0:0:0:0:
288,208,95415,1,8,0:0:0:0:
288,208,95566,1,0,0:0:0:0:
288,208,95717,1,0,0:0:0:0:
288,208,95868,1,8,0:0:0:0:
352,240,96171,1,0,0:0:0:0:
352,240,96322,1,0,0:0:0:0:
352,240,96473,1,8,0:0:0:0:
352,240,96775,1,8,0:0:0:0:
352,240,96926,1,0,0:0:0:0:
352,240,97077,1,8,0:0:0:0:
368,240,97379,1,4,0:0:0:0:
304,96,98512,1,12,0:0:0:0:
416,96,99012,1,0,0:0:0:0:
416,96,99512,1,8,0:0:0:0:
304,224,99762,1,0,0:0:0:0:
416,96,100012,1,8,0:0:0:0:
416,96,100262,1,0,0:0:0:0:
336,64,100512,1,8,0:0:0:0:
336,64,101012,1,0,0:0:0:0:
336,64,101512,1,8,0:0:0:0:
320,208,101762,1,8,0:0:0:0:
336,64,102012,1,0,0:0:0:0:
336,64,102262,1,0,0:0:0:0:
336,64,102512,1,8,0:0:0:0:
336,64,103012,1,0,0:0:0:0:
352,64,103512,1,8,0:0:0:0:
320,208,103762,1,0,0:0:0:0:
352,64,104012,1,8,0:0:0:0:
352,64,104262,1,8,0:0:0:0:
352,64,104512,1,0,0:0:0:0:
352,64,105012,1,0,0:0:0:0:
352,64,105512,1,8,0:0:0:0:
224,240,105762,1,8,0:0:0:0:
352,64,106012,1,8,0:0:0:0:
352,64,106262,1,0,0:0:0:0:
368,48,106512,1,8,0:0:0:0:
352,96,107010,1,0,0:0:0:0:
352,96,107509,1,8,0:0:0:0:
208,240,107759,1,0,0:0:0:0:
352,96,108008,1,8,0:0:0:0:
208,272,108258,1,0,0:0:0:0:
352,96,108507,1,0,0:0:0:0:
352,96,109006,1,0,0:0:0:0:
352,96,109505,1,8,0:0:0:0:
368,32,110004,1,0,0:0:0:0:
368,32,110254,1,8,0:0:0:0:
368,48,110503,1,0,0:0:0:0:
368,48,111002,1,0,0:0:0:0:
368,48,111501,1,8,0:0:0:0:
368,48,112000,1,0,0:0:0:0:
368,48,112250,1,0,0:0:0:0:
368,48,112499,1,8,0:0:0:0:
368,48,112998,1,0,0:0:0:0:
320,32,113497,1,0,0:0:0:0:
368,48,113751,1,0,0:0:0:0:
320,96,114005,1,8,0:0:0:0:
336,48,114259,1,0,0:0:0:0:
320,64,114513,1,12,0:0:0:0:
320,80,115013,1,0,0:0:0:0:
336,64,115513,1,8,0:0:0:0:
336,64,115763,1,0,0:0:0:0:
288,32,116013,1,8,0:0:0:0:
336,64,116263,1,8,0:0:0:0:
320,64,116513,1,0,0:0:0:0:
320,64,117013,1,0,0:0:0:0:
384,208,117513,1,0,0:0:0:0:
384,208,117763,1,8,0:0:0:0:
336,128,118013,1,0,0:0:0:0:
336,128,118263,1,0,0:0:0:0:
336,128,118513,1,8,0:0:0:0:
320,64,119013,1,0,0:0:0:0:
320,64,119513,1,8,0:0:0:0:
320,64,119763,1,0,0:0:0:0:
320,64,120013,1,8,0:0:0:0:
320,64,120263,1,8,0:0:0:0:
352,128,120513,1,0,0:0:0:0:
352,128,121013,1,0,0:0:0:0:
352,128,121513,1,8,0:0:0:0:
352,128,121763,1,8,0:0:0:0:
352,128,122013,1,8,0:0:0:0:
352,128,122263,1,0,0:0:0:0:
352,96,122513,1,8,0:0:0:0:
352,96,123011,1,0,0:0:0:0:
352,96,123510,1,8,0:0:0:0:
352,96,123760,1,0,0:0:0:0:
352,96,124009,1,8,0:0:0:0:
176,128,124259,1,0,0:0:0:0:
352,96,124508,1,8,0:0:0:0:
336,96,125007,1,0,0:0:0:0:
336,96,125506,1,8,0:0:0:0:
336,96,125756,1,8,0:0:0:0:
336,96,126005,1,8,0:0:0:0:
336,96,126255,1,0,0:0:0:0:
320,64,126504,1,8,0:0:0:0:
320,64,127003,1,0,0:0:0:0:
320,64,127502,1,8,0:0:0:0:
320,64,127752,1,0,0:0:0:0:
320,64,128001,1,8,0:0:0:0:
320,64,128251,1,8,0:0:0:0:
320,64,128500,1,0,0:0:0:0:
320,64,128999,1,0,0:0:0:0:
320,64,129498,1,8,0:0:0:0:
320,64,129747,1,0,0:0:0:0:
320,48,129997,1,8,0:0:0:0:
