osu file format v14

[General]
AudioFilename: audio.mp3
AudioLeadIn: 0
PreviewTime: 26421
Countdown: 0
SampleSet: Normal
StackLeniency: 0.7
Mode: 1
LetterboxInBreaks: 0
WidescreenStoryboard: 1

[Editor]
DistanceSpacing: 1.4
BeatDivisor: 4
GridSize: 16
TimelineZoom: 1.8

[Metadata]
Title:The Good Left Undone
TitleUnicode:The Good Left Undone
Artist:Rise Against
ArtistUnicode:Rise Against
Creator:Chromoxx
Version:Kantan
Source:
Tags:the sufferer & and witness metal punk darkvortex
BeatmapID:1490770
BeatmapSetID:457264

[Difficulty]
HPDrainRate:8
CircleSize:5
OverallDifficulty:4
ApproachRate:5
SliderMultiplier:1.4
SliderTickRate:1

[Events]
//Background and Video events
0,0,"hi please rank my map thank u.jpg",0,0
//Break Periods
//Storyboard Layer 0 (Background)
//Storyboard Layer 1 (Fail)
//Storyboard Layer 2 (Pass)
//Storyboard Layer 3 (Foreground)
//Storyboard Sound Samples

[TimingPoints]
219,302.076777847703,4,1,0,100,1,0
4901,304.568527918782,4,1,0,100,1,0
14647,304.568527918782,4,1,0,100,1,8
14695,304.568527918782,4,1,0,100,1,0
26725,-100,4,1,0,100,0,1
26878,302.076777847703,4,1,0,100,1,1
40169,-100,4,1,0,100,0,0
41269,500,4,1,0,100,1,0
41269,-76.9230769230769,4,1,0,100,0,0
57269,500,4,1,0,100,1,8
57477,302.076777847703,4,1,0,100,1,0
62159,304.568527918782,4,1,0,100,1,0
71905,304.568527918782,4,1,0,100,1,8
71923,304.568527918782,4,1,0,100,1,0
83953,-100,4,1,0,100,0,1
84088,302.076777847703,4,1,0,100,1,1
97379,-100,4,1,0,100,0,0
98512,500,4,1,0,100,1,0
98512,-76.9230769230769,4,1,0,100,0,0
106512,498.960498960499,4,1,0,100,1,0
106512,-76.9230769230769,4,1,0,100,0,0
113497,508.474576271186,4,1,0,100,1,8
113497,-75.7575757575758,4,1,0,100,0,8
114513,500,4,1,0,100,1,0
114513,-76.9230769230769,4,1,0,100,0,0
122513,498.960498960499,4,1,0,100,1,0
122513,-76.9230769230769,4,1,0,100,0,0

[HitObjects]
352,224,219,5,0,0:0:0:0:
208,160,672,1,0,0:0:0:0:
208,160,1427,1,8,0:0:0:0:
208,160,1880,1,8,0:0:0:0:
272,160,2635,1,0,0:0:0:0:
288,176,2937,1,0,0:0:0:0:
272,160,3239,1,0,0:0:0:0:
272,224,3843,1,8,0:0:0:0:
272,224,4145,1,8,0:0:0:0:
272,224,4448,1,8,0:0:0:0:
240,144,5053,1,4,0:0:0:0:
288,144,5662,1,8,0:0:0:0:
144,176,5966,1,8,0:0:0:0:
320,192,6271,1,0,0:0:0:0:
224,240,7489,1,8,0:0:0:0:
224,240,8098,1,0,0:0:0:0:
320,288,8403,1,0,0:0:0:0:
320,288,8708,1,8,0:0:0:0:
272,192,9926,1,0,0:0:0:0:
272,192,10535,1,0,0:0:0:0:
272,224,10840,1,8,0:0:0:0:
176,208,11144,1,0,0:0:0:0:
176,208,11753,1,8,0:0:0:0:
288,128,12362,1,0,0:0:0:0:
288,128,12972,1,8,0:0:0:0:
272,144,13428,1,4,0:0:0:0:
352,160,14847,1,4,0:0:0:0:
288,240,15456,1,8,0:0:0:0:
288,240,15760,1,8,0:0:0:0:
240,160,16065,1,0,0:0:0:0:
128,208,17283,1,8,0:0:0:0:
144,176,17892,1,0,0:0:0:0:
144,176,18197,1,0,0:0:0:0:
144,176,18502,1,8,0:0:0:0:
144,192,19720,1,0,0:0:0:0:
144,192,20329,1,8,0:0:0:0:
144,192,20634,1,8,0:0:0:0:
144,192,20938,1,0,0:0:0:0:
144,192,21547,1,8,0:0:0:0:
144,192,22156,1,0,0:0:0:0:
144,192,22766,1,8,0:0:0:0:
144,96,23222,1,4,0:0:0:0:
320,96,24441,1,0,0:0:0:0:
320,96,25050,1,8,0:0:0:0:
304,96,25659,1,0,0:0:0:0:
288,128,26725,1,4,0:0:0:0:
288,96,27180,1,8,0:0:0:0:
288,96,27482,1,0,0:0:0:0:
272,64,27935,1,8,0:0:0:0:
272,80,28690,1,0,0:0:0:0:
256,64,28992,1,8,0:0:0:0:
256,64,29294,1,0,0:0:0:0:
272,256,30502,1,8,0:0:0:0:
272,128,31560,1,4,0:0:0:0:
176,112,32013,1,0,0:0:0:0:
176,112,32315,1,8,0:0:0:0:
176,112,32768,1,0,0:0:0:0:
176,112,33523,1,8,0:0:0:0:
176,112,33825,1,8,0:0:0:0:
176,112,34127,1,0,0:0:0:0:
192,112,34731,1,8,0:0:0:0:
192,112,35336,1,0,0:0:0:0:
208,80,36393,1,4,0:0:0:0:
224,80,37148,1,0,0:0:0:0:
224,80,37450,1,8,0:0:0:0:
224,80,37752,1,0,0:0:0:0:
224,80,38356,1,8,0:0:0:0:
224,80,38961,1,0,0:0:0:0:
224,80,39263,1,0,0:0:0:0:
224,80,39565,1,8,0:0:0:0:
224,80,39867,1,8,0:0:0:0:
224,80,40169,1,0,0:0:0:0:
304,96,41269,1,8,0:0:0:0:
304,96,42269,1,8,0:0:0:0:
304,96,42769,1,0,0:0:0:0:
304,96,43269,1,8,0:0:0:0:
288,112,44269,1,0,0:0:0:0:
288,112,44769,1,8,0:0:0:0:
240,128,45269,1,0,0:0:0:0:
240,128,46269,1,8,0:0:0:0:
240,128,46769,1,8,0:0:0:0:
240,128,47269,1,0,0:0:0:0:
240,128,48269,1,8,0:0:0:0:
240,128,48769,1,0,0:0:0:0:
240,128,49269,1,8,0:0:0:0:
176,112,50269,1,0,0:0:0:0:
240,128,50769,1,0,0:0:0:0:
240,128,51269,1,8,0:0:0:0:
176,112,52269,1,8,0:0:0:0:
176,112,52769,1,0,0:0:0:0:
176,112,53269,1,8,0:0:0:0:
176,112,54269,1,0,0:0:0:0:
176,112,54769,1,0,0:0:0:0:
176,112,55269,1,8,0:0:0:0:
176,112,56269,1,0,0:0:0:0:
240,176,57477,1,0,0:0:0:0:
240,176,57930,1,0,0:0:0:0:
240,192,58685,1,8,0:0:0:0:
240,192,59138,1,8,0:0:0:0:
240,192,59893,1,0,0:0:0:0:
240,208,60195,1,0,0:0:0:0:
256,128,60799,1,0,0:0:0:0:
240,208,61101,1,8,0:0:0:0:
256,128,61403,1,8,0:0:0:0:
256,128,61706,1,8,0:0:0:0:
256,192,62311,1,4,0:0:0:0:
320,176,62920,1,8,0:0:0:0:
320,176,63224,1,8,0:0:0:0:
240,144,63529,1,0,0:0:0:0:
368,224,64747,1,8,0:0:0:0:
368,224,65356,1,0,0:0:0:0:
368,224,65661,1,0,0:0:0:0:
368,224,65966,1,8,0:0:0:0:
304,240,67184,1,0,0:0:0:0:
304,240,67793,1,0,0:0:0:0:
272,192,68098,1,8,0:0:0:0:
272,192,68402,1,0,0:0:0:0:
224,160,69011,1,8,0:0:0:0:
224,160,69620,1,0,0:0:0:0:
224,160,70230,1,8,0:0:0:0:
224,160,70686,1,4,0:0:0:0:
400,192,72075,1,4,0:0:0:0:
272,128,72684,1,8,0:0:0:0:
272,128,72988,1,8,0:0:0:0:
256,160,73293,1,0,0:0:0:0:
256,224,74511,1,8,0:0:0:0:
256,224,75120,1,0,0:0:0:0:
256,224,75425,1,0,0:0:0:0:
256,224,75730,1,8,0:0:0:0:
256,144,76948,1,0,0:0:0:0:
272,112,77557,1,8,0:0:0:0:
272,112,77862,1,8,0:0:0:0:
176,224,78166,1,0,0:0:0:0:
176,224,78775,1,8,0:0:0:0:
176,224,79384,1,0,0:0:0:0:
176,224,79994,1,8,0:0:0:0:
176,224,80450,1,4,0:0:0:0:
224,128,81669,1,0,0:0:0:0:
288,176,82278,1,8,0:0:0:0:
240,208,82887,1,0,0:0:0:0:
304,128,83953,1,4,0:0:0:0:
288,96,84390,1,8,0:0:0:0:
288,96,84692,1,0,0:0:0:0:
272,64,85145,1,8,0:0:0:0:
272,80,85900,1,0,0:0:0:0:
256,64,86202,1,8,0:0:0:0:
256,64,86504,1,0,0:0:0:0:
272,256,87712,1,8,0:0:0:0:
272,128,88770,1,4,0:0:0:0:
176,112,89223,1,0,0:0:0:0:
176,112,89525,1,8,0:0:0:0:
176,112,89978,1,0,0:0:0:0:
176,112,90733,1,8,0:0:0:0:
176,112,91035,1,8,0:0:0:0:
176,112,91337,1,0,0:0:0:0:
192,112,91941,1,8,0:0:0:0:
192,112,92546,1,0,0:0:0:0:
208,80,93603,1,4,0:0:0:0:
224,80,94358,1,0,0:0:0:0:
224,80,94660,1,8,0:0:0:0:
224,80,94962,1,0,0:0:0:0:
224,80,95566,1,8,0:0:0:0:
224,80,96171,1,0,0:0:0:0:
224,80,96473,1,0,0:0:0:0:
224,80,96775,1,8,0:0:0:0:
224,80,97077,1,8,0:0:0:0:
224,80,97379,1,0,0:0:0:0:
288,176,98512,1,8,0:0:0:0:
352,192,99512,1,8,0:0:0:0:
336,192,100012,1,0,0:0:0:0:
336,192,100512,1,8,0:0:0:0:
320,192,101512,1,0,0:0:0:0:
320,192,102012,1,8,0:0:0:0:
320,192,102512,1,0,0:0:0:0:
320,192,103512,1,8,0:0:0:0:
320,192,104012,1,8,0:0:0:0:
320,192,104512,1,0,0:0:0:0:
320,192,105512,1,8,0:0:0:0:
320,192,106012,1,0,0:0:0:0:
304,192,106512,1,8,0:0:0:0:
240,128,107509,1,0,0:0:0:0:
240,128,108008,1,0,0:0:0:0:
240,128,108507,1,8,0:0:0:0:
240,128,110503,1,0,0:0:0:0:
320,224,111002,1,8,0:0:0:0:
176,208,111501,1,0,0:0:0:0:
176,208,112000,1,8,0:0:0:0:
176,208,112499,1,0,0:0:0:0:
176,208,113497,1,8,0:0:0:0:
176,208,114005,1,8,0:0:0:0:
176,208,114513,1,0,0:0:0:0:
176,208,115513,1,8,0:0:0:0:
176,208,116013,1,0,0:0:0:0:
176,208,116513,1,8,0:0:0:0:
176,208,117513,1,0,0:0:0:0:
176,208,118013,1,8,0:0:0:0:
176,208,118513,1,0,0:0:0:0:
176,208,119513,1,8,0:0:0:0:
176,208,120013,1,8,0:0:0:0:
176,208,120513,1,0,0:0:0:0:
176,208,121513,1,0,0:0:0:0:
176,208,122013,1,0,0:0:0:0:
176,208,122513,1,8,0:0:0:0:
176,208,123510,1,8,0:0:0:0:
176,208,124009,1,0,0:0:0:0:
176,208,124508,1,8,0:0:0:0:
176,208,125506,1,0,0:0:0:0:
176,208,126005,1,8,0:0:0:0:
176,208,126504,1,0,0:0:0:0:
320,224,127502,1,0,0:0:0:0:
320,224,128001,1,0,0:0:0:0:
240,224,128500,1,8,0:0:0:0:
240,208,129498,1,0,0:0:0:0:
